#VERSION:0.83;
#TITLE:Castle on the Moon;
#SUBTITLE:;
#ARTIST:青龍;
#TITLETRANSLIT:;
#SUBTITLETRANSLIT:;
#ARTISTTRANSLIT:Seiryu;
#GENRE:DANCE SPEED;
#CREDIT:;
#MUSIC:Castle on the Moon.ogg;
#BANNER:Castle on the Moon.png;
#BACKGROUND:Castle on the Moon-bg.png;
#CDTITLE:./CDTitles/REFLEC BEAT limelight.png;
#SAMPLESTART:71.989;
#SAMPLELENGTH:15.000;
#SELECTABLE:YES;
#OFFSET:0.877;
#BPMS:0.000=191.000;
#STOPS:;
#TIMESIGNATURES:0.000=4=4;
#BGCHANGES:0.000=../BGAs/08pa.mp4=1.000=0=0=0=StretchNoLoop====,
99999.000=-nosongbg-=1.000=0=0=0=StretchNoLoop====
;
#FGCHANGES:;

//--------------- dance-single - forcednature ----------------
#NOTEDATA:;
#STEPSTYPE:dance-single;
#DESCRIPTION:forcednature;
#DIFFICULTY:Beginner;
#METER:4;
#RADARVALUES:0,0,0,0,0;
#CREDIT:forcednature;
#NOTES:
0000
0000
0000
0000
,
0000
0000
0000
0000
,
0000
0000
0000
0000
,
0000
0000
0000
0000
,
0000
0000
0000
0000
,
0000
0000
0000
0000
,
1000
0000
0000
0000
,
0001
0000
0000
0000
,
0100
0000
0001
0000
,
0100
0000
0000
0000
,
0010
0000
0000
0000
,
1000
0000
1000
0000
,
0100
0000
0100
0000
,
0010
0000
0000
0000
,
0001
0000
0000
0000
,
0100
0000
0001
0000
,
0100
0000
0000
0000
,
0001
0000
1000
0000
,
0001
0000
0000
0000
,
0010
0000
0001
0000
,
0010
0000
0100
0000
,
1000
0000
1000
0000
,
0010
0000
0000
0000
,
0100
0000
0000
0000
,
0001
0000
0000
0000
,
1000
0000
0000
0000
,
0001
0000
0001
0000
,
0010
0000
0010
0000
,
0100
0000
0100
0000
,
1000
0001
1000
0000
,
0001
0000
0000
0000
,
0000
0000
0000
0000
,
0100
0000
0000
0000
,
0010
0000
0000
0000
,
1000
0000
0000
0000
,
0001
0000
0000
0000
,
1000
0000
0000
0000
,
0100
0000
0000
0000
,
0010
0000
0001
0000
,
0010
0000
0001
0000
,
1000
0000
0010
0000
,
0100
0000
0001
0000
,
1000
0000
0010
0000
,
1000
0000
0010
0000
,
0100
0000
0001
0000
,
1000
0000
0100
0000
,
0010
0000
0000
0000
,
0001
0000
0000
0000
,
1000
0000
0000
0000
,
0010
0000
0000
0000
,
0100
0000
0001
0000
,
0100
0000
0010
0000
,
1000
0000
0001
0000
,
1000
0000
0000
0000
,
0100
0000
0010
0000
,
0001
0000
0010
0000
,
0100
0000
0100
0000
,
1000
0000
0000
0000
,
0010
0000
1000
0000
,
0010
1000
0010
0000
,
0100
0000
0001
0000
,
1000
0000
0001
0000
,
0010
0000
0001
0000
,
0010
0001
0010
0000
,
0100
0000
1000
0000
,
0001
0001
0001
0000
,
0100
0000
0010
0000
,
1000
0001
1000
0000
,
0100
0000
0010
0000
,
0001
0000
0100
0000
,
0010
0000
1000
0000
,
0001
0010
0001
0000
,
0100
0000
0010
0000
,
1000
0001
1000
0000
,
1001
0000
0000
0000
;

//--------------- dance-single - forcednature ----------------
#NOTEDATA:;
#STEPSTYPE:dance-single;
#DESCRIPTION:forcednature;
#DIFFICULTY:Easy;
#METER:8;
#RADARVALUES:0,0,0,0,0;
#CREDIT:forcednature;
#NOTES:
0000
0000
0000
0000
,
0000
0000
0000
0000
,
0000
0000
0000
0000
,
0000
0000
0000
0000
,
0000
0000
0000
0000
,
0000
0000
0000
0000
,
1000
0000
1000
0000
,
0001
0000
0100
0000
,
0002
0000
0023
0000
,
0230
0000
0000
0300
,
1000
1000
0010
1000
,
0001
0001
0010
0001
,
0100
0100
0010
0010
,
2000
0000
0001
3000
,
1000
0100
0010
0100
,
1000
0001
0010
0001
,
0100
0010
1000
0001
,
0010
0100
0100
0100
,
1000
0001
0100
0001
,
0010
0001
1000
0010
,
1000
0100
1000
0001
,
0100
0100
0100
0000
,
0010
0000
1000
0010
,
1000
0000
0100
1000
,
0100
0000
0010
0001
,
0010
0001
0010
0000
,
0001
0000
0100
0001
,
0100
0000
0010
1000
,
0010
0000
1000
0001
,
1000
0001
1000
0000
,
0200
0000
0000
0300
,
0020
0000
0000
0030
,
0002
0000
0000
0003
,
2000
0000
0000
3000
,
0010
0000
0010
0000
,
0100
0000
0001
0000
,
0010
0000
0010
0000
,
0200
0000
1000
0300
,
1001
0000
0001
0100
,
0001
0000
1000
0100
,
1000
0000
0001
0100
,
0010
1000
0001
0000
,
0010
0000
0100
1000
,
0100
0000
0010
0001
,
0010
0000
0100
1000
,
0001
1000
0010
0000
,
1000
0000
0000
0000
,
0001
0000
0100
0000
,
0001
0000
0010
0000
,
0100
0000
1000
0000
,
0010
0000
0010
1000
,
0001
0000
0001
0010
,
0100
0000
0100
1000
,
0002
0000
0100
0000
,
1003
1000
0010
1000
,
0001
0001
0010
0001
,
0100
0010
0100
0010
,
2000
0000
0001
3001
,
1000
0100
1000
0000
0001
0000
0010
0000
,
0100
1000
0001
0010
,
0001
0100
0001
0000
1000
0000
0010
0000
,
1000
0001
0010
0100
,
1000
0001
1000
0000
0010
0000
0100
0000
,
0001
0010
0001
0100
,
0010
1000
0010
0000
0100
0000
0001
0000
,
1000
0100
0010
0001
,
0100
0100
0010
1000
,
0001
0010
0100
0110
,
1001
0001
0100
0010
,
1000
0100
1000
0000
0001
0000
0100
0000
,
0110
0010
1000
0001
,
0010
0001
0010
0000
0100
0000
1000
0000
,
0001
0000
0100
0001
0000
0001
0010
0000
,
0100
1000
1000
0010
,
2002
0000
0000
0000
,
0000
0000
0000
0000
,
3003
0000
0000
0000
;

//--------------- dance-single - forcednature ----------------
#NOTEDATA:;
#STEPSTYPE:dance-single;
#DESCRIPTION:forcednature;
#DIFFICULTY:Medium;
#METER:13;
#RADARVALUES:0,0,0,0,0;
#CREDIT:forcednature;
#NOTES:
0000
0000
0000
0000
,
0000
0000
0000
0000
,
0000
0000
0000
0000
,
0000
0000
0000
0000
,
0000
0000
0000
0000
,
0000
0000
0000
0000
,
1000
0000
0100
0000
1000
0000
0001
0000
0100
0000
0001
0000
,
0010
0000
0100
0000
0010
0000
0002
0000
0000
0000
1003
0010
,
1000
0000
0001
0000
0010
0000
0200
0000
0000
0000
1300
0000
,
0001
0000
0001
0100
0000
0100
0010
0000
0010
2000
0000
0000
,
3010
1000
1010
0101
,
0010
0001
0011
1100
,
1000
0010
1000
0010
0100
0100
0001
0001
,
0020
1000
0031
0110
,
1000
0001
0100
0001
0010
0100
1000
0001
,
1000
0010
0100
0001
0100
0010
1000
0001
,
0010
0100
0010
0001
1000
0010
1000
0001
,
0010
0100
1000
0000
1100
0000
1010
0000
,
1001
0000
0001
0100
0001
1000
0010
1000
,
0001
0010
0100
0010
0001
1000
0010
1000
,
0100
0010
0100
1000
0001
0100
0010
0100
,
0001
0101
0011
1001
,
1000
0100
0001
0100
1000
0000
0001
0010
,
0001
0100
0001
1000
0010
1000
0100
1000
,
0001
0100
0001
0010
0100
1000
0001
1000
,
0010
0100
0001
0100
0010
1000
0001
1000
,
0100
0000
0100
0010
0001
0001
0010
0100
,
1000
0000
0010
0100
0001
0001
0100
0010
,
1000
1000
0100
0100
0010
0010
0001
0001
,
1000
0010
0100
0010
0001
0010
1000
0001
,
0020
0000
0230
0000
,
2300
0000
3020
0000
,
2030
0000
3002
0000
,
0023
0000
0032
0000
,
0103
0000
0100
0000
0001
0010
0100
1000
,
0010
0000
0010
0000
1000
0100
0010
0001
,
0100
0001
0100
0001
1000
0100
1000
0100
,
0020
1000
0100
0031
,
0010
0000
0100
0000
0000
1000
0000
0000
0100
0000
0000
0010
0000
0000
0001
0000
,
1000
0000
0001
0000
0000
0100
0000
0000
0010
0000
0000
1000
0000
0000
0010
0000
,
0100
0000
0001
0000
0000
0010
0000
0000
0001
0000
0000
1000
0000
0000
0010
0000
,
1000
0000
0100
0000
0000
0010
0000
0000
0100
0000
0000
1000
0000
0000
0001
0000
,
0100
0000
0001
0000
0100
0001
0000
0000
1000
0000
0000
1000
0000
0000
0010
0000
,
1000
0000
0100
0000
1000
0100
0000
0000
0010
0000
0000
0010
0000
0000
0001
0000
,
1000
0001
0100
0001
0010
0001
0100
0001
,
1000
0010
0100
0010
0001
0010
1000
0001
,
0020
0000
0000
0000
,
0230
0000
2300
0000
,
3002
0000
0203
0000
,
0320
0000
2030
0000
,
3001
0000
0001
0010
0001
0100
0010
1000
,
0001
0000
1000
0010
1000
0001
1000
0100
,
0010
0001
0100
0001
1000
0100
1000
0010
,
0100
0100
0001
0001
1000
1000
0100
0100
,
0010
0010
0011
0101
,
0010
0010
1010
1100
,
1000
0001
0100
0100
0001
1000
0100
0100
,
0010
0001
0100
0001
2000
0000
3010
0000
,
1000
0100
0010
0100
1000
0001
0010
0001
,
0100
0010
1000
0001
0010
0000
0100
1000
,
0010
1000
0100
0010
0001
0100
0001
1000
,
0010
0001
0010
0100
0001
1000
0010
1000
,
0100
0010
0100
1000
0001
0100
0010
0100
,
0001
1000
0010
1000
0001
0010
0001
0100
,
0010
1000
0100
1000
0001
0100
0001
0010
,
0100
0001
0100
0010
0001
1000
0010
0000
,
0200
1000
0010
0301
,
0010
0100
0001
1000
0010
0000
0100
0100
,
0001
0010
0001
0100
0010
1000
0001
1000
,
0100
0001
0100
1000
0001
0010
0001
0100
,
0010
0000
0010
1000
0001
1000
0100
1000
,
0001
0000
0010
0001
1000
0001
0100
0001
,
1000
1000
0010
0100
0001
0001
0010
0100
,
1000
0001
0100
0001
0010
0100
0010
0000
,
2002
0000
0000
0000
,
0000
0000
0000
0000
,
3003
0000
0000
0000
;

//--------------- dance-single - forcednature ----------------
#NOTEDATA:;
#STEPSTYPE:dance-single;
#DESCRIPTION:forcednature;
#DIFFICULTY:Hard;
#METER:17;
#RADARVALUES:0,0,0,0,0;
#CREDIT:forcednature;
#NOTES:
0000
0000
0000
0000
,
0000
0000
0000
0000
,
0000
0000
0000
0000
,
0000
0000
0000
0000
,
0000
0000
0000
0000
,
0000
0000
0000
0000
,
1100
0000
0001
0000
0010
0000
0101
0000
1000
0000
0010
0000
,
0110
0000
0100
0001
0010
0000
0110
0000
0100
1000
0010
1000
,
0001
0000
0100
1000
0100
0001
1000
0000
0100
0001
0100
1000
,
0001
0000
0000
0000
0010
0000
0000
0000
0001
0000
0000
0000
1000
0000
0000
0000
0010
0000
0000
0000
1000
0000
0000
0000
0100
0000
0000
0010
0000
0000
0100
0000
0000
0010
0000
0000
0100
0000
0000
0010
0000
0000
0100
0000
0000
0010
0000
0000
,
0001
0011
0101
0101
,
1010
1010
1100
1100
,
1000
0000
0010
0000
0100
0000
0001
0000
0010
0001
0010
0001
1000
0100
1000
0100
,
1000
0010
0001
0010
0200
1000
0310
0000
,
0100
0001
0100
0000
0001
0000
0010
0000
0100
0000
1000
0000
0010
0000
1000
0000
,
0100
0001
0100
1000
0001
0010
0001
0100
,
0010
0001
0010
1000
0001
0010
0100
1000
,
0010
1000
1100
0000
0101
0000
0110
0000
,
1000
0001
1000
0000
0001
0000
0100
0000
0001
0000
0010
0000
1000
0000
0010
0000
,
0100
1000
0010
1000
0100
0001
1000
0010
,
0011
0000
0001
1000
1010
0000
0100
0001
,
0021
0000
1000
0000
0130
0010
1001
0000
,
1000
0010
0100
0010
0011
0000
0010
1000
,
0100
0001
0100
1000
0010
0001
0010
1000
,
0001
0010
1000
0010
0100
1000
0001
0100
,
0010
0001
1000
0100
0001
0001
0010
0001
,
0100
0000
0100
0000
0001
0000
0001
0000
1000
0000
1000
0000
0100
0000
0100
0010
,
0001
0001
1000
1000
0010
0010
0100
0100
,
0001
0010
0001
0000
0100
0000
0100
0000
0010
0000
0010
0000
1000
0000
1000
0000
,
0100
1000
0100
1000
0001
0100
0001
0100
0010
1000
0010
1000
0001
0010
0001
0010
,
0200
0000
1000
0000
0000
1000
0000
0000
0010
0000
0000
0001
0000
0000
0310
0000
,
0000
0000
0100
0000
0000
1000
0000
0000
0001
0000
0000
0100
0000
0000
0010
0000
,
0000
0000
1000
0000
0000
1000
0000
0000
0001
0000
0000
0010
0000
0000
0001
0000
,
0000
0000
0100
0000
0000
0100
0000
0000
0010
0000
0000
1000
0000
0000
0001
0000
,
0010
0000
0000
0000
0010
0000
0000
0000
0100
0000
0100
0000
1000
0000
0010
1000
,
0010
0000
0010
0000
0100
0100
0001
1000
,
0100
0000
0100
0000
0010
0000
0010
0000
0001
0100
0001
0100
0010
1000
0010
1000
,
0001
0010
0001
0000
1000
0010
1000
0000
0100
0010
0100
0010
0001
0000
0000
0000
,
0100
0000
0001
0000
1000
0010
0000
0100
0001
0000
0001
0010
0000
0010
0100
0000
,
1000
0000
0010
0000
1000
0100
0000
0010
0100
0000
0010
0001
0000
0001
1000
0000
,
0010
0000
0100
0000
0001
0100
0000
0100
0010
0000
0010
1000
0000
1000
0001
0000
,
0010
0100
0010
0000
0001
1000
0000
1000
0001
0000
0001
0010
0000
0010
0100
0000
,
1000
0000
0010
0000
1000
0001
0000
0010
0001
0000
0100
0001
0000
0001
0010
0000
,
0100
0000
1000
0000
0010
1000
0000
0001
0010
0000
0100
1000
0000
1000
0010
0000
,
0100
0100
0001
0001
1000
1000
0100
0100
,
0010
0001
0010
0001
1000
0001
1000
0001
0100
0010
0100
0010
0100
0010
0100
0010
,
2000
0000
0000
0000
,
3200
0000
0320
0000
,
0032
0000
2003
0000
,
3020
0000
0230
0300
,
1001
0000
0001
0010
0100
0010
1000
0010
,
0001
0100
0010
0100
1000
0001
0010
1000
,
0100
0100
1000
1000
0001
0100
0010
1000
,
0100
0010
0100
0010
0100
0010
0100
0010
0001
1000
0001
1000
0001
1000
0001
1000
,
0010
0000
1010
0000
1000
0100
0001
0000
,
0110
0000
0011
0000
0001
0100
1000
0000
,
0100
0000
0001
0000
1000
0010
1000
0010
1000
0100
0010
0001
1000
0100
0010
0001
,
0100
0010
0100
0010
0100
0010
0100
0010
2000
0000
0000
0000
3001
0000
0000
0000
,
1000
0010
1000
0000
0001
0000
0010
0000
0100
1000
0100
0000
0010
0000
0001
0000
,
1000
0010
0100
0000
0001
1000
0010
0000
0110
0000
0000
0000
0100
0000
0001
0000
,
0010
0100
0010
0000
0001
0000
1000
0000
0010
1000
0010
0000
0100
0000
0001
0000
,
1000
0100
0010
0100
1000
0000
0001
1000
0010
0000
0100
0001
1000
0000
0100
0000
,
0010
0001
0010
0000
0001
0100
0001
0000
0100
0010
0100
0010
1000
0000
0001
0000
,
0010
0100
0010
0000
0100
1000
0100
0000
1000
0010
1000
0010
0100
0000
0001
0000
,
1000
0100
0010
0100
1000
0000
0001
0000
0100
0010
0100
0001
1000
0000
0100
0000
,
1000
0100
1000
0100
0010
0001
0010
0001
0100
0010
0100
0010
0100
0010
0100
0010
,
1000
1000
0001
0010
0100
1000
0001
0100
,
0010
0001
0010
1000
1001
0000
0110
0110
,
0001
0100
0001
0000
1000
0000
0010
0000
1000
0100
1000
0000
0001
0000
0010
0000
,
0100
1000
0001
1000
0010
0000
0100
0001
1000
0000
0100
0010
0001
0000
1000
0000
,
0001
0100
0001
0000
0100
0010
0100
0000
0010
1000
0010
1000
0001
0000
1000
0000
,
0100
0010
0100
0000
0010
0001
0010
0000
0001
0100
0001
0100
0010
0000
1000
0000
,
0001
0010
0100
1000
0100
0000
0110
0000
0000
0000
0010
0001
1000
0000
0010
0000
,
0100
0001
1000
0010
0100
0001
1000
0010
1000
0001
1000
0100
0010
0001
1000
0001
,
0200
0000
0000
0000
,
0000
0000
0000
0000
,
0300
0000
0000
0000
;

//--------------- dance-double - forcednature ----------------
#NOTEDATA:;
#STEPSTYPE:dance-double;
#DESCRIPTION:forcednature;
#DIFFICULTY:Easy;
#METER:8;
#RADARVALUES:0,0,0,0,0;
#CREDIT:forcednature;
#NOTES:
00000000
00000000
00000000
00000000
,
00000000
00000000
00000000
00000000
,
00000000
00000000
00000000
00000000
,
00000000
00000000
00000000
00000000
,
00000000
00000000
00000000
00000000
,
00000000
00000000
00000000
00000000
,
00001000
00000000
00001000
00000000
,
00010000
00000000
00000100
00000000
,
00002000
00000000
00003002
00000000
,
00000203
00000000
00000000
00000300
,
00000010
00000010
00001000
00000010
,
00010000
00010000
00001000
00010000
,
00001000
00001000
00100000
00100000
,
00020000
00000000
10000000
00030000
,
00010000
01000000
00100000
01000000
,
00010000
00100000
00001000
00100000
,
00001000
00010000
00000010
00010000
,
00000100
00001000
00001000
00001000
,
00000001
00000100
00000001
00000010
,
00000100
00001000
00000010
00001000
,
00000100
00010000
00001000
01000000
,
00010000
00010000
00010000
00000000
,
10000000
00000000
01000000
10000000
,
01000000
00000000
00100000
00010000
,
00100000
00000000
00001000
00010000
,
00001000
00010000
00001000
00000000
,
00010000
00000000
00000010
00010000
,
00000010
00000000
00001000
00000010
,
00001000
00000000
00000001
00001000
,
00000001
00001000
00000001
00000000
,
00000020
00000000
00000000
00000030
,
00000200
00000000
00000000
00000300
,
00020000
00000000
00000000
00030000
,
00002000
00000000
00000000
00003000
,
00100000
00000000
00100000
00000000
,
01000000
00000000
10000000
00000000
,
00100000
00000000
00100000
00000000
,
02000000
00000000
00000000
03000000
,
10010000
00000000
00010000
01000000
,
00010000
00000000
01000000
00001000
,
01000000
00000000
00001000
00010000
,
00001000
00010000
00000100
00000000
,
00001000
00000000
00000010
00001000
,
00000010
00000000
00000100
00000001
,
00000100
00000000
00000001
00000010
,
00000001
00000010
00000100
00000000
,
00010000
00000000
00000000
00000000
,
00001000
00000000
01000000
00000000
,
00010000
00000000
10000000
00000000
,
00010000
00000000
00100000
00000000
,
01000000
00000000
01000000
10000000
,
00010000
00000000
00010000
01000000
,
00001000
00000000
00001000
00010000
,
00000200
00000000
00000000
00000000
,
00001300
00001000
00000010
00010000
,
00001000
00001000
00100000
00010000
,
01000000
00100000
01000000
00100000
,
20000000
00000000
00010000
30010000
,
10000000
01000000
00100000
00010000
,
00100000
00001000
00010000
00000010
,
00001000
00000001
00001000
00000100
,
00010000
00001000
01000000
00010000
,
00100000
01000000
00100000
00010000
,
00100000
00001000
00010000
00000010
,
00001000
00000010
00000100
00000001
,
00001000
00000001
00000010
00000100
,
00001000
00001000
00000100
00010000
,
00001000
01000000
00010000
00100000
,
01000000
10000000
01000000
00100000
,
00010000
01000000
00001000
00010000
,
00011000
00000000
00010000
00000100
,
00001000
00000001
00001000
00000010
,
00010000
00000000
00000000
00010000
00000000
00000000
00001000
00000000
,
01000000
00010000
00010000
00100000
,
20020000
00000000
00000000
00000000
,
00000000
00000000
00000000
00000000
,
30030000
00000000
00000000
00000000
;

//--------------- dance-double - forcednature ----------------
#NOTEDATA:;
#STEPSTYPE:dance-double;
#DESCRIPTION:forcednature;
#DIFFICULTY:Medium;
#METER:13;
#RADARVALUES:0,0,0,0,0;
#CREDIT:forcednature;
#NOTES:
00000000
00000000
00000000
00000000
,
00000000
00000000
00000000
00000000
,
00000000
00000000
00000000
00000000
,
00000000
00000000
00000000
00000000
,
00000000
00000000
00000000
00000000
,
00000000
00000000
00000000
00000000
,
00001000
00000000
01000000
00000000
00001000
00000000
00010000
00000000
00000100
00000000
00010000
00000000
,
00001000
00000000
00100000
00000000
00010000
00000000
00200000
00000000
00000000
00000000
01300000
10000000
,
01000000
00000000
00100000
00000000
00001000
00000000
00020000
00000000
00000000
00000000
00030010
00000000
,
00001000
00000000
00001000
00000100
00000000
00000100
00000020
00000000
00000000
00000000
00000000
00000000
,
00000031
00000000
00000100
00000000
00001000
00010000
00001000
00000000
,
00100000
00000000
00010000
00000000
10000000
00100000
10000000
00000000
,
01000000
00010000
01000000
00010000
00001000
00001000
00010000
00010000
,
00000200
00001000
00000310
00000110
,
00000001
00000100
00000001
00000010
00000100
00001000
00000010
00010000
,
00001000
00100000
01000000
10000000
01000000
00100000
00010000
00000000
,
01000000
00010000
01000000
00001000
00010000
00000010
00001000
00000010
,
00000100
00000001
00000010
00000000
00000110
00000000
00001100
00000000
,
00010100
00000000
00010000
00001000
00010000
00001000
01000000
00010000
,
01000000
00100000
10000000
00100000
10000000
00010000
00100000
00001000
,
00010000
00000010
00001000
00000010
00000100
00000001
00000010
00000001
,
00000100
00000110
00001010
00010010
,
00010000
00001000
00100000
00010000
01000000
00000000
00001000
00010000
,
00000010
00001000
00000100
00010000
00001000
01000000
00010000
10000000
,
00010000
00100000
01000000
10000000
01000000
00100000
00010000
00000000
,
01000000
00010000
01000000
00001000
00010000
00000100
00001000
00000100
,
00000010
00000000
00000010
00000001
00000100
00000100
00000001
00000010
,
00000100
00000000
00010000
00001000
01000000
01000000
00001000
00010000
,
00100000
00100000
10000000
10000000
00010000
00010000
10000000
10000000
,
01000000
00010000
00001000
00010000
00000100
00010000
00001000
00010000
,
00000020
00000000
00002030
00000000
,
00003002
00000000
00000023
00000000
,
00000230
00000000
00020300
00000000
,
00032000
00000000
02003000
00000000
,
03010000
00000000
00010000
00000000
00100000
01000000
10000000
00100000
,
01000000
00000000
01000000
00000000
00010000
01000000
00001000
00010000
,
00000100
00001000
00000100
00001000
00000001
00000100
00000001
00000100
,
00000020
00000100
00001000
00010030
,
00000000
00000000
00000010
00000000
00000000
00001000
00000000
00000000
00000010
00000000
00000000
00010000
00000000
00000000
00001000
00000000
,
00000000
00000000
00100000
00000000
00000000
00010000
00000000
00000000
00100000
00000000
00000000
01000000
00000000
00000000
10000000
00000000
,
00000000
00000000
00010000
00000000
00000000
01000000
00000000
00000000
00001000
00000000
00000000
00010000
00000000
00000000
00000010
00000000
,
00000000
00000000
00001000
00000000
00000000
00000100
00000000
00000000
00000010
00000000
00000000
00000001
00000000
00000000
00000010
00000000
,
00000000
00000000
00000100
00000000
00001000
00000100
00000000
00000000
00010000
00000000
00000000
00010000
00000000
00000000
00001000
00000000
,
00000000
00000000
01000000
00000000
00010000
01000000
00000000
00000000
00100000
00000000
00000000
00100000
00000000
00000000
10000000
00000000
,
00010000
00100000
00010000
01000000
00001000
00010000
00000100
00010000
,
00000010
00001000
00000010
00001000
00000001
00000010
00000001
00000010
,
00000200
00000000
00000000
00000000
,
00020300
00000000
00032000
00000000
,
02003000
00000000
03020000
00000000
,
20030000
00000000
32000000
00000000
,
03100000
00000000
00100000
00010000
00100000
00001000
00010000
00000010
,
00001000
00000000
00001000
00000100
00001000
00000001
00001000
00000010
,
00010000
00001000
00100000
00001000
00010000
00100000
10000000
00000000
,
00100000
00100000
01000000
01000000
00001000
00001000
00010000
00010000
,
00000100
00000100
00010100
00101000
,
01000000
01000000
01001000
00010010
,
00000010
00010000
00001000
00001000
00100000
00001000
00010000
00010000
,
00000010
00010000
00001000
00010000
00000200
00000000
00000310
00000000
,
00000100
00001000
00000100
00010000
00001000
01000000
00010000
01000000
,
00100000
10000000
00010000
10000000
01000000
00000000
00100000
00000000
,
00010000
00100000
00001000
00010000
00000010
00001000
00000010
00000100
,
00000001
00000010
00000100
00010000
00001000
00100000
01000000
10000000
,
00010000
01000000
00001000
00010000
00000010
00001000
00000010
00010000
,
00001000
00100000
00010000
00100000
00001000
00010000
00000100
00001000
,
00000001
00001000
00000010
00010000
00001000
01000000
00010000
10000000
,
00010000
00100000
00001000
00010000
00000100
00001000
00000010
00000000
,
00020000
00000100
00001000
00030010
,
00010000
00001000
01000000
00010000
00100000
00000000
01000000
01000000
,
10000000
00100000
10000000
00010000
00100000
00010000
01000000
00001000
,
00010000
00000100
00001000
00000100
00010000
00000010
00001000
00000010
,
00000100
00000000
00000100
00000001
00001000
00000001
00000010
00000100
,
00010000
00000000
00010000
00001000
01000000
00001000
00010000
00001000
,
00100000
00100000
00010000
01000000
00001000
00001000
00010000
00000010
,
00001000
00000100
00000010
00000100
00001000
00000010
00010000
00000000
,
00022000
00000000
00000000
00000000
,
00000000
00000000
00000000
00000000
,
00033000
00000000
00000000
00000000
;

//--------------- dance-double - forcednature ----------------
#NOTEDATA:;
#STEPSTYPE:dance-double;
#DESCRIPTION:forcednature;
#DIFFICULTY:Hard;
#METER:17;
#RADARVALUES:0,0,0,0,0;
#CREDIT:forcednature;
#NOTES:
00000000
00000000
00000000
00000000
,
00000000
00000000
00000000
00000000
,
00000000
00000000
00000000
00000000
,
00000000
00000000
00000000
00000000
,
00000000
00000000
00000000
00000000
,
00000000
00000000
00000000
00000000
,
00001000
00000000
00010000
00000000
01000000
00000000
00010000
00000000
00001000
00000000
00000100
00000000
,
00001000
00000000
00010000
00000000
00100000
00000000
02000000
00000000
00000000
00000000
03010000
10000000
,
00010000
00000000
01000000
00000000
00001000
00000000
00010000
00000000
00000100
00000000
00001000
00000000
,
00000001
00000000
00000100
00000000
00000001
00000000
00001000
00000000
00000100
00000000
00001000
00000000
00000010
00000000
00000000
00000100
00000000
00000000
00000010
00000000
00000000
00000100
00000000
00000000
,
00000001
00000000
00000010
00000000
00001000
00010000
01000000
00000000
,
10000000
00000000
00100000
00000000
00010000
00001000
00000100
00000000
,
00000001
00000000
00000010
00000000
00000001
00000000
00000100
00000000
00000010
00001000
00000010
00001000
00000010
00010000
00000010
00010000
,
00001000
00100000
00010000
00100000
02000000
10000000
03100000
00000000
,
01000000
10000000
01000000
00000000
00100000
00000000
00001000
00000000
00010000
00000000
00000010
00000000
00010000
00000000
00001000
00000000
,
00000010
00000100
00001000
00000100
00010000
00000010
00001000
00000010
,
00000100
00000001
00000010
00000001
00000100
00001000
00010000
00100000
,
01000000
00010000
01010000
00000000
10100000
00000000
11000000
00000000
,
01000000
00100000
01000000
00000000
00100000
00000000
00001000
00000000
00010000
00000000
00000010
00000000
00001000
00000000
00000010
00000000
,
00000100
00000001
00000010
00000001
00000100
00001000
00010000
01000000
,
01100000
00000000
00100000
00001000
00011000
00000000
00010000
00000010
,
00002010
00000000
00000100
00000000
00003001
00001000
00001010
00000000
,
00000010
00010000
00001000
00010000
00010100
00000000
00000100
00001000
,
00000010
00010000
00001000
00100000
01000000
00010000
01000000
10000000
,
00010000
10000000
00100000
00010000
00001000
00000100
00000001
00001000
,
00000001
00000010
00000100
00010000
00001000
00001000
00000100
00001000
,
00010000
00000000
00010000
00000000
01000000
00000000
01000000
00000000
10000000
00000000
10000000
00000000
00010000
00000000
00010000
01000000
,
00001000
00001000
00010000
00010000
00000100
00000100
00001000
00001000
,
00000001
00000100
00000001
00000000
00000010
00000000
00000010
00000000
00000100
00000000
00000100
00000000
00010000
00000000
00010000
00000000
,
00001000
01000000
00001000
00000000
01000000
00010000
01000000
00000000
00100000
01000000
00100000
00000000
10000000
00100000
10000000
00000000
,
00000000
00000000
01000000
00000000
00000000
10000000
00000000
00000000
01000000
00000000
00000000
00010000
00000000
00000000
00001000
00000000
,
00000000
00000000
00010000
00000000
00000000
00001000
00000000
00000000
00000100
00000000
00000000
00000001
00000000
00000000
00000100
00000000
,
00000000
00000000
00000001
00000000
00000000
00000010
00000000
00000000
00000001
00000000
00000000
00000100
00000000
00000000
00001000
00000000
,
00000000
00000000
00010000
00000000
00000000
00001000
00000000
00000000
00010000
00000000
00000000
00100000
00000000
00000000
10000000
00000000
,
01000000
00000000
00000000
00000000
01000000
00000000
00000000
00000000
00010000
00000000
00010000
00000000
00001000
00000000
00100000
00010000
,
00100000
00000000
00001000
00000000
00010000
00010000
00000010
00001000
,
00000001
00000000
00000001
00000000
00000010
00000000
00000010
00000000
00000100
00001000
00000100
00000000
00010000
00001000
00010000
00000000
,
00001000
01000000
00001000
00000000
01000000
00010000
01000000
00000000
00100000
10000000
00100000
10000000
00010000
00000000
00000000
00000000
,
00100000
00000000
01000000
00000000
10000000
01000000
00000000
00100000
00010000
00000000
00010000
01000000
00000000
01000000
00001000
00000000
,
00010000
00000000
00000100
00000000
00001000
00000010
00000000
00000100
00000010
00000000
00000100
00000001
00000000
00000001
00001000
00000000
,
00000100
00000000
00010000
00000000
00001000
01000000
00000000
01000000
00010000
00000000
00010000
10000000
00000000
10000000
01000000
00000000
,
00100000
01000000
00100000
00000000
00010000
01000000
00000000
01000000
00001000
00000000
00001000
00010000
00000000
00010000
00000100
00000000
,
00001000
00000000
00000010
00000000
00000100
00000001
00000000
00000010
00000001
00000000
00001000
00000010
00000000
00000010
00010000
00000000
,
00001000
00000000
00100000
00000000
00010000
01000000
00000000
00010000
10000000
00000000
01000000
00100000
00000000
00100000
00010000
00000000
,
01000000
01000000
00001000
00001000
00010000
00010000
00000100
00000100
,
00001000
00000010
00001000
00000000
00000010
00010000
00000010
00000000
00010000
00001000
00010000
00000000
00001000
00100000
00001000
00000000
,
00200000
00000000
00000000
00000000
,
02300000
00000000
23000000
00000000
,
30020000
00000000
02030000
00000000
,
03002000
00000000
00023000
00030000
,
00011000
00000000
00001000
00000010
00000100
00000010
00000001
00000100
,
00000010
00000100
00001000
00010000
01000000
00100000
01000000
10000000
,
00010000
00010000
01000000
01000000
00001000
00010000
00000100
00001000
,
00000010
00001000
00000010
00000000
00010000
00001000
00010000
00000000
00001000
00100000
00001000
00000000
00100000
00010000
00100000
00000000
,
01000000
00000000
11000000
00000000
10000000
00100000
00010000
00000000
,
00001000
00000000
00011000
00000000
00010000
00000100
00000010
00000000
,
00000001
00000000
00001000
00000000
00000001
00000000
00000001
00000000
00000100
00000001
00000100
00000000
00000010
00001000
00000010
00000000
,
00010000
00001000
00010000
00000000
00001000
00010000
00001000
00000000
02000000
00000000
00000000
00000000
03010000
00000000
00000000
00000000
,
10000000
00100000
10000000
00000000
00010000
00000000
00100000
00000000
00001000
00010000
00001000
00000000
00010000
00000000
00000010
00000000
,
00001000
00000001
00000010
00000000
00000100
00001000
00000001
00000000
00000100
00000000
00000000
00000000
00000110
00000000
00000000
00000000
,
00000010
00001000
00000010
00000000
00010000
00000000
00001000
00000000
00100000
00010000
00100000
00000000
00001000
00000000
00010000
00000000
,
00000100
00001000
00000100
00010000
00001000
00000000
01000000
00010000
10000000
00000000
00100000
10000000
00010000
00000000
00100000
00000000
,
00001000
00010000
00001000
00000000
00010000
00000010
00010000
00000000
00000010
00001000
00000010
00001000
00000001
00000000
00000010
00000000
,
00000100
00001000
00000100
00000000
00010000
00001000
00010000
00000000
00001000
01000000
00001000
01000000
00010000
00000000
10000000
00000000
,
01000000
00100000
01000000
00100000
00010000
00000000
01000000
00000000
00001000
00010000
00001000
00010000
00000100
00000000
00001000
00000000
,
00000001
00000100
00000001
00000000
00001000
00000100
00001000
00000000
00000010
00010000
00000010
00010000
00000010
00000000
00010000
00001000
,
00010000
00010000
00001000
00100000
00010000
00100000
01000000
10000000
,
00010000
10000000
00100000
00010000
00001000
00000000
00010000
00010000
,
00000100
00001000
00000100
00000000
00000010
00000000
00000001
00000000
00001000
00000010
00001000
00000000
00000100
00000000
00010000
00000000
,
00001000
00010000
00001000
00010000
00001000
00000000
01000000
00010000
10000000
00000000
00100000
10000000
00010000
00000000
00100000
00000000
,
00001000
00010000
00001000
00000000
00010000
00000100
00010000
00000000
00000100
00001000
00000100
00001000
00000001
00000000
00000100
00000000
,
00000010
00001000
00000010
00000000
00010000
00001000
00010000
00000000
00001000
00100000
00001000
00100000
00010000
00000000
10000000
00000000
,
00010000
01000000
00010000
01000000
00100000
00000000
01100000
00000000
00000000
00000000
01000000
00010000
10000000
00000000
01000000
00000000
,
00100000
00010000
00100000
00000000
00001000
00010000
00001000
00000000
00010000
00000010
00010000
00000010
00001000
00000000
00000001
00001000
,
00000200
00000000
00000000
00000000
,
00000000
00000000
00000000
00000000
,
00000300
00000000
00000000
00000000
;
