#VERSION:0.83;
#TITLE:Carmina;
#SUBTITLE:;
#ARTIST:CANVAS feat. Quimär;
#TITLETRANSLIT:;
#SUBTITLETRANSLIT:;
#ARTISTTRANSLIT:;
#GENRE:SYMPHONIC TRANCECORE;
#CREDIT:;
#MUSIC:Carmina.ogg;
#BANNER:Carmina.png;
#BACKGROUND:Carmina-bg.png;
#CDTITLE:./CDTitles/bm IIDX 26 Rootage.png;
#SAMPLESTART:91.287;
#SAMPLELENGTH:15.103;
#SELECTABLE:YES;
#OFFSET:0.239;
#BPMS:0.000=195.000
,100.000=97.500
,100.250=195.000
,100.500=390.000
,101.000=195.000
,150.000=390.000
,150.500=195.000
,150.750=97.500
,151.000=390.000
,151.500=195.000
,151.750=97.500
,152.000=195.000
,203.000=97.500
,203.250=195.000
,203.500=390.000
,204.000=195.000
;
#STOPS:;
#TIMESIGNATURES:0.000=4=4;
#DISPLAYBPM:195.000;
#BGCHANGES:0.000=Carmina.mp4=1.000=0=0=0=StretchNoLoop====,
99999.000=-nosongbg-=1.000=0=0=0=StretchNoLoop====
;
#FGCHANGES:;

//--------------- dance-single - forcednature ----------------
#NOTEDATA:;
#STEPSTYPE:dance-single;
#DESCRIPTION:forcednature;
#CREDIT:forcednature;
#DIFFICULTY:Beginner;
#METER:8;
#RADARVALUES:0,0,0,0,0;
#NOTES:
0000
0000
0000
0000
,
0000
0000
0000
0000
,
0000
0000
0000
0000
,
0000
0000
0000
0000
,
0000
0000
0000
0000
,
0000
0000
0000
0000
,
2000
0000
3000
0000
,
0200
0000
0300
0000
,
0020
0000
0000
0000
,
0032
0000
0000
0003
,
1001
0000
0000
0010
0000
0000
0000
0000
,
0000
0100
0000
0100
0000
0000
0000
0000
,
0000
0001
0000
0001
0000
0000
0000
0000
,
1000
0000
0000
1000
0000
0000
1000
0000
0000
0000
0000
0000
0000
0000
0000
0000
,
0010
0000
0000
0010
0000
0000
0000
0000
,
0000
0100
0000
0100
0000
0000
0000
0000
,
0000
0001
0000
0001
0000
0000
0000
0000
,
0020
0000
0000
0030
,
2002
0000
0000
0000
,
0000
0000
0000
3003
,
0220
0000
0000
0000
,
0000
0000
0000
0000
0330
0000
0000
0000
0001
0000
0000
1000
0000
0000
0001
0000
,
2000
0000
0000
3000
,
0220
0000
0000
0330
,
0001
0010
0100
1000
,
0000
0020
0000
0130
,
1001
0001
0100
0001
,
0010
0001
1000
0000
,
0100
1000
0010
0100
,
0001
0000
0010
0000
0100
0010
0100
0000
,
0010
0001
1000
0010
,
0100
0001
1000
0000
,
0100
0000
0000
0110
0000
0000
0010
0000
,
1001
0000
0220
0330
,
0001
0000
0100
0000
0001
0010
0001
0000
,
1000
0010
0100
0001
,
1000
0000
0100
0000
1000
0010
1000
0000
,
0001
0010
0110
0110
,
1000
0000
1000
0001
0000
0001
1000
0000
,
0010
0000
0100
0010
0000
0100
0001
0000
,
0010
0000
0000
0010
0000
0000
0001
0000
0000
0001
0000
0000
1000
0000
0100
0000
,
0020
0000
0000
0030
,
0002
0000
0100
0203
,
0000
0010
0320
0000
,
1000
2030
0000
0001
,
3002
0000
0010
0023
,
0000
0100
0230
0000
,
1000
2300
0000
0001
,
3002
0000
0100
2003
,
0000
0010
3002
0000
,
0010
2003
0000
3000
,
0100
0000
1000
0100
0000
1000
0010
0000
,
0100
0000
0001
0100
0000
0001
0010
0000
,
0001
1000
0001
0000
0100
0000
0010
0000
,
1000
0001
1000
0000
0100
0000
0010
0000
,
1001
0110
1001
0110
,
1001
0000
0000
0000
,
0002
0000
0000
0003
,
0200
0000
0000
0300
,
0020
0000
0000
0030
,
2000
0000
0000
3000
,
0002
0000
0000
0003
,
0020
0000
0000
0030
,
0110
0000
0100
0000
,
2002
0000
3003
0000
,
1000
0000
0100
1000
0000
0100
0010
0000
,
0001
0000
0100
0001
0000
0100
0010
0000
,
1000
0000
0100
1000
0000
0100
0010
0000
,
0001
0000
0100
0001
0000
0100
0010
0000
,
1000
1000
0100
1000
,
0001
0001
0100
0001
,
0010
0000
0000
0000
0010
0000
0100
0000
0000
0000
0100
0000
,
1000
0000
1000
0000
0001
0000
0001
0000
1000
0000
0001
0000
,
2002
0000
0000
0000
,
0000
0000
3003
0000
,
0110
0001
0010
0100
,
0110
1000
0010
0100
,
0001
1000
0001
0000
0100
0000
0001
0000
,
1000
0010
1000
0000
0001
0000
0000
0000
,
0110
1000
0100
0010
,
0110
0001
0100
0010
,
1000
0001
1000
0000
0100
0000
1000
0000
,
0010
0100
0010
0100
0000
0110
0000
0000
,
0001
0000
0100
0000
0001
1000
0001
0000
,
0010
0000
0000
0010
0000
0000
0010
0000
0000
0000
0000
0000
0000
0000
0000
0000
,
0001
0100
0001
1000
,
0000
0010
0000
0000
0100
0000
0100
0000
0000
0000
0002
0000
0000
0000
0000
0000
,
1003
0110
0001
1000
,
0010
1001
0001
0100
,
0001
0010
0001
0000
1000
0010
1000
0000
,
0100
0010
0100
0000
0020
0000
0001
0000
,
0230
0000
0000
1300
,
0002
0000
0203
0000
,
0310
1000
0010
0000
1000
0000
0100
0000
,
0010
0001
0100
0010
,
1000
0001
1000
0000
0100
0000
1000
0000
,
1001
0100
0010
1000
,
0001
0010
0001
0000
1000
0100
1000
0000
,
0010
0010
0100
0001
,
1001
0000
0000
0110
0000
0000
1001
0000
,
0000
0000
0110
0000
0000
0000
0000
0000
0000
0002
0000
0000
0000
0000
0000
0000
0000
0000
0000
0000
0000
0000
0000
0000
,
0000
0000
0000
0000
,
0000
0000
0003
0000
;

//--------------- dance-single - forcednature ----------------
#NOTEDATA:;
#STEPSTYPE:dance-single;
#DESCRIPTION:forcednature;
#CREDIT:forcednature;
#DIFFICULTY:Easy;
#METER:12;
#RADARVALUES:0,0,0,0,0;
#NOTES:
0000
0000
0000
0000
,
0000
0000
0000
0000
,
0000
0000
0000
0000
,
0000
0000
0000
0000
,
0000
0000
0000
0000
,
0000
0000
0000
0000
,
1002
0000
0103
0010
,
2000
0000
3100
0000
,
0220
0000
0000
0330
,
2002
0000
0000
3003
,
0010
0000
0000
1001
0000
0000
0000
0000
,
0000
1100
0000
1010
0000
0000
0000
0000
,
0000
0101
0000
0011
0000
0000
0000
0000
,
0100
0000
0000
0110
0000
0000
1001
0000
0000
0000
0000
0000
0000
0000
0000
0000
,
0010
0000
0000
1001
0000
0000
0000
0000
,
0000
0101
0000
1010
0000
0000
0000
0000
,
0000
1100
0000
0011
0000
0000
0000
0000
,
2002
0000
0000
3003
,
0220
0000
0000
0000
,
0000
0000
0000
0000
0000
0330
0000
0001
,
2000
0000
0000
0000
,
0000
0000
0000
0000
0000
0000
0000
0000
3010
0000
0000
0010
0000
0000
0100
0000
,
0002
0000
0000
0003
,
0220
0000
0000
0330
,
1000
0000
1000
0100
0000
0100
0010
0000
0010
0001
0000
0001
,
0000
0000
0000
0100
0010
0100
0010
0100
0010
2000
0000
0000
,
3001
0000
0010
0100
0000
0010
0001
0000
,
1000
0100
0001
0000
0100
1000
0010
0000
,
1000
0000
0010
0100
0000
0010
1000
0000
,
0001
0100
1000
0000
0100
0001
0000
0001
,
0010
0000
0100
0010
0000
0001
1000
0100
,
1000
0000
0010
0000
0100
0001
0100
0001
,
1000
0000
0000
1001
0000
0000
0110
0000
,
0002
0000
0000
0000
0013
0100
0010
0000
,
1001
0000
1000
0100
0000
1000
0010
0000
,
0100
0010
0100
0000
0001
0000
0010
0000
,
0001
0000
0100
0010
0000
1000
0100
0000
,
1000
0001
1000
0000
0110
0000
0110
0000
,
0001
0000
0010
0001
0000
0100
0001
0000
,
1000
0000
0100
1000
0000
0010
1000
0000
,
0001
0000
0000
0001
0000
0000
0010
0000
0000
0010
0000
0000
0100
0000
1000
0000
,
0002
0000
0000
0103
,
0002
0000
0013
0200
,
0000
1300
0020
0000
,
0130
0002
0000
1003
,
0200
0000
1300
0020
,
0000
0130
0002
0000
,
0023
0230
2300
3002
,
0203
0000
0310
2000
,
0000
3100
0020
0000
,
0031
2000
0000
3010
,
0100
0001
0100
0001
0010
0001
0010
0000
,
0100
1000
0100
1000
0010
1000
0010
0000
,
0100
0001
0010
0000
0100
1000
0010
0000
,
1000
0100
0001
0000
0100
1000
0001
0000
,
0010
0001
0100
0001
1000
0001
0100
0001
,
0020
0000
0000
0030
,
2200
0000
0000
3300
,
2020
0000
0000
3030
,
0202
0000
0000
0303
,
0022
0000
0000
0033
,
2002
0000
0000
3003
,
0220
0000
0000
0330
,
0022
0033
0200
0300
,
2020
0000
0000
3030
,
0001
0001
0100
0001
0001
0100
0000
0000
,
1000
1000
0010
1000
1000
0010
0000
0000
,
0001
0001
0010
0001
0001
0010
0000
0000
,
1000
1000
0100
1000
1000
0100
0000
0000
,
0010
0001
0010
0001
0010
0001
0010
0000
,
0001
0100
0001
0100
0001
0100
0001
0000
,
1000
0010
1000
0010
0000
0000
1000
0100
1000
0100
0000
0000
,
0010
0001
0010
0001
0010
0001
0010
0001
0010
0001
0010
0001
,
0200
0000
0000
0000
,
0000
0000
0000
0320
0000
1030
0001
0010
,
0100
0000
0000
0010
0100
0000
1000
0000
0000
0000
0001
0000
0100
0000
0000
0000
,
0010
0000
0000
1000
0010
0000
1000
0000
0000
0000
0001
0000
0100
0000
0001
0000
,
0010
0010
0001
0000
1000
1000
0100
0000
,
1000
0010
0100
0001
0010
0000
1001
0000
,
0001
0000
0000
0100
0001
0000
1000
0000
0000
0000
0010
0000
0100
0000
0000
0000
,
0001
0000
0000
0010
0001
0000
0100
0000
0000
0000
0010
0000
1000
0000
0000
0000
,
0100
0100
1000
0000
0010
0010
1000
0000
,
0001
0010
0100
0020
0000
0130
1000
0000
,
0001
0000
0000
0100
0001
0000
1000
0000
0010
0000
0000
0000
0110
0000
0000
0000
,
0001
0000
0000
0001
0000
0000
1000
0000
0000
0000
0100
0000
1000
0000
0000
0000
,
0010
0000
0000
0010
0000
0000
0100
0000
0000
0000
0000
0000
0001
0000
0000
0000
0001
0000
0010
0000
0000
0000
0100
0000
,
0000
1000
0000
0000
0010
0000
1000
0000
0000
0000
0220
0000
0000
0000
0330
0000
,
0001
0100
0110
0000
0001
1000
0010
0000
,
1000
0100
0110
0000
1000
0001
0010
0000
,
0001
0001
0100
0001
1000
1000
0100
1000
,
0020
0000
0000
0130
,
2001
0000
0000
3200
,
0320
0000
0000
0000
0031
0200
0000
0310
,
1000
1000
0100
1000
0001
0010
0001
0000
,
0100
0010
1000
0000
0100
0010
0001
0000
,
1000
0010
0100
0010
1000
0001
0100
0000
,
0001
0010
0100
0010
0001
1000
0100
0000
,
0010
0001
1000
0010
1000
0001
0010
0000
,
0100
0000
0000
0100
0000
0000
1000
0000
0001
0000
0100
0000
0010
0000
1000
0000
,
0001
0001
0000
0010
0010
0000
0100
0100
,
0000
0000
1000
0000
0000
0000
0001
0000
0000
0200
0000
0000
0000
0000
0000
0000
0000
0000
0000
0000
0000
0000
0000
0000
,
0000
0000
0000
0000
,
0000
0000
0300
0000
;

//--------------- dance-single - forcednature ----------------
#NOTEDATA:;
#STEPSTYPE:dance-single;
#DESCRIPTION:forcednature;
#CREDIT:forcednature;
#DIFFICULTY:Medium;
#METER:16;
#RADARVALUES:0,0,0,0,0;
#NOTES:
0000
0000
0000
0000
,
0000
0000
0000
0000
,
0000
0000
0000
0000
,
0000
0000
0000
0000
,
0000
0000
0000
0000
,
0000
0000
0000
0000
,
2001
0000
3100
0010
,
0002
0000
0100
0103
,
2002
0000
0000
3003
,
0220
0000
0000
0330
,
1001
0000
0000
1100
0000
0001
0010
0100
,
1000
0010
0000
1001
0000
1000
0010
0100
,
0001
0010
0000
1001
0000
1000
0100
0001
,
0100
0000
0000
0010
0000
0000
2002
0000
0000
0000
0000
0000
3003
0000
0000
0000
,
0101
0000
0000
0011
0000
1000
0100
1000
,
0010
0100
0000
1001
0000
0001
0100
0001
,
0010
0100
0000
1001
0000
1000
0010
0100
,
0220
0000
0000
0330
,
2002
0000
0000
0000
,
0000
0000
0000
0000
0000
0003
0000
3100
,
0220
0000
0000
0000
,
0000
0000
0000
0000
0300
0000
0000
0000
0031
0000
0000
0011
0000
0000
0100
0000
,
2002
0000
0000
3003
,
0220
0000
0000
0330
,
1000
0100
1000
0100
0010
0100
0010
0001
0010
0001
1000
0002
,
0000
0000
0000
0103
0010
1000
0100
0010
0001
0200
0000
0000
,
0310
0000
0000
1000
0010
0000
0100
0000
0001
0000
0010
0000
0100
0000
0010
0000
,
0001
0000
0000
0001
1000
0000
0100
1000
0100
0000
0010
0000
0001
0000
1000
0000
,
0001
0000
0000
0100
0010
0000
0100
0000
0001
0000
0010
0000
0001
0000
1000
0000
,
0010
0000
0000
0010
0100
0000
0001
0100
0002
0000
0023
0000
0230
0000
2300
0000
,
3001
0000
0000
0100
0010
0000
1000
0000
0100
0000
1000
0000
0001
0000
0010
0000
,
0100
0000
0000
0100
0010
0000
0001
0010
0001
0000
0001
0000
1000
0000
0100
0000
,
2100
0000
3010
0210
0000
0301
0011
0000
,
2002
0000
0000
0000
3003
0000
0000
0000
1000
0010
1000
0010
0100
0000
0000
0000
,
0001
0000
0010
0001
0000
0010
0100
0000
1000
0100
0010
0000
0001
0000
1000
0000
,
0010
0000
0100
0010
0000
0100
0001
0100
0001
0000
1000
0000
1000
0000
0010
0000
,
1000
0000
0100
1000
0000
0100
0010
0000
0001
0010
0100
0000
1000
0000
0001
0000
,
0100
0000
0010
0100
0000
0010
1000
0000
1001
0000
0000
0000
1001
0000
0000
0000
,
0012
0000
0000
0100
0000
0100
0000
0103
,
2001
0000
0000
0010
0000
0010
0000
3010
,
0110
0000
0000
0110
0000
0000
0101
0000
0000
0011
0000
0000
0100
0000
0010
0000
,
2002
0000
0000
3003
,
1000
0100
0010
0100
0000
0010
0001
0000
0000
0001
0100
0010
,
0100
0000
0010
1000
0000
0000
0001
0010
0001
1000
0100
1000
,
0001
0000
0000
1000
0010
1000
0001
0100
0001
1000
0000
0000
,
0010
0100
0001
0010
0000
0100
1000
0000
0000
0010
1000
0100
,
0010
0000
0001
0100
0000
0000
0010
1000
0001
0010
0001
1000
,
0010
0000
0000
0000
0000
0000
1000
0000
0100
0000
1000
0000
0001
0000
0100
0000
0001
0000
0010
0000
0000
0010
0000
0000
,
0001
0100
0001
1000
0000
0010
1000
0000
0000
1000
0100
1000
,
0001
0000
0010
0001
0000
0000
0100
0010
1000
0100
0000
1000
,
0001
0000
0000
0100
0001
0100
0010
0000
0000
0200
0000
0000
,
0301
0000
0001
0000
0010
0000
0001
0000
0001
0000
0100
0000
0001
1000
0001
0000
,
1000
0000
1000
0000
0010
0000
1000
0000
1000
0000
0100
0000
1000
0001
1000
0000
,
0100
0000
1000
0000
0010
1000
0010
0000
0100
0000
0001
0000
0010
0001
0010
0000
,
0100
0000
0010
0000
0001
1000
0001
0000
0100
0000
0010
0000
1000
0001
1000
0000
,
0100
0000
1000
0100
0010
0000
0100
0010
0001
0000
0010
0001
1000
0000
0010
0100
,
0002
0000
0000
0003
,
1000
1000
2000
0000
0000
0000
3000
0000
,
0010
0010
0020
0000
0000
0000
0030
0000
,
0100
0100
0200
0000
0000
0000
0300
0000
,
0001
0001
0002
0000
0000
0000
0003
0000
,
0010
0010
0020
0000
0000
0000
0030
0000
,
0100
0100
0200
0000
0000
0000
2300
0000
,
3002
0000
0000
0103
0020
0000
0000
1030
,
0200
0000
0020
0330
,
0001
0010
0001
0010
0001
0000
1000
0100
1000
0100
1000
0000
0000
0000
0000
0000
,
0001
0100
0001
0100
0001
0000
1000
0010
1000
0010
1000
0000
0000
0000
0000
0000
,
0100
0010
0100
0010
0100
0000
1000
0001
1000
0001
1000
0000
0000
0000
0000
0000
,
0010
0100
0010
0100
0010
0000
1000
0001
1000
0001
1000
0000
0000
0000
0000
0000
,
0001
0100
0001
0100
0010
1000
0010
1000
,
0001
0001
0010
0010
0100
0100
1000
1000
,
0001
0100
0001
0100
0001
0100
0010
1000
0010
1000
0010
1000
,
0001
0010
0100
1000
0100
0010
0001
0010
0100
1000
0100
0010
,
0002
0000
0000
0000
,
0000
0000
0000
0000
0000
0000
0103
0010
0200
0000
0320
0000
2030
0000
3002
0000
,
1003
0100
0000
0010
0100
0000
0010
0001
0010
0000
0100
0000
1000
0000
0001
0000
,
0100
0010
0000
0100
0010
0000
1000
0010
0000
0100
0001
0000
1000
0000
0100
0000
,
1000
0000
0001
0000
0010
0100
0000
0100
0000
0010
0001
0000
1000
0000
0010
1000
,
0010
0000
0100
0000
0001
0000
0010
0000
0001
0000
1000
0001
1000
0000
0010
0000
,
0100
0010
0000
0100
0001
0000
1000
0010
1000
0000
0001
0000
0010
0000
0100
0000
,
0010
0001
0000
0010
0001
0000
0010
0100
0000
1000
0100
0000
1000
0000
0001
1000
,
0001
0001
0100
0010
1000
1000
0100
1000
,
0002
0000
0023
0000
0230
0000
2300
0000
3000
0000
0010
0100
0010
0100
0010
0000
,
1000
0100
0000
0010
0100
0000
0010
0001
0010
0000
0100
0000
1000
0000
0001
0000
,
0100
0000
0000
0110
0000
0000
1001
0000
0000
0000
0001
0000
0010
0000
0001
1000
,
0001
0000
0000
0100
0000
0000
0010
0000
0000
1000
0000
0000
0001
0000
0010
0000
0001
0000
1000
0000
0100
0000
1000
0000
,
0000
1001
0000
0001
0100
0000
0001
0000
0000
0000
0020
0000
0000
0000
0000
0000
,
0130
0000
1000
0000
0010
0000
1000
0100
1000
0000
0001
0000
0010
0000
1000
0000
,
0010
0000
0001
0000
0100
0000
0001
1000
0001
0000
0001
0000
0010
0000
0010
0000
,
0100
1000
0100
1000
0100
0000
1000
0000
0010
1000
0010
1000
0010
0000
0100
0000
,
0001
1000
0001
1000
0001
1000
0001
1000
0020
0000
0000
0000
0130
0000
0000
0000
,
2001
0000
0000
3200
,
0320
0000
0000
0000
0000
0000
0000
0000
0031
0200
0000
0000
0000
0000
0000
0000
,
0310
1000
0010
0000
1000
0000
0100
0000
0001
0000
0100
0000
1000
0000
0001
0000
,
0010
0000
0010
0000
0001
0000
1000
0000
0010
0000
0100
0000
0001
0000
0010
0001
,
0020
0000
0000
0000
0000
0000
0130
0010
0100
0000
1000
0100
1000
0000
0001
0010
,
0001
1000
0010
0100
0001
0001
0010
0001
,
1000
0000
0010
1000
0010
0000
0100
0000
0001
0000
0010
0001
0010
0000
0100
0000
,
1000
0000
0010
1000
0000
0010
0100
0000
0001
0100
0000
0010
1000
0000
0001
0000
,
0010
0001
0010
0000
0000
0000
0100
1000
0100
0000
0000
0000
1000
0010
1000
0000
,
0000
0000
0001
0000
0100
0000
0001
0000
0000
0020
0000
0000
0000
0000
0000
0000
0000
0000
0000
0000
0000
0000
0000
0000
,
0000
0000
0000
0000
,
0000
0000
0030
0000
;

//--------------- dance-single - forcednature ----------------
#NOTEDATA:;
#STEPSTYPE:dance-single;
#DESCRIPTION:forcednature;
#CREDIT:forcednature;
#DIFFICULTY:Hard;
#METER:18;
#RADARVALUES:0,0,0,0,0;
#NOTES:
0000
0000
0000
0000
,
0000
0000
0000
0000
,
0000
0000
0000
0000
,
0000
0000
0000
0000
,
0000
0000
0000
0000
,
0000
0000
0000
0000
,
2002
0000
3003
0000
1000
0000
0001
0010
,
0200
0000
1000
1000
1000
0000
0310
0000
,
2002
0000
0000
0000
3003
0000
1000
0100
,
0020
0001
0001
0030
,
0011
0000
0000
0101
0000
0100
0010
1000
,
0100
1100
0000
1010
0000
0001
0100
0001
,
0010
0011
0000
0101
0000
0001
0010
0100
,
1000
0000
0000
1100
0000
0000
1010
0000
0000
0000
0001
0010
0001
0000
0100
0000
,
0110
0000
0000
1001
0000
1000
0100
1000
,
0010
0110
0000
0101
0000
0001
0010
0100
,
1000
1100
0000
1010
0000
0001
0010
1000
,
0020
0000
0000
0000
0031
1000
0001
1000
0100
0010
0001
1000
0010
0000
0000
0000
,
2001
0000
0010
0010
0010
0000
0001
0001
,
0001
0000
0100
0100
3100
0000
0010
0110
,
1002
0000
0010
0010
0010
0000
1000
1000
,
1000
0000
0000
0000
0100
0000
0100
0000
0103
0000
0000
0110
0000
0000
0010
0000
,
1002
0000
0100
0100
0100
0000
1003
0010
,
2001
0000
0100
0100
0100
0000
3001
0010
,
0100
1000
0100
0010
0001
0010
0001
0100
0010
1000
0100
0020
,
0000
0000
0000
0031
0100
1000
0100
0001
1000
0010
0000
0000
,
1001
0000
0000
1000
0100
0000
0110
0000
0000
0000
0010
0001
0100
0000
0010
0100
,
0001
0000
0010
0001
0000
1000
0010
1000
0002
0000
0203
0000
2300
0000
3200
0000
,
0301
0000
0000
0010
0001
0000
0110
0000
0000
0000
1000
0010
0100
0000
0010
1000
,
0100
0000
1000
0001
0000
0100
0001
1000
0010
0000
1000
0100
0001
0000
0100
0000
,
1000
0000
0001
0010
0000
0001
0100
0000
0010
0000
1000
0100
0010
0000
0100
0000
,
0110
0000
0000
0001
0100
0000
0001
1000
0020
0000
0230
0000
2300
0000
3002
0000
,
0023
0000
0000
0000
0130
0000
1002
0000
0000
0000
0013
0000
0100
1000
0100
0010
,
0002
0000
0000
0000
0003
0000
0000
0000
0001
0010
0001
0010
0100
1000
0100
0010
,
0001
0000
1000
0010
0000
0100
0010
0000
1000
0100
0001
0000
0100
0000
1000
0001
,
0010
0000
0001
0100
0000
0010
0100
0010
1000
0000
0100
0010
0001
0000
0100
0000
,
0010
0000
1000
0100
0000
1000
0001
0000
1000
0010
0001
0000
0010
0000
1000
0001
,
0100
0000
0001
0010
0000
0100
0010
0100
1000
0000
0000
0000
1001
0000
0000
0000
,
1000
0000
0010
0100
0000
0001
0100
0000
0001
0010
1000
0000
0010
0000
0001
1000
,
0100
0000
1000
0010
0000
0100
0010
0100
0001
0000
0010
0001
0010
0000
0100
0000
,
1100
0000
0000
1010
0000
0000
0011
0000
0000
0101
0000
0000
0001
0010
0100
1000
,
0002
0000
0000
0103
,
0001
0010
0100
1000
0100
0010
0001
0000
0000
1000
0010
0100
,
0001
0100
0010
1000
0000
0000
0001
0010
1000
0010
0001
1000
,
0100
0000
0000
1000
0010
0001
0010
1000
0001
0100
0000
0000
,
0010
1000
0100
0010
0001
0100
0010
0000
0000
0100
0001
0010
,
0100
1000
0010
0100
0000
0000
0001
0010
1000
0010
0001
1000
,
0100
0001
0100
1000
0010
0100
0001
0100
0010
1000
0000
0000
,
0001
0010
0100
0001
0100
0010
0001
1000
0100
1000
0001
0010
,
0001
1000
0010
0100
0000
0000
0010
1000
0100
0010
0001
0100
,
0010
1000
0001
0010
0001
1000
0010
0100
0001
0020
0000
0000
,
0031
0100
0001
0100
0001
0000
1000
0010
0100
0010
1000
0000
0001
0000
0010
0000
,
0100
1000
0100
1000
0100
0000
0010
0001
1000
0001
0010
0000
0100
0000
1000
0000
,
0001
0000
0100
0000
0010
1000
0001
0000
1000
0000
0100
0000
0010
0001
1000
0000
,
0010
0000
0100
0000
0001
0010
1000
0000
0010
0000
0100
0000
1000
0010
0001
0000
,
0010
0000
1000
0100
0010
0000
0100
1000
0010
0000
0100
0001
0010
0001
1000
0010
,
0100
0002
0000
0000
0000
0000
0000
0000
0000
0000
0000
0000
0003
0000
0000
0000
,
0021
0001
0001
0000
0100
0000
1000
0000
,
0100
0100
0100
0000
0001
0000
0030
0000
,
2100
0100
0100
0000
0001
0000
0010
0000
,
0100
0100
0100
0000
0001
0000
3000
0000
,
0102
0100
0100
0000
0010
0000
1000
0000
,
0100
0100
0100
0000
1003
0000
0010
0000
,
1002
0000
0000
0013
0020
0000
0000
0130
,
0200
0000
1000
0000
0020
0000
0000
0330
,
0001
1000
0100
1000
0001
0000
0010
0001
1000
0001
0010
0000
0110
0000
0000
0000
,
1000
0001
0100
0001
1000
0000
0010
1000
0001
1000
0010
0000
0110
0000
0000
0000
,
0001
0010
0100
0010
0001
0000
1000
0010
0100
0010
1000
0000
1001
0000
0000
0000
,
0001
0100
0010
0100
0001
0000
1000
0100
0010
0100
1000
0000
1001
0000
0000
0000
,
0001
0100
0001
0100
0001
0100
0001
0100
0001
0100
0001
0100
0001
0100
0001
0100
,
0010
1000
0010
1000
0010
1000
0010
1000
0010
1000
0010
1000
0010
1000
0010
1000
,
0001
0010
0100
0010
0001
0100
0010
1000
0100
0010
0100
1000
,
0001
0100
1000
0100
0001
1000
0001
0010
1000
0010
0001
1000
,
0200
0000
0000
0000
,
0000
0000
0000
0000
0000
0000
0310
0001
2000
0000
3020
0000
0230
0000
0302
0000
,
1003
0100
0000
0010
0100
0000
0010
0001
2000
0000
3020
0000
0230
0000
0302
0000
,
1003
0100
0000
1000
0001
0000
0010
0001
0000
0100
0010
0000
1000
0000
0001
0100
,
1000
0000
0100
0000
0001
0010
0000
0010
0000
0001
0100
0000
1000
0000
0100
0001
,
2000
0000
3200
0000
0320
0000
0032
0000
1003
0010
1000
0010
0100
0001
1000
0001
,
0100
0010
0000
1000
0100
0000
0010
0001
2000
0000
3020
0000
0230
0000
0302
0000
,
0013
0100
0000
0010
0001
0010
0001
0000
1000
0010
0100
0001
1000
0000
0001
0010
,
2000
0000
3020
0000
0032
0000
1003
0100
1000
0001
0100
0001
1000
0000
0001
0010
,
1000
0000
0010
0000
0110
0000
2001
0000
0000
0000
3010
0100
0001
0100
0010
1000
,
0001
0010
0000
0100
0010
0000
0100
1000
0001
0100
0010
0100
0001
1000
0010
1000
,
0001
0010
0000
0010
0100
0000
0100
1000
0000
0000
0010
0000
0100
0000
1000
0100
,
0002
0000
0000
0010
0000
0000
2003
0000
0000
0010
0000
0000
3001
0000
0001
0000
0001
0000
0010
0000
0100
0000
1000
0000
,
0010
0100
0000
0001
0010
0001
0010
0000
0100
1000
0002
0000
0000
0000
1003
0010
,
0100
0000
0001
0000
0011
0000
0001
0010
0100
0000
1000
0000
1010
0000
0010
0100
,
0001
0000
0010
0000
0011
0000
0001
1000
0010
0100
0010
0100
0001
1000
0010
1000
,
0001
0010
0001
0010
0100
1000
0100
1000
0001
0100
0010
0100
0001
1000
0010
1000
,
0001
0010
0100
1000
0100
0010
0001
0100
0010
1000
0100
0010
0001
0100
0010
1000
,
0002
0000
0000
2003
,
3020
0000
0000
0000
0000
0000
0000
0000
0130
0002
0000
0000
0000
0000
1003
0100
,
1000
0100
0010
0100
0010
0100
0010
0001
0010
0001
1000
0010
0100
0001
0100
0010
,
1000
0100
1000
0001
0100
0001
1000
0010
0100
0001
0100
0010
1000
0100
0010
0001
,
0200
0000
0000
0000
0000
0000
0310
1000
0001
0010
0001
0010
0100
1000
0100
1000
,
0010
0100
0001
0100
0010
1000
0001
1000
0100
0010
0001
0010
0100
0010
0001
1000
,
0010
0000
0100
0000
0110
0000
1000
0000
0001
0010
0100
0010
0001
1000
0100
1000
,
0010
0000
0100
0001
0100
0001
0100
0010
1000
0100
0010
0100
1000
0001
0010
0001
,
1000
0100
0001
0000
0000
0000
0001
0100
1000
0000
0000
0000
0001
0010
1000
0000
,
0000
0000
0010
0000
0001
0000
0100
0000
0000
2002
0000
0000
0000
0000
0000
0000
0000
0000
0000
0000
0000
0000
0000
0000
,
0000
0000
0000
0000
,
0000
0000
3003
0000
;

//--------------- dance-single - forcednature ----------------
#NOTEDATA:;
#STEPSTYPE:dance-single;
#DESCRIPTION:forcednature;
#CREDIT:forcednature;
#DIFFICULTY:Challenge;
#METER:19;
#RADARVALUES:0,0,0,0,0;
#NOTES:
0000
0000
0000
0000
,
0000
0000
0000
0000
,
0000
0000
0000
0000
,
0000
0000
0000
0000
,
0000
0000
0000
0000
,
0000
0000
0000
0000
,
2002
0000
3003
0000
0001
0000
0100
0010
,
2000
0000
0100
0100
0100
0000
3010
0000
,
2002
0000
0000
0000
0003
0000
3010
0100
,
0002
0010
0200
0303
,
1010
0000
0000
0101
0000
0001
0010
0100
,
1000
1100
0000
1010
0000
0001
0010
0001
,
0100
0101
0000
0011
0000
1000
0100
0001
,
0100
0000
0000
0110
0000
0000
1001
0000
0000
0000
0001
0010
0100
1000
0001
0000
,
0101
0000
0000
1010
0000
1000
0100
1000
,
0010
0110
0000
0101
0000
0001
0010
0100
,
1000
1100
0000
1010
0000
0001
0010
1000
,
0020
0000
0000
0000
0130
0010
0100
0010
0100
1000
0001
0010
0100
0000
0000
0000
,
2001
0000
0010
0010
0001
0001
0100
3100
,
1000
0010
1000
0000
0010
0100
0010
0000
0100
0001
0100
0000
0010
0000
0110
0000
,
1002
0000
0010
0010
1000
1000
0100
0103
,
0001
0010
0001
0000
0010
0100
0010
0000
1100
0000
0000
1010
0000
0000
0110
0000
,
2001
0000
0000
0000
0100
0000
0100
0000
0001
0000
0001
0000
3010
1000
0010
1000
,
0002
0000
0000
0000
0100
0000
0100
0000
1000
0000
1000
0000
0013
0001
0010
0001
,
0100
1000
0001
0010
1000
0100
0001
1000
0010
0001
0100
2000
,
0000
0000
0000
3100
0001
0010
0100
1000
0010
0110
0000
0000
,
1001
0000
0000
1000
0100
0000
0010
0000
0100
0000
1000
0010
0100
0000
0001
0010
,
0100
0000
0010
0001
0000
1000
0010
0100
0002
0000
2003
0000
3200
0000
0302
0000
,
1003
0000
0000
0010
0001
0000
1000
0000
0100
0000
1000
0010
0100
0000
0001
0010
,
0100
0000
0010
0001
0000
1000
0010
0100
0001
0000
0001
0010
1000
0000
0010
0001
,
1000
0000
0010
0100
0000
0001
0010
0000
0100
0000
0001
0100
1000
0000
0010
0000
,
0110
0000
0000
0001
0100
0000
0001
0010
0100
0000
1100
0000
0010
0000
0110
0000
,
2001
0000
0000
0000
3010
0000
0102
0000
0000
0000
0013
0000
1100
0000
0100
1000
,
0002
0000
0000
0000
0003
0000
0000
0000
0100
0010
0100
0010
1000
0001
0100
0010
,
1000
0000
0000
0000
0000
0000
0001
0000
0000
0010
0000
0000
0000
0000
0000
0100
0000
0000
0010
0000
0000
0000
0000
0000
0001
0000
0010
0000
0100
0000
1000
0000
0000
0000
0000
0000
0010
0000
0000
0000
0000
0000
0100
0000
0000
0001
0000
0000
,
1000
0000
0100
1000
0000
0010
0100
0001
0010
0000
1000
0010
0001
0000
0100
0000
,
0110
0000
0000
0000
0000
0000
0001
0000
0000
1000
0000
0000
0000
0000
0000
0010
0000
0000
1000
0000
0000
0000
0000
0000
0001
0000
0100
0000
0010
0000
1000
0000
0000
0000
0000
0000
0001
0000
0000
0000
0000
0000
0010
0000
0000
0100
0000
0000
,
1000
0000
0010
0100
0000
0001
0010
0001
1000
0000
0000
0000
1100
0000
0000
0000
,
0001
0000
0000
0000
0000
0000
0010
0000
0000
0100
0000
0000
0000
0000
0000
0010
0000
0000
0001
0000
0000
0000
0000
0000
0010
0000
0100
0000
1000
0000
0001
0000
0000
0000
0000
0000
0100
0000
0000
0000
0000
0000
0010
0000
0000
0100
0000
0000
,
0001
0000
1000
0010
0000
1000
0100
1000
0001
0000
0010
0001
1000
0000
0010
0000
,
1001
0000
0000
1100
0000
0000
1010
0000
0000
0011
0000
0000
0001
0100
0010
1000
,
0002
0000
0000
0013
,
0001
0100
0010
1000
0010
0100
0001
1000
0010
1000
0100
0010
,
0001
0010
0100
1000
0001
0010
0001
0100
0010
1000
0100
0010
,
0001
1000
0010
0100
0001
0010
0100
1000
0010
0110
0000
0000
,
1000
0100
0010
0001
0010
0100
1000
0001
0010
0001
0100
0010
,
1000
0010
0100
0001
1000
0010
1000
0100
0010
0001
0100
0010
,
1000
0001
0010
0100
1000
0010
0100
0001
0010
0110
0000
0000
,
1000
0100
1000
0001
0100
1000
0100
0001
1000
0010
1000
0001
,
0010
1000
0010
0001
1000
0010
0100
0001
0010
0100
1000
0001
,
0100
1000
0100
0001
1000
0010
1000
0001
0100
0020
0000
0000
,
1030
0100
1000
0100
1000
0000
0001
0010
0100
0010
0001
0000
1000
0000
1010
0000
,
0001
0100
0001
0100
0001
0000
1000
0010
0100
0010
1000
0000
0001
0000
0011
0000
,
1000
0000
0100
0000
0001
0100
1000
0000
0001
0000
0010
0000
1000
0010
0001
0000
,
1000
0000
0010
0000
0001
0010
1000
0000
0001
0000
0100
0000
1000
0100
0001
0000
,
1001
0000
1000
0100
0010
0100
1000
0001
0010
0001
1000
0010
0100
0010
1000
0001
,
0100
0020
0000
0000
0000
0000
0000
0000
0000
0000
0000
0000
0030
0000
0000
0000
,
1002
1000
1000
0000
0100
0000
1000
0000
,
0010
0010
0010
0000
0100
0000
0003
0000
,
2001
0001
0001
0000
0100
0000
0001
0000
,
0010
0010
0010
0000
0100
0000
3000
0000
,
0012
0010
0010
0000
1000
0000
0100
0000
,
0010
0010
0010
0000
0103
0000
0001
1000
,
2010
0000
0000
0001
0001
0000
3100
0010
,
0002
0000
0010
0010
2003
0000
0000
0000
,
3001
0100
0010
1000
0100
0000
1000
0010
0100
0001
0010
0000
1001
0000
0000
0000
,
1000
0100
0010
0001
0100
0000
0001
0010
0100
1000
0010
0000
1001
0000
0000
0000
,
1000
0100
0001
0100
0010
0000
0001
0100
1000
0100
0010
0000
1001
0000
0000
0000
,
0001
0010
1000
0010
0001
0000
1000
0010
0001
0010
1000
0000
1001
0000
0000
0000
,
0001
0010
0001
0010
0100
0010
0001
0010
0100
0010
0001
0010
0100
1000
0100
1000
,
0010
0100
0010
1000
0001
0100
0001
1000
0010
0100
0001
1000
0001
0100
0010
1000
,
0001
0010
1000
0001
0100
1000
0010
0001
1000
0100
0001
0010
,
1000
0001
0100
1000
0001
0010
1000
0001
0100
1000
0001
0010
,
0200
0000
0000
0000
,
0000
0000
0000
0000
0310
0000
0100
1000
0002
0000
0203
0000
0320
0000
2030
0000
,
3001
0010
0100
0010
0001
0000
1000
0010
0002
0000
0023
0000
2030
0000
3002
0000
,
0103
0000
0000
0010
0000
0000
0000
0000
0000
1000
0000
0000
0100
0000
0000
0000
0000
0000
0010
0000
0000
0100
0000
0000
0010
0000
0000
0001
0000
0000
1000
0000
0000
0100
0000
0000
0010
0000
0000
0000
0000
0000
0100
0000
1000
0000
0001
0000
,
1000
0000
0010
0100
0001
0010
0000
0110
0000
0100
2000
0000
0010
0000
3001
0100
,
1000
0000
0100
0000
0101
0000
1000
0000
0001
0010
0100
1000
0010
0100
0001
0010
,
0100
0001
0000
0100
1000
0000
0001
0010
2000
0000
3020
0000
0032
0000
2003
0000
,
3010
0000
0000
0100
0000
0000
0000
0000
0000
0001
0000
0000
0010
0000
0000
0100
0000
0000
0010
0000
0000
0001
0000
0000
0000
0000
0000
0100
0000
0000
1000
0000
0000
0100
0000
0000
0001
0000
0000
0000
0000
0000
1000
0000
0010
0000
0100
0000
,
0001
0000
0000
0000
0000
0000
0010
0000
0000
0000
0000
0000
0011
0000
0000
0000
0000
0000
0001
0000
0000
1000
0000
0000
0100
0000
0000
1000
0000
0000
0001
0000
0000
0100
0000
0000
0001
0000
0000
0000
0000
0000
1000
0000
0100
0000
0010
0000
,
0001
0000
0101
0000
0110
0000
2010
0000
0000
0000
3001
0100
1000
0100
0001
1000
,
0010
0100
0000
0001
0010
0000
0100
0001
0100
1000
0001
0010
0001
1000
0010
1000
,
0001
0000
0000
0100
0000
0000
0000
0000
0000
1000
0000
0000
0100
0000
0000
0000
0000
0000
0010
0000
0000
1000
0000
0000
0000
0000
0000
0000
0000
0000
1100
0000
0000
0000
0000
0000
0110
0000
0000
0000
0000
0000
0010
0000
0001
0000
1000
0000
,
0002
0000
0000
0000
0000
0000
0100
0000
0000
0000
0000
0000
0100
0000
0000
0000
0000
0000
1003
0000
0000
0010
0000
0000
0200
0000
0000
0000
2300
0000
0000
0000
3002
0000
0000
0000
0023
0000
0000
0000
2030
0000
0000
0000
3002
0000
0000
0000
,
0003
0011
0000
0010
0001
0100
0010
1000
0100
0010
0002
0000
0000
0000
1003
0100
,
0001
0100
1000
0000
0011
0000
0001
0100
1000
0100
0001
0000
1010
0000
1000
0100
,
0010
1000
0010
0000
0011
0000
0001
0100
0010
0001
0010
0100
0001
1000
0010
1000
,
0001
0010
0100
0010
0001
1000
0100
1000
0001
0100
0010
1000
0100
0001
0100
1000
,
0001
0000
0010
0000
0001
0000
0010
0000
0100
0000
0010
0000
0100
0000
1000
0000
0100
0000
1000
0000
0010
0000
0100
0000
0001
0000
0010
0000
0100
0000
1000
0000
0100
0000
0010
0000
0001
0000
0000
1000
0000
0000
0010
0000
0000
0100
0000
0000
,
0002
0000
0000
0203
,
0320
0000
0000
0000
0000
0000
0000
0000
1030
0200
0000
0000
0000
0000
0310
0001
,
1000
0010
0100
0010
1000
0001
0100
0001
1000
0100
0010
0001
0010
0100
1000
0001
,
0100
0010
1000
0100
0010
0001
0100
0010
1000
0100
1000
0001
0100
0001
1000
0010
,
0002
0000
0000
0000
0000
0000
0013
1000
0001
0100
0010
0100
0001
1000
0010
0100
,
0001
0010
0001
1000
0010
1000
0001
0010
0100
0010
0001
0010
1000
0010
0001
1000
,
0100
0000
1100
0000
1010
0000
0110
0000
0100
0001
0010
0100
1000
0010
0100
0001
,
1000
0010
1000
0001
0010
0001
0100
0010
1000
0100
0001
0100
1000
0001
0010
0001
,
1000
0010
0001
0000
0000
0000
0001
0010
1000
0000
0000
0000
1000
0100
0001
0000
,
0000
0000
0100
0000
0010
0000
0110
0000
0000
2002
0000
0000
0000
0000
0000
0000
0000
0000
0000
0000
0000
0000
0000
0000
,
0000
0000
0000
0000
,
0000
0000
3003
0000
;

//--------------- dance-double - forcednature ----------------
#NOTEDATA:;
#STEPSTYPE:dance-double;
#DESCRIPTION:forcednature;
#CREDIT:forcednature;
#DIFFICULTY:Easy;
#METER:12;
#RADARVALUES:0,0,0,0,0;
#NOTES:
00000000
00000000
00000000
00000000
,
00000000
00000000
00000000
00000000
,
00000000
00000000
00000000
00000000
,
00000000
00000000
00000000
00000000
,
00000000
00000000
00000000
00000000
,
00000000
00000000
00000000
00000000
,
00012000
00000000
00003010
00000001
,
00000200
00000000
00000310
00000000
,
00002002
00000000
00000000
00003003
,
00022000
00000000
00000000
00033000
,
00100000
00000000
00000000
10010000
00000000
00000000
00000000
00000000
,
00000000
01010000
00000000
01010000
00000000
00000000
00000000
00000000
,
00000000
00011000
00000000
00011000
00000000
00000000
00000000
00000000
,
00000100
00000000
00000000
00001000
00000000
00000000
00001100
00000000
00000000
00000000
00000000
00000000
00000000
00000000
00000000
00000000
,
00000010
00000000
00000000
00001001
00000000
00000000
00000000
00000000
,
00000000
00001010
00000000
00001010
00000000
00000000
00000000
00000000
,
00000000
00011000
00000000
00011000
00000000
00000000
00000000
00000000
,
20020000
00000000
00000000
30030000
,
02200000
00000000
00000000
00000000
,
00000000
00000000
00000000
00000000
00000000
03300000
00000000
00010000
,
00002000
00000000
00000000
00000000
,
00000000
00000000
00000000
00000000
00003000
00000000
00000000
00000000
00000010
00000000
00000000
00000010
00000000
00000000
00000100
00000000
,
00000020
00000000
00000000
00000030
,
00022000
00000000
00000000
00033000
,
10000000
00000000
10000000
01000000
00000000
01000000
00010000
00000000
00010000
00001000
00000000
00001000
,
00000000
00000220
00000000
00000330
,
00000001
00000000
00000100
00001000
00000000
00000100
00000001
00000000
,
00001000
00000000
00000010
00000000
00010000
00001000
01000000
00000000
,
00010000
00000000
00100000
10000000
00000000
00100000
00010000
00000000
,
10000000
00000000
01000000
00000000
00010000
00001000
00000000
00001000
,
00010000
00000000
00001000
00000010
00000000
00000000
00000001
00000000
,
00000100
00000000
00000010
00000000
00001000
00000010
00001000
00000000
,
00000100
00000000
00000000
00011000
00000000
00000000
00100000
00000000
,
00020000
00000000
00000000
00000000
01030000
00100000
01000000
00000000
,
10010000
00000000
10000000
01000000
00000000
10000000
00100000
00000000
,
00010000
00001000
00000010
00000100
,
00000010
00000000
00000001
00000100
00000000
00000001
00000010
00000000
,
00001000
00010000
00011000
00011000
,
00100000
00000000
00010000
01000000
00000000
10000000
01000000
00000000
,
00010000
00000000
00100000
00000000
00001000
00010000
00001000
00000000
,
00000010
00000000
00000000
00000010
00000000
00000000
00000001
00000000
00000000
00000001
00000000
00000000
00000100
00000000
00001000
00000000
,
00020000
00000000
00000000
00130000
,
20000000
00000000
31000000
00200000
,
00000000
00301000
00020000
00000000
,
00030100
00002000
00000000
00003010
,
00000002
00000000
00000103
00000020
,
00000000
00001030
00000200
00000000
,
00020300
00032000
00203000
00320000
,
02030000
00000000
03100000
20000000
,
00000000
31000000
00020000
00000000
,
00031000
00000020
00000000
00000031
,
00001000
00000000
00000100
00010000
00000000
00001000
00100000
00000000
,
00010000
00000000
01000000
00001000
00000000
00010000
00000010
00000000
,
00001000
00000100
00010000
00000000
00001000
00100000
00010000
00000000
,
01000000
00001000
00010000
00000000
00000010
00010000
00001000
00000000
,
00100000
00010000
00000000
00010000
10000000
00010000
00000000
00010000
,
02000000
00000000
00000000
03000000
,
20020000
00000000
00000000
30030000
,
02200000
00000000
00000000
03300000
,
00022000
00000000
00000000
00033000
,
00000220
00000000
00000000
00000330
,
00002002
00000000
00000000
00003003
,
00000220
00000000
00000000
00000330
,
00022000
00033000
00200000
00300000
,
20020000
00000000
00000000
30030000
,
10000000
01000000
10000000
01000000
10000000
01000000
00000000
00000000
,
00010000
00001000
00010000
00001000
00010000
00001000
00000000
00000000
,
00000100
00000001
00000100
00000001
00000100
00000001
00000000
00000000
,
00001000
00000010
00001000
00000010
00001000
00000010
00000000
00000000
,
00010000
00001000
00010000
00000000
00001000
00010000
00001000
00000000
,
00100000
00010000
00100000
00000000
00010000
01000000
00010000
00000000
,
10000000
00000000
10000000
00100000
00000000
00000000
00010000
00000000
00010000
00001000
00000000
00000000
,
00000100
00000000
00000010
00000100
00000000
00000010
00000100
00000000
00000010
00000100
00000000
00000001
,
00002000
00000000
00000000
00000000
,
00000000
00000000
00000000
00003200
00000000
00010300
00001000
00000000
,
00100000
00000000
00000000
00010000
00100000
00000000
01000000
00000000
00000000
00000000
10000000
00000000
00100000
00000000
00000000
00000000
,
01000000
00000000
00000000
00010000
01000000
00000000
00001000
00000000
00000000
00000000
00010000
00000000
00000010
00000000
00001000
00000000
,
00000100
00000100
00001000
00000000
00000001
00000001
00000010
00000000
,
00001000
00010000
00001000
00010000
00000000
00100000
01000000
00000000
,
01100000
00000000
00000000
00010000
01000000
00000000
00010000
00000000
00000000
00000000
10000000
00000000
00100000
00000000
00000000
00000000
,
10000000
00000000
00000000
01000000
10000000
00000000
00010000
00000000
00000000
00000000
00100000
00000000
00010000
00000000
00000000
00000000
,
00001000
00001000
00000100
00000000
00001000
00001000
00000010
00000000
,
00000100
00001000
00000100
00000002
00000000
00000013
00000001
00000000
,
00001000
00000000
00000000
00000100
00001000
00000000
00000010
00000000
00000100
00000000
00000000
00000000
00001000
00000000
00000000
00000000
,
00010000
00000000
00000000
00010000
00000000
00000000
00100000
00000000
00000000
00000000
10000000
00000000
01000000
00000000
00000000
00000000
,
10000000
00000000
00000000
10000000
00000000
00000000
00100000
00000000
00000000
00000000
00000000
00000000
00010000
00000000
00000000
00000000
00010000
00000000
00001000
00000000
00000000
00000000
00001000
00000000
,
00000000
00000010
00000000
00000000
00000100
00000000
00001000
00000000
00000000
00000000
00002002
00000000
00000000
00000000
00003003
00000000
,
00000001
00000100
00001000
00000000
00000100
00001000
00010000
00000000
,
00001000
00010000
00100000
00000000
00010000
00100000
10000000
00000000
,
01000000
01000000
10000000
01000000
00010000
00010000
00001000
00010000
,
00002000
00000000
00000000
00103000
,
00021000
00000000
00000000
00030200
,
00002300
00000000
00000000
00000000
00003001
00000200
00000000
00001300
,
00010000
00010000
00001000
00000000
00010000
00100000
10000000
00000000
,
01000000
10000000
01000000
00000000
00010000
00001000
00010000
00000000
,
00000010
00001000
00000100
00000000
00010000
00001000
01000000
00000000
,
00010000
00100000
01000000
00000000
00100000
00001000
00010000
00000000
,
00000010
00001000
00000010
00001000
00000001
00000100
00000001
00000000
,
00000010
00000000
00000000
00001000
00000000
00000000
00010000
00000000
00000000
00000000
00001000
00000000
00010000
00000000
00000000
00000000
,
01000000
01000000
00000000
10000000
10000000
00000000
00100000
00100000
,
00000000
00000000
00010000
00000000
00000000
00000000
00001000
00000000
00000000
00022000
00000000
00000000
00000000
00000000
00000000
00000000
00000000
00000000
00000000
00000000
00000000
00000000
00000000
00000000
,
00000000
00000000
00000000
00000000
,
00000000
00000000
00033000
00000000
;

//--------------- dance-double - forcednature ----------------
#NOTEDATA:;
#STEPSTYPE:dance-double;
#DESCRIPTION:forcednature;
#CREDIT:forcednature;
#DIFFICULTY:Medium;
#METER:16;
#RADARVALUES:0,0,0,0,0;
#NOTES:
00000000
00000000
00000000
00000000
,
00000000
00000000
00000000
00000000
,
00000000
00000000
00000000
00000000
,
00000000
00000000
00000000
00000000
,
00000000
00000000
00000000
00000000
,
00000000
00000000
00000000
00000000
,
00012000
00000000
00003010
00000001
,
00000200
00000000
00000010
00000310
,
00002002
00000000
00000000
00003003
,
00022000
00000000
00000000
00033000
,
10010000
00000000
00000000
11000000
00000000
00010000
00100000
00001000
,
00010000
00000100
00000000
00011000
00000000
01000000
00001000
00010000
,
00000010
00001000
00000000
00001001
00000000
00000001
00000010
00001000
,
00010000
00000000
00000000
00010000
00000000
00000000
02000000
00000000
00000000
00000000
00000000
00000000
03000000
00000000
00000000
00000000
,
01100000
00000000
00000000
10010000
00000000
10000000
01000000
00010000
,
00001000
00100000
00000000
00011000
00000000
00000010
00010000
00001000
,
00000100
00000001
00000000
00000110
00000000
00001000
00000100
00010000
,
00002000
00000000
00000000
00003000
,
00022000
00000000
00000000
00000000
,
00000000
00000000
00000000
00000000
00000000
00033000
00000000
00100000
,
02200000
00000000
00000000
00000000
,
00000000
00000000
00000000
00000000
03300000
00000000
00000000
00000000
00010000
00000000
00000000
00001000
00000000
00000000
00000100
00000000
,
00000220
00000000
00000000
00000330
,
00022000
00000000
00000000
00033000
,
00100000
00010000
00100000
00001000
00010000
00000100
00001000
00000100
00010000
00001000
01000000
00020000
,
00000000
00000000
00000000
10030000
01000000
00100000
00010000
00100000
00001000
00020000
00000000
00000000
,
00030100
00000000
00000000
00001000
00000010
00000000
00000100
00000000
00000000
00000000
00001000
00000000
00000100
00000000
00000001
00000000
,
00001000
00000000
00000000
00001000
00000010
00000000
00010000
00000000
00001000
00000000
00100000
00000000
00010000
00000000
01000000
00000000
,
00100000
00000000
00000000
10000000
01000000
00000000
10000000
00000000
00000000
00000000
00010000
00000000
00100000
00000000
10000000
00000000
,
00100000
00000000
00000000
00010000
00100000
00000000
00001000
00000000
00000020
00000000
00000230
00000000
00002300
00000000
00003002
00000000
,
00000103
00000000
00000000
00000010
00000100
00000000
00000001
00000000
00000000
00000000
00000010
00000000
00001000
00000000
00010000
00000000
,
00001000
00000000
00000000
00100000
00010000
00000000
01000000
00000000
10000000
00000000
01000000
00000000
00010000
00000000
00100000
00000000
,
00002000
00000000
00003010
00000200
00000000
00010300
00000010
00000000
,
00002002
00000000
00000000
00000000
00003003
00000000
00000000
00000000
00010000
00001000
00010000
00001000
00010000
00000000
00000000
00000000
,
00001000
00000000
00100000
00010000
00000000
00100000
01000000
00000000
10000000
00000000
01000000
00000000
00010000
00000000
00001000
00000000
,
00100000
00000000
00010000
00100000
00000000
00001000
00010000
00001000
00010000
00000000
00000010
00000000
00001000
00000000
00000000
00000000
,
00000001
00000000
00000010
00000100
00000000
00000010
00000001
00000000
00000100
00000000
00001000
00000000
00010000
00000000
00100000
00000000
,
01000000
00000000
00010000
01000000
00000000
00010000
10000000
00000000
00100000
00000000
00000000
00000000
01100000
00000000
00000000
00000000
,
10020000
00000000
00000000
00100000
00000000
00130000
00000000
00001000
,
00020000
00000000
00000000
00000100
00000000
00030100
00000000
00001000
,
00000001
00000000
00000000
00000011
00000000
00000000
00000110
00000000
00000000
00001100
00000000
00000000
00010000
00000000
00001000
00000000
,
00022000
00000000
00000000
00033000
,
00100000
00000000
00010000
00100000
00000000
01000000
00100000
00000000
00000000
01000000
00000000
10000000
,
00100000
00000000
01000000
00010000
00000000
00000000
00100000
00000000
00001000
00010000
00000000
00000100
,
00001000
00000000
00000000
00000010
00000000
00000100
00000001
00000000
00000010
00000100
00000000
00000000
,
00001000
00000000
00000010
00001000
00000000
00010000
01000000
00000000
00000000
00100000
00000000
10000000
,
01000000
00000000
00010000
00001000
00000000
00000000
00100000
00000000
00001000
00000010
00000000
00000100
,
00001000
00000000
00000000
00000000
00000000
00000000
00000001
00000000
00000100
00000000
00000001
00000000
00000100
00000000
00000010
00000000
00000100
00000000
00000010
00000000
00000000
00001000
00000000
00000000
,
00000100
00001000
00000100
00001000
00000000
00000010
00010000
00000000
00000000
00001000
00010000
00001000
,
00010000
00000000
00100000
10000000
00000000
00000000
01000000
10000000
01000000
00100000
00000000
00001000
,
00010000
00000000
00000000
00000010
00001000
00000010
00000100
00000000
00000000
00000002
00000000
00000000
,
00000013
00001000
00010000
00000100
00010000
00001000
00100000
00000000
,
00010000
01000000
10000000
01000000
00010000
10000000
00100000
00000000
,
10000000
00000000
01000000
00000000
00100000
01000000
00100000
00000000
00001000
00000000
00010000
00000000
00000100
00001000
00000100
00000000
,
00000010
00000000
00000001
00000000
00001000
00000010
00001000
00000000
00000001
00000000
00000100
00000000
00001000
00000000
00010000
00000000
,
00100000
00000000
01000000
00010000
10000000
00000000
01000000
10000000
00010000
00000000
00100000
00001000
00010000
00000000
00000100
00010000
,
00002000
00000000
00000000
00003000
,
00000010
00000010
00000020
00000000
00000000
00000000
00000030
00000000
,
00000001
00000001
00000002
00000000
00000000
00000000
00000003
00000000
,
00000100
00000100
00000200
00000000
00000000
00000000
00000300
00000000
,
00001000
00001000
00002000
00000000
00000000
00000000
00003000
00000000
,
00010000
00010000
00020000
00000000
00000000
00000000
00030000
00000000
,
00100000
00100000
00200000
00000000
00000000
00000000
20300000
00000000
,
30020000
00000000
00000000
00130000
00002000
00000000
00000000
00013000
,
00000200
00000000
00000020
00000330
,
00010000
00000100
00010000
00000100
00010000
00000000
00001000
00100000
00001000
00100000
00001000
00000000
00000000
00000000
00000000
00000000
,
00010000
00000010
00010000
00000010
00010000
00000000
00001000
01000000
00001000
01000000
00001000
00000000
00000000
00000000
00000000
00000000
,
00010000
00000100
00001000
00000100
00010000
00000000
00001000
00100000
00010000
00100000
00001000
00000000
00000000
00000000
00000000
00000000
,
00010000
00000010
00001000
00000010
00010000
00000000
00001000
01000000
00010000
01000000
00001000
00000000
00000000
00000000
00000000
00000000
,
00100000
01000000
00100000
01000000
00010000
00001000
00010000
00001000
,
00000010
00000100
00000010
00000100
00001000
00000001
00000100
00001000
,
00010000
00001000
00010000
00001000
00010000
00001000
00100000
00010000
00100000
00010000
00100000
00010000
,
10000000
01000000
10000000
01000000
00010000
01000000
00010000
00001000
00010000
00001000
00000010
00000001
,
00000020
00000000
00000000
00000000
,
00000000
00000000
00000000
00000000
00000000
00000000
00000130
00001000
00000002
00000000
00000203
00000000
00002300
00000000
00023000
00000000
,
00130000
01000000
00000000
00100000
10000000
00000000
00010000
01000000
00010000
00000000
10000000
00000000
01000000
00000000
00010000
00000000
,
00001000
00100000
00000000
00001000
00010000
00000000
00000100
00010000
00000000
00000000
00001000
00000000
00000010
00000000
00000001
00000000
,
00001000
00000000
00000010
00000000
00000100
00001000
00000000
00001000
00000000
00010000
00001000
00000000
00010000
00000000
00100000
00000000
,
10000000
00000000
01000000
00000000
00010000
00000000
01000000
00000000
00100000
00000000
00010000
00100000
00010000
00000000
10000000
00000000
,
00100000
00010000
00000000
00001000
00010000
00000000
00001000
00000100
00000000
00000000
00000001
00000000
00001000
00000000
00000010
00000000
,
00001000
00000100
00000000
00001000
00000100
00000000
00010000
00001000
00000000
00100000
00010000
00000000
01000000
00000000
00010000
10000000
,
00010000
00100000
00010000
00001000
00000100
00001000
00000010
00000100
,
00000002
00000000
00000023
00000000
00002030
00000000
00023000
00000000
00030000
00000000
00100000
01000000
00100000
01000000
00100000
00000000
,
10000000
00010000
00000000
01000000
00010000
00000000
10000000
00100000
10000000
00000000
01000000
00000000
00010000
00000000
00001000
00000000
,
00100000
00000000
00000000
00101000
00000000
00000000
00010100
00000000
00000000
00000000
00010000
00000000
00001000
00000000
00010000
00000100
,
00010000
00000000
00000000
00001000
00000000
00000000
00000010
00000000
00000000
00000001
00000000
00000000
00001000
00000000
00000010
00000000
00010000
00000000
00001000
00000000
01000000
00000000
00010000
00000000
,
00000000
10000000
00000000
10000000
00100000
00000000
01000000
00000000
00000000
00000000
00020000
00000000
00000000
00000000
00000000
00000000
,
00130000
00000000
00001000
00000000
00010000
00000000
00001000
00010000
00000100
00000000
00001000
00000000
00000010
00000000
00001000
00000000
,
00000001
00000000
00000010
00000000
00001000
00000000
00010000
00001000
00010000
00000000
00010000
00000000
00100000
00000000
00100000
00000000
,
10000000
00000000
01000000
10000000
01000000
00000000
00100000
00000000
00010000
00000000
00100000
00010000
00100000
00000000
00001000
00000000
,
00010000
00001000
00010000
00001000
00010000
00000000
00001000
00000000
00000020
00000000
00000000
00000000
00000031
00000000
00000000
00000000
,
00002001
00000000
00000000
00003020
,
00000230
00000000
00000000
00000000
00000000
00000000
00000000
00000000
00001300
00020000
00000000
00000000
00000000
00000000
00000000
00000000
,
00130000
10000000
01000000
00010000
00001000
00000100
00000001
00000010
,
00001000
00000000
00001000
00000000
00010000
00000000
00001000
00000000
00010000
00000000
01000000
00000000
10000000
00000000
01000000
10000000
,
00200000
00000000
00000000
00000000
00000000
00000000
01300000
00100000
01000000
00000000
00010000
00000000
00100000
00000000
00001000
00010000
,
00001000
00000010
00000100
00010000
00001000
00001000
00000010
00000001
,
00000010
00000000
00000100
00001000
00000100
00000000
00010000
00000000
00001000
00000000
01000000
00010000
01000000
00000000
00100000
00000000
,
10000000
00000000
01000000
10000000
00000000
01000000
00100000
00000000
00010000
00100000
00000000
00001000
00010000
00000000
00010000
00000000
,
00001000
00000000
00000010
00000000
00000000
00000000
00000001
00000100
00000001
00000000
00000000
00000000
00000100
00001000
00000100
00000000
,
00000000
00000000
00001000
00000000
00010000
00000000
00001000
00000000
00000000
00020000
00000000
00000000
00000000
00000000
00000000
00000000
00000000
00000000
00000000
00000000
00000000
00000000
00000000
00000000
,
00000000
00000000
00000000
00000000
,
00000000
00000000
00030000
00000000
;

//--------------- dance-double - forcednature ----------------
#NOTEDATA:;
#STEPSTYPE:dance-double;
#DESCRIPTION:forcednature;
#CREDIT:forcednature;
#DIFFICULTY:Hard;
#METER:18;
#RADARVALUES:0,0,0,0,0;
#NOTES:
00000000
00000000
00000000
00000000
,
00000000
00000000
00000000
00000000
,
00000000
00000000
00000000
00000000
,
00000000
00000000
00000000
00000000
,
00000000
00000000
00000000
00000000
,
00000000
00000000
00000000
00000000
,
00022000
00000000
00033000
00000000
00001000
00000000
00000010
00000001
,
00000200
00000000
00000010
00000010
00000010
00000000
00000301
00000000
,
00002002
00000000
00000000
00000000
00003003
00000000
00000001
00000100
,
00002000
00010000
00010000
00003000
,
00110000
00000000
00000000
01010000
00000000
01000000
00100000
10000000
,
01000000
11000000
00000000
00110000
00000000
00010000
00100000
00001000
,
00010000
00011000
00000000
00010010
00000000
00000010
00001000
00000001
,
00000010
00000000
00000000
00000100
00000000
00000000
00000110
00000000
00000000
00000000
00000001
00001000
00000001
00000000
00000100
00000000
,
00000010
00000000
00000000
00001001
00000000
00000001
00000010
00001000
,
00010000
00011000
00000000
00101000
00000000
00100000
00010000
01000000
,
00100000
10100000
00000000
11000000
00000000
00010000
00100000
00001000
,
00020000
00000000
00000000
00000000
00030100
00001000
00000100
00001000
00000001
00000010
00000100
00001000
00000001
00000000
00000000
00000000
,
00002001
00000000
00000010
00000010
00000010
00000000
00000001
00000001
,
00000001
00000000
00000100
00000100
00003100
00000000
00000010
00010000
,
00021000
00000000
00100000
00100000
00100000
00000000
00001000
00001000
,
00001000
00000000
00000000
00000000
00000100
00000000
00000100
00000000
00030100
00000000
00000000
00011000
00000000
00000000
00100000
00000000
,
10020000
00000000
01000000
01000000
01000000
00000000
10030000
00100000
,
00020000
00000000
00001000
00001000
00001000
00000000
00030010
00001000
,
00000001
00000010
00000001
00000010
00001000
00000010
00001000
00010000
00001000
00100000
00010000
00200000
,
00000000
00000000
00000000
01300000
10000000
01000000
00010000
00001000
00010000
00000100
00000000
00000000
,
00000110
00000000
00000000
00000010
00000001
00000000
00000100
00000000
00000010
00000000
00000100
00000010
00001000
00000000
00000100
00000000
,
00010000
00000000
00001000
00010000
00000000
00001000
00100000
00010000
00200000
00000000
02300000
00000000
23000000
00000000
32000000
00000000
,
03010000
00000000
00000000
00001000
00010000
00000000
00000100
00000000
00001000
00000000
00000100
00000010
00000001
00000000
00000100
00000001
,
00000100
00000000
00000010
00000100
00000000
00000010
00001000
00000010
00001000
00000000
00010000
00000000
01000000
00000000
00100000
00000000
,
10000000
00000000
00010000
00100000
00000000
01000000
00100000
00000000
00010000
00000000
00100000
00001000
00010000
00000000
00000100
00000000
,
00001100
00000000
00000000
00000001
00000010
00000000
00000001
00000100
00000020
00000000
00002030
00000000
00023000
00000000
02030000
00000000
,
03200000
00000000
00000000
00000000
01300000
00000000
10020000
00000000
00000000
00000000
00130000
00000000
00001000
00010000
00001000
00010000
,
00000200
00000000
00000000
00000000
00000300
00000000
00000000
00000000
00001000
00000010
00001000
00000010
00010000
00001000
00010000
00001000
,
00100000
00000000
00010000
00100000
00000000
01000000
00100000
00000000
01000000
10000000
00010000
00000000
00100000
00000000
00010000
00100000
,
00001000
00000000
00010000
00001000
00000000
00010000
00000010
00001000
00000010
00000000
00000100
00000001
00001000
00000000
00000100
00000000
,
00010000
00000000
00001000
00100000
00000000
00010000
00100000
00000000
01000000
10000000
01000000
00000000
00010000
00000000
00001000
00010000
,
00001000
00000000
00000010
00000100
00000000
00000010
00000001
00000100
00000010
00000000
00000000
00000000
00000110
00000000
00000000
00000000
,
00001000
00000000
00000100
00001000
00000000
00000100
00010000
00000000
00001000
00010000
00001000
00000000
00100000
00000000
00010000
01000000
,
00100000
00000000
10000000
00100000
00000000
10000000
01000000
00100000
01000000
00000000
00100000
00001000
00010000
00000000
00001000
00000000
,
00011000
00000000
00000000
00010100
00000000
00000000
00001100
00000000
00000000
00000011
00000000
00000000
00000001
00000100
00000010
00001000
,
00000200
00000000
00000000
00000301
,
00000100
00001000
00000100
00010000
00001000
00010000
00001000
00000000
00000000
00100000
00010000
01000000
,
00100000
10000000
01000000
00100000
00000000
00000000
00010000
00100000
00001000
00010000
00001000
00010000
,
00000010
00000000
00000000
00001000
00000100
00000010
00000001
00000010
00000100
00001000
00000000
00000000
,
00000010
00001000
00000010
00010000
00001000
01000000
00010000
00000000
00000000
10000000
01000000
10000000
,
01000000
00100000
00010000
01000000
00000000
00000000
00001000
00010000
00000010
00001000
00000010
00010000
,
00001000
00010000
00001000
01000000
00010000
00100000
01000000
10000000
00100000
01000000
00000000
00000000
,
00010000
00100000
00001000
00010000
00001000
00010000
00000100
00001000
00000010
00001000
00000001
00000010
,
00000001
00000010
00000100
00001000
00000000
00000000
00000100
00010000
00001000
00100000
00010000
00100000
,
01000000
10000000
00010000
01000000
00010000
01000000
00001000
00010000
00001000
00020000
00000000
00000000
,
00030100
00001000
00000100
00001000
00000100
00000000
00000010
00000001
00000010
00000001
00000010
00000000
00001000
00000000
00010000
00000000
,
01000000
10000000
01000000
10000000
01000000
00000000
00100000
00010000
00100000
00010000
00100000
00000000
00001000
00000000
00010000
00000000
,
00000010
00000000
00000100
00000000
00001000
00000100
00000001
00000000
00001000
00000000
00000010
00000000
00010000
00001000
00010000
00000000
,
00001000
00000000
00100000
00000000
00010000
10000000
01000000
00000000
10000000
00000000
00100000
00000000
10000000
01000000
00010000
00000000
,
00001000
00000000
00100000
00010000
00100000
00000000
00001000
00010000
00001000
00000000
00010000
00001000
00010000
00000010
00001000
00000010
,
00001000
00000200
00000000
00000000
00000000
00000000
00000000
00000000
00000000
00000000
00000000
00000000
00000300
00000000
00000000
00000000
,
00000120
00000100
00000100
00000000
00001000
00000000
00000100
00000000
,
00000001
00000001
00000001
00000000
00000031
00000000
00000000
00000000
,
00021000
00001000
00001000
00000000
00000010
00000000
00001000
00000000
,
00000100
00000100
00000100
00000000
00030100
00000000
00000000
00000000
,
00210000
00010000
00010000
00000000
00001000
00000000
00010000
00000000
,
01000000
01000000
01000000
00000000
01300000
00000000
00000000
00000000
,
20010000
00000000
00000000
31000000
02000000
00000000
00000000
03010000
,
00020000
00001000
00002000
00033000
,
00000010
00001000
00000010
00001000
00000010
00000000
00010000
00001000
00100000
00010000
00100000
00000000
00110000
00000000
00000000
00000000
,
01000000
00010000
01000000
00010000
01000000
00000000
00001000
00010000
00000100
00001000
00000100
00000000
00001100
00000000
00000000
00000000
,
00010000
00001000
00100000
00010000
00100000
00000000
00001000
00010000
00000010
00001000
00000010
00000000
00001010
00000000
00000000
00000000
,
00010000
00001000
00100000
00001000
00010000
00000000
00000010
00010000
00001000
00010000
00000010
00000000
00011000
00000000
00000000
00000000
,
00100000
00010000
00100000
00010000
00100000
00010000
00100000
00010000
00100000
00010000
00100000
00010000
00100000
00010000
00100000
00010000
,
10000000
01000000
10000000
01000000
10000000
01000000
10000000
01000000
10000000
01000000
10000000
01000000
10000000
01000000
10000000
01000000
,
00100000
00010000
00100000
00001000
00010000
00000010
00001000
00000010
00010000
00001000
01000000
00010000
,
00100000
01000000
00100000
01000000
00010000
00001000
00010000
00001000
00000010
00000100
00000010
00000001
,
00000200
00000000
00000000
00000000
,
00000000
00000000
00000000
00000000
00000000
00000000
00001300
00010000
00002000
00000000
00203000
00000000
00320000
00000000
02030000
00000000
,
03100000
10000000
00000000
00100000
01000000
00000000
00010000
01000000
00020000
00000000
00230000
00000000
00302000
00000000
00003020
00000000
,
00000130
00001000
00000000
00000100
00000010
00000000
00000001
00000010
00000000
00000001
00000100
00000000
00000010
00000000
00000100
00001000
,
00010000
00000000
00001000
00000000
00010000
00100000
00000000
00100000
00000000
10000000
00100000
00000000
10000000
00000000
01000000
00010000
,
00002000
00000000
00203000
00000000
00320000
00000000
00030020
00000000
00000130
00001000
00000100
00001000
00000001
00000100
00000010
00001000
,
00000100
00010000
00000000
00001000
00010000
00000000
00001000
00100000
00020000
00000000
02030000
00000000
03002000
00000000
00003200
00000000
,
00010300
01000000
00000000
00100000
01000000
00100000
01000000
00000000
00100000
10000000
00010000
01000000
00100000
00000000
10000000
01000000
,
00020000
00000000
00032000
00000000
00023000
00000000
00031000
00000010
00001000
00000010
00000001
00000010
00000001
00000000
00000100
00000001
,
00001000
00000000
00000010
00000000
00000110
00000000
00000002
00000000
00000000
00000000
00000103
00001000
00000100
00001000
00010000
00001000
,
00010000
00001000
00000000
00010000
00100000
00000000
01000000
00100000
01000000
00100000
10000000
01000000
00100000
00010000
01000000
00010000
,
00100000
00001000
00000000
00001000
00010000
00000000
00010000
00000100
00000000
00000000
00001000
00000000
00000010
00000000
00000001
00000010
,
00001000
00000000
00000000
00010000
00000000
00000000
01000000
00000000
00000000
00010000
00000000
00000000
00100000
00000000
00100000
00000000
00100000
00000000
01000000
00000000
10000000
00000000
01000000
00000000
,
00010000
00001000
00000000
00100000
00010000
00100000
00010000
00000000
00001000
00000100
00000020
00000000
00000000
00000000
00000130
00001000
,
00000001
00000000
00000100
00000000
00001000
00000000
00010000
00001000
00010000
00000000
00100000
00000000
10000000
00000000
01000000
00010000
,
00001000
00000000
00010000
00000000
00001000
00000000
00000010
00000001
00001000
00000010
00001000
00000010
00010000
00001000
00010000
00001000
,
00100000
00010000
00100000
01000000
10000000
01000000
00100000
00010000
00100000
00001000
00010000
00000010
00001000
00000010
00000100
00000001
,
00001000
00000100
00001000
00000100
00010000
00001000
00010000
00001000
00100000
00010000
01000000
00100000
10000000
01000000
00010000
00001000
,
00020000
00000000
00000000
00030020
,
00002030
00000000
00000000
00000000
00000000
00000000
00000000
00000000
00003001
00000200
00000000
00000000
00000000
00000000
00001300
00010000
,
00001000
00010000
00100000
00010000
00100000
00010000
00100000
10000000
00100000
10000000
01000000
10000000
00010000
00100000
00010000
10000000
,
01000000
00010000
00001000
00010000
00001000
00000010
00000001
00001000
00000010
00001000
00000010
00010000
00001000
01000000
00010000
01000000
,
00200000
00000000
00000000
00000000
00000000
00000000
10300000
01000000
00100000
00010000
00100000
00001000
00010000
00000100
00001000
00000100
,
00000010
00000001
00001000
00000010
00001000
00000001
00000010
00000100
00001000
00000100
00010000
00001000
00100000
00010000
01000000
00100000
,
10000000
00000000
01000000
00000000
01100000
00000000
00010000
00000000
00100000
00001000
00010000
00000100
00010000
00001000
01000000
00010000
,
01000000
00000000
00100000
10000000
00100000
10000000
01000000
00010000
00001000
00000000
00100000
00010000
00100000
00001000
00010000
00000100
,
00010000
00001000
00000010
00000000
00000000
00000000
00001000
00010000
00100000
00000000
00000000
00000000
00010000
00001000
00000100
00000000
,
00000000
00000000
00000001
00000000
00000010
00000000
00001000
00000000
00000000
00020000
00000000
00000000
00000000
00000000
00000000
00000000
00000000
00000000
00000000
00000000
00000000
00000000
00000000
00000000
,
00000000
00000000
00000000
00000000
,
00000000
00000000
00030000
00000000
;

//--------------- dance-double - forcednature ----------------
#NOTEDATA:;
#STEPSTYPE:dance-double;
#DESCRIPTION:forcednature;
#CREDIT:forcednature;
#DIFFICULTY:Challenge;
#METER:19;
#RADARVALUES:0,0,0,0,0;
#NOTES:
00000000
00000000
00000000
00000000
,
00000000
00000000
00000000
00000000
,
00000000
00000000
00000000
00000000
,
00000000
00000000
00000000
00000000
,
00000000
00000000
00000000
00000000
,
00000000
00000000
00000000
00000000
,
00022000
00000000
00033000
00000000
00001000
00000000
00010000
00100000
,
20000000
00000000
01000000
01000000
01000000
00000000
30100000
00000000
,
00022000
00000000
00000000
00000000
00030000
00000000
00003010
00000001
,
00000200
00001000
00000002
00000303
,
00001001
00000000
00000000
00011000
00000000
00100000
00010000
01000000
,
10000000
11000000
00000000
01010000
00000000
00010000
00100000
00001000
,
00000010
00000110
00000000
00001001
00000000
00000001
00000100
00001000
,
00010000
00000000
00000000
01100000
00000000
00000000
10010000
00000000
00000000
00000000
10000000
01000000
00100000
00010000
00100000
00000000
,
00110000
00000000
00000000
00001100
00000000
00000001
00000010
00001000
,
00010000
00011000
00000000
00000110
00000000
00001000
00000010
00010000
,
00100000
01100000
00000000
10010000
00000000
10000000
01000000
00010000
,
00002000
00000000
00000000
00000000
00103000
00010000
00100000
00010000
00001000
00000100
00000010
00000001
00001000
00000000
00000000
00000000
,
00002002
00000000
00000000
00000000
,
00000000
00000000
00000000
00000000
00000000
00000000
00003003
00010000
,
00022000
00000000
00000000
00000000
,
00000000
00000000
00000000
00000000
00000000
00000000
00033000
00000000
00100000
00000000
00000000
00110000
00000000
00000000
01010000
00000000
,
20200000
00000000
00000000
30300000
,
00022000
00000000
00000000
00033000
,
00010000
00100000
00010000
00001000
00000010
00001000
00010000
01000000
10000000
01000000
00010000
00002000
,
00000000
00000000
00000000
00003010
00000001
00000100
00001000
00010000
01000000
20000000
00000000
00000000
,
30100000
00000000
00000000
10000000
01000000
00000000
00010000
00000000
01000000
00000000
10000000
00010000
00100000
00000000
01000000
00100000
,
00010000
00000000
00100000
00001000
00000000
00010000
00000100
00001000
00000200
00000000
00020300
00000000
00032000
00000000
00003020
00000000
,
00000031
00000000
00000000
00000100
00000010
00000000
00001000
00000000
00000010
00000000
00000100
00000001
00001000
00000000
00000010
00001000
,
00000001
00000000
00000010
00001000
00000000
00010000
00001000
00010000
00001000
00000000
00010000
00100000
10000000
00000000
00100000
00000000
,
01000000
00000000
00010000
00100000
00000000
01000000
00100000
00000000
00001000
00000000
00010000
00000100
00001000
00000000
00000010
00000000
,
00000110
00000000
00000000
00000001
00000100
00000000
00001000
00010000
00001000
00000000
00011000
00000000
00100000
00000000
00110000
00000000
,
21000000
00000000
00000000
00000000
30100000
00000000
01020000
00000000
00000000
00000000
00130000
00000000
00001000
00010000
00000100
00001000
,
00000020
00000000
00000000
00000000
00000030
00000000
00000000
00000000
00000100
00001000
00000100
00001000
00010000
00100000
00010000
00000000
,
00100000
00000000
00000000
00000000
00000000
00000000
10000000
00000000
00000000
01000000
00000000
00000000
00000000
00000000
00000000
00010000
00000000
00000000
01000000
00000000
00000000
00000000
00000000
00000000
00100000
00000000
00010000
00000000
00001000
00000000
00000100
00000000
00000000
00000000
00000000
00000000
00001000
00000000
00000000
00000000
00000000
00000000
00000010
00000000
00000000
00000100
00000000
00000000
,
00000001
00000000
00000010
00001000
00000000
00010000
00001000
00010000
01000000
00000000
00100000
00010000
10000000
00000000
00100000
00000000
,
01100000
00000000
00000000
00000000
00000000
00000000
00010000
00000000
00000000
01000000
00000000
00000000
00000000
00000000
00000000
00010000
00000000
00000000
00100000
00000000
00000000
00000000
00000000
00000000
00001000
00000000
00010000
00000000
00000100
00000000
00001000
00000000
00000000
00000000
00000000
00000000
00000010
00000000
00000000
00000000
00000000
00000000
00001000
00000000
00000000
00000100
00000000
00000000
,
00000001
00000000
00000100
00001000
00000000
00000001
00000010
00000100
00000001
00000000
00000000
00000000
00011000
00000000
00000000
00000000
,
00100000
00000000
00000000
00000000
00000000
00000000
00010000
00000000
00000000
00100000
00000000
00000000
00000000
00000000
00000000
00001000
00000000
00000000
00010000
00000000
00000000
00000000
00000000
00000000
00000010
00000000
00001000
00000000
00000001
00000000
00000100
00000000
00000000
00000000
00000000
00000000
00001000
00000000
00000000
00000000
00000000
00000000
00010000
00000000
00000000
00001000
00000000
00000000
,
00010000
00000000
00100000
10000000
00000000
01000000
10000000
01000000
00010000
00000000
00001000
00010000
00001000
00000000
00000010
00000000
,
00000110
00000000
00000000
00010100
00000000
00000000
00101000
00000000
00000000
01100000
00000000
00000000
10010000
00000000
00001000
00000000
,
00022000
00000000
00003000
00130000
,
00010000
00001000
00000100
00000010
00000100
00001000
00010000
00100000
01000000
00100000
00010000
00001000
,
00000100
00000010
00000100
00001000
00010000
00100000
10000000
01000000
00100000
00010000
01000000
00100000
,
00010000
00001000
00100000
00010000
00001000
00000100
00010000
00001000
00000100
00000010
00000000
00000000
,
00000001
00000100
00000010
00001000
00000100
00000010
00001000
00010000
00100000
00010000
00001000
00000100
,
00001000
00010000
01000000
10000000
00100000
10000000
01000000
00010000
00001000
00100000
00001000
00010000
,
01000000
00000000
00100000
00000000
00001000
00000000
00010000
00000000
00000100
00000000
00000010
00000000
00000001
00000000
00000100
00000000
00001000
00000000
00010000
00000000
00000000
00010000
00000000
00000000
,
00100000
10000000
01000000
00010000
00001000
00000100
00000001
00000010
00000001
00000100
00001000
00010000
,
01000000
10000000
00100000
10000000
01000000
00010000
00001000
00100000
00010000
00001000
00000100
00010000
,
00001000
01000000
00100000
00010000
00001000
00000100
00000010
00001000
00000001
00000020
00000000
00000000
,
00001030
00010000
00001000
00010000
00001000
00000000
00100000
00010000
01000000
00010000
10000000
00000000
01000000
00010000
00001000
00000000
,
00010000
00001000
00010000
00001000
00010000
00000000
00000010
00001000
00000100
00001000
00000001
00000000
00000100
00001000
00010000
00000000
,
00100000
00000000
10000000
00000000
01000000
00010000
00001000
00000000
00000010
00000000
00000001
00000000
00000100
00001000
00010000
00000000
,
01000000
00000000
10000000
00000000
00100000
00010000
00001000
00000000
00000100
00000000
00000001
00000000
00000010
00001000
00010000
00000000
,
01000000
10000000
01000000
10000000
00010000
00100000
00001000
00010000
00000010
00001000
00000100
00000010
00000001
00000100
00001000
00010000
,
00001000
00200000
00000000
00000000
00000000
00000000
00000000
00000000
00000000
00000000
00000000
00000000
00300000
00000000
00000000
00000000
,
10020000
10000000
10000000
00000000
01000000
00000000
10000000
00000000
,
00100000
00100000
00100000
00000000
00001000
00000000
10030000
00000000
,
00002001
00000001
00000001
00000000
00000100
00000000
00000001
00000000
,
00000010
00000010
00000010
00000000
00010000
00000000
00003001
00000000
,
00120000
00100000
00100000
00000000
00001000
00000000
00000100
00000000
,
00001000
00001000
00001000
00000000
01030000
00000000
01100000
00000000
,
20100000
00000000
00000000
00010000
00010000
00000000
31000000
00010000
,
00002000
00000010
00000020
00003030
,
00010000
00001000
00100000
00010000
00100000
00000000
00001000
00010000
00000010
00001000
00000010
00000000
00011000
00000000
00000000
00000000
,
01000000
00010000
00100000
00001000
00010000
00000000
00000100
00001000
00000010
00010000
00001000
00000000
00011000
00000000
00000000
00000000
,
00100000
01000000
00010000
00001000
00010000
00000000
00000010
00000100
00001000
00010000
00001000
00000000
00011000
00000000
00000000
00000000
,
00100000
00010000
00001000
00000100
00010000
00000000
00000010
00001000
00010000
01000000
00001000
00000000
00011000
00000000
00000000
00000000
,
00100000
00010000
00100000
00010000
10000000
01000000
00010000
01000000
10000000
00010000
00100000
00010000
00001000
00000100
00001000
00000010
,
00000100
00000001
00000010
00000001
00001000
00000010
00000100
00001000
00010000
00100000
01000000
00100000
10000000
00010000
01000000
00010000
,
10000000
01000000
00010000
00001000
00000100
00000001
00000100
00001000
00010000
01000000
10000000
00100000
,
00010000
00001000
00000010
00000001
00000010
00001000
00010000
00100000
10000000
01000000
00010000
00001000
,
00000020
00000000
00000000
00000000
,
00000000
00000000
00000000
00000000
00000130
00000000
00001000
00000001
00000200
00000000
00002300
00000000
00023000
00000000
00230000
00000000
,
01300000
00010000
10000000
00010000
01000000
00000000
00100000
00010000
00002000
00000000
00203000
00000000
00302000
00000000
00023000
00000000
,
00030100
00000000
00000000
00001000
00000000
00000000
00000000
00000000
00000000
00000010
00000000
00000000
00000100
00000000
00000000
00000000
00000000
00000000
00000001
00000000
00000000
00000010
00000000
00000000
00000100
00000000
00000000
00000010
00000000
00000000
00000001
00000000
00000000
00001000
00000000
00000000
00000100
00000000
00000000
00000000
00000000
00000000
00010000
00000000
00001000
00000000
00100000
00000000
,
00001000
00000000
00010000
01000000
10000000
01000000
00000000
01100000
00000000
00100000
00002000
00000000
00010000
00000000
01003000
00010000
,
10000000
00000000
01000000
00000000
00010000
00000000
00000100
00000000
00001000
00000010
00000100
00001000
00000100
00000010
00001000
00000001
,
00000010
00001000
00000000
00010000
00001000
00000000
00010000
01000000
20000000
00000000
30020000
00000000
00230000
00000000
00302000
00000000
,
00013000
00000000
00000000
00100000
00000000
00000000
00000000
00000000
00000000
00010000
00000000
00000000
00001000
00000000
00000000
00010000
00000000
00000000
00000100
00000000
00000000
00001000
00000000
00000000
00000000
00000000
00000000
00000100
00000000
00000000
00000010
00000000
00000000
00000001
00000000
00000000
00000010
00000000
00000000
00000000
00000000
00000000
00000001
00000000
00000100
00000000
00000010
00000000
,
00001000
00000000
00000000
00000000
00000000
00000000
00000100
00000000
00000000
00000000
00000000
00000000
00001100
00000000
00000000
00000000
00000000
00000000
00010000
00000000
00000000
00001000
00000000
00000000
00100000
00000000
00000000
00010000
00000000
00000000
00100000
00000000
00000000
01000000
00000000
00000000
10000000
00000000
00000000
00000000
00000000
00000000
00100000
00000000
10000000
00000000
01000000
00000000
,
00010000
00000000
00011000
00000000
00101000
00000000
00010200
00000000
00000000
00000000
00001300
00000010
00000100
00001000
00010000
00100000
,
01000000
00010000
00000000
10000000
00100000
00000000
10000000
01000000
00010000
00001000
00100000
00001000
00010000
00000100
00010000
00001000
,
00000010
00000000
00000000
00000100
00000000
00000000
00000000
00000000
00000000
00010000
00000000
00000000
00001000
00000000
00000000
00000000
00000000
00000000
00100000
00000000
00000000
01000000
00000000
00000000
00000000
00000000
00000000
00000000
00000000
00000000
00110000
00000000
00000000
00000000
00000000
00000000
00011000
00000000
00000000
00000000
00000000
00000000
00000100
00000000
00001000
00000000
00000100
00000000
,
00000020
00000000
00000000
00000000
00000000
00000000
00000001
00000000
00000000
00000000
00000000
00000000
00000001
00000000
00000000
00000000
00000000
00000000
00000130
00000000
00000000
00001000
00000000
00000000
00000002
00000000
00000000
00000000
00000023
00000000
00000000
00000000
00002030
00000000
00000000
00000000
00023000
00000000
00000000
00000000
02030000
00000000
00000000
00000000
23000000
00000000
00000000
00000000
,
30000000
00110000
00000000
00001000
00010000
00100000
00010000
00001000
00000010
00000000
00000220
00000000
00000030
00000000
00001300
00000001
,
00000100
00000000
00001000
00000000
00011000
00000000
00010000
00100000
10000000
00000000
01000000
00000000
10010000
00000000
10000000
01000000
,
00010000
00000000
00001000
00000000
00011000
00000000
00001000
00000010
00000001
00001000
00000100
00001000
00000010
00000100
00001000
00010000
,
00100000
01000000
00100000
01000000
00010000
10000000
01000000
10000000
00010000
00100000
00001000
00010000
00000100
00001000
00000010
00000100
,
00000001
00000010
00000001
00000010
00000001
00000010
00001000
00010000
00001000
00010000
00001000
00010000
01000000
10000000
00100000
01000000
00010000
00100000
01000000
00000000
00000000
00000000
00000000
00000000
,
10020000
00000000
00000000
02030000
,
03002000
00000000
00000000
00000000
00000000
00000000
00000000
00000000
00013000
00000020
00000000
00000000
00000000
00000000
00001030
00000100
,
00000010
00000001
00000100
00000001
00000010
00001000
00010000
00001000
00010000
01000000
10000000
01000000
00100000
00001000
00010000
00000100
,
00010000
00001000
00000010
00000100
00000010
00000001
00001000
00000010
00001000
00010000
01000000
00010000
10000000
00100000
00010000
00001000
,
00020000
00000000
00000000
00000000
00000000
00000000
01030000
10000000
01000000
00010000
00001000
00010000
00001000
00000010
00000001
00001000
,
00000100
00001000
00000001
00000100
00001000
00010000
00100000
01000000
00100000
10000000
00010000
01000000
00010000
00100000
00010000
00001000
,
00000100
00000000
00001100
00000000
00001010
00000000
00000110
00000000
00000100
00000001
00000010
00000100
00001000
00000010
00000100
00001000
,
00010000
00100000
01000000
00010000
00100000
00010000
10000000
00100000
00010000
00001000
00010000
00001000
00000100
00000001
00001000
00000010
,
00010000
00001000
00000100
00000000
00000000
00000000
00001000
00010000
01000000
00000000
00000000
00000000
00010000
00001000
00000010
00000000
,
00000000
00000000
00001000
00000000
00010000
00000000
00100000
00000000
00000000
20020000
00000000
00000000
00000000
00000000
00000000
00000000
00000000
00000000
00000000
00000000
00000000
00000000
00000000
00000000
,
00000000
00000000
00000000
00000000
,
00000000
00000000
30030000
00000000
;
