#VERSION:0.83;
#TITLE:COSMIC RAY;
#SUBTITLE:;
#ARTIST:BEMANI Sound Team "Captain Sonic";
#TITLETRANSLIT:;
#SUBTITLETRANSLIT:;
#ARTISTTRANSLIT:Captain Sonic;
#GENRE:BIGCORE;
#CREDIT:;
#MUSIC:COSMIC RAY.ogg;
#BANNER:COSMIC RAY.png;
#BACKGROUND:COSMIC RAY-bg.png;
#CDTITLE:./CDTitles/bm IIDX 28 BISTROVER.png;
#SAMPLESTART:20.620;
#SAMPLELENGTH:15.000;
#SELECTABLE:YES;
#OFFSET:0.297;
#BPMS:0.000=195.000;
#STOPS:;
#TIMESIGNATURES:0.000=4=4;
#BGCHANGES:0.000=COSMIC RAY.mp4=1.000=0=0=0=StretchNoLoop====,
99999.000=-nosongbg-=1.000=0=0=0=StretchNoLoop====
;
#FGCHANGES:;

//--------------- dance-single - forcednature ----------------
#NOTEDATA:;
#STEPSTYPE:dance-single;
#DESCRIPTION:forcednature;
#DIFFICULTY:Beginner;
#METER:6;
#RADARVALUES:0,0,0,0,0;
#CREDIT:forcednature;
#NOTES:
0000
0000
0000
0000
,
0000
0000
0000
0000
,
0000
0000
0000
0000
,
0000
0000
0000
0000
,
0000
0000
0000
0000
,
1000
0000
0000
0000
,
0001
0000
0000
0000
,
0100
0000
0000
0000
,
1001
0000
0000
0000
,
0220
0000
0000
0000
,
0000
0000
0330
0000
,
2002
0000
0000
0000
,
0000
0000
3003
0000
,
0220
0000
0000
0000
,
0000
0000
0330
0000
,
2002
0000
0000
0000
,
0000
0000
3003
0000
,
1000
0000
1000
0000
,
1000
0000
0000
0000
,
0001
0000
0001
0000
,
0100
0000
0001
0000
,
0010
0000
0010
0000
,
0010
0000
0000
0000
,
0100
0000
0100
0000
,
0110
0000
0000
0000
,
0001
0000
1000
0000
,
0001
0000
0000
0000
,
1000
0000
0100
0000
,
1000
0000
0100
0000
,
1000
0000
0001
0000
,
1000
0000
0000
0000
,
0001
0000
0100
0000
,
0001
0000
0000
0000
,
2000
0000
0000
0000
,
3000
0000
0000
0000
,
0200
0000
0000
0000
,
0300
0000
0000
0000
,
0020
0000
0000
0000
,
0030
0000
0000
0000
,
0002
0000
0000
0000
,
0003
0000
0000
0000
,
1000
0000
0000
1000
,
0010
0000
0000
0010
,
0100
0000
0000
0100
,
0001
0000
1000
0000
,
0100
0000
0000
0100
,
0010
0000
0000
0000
,
0001
0000
1000
0000
,
1001
0000
0000
0000
,
0001
1000
0001
1000
,
0001
1000
0001
0000
,
0010
0000
0100
0000
,
1000
0000
0000
0000
,
1000
0001
1000
0001
,
1000
0001
1000
0000
,
0010
0000
0100
0000
,
0001
0000
0000
0000
,
0010
0100
0010
0100
,
0010
0100
0010
0000
,
0100
0000
1000
0000
,
0001
0000
0000
0000
,
0100
0010
0100
0010
,
0100
0010
0100
0000
,
0001
0000
1000
0000
,
1001
0000
0000
0000
,
0001
0100
0000
0100
,
0000
0100
0000
0100
,
0000
0010
0000
0010
,
0000
0010
0000
0010
,
1000
0100
0000
0100
,
0000
0100
0000
0100
,
0000
0010
0000
0010
,
0001
0000
0000
0000
,
1000
0010
1000
0000
,
0001
0010
0001
0000
,
1000
0100
1000
0000
,
0001
0100
0001
0000
,
1000
0001
1000
0001
,
1000
0001
1000
0001
,
0010
0010
0010
0010
,
0100
0000
0000
0000
,
1001
0000
0000
0000
;

//--------------- dance-single - forcednature ----------------
#NOTEDATA:;
#STEPSTYPE:dance-single;
#DESCRIPTION:forcednature;
#DIFFICULTY:Easy;
#METER:10;
#RADARVALUES:0,0,0,0,0;
#CREDIT:forcednature;
#NOTES:
0000
0000
0000
0000
,
0000
0000
0000
0000
,
0000
0000
0000
0000
,
0000
0000
0000
0000
,
0000
0000
0000
0000
,
1000
0000
0000
1000
0000
0000
1000
0000
,
0001
0000
0000
0001
0000
0000
0001
0000
,
0100
0000
0000
0100
0000
0000
0100
0000
,
0020
0000
0000
0000
0000
0000
0000
0000
0000
0000
0000
0000
0000
0030
0000
0000
,
2000
0001
0000
0001
,
0000
0000
0000
0000
0001
0000
3000
0000
0000
0000
1000
0000
0000
1000
0000
0000
,
0002
1000
0000
1000
,
0000
0000
0000
0000
1000
0000
0003
0000
0000
0000
0001
0000
0000
0001
0000
0000
,
0200
0010
0000
0010
,
0000
0010
0000
0310
,
2002
0000
0000
0000
,
0000
0000
0000
3003
,
1000
0000
1001
0000
0001
0000
0100
0001
,
0100
0010
0000
0010
,
1000
0000
0001
0000
1000
0000
0100
1000
,
0100
0000
0000
0000
0010
0000
0000
0010
0000
0000
0010
0000
0000
0000
0000
0000
,
0001
0000
1001
0000
1000
0000
0010
1000
,
0010
0100
0001
0100
,
0010
0000
1000
0000
0001
1000
0001
0000
,
0010
0000
0000
0010
0000
0000
0000
0000
,
0100
0000
0110
0000
0010
0000
0001
1000
,
0001
0100
0000
0100
,
1001
0000
0000
0000
1000
0001
1000
0000
,
0010
0000
0100
0000
0010
0100
0000
0000
,
0001
0000
1001
0000
1000
0000
0100
1000
,
0100
0110
0010
1001
,
1000
0000
0001
0000
0100
0001
0100
0000
,
0010
0000
0000
0010
0000
0000
0000
0000
,
2000
0000
0000
0000
,
0000
0000
0000
3000
,
0200
0000
0000
0000
,
0000
0000
0000
0300
,
0020
0000
0000
0000
,
0000
0000
0000
0030
,
2002
0000
0000
0000
,
0000
0000
3003
0000
,
1000
0001
1001
1000
,
0010
0100
0110
0010
,
1000
0001
1001
1000
,
0100
0010
0110
0000
,
0001
1000
1001
0001
,
0100
0010
0110
0000
,
0001
1000
0001
0000
1000
0001
1000
0000
,
2002
0000
3003
0000
,
1000
0200
0010
1000
,
0010
1000
0310
0000
,
0100
0000
1000
0000
0100
1000
0100
0000
,
0010
0001
0010
0000
0001
0000
1000
0000
,
0001
0200
0010
0001
,
0010
0001
0310
0000
,
0001
0000
0100
0000
0001
0100
0001
0000
,
2000
3000
0110
0110
,
0001
0200
0010
0001
,
0010
0001
0310
0000
,
0100
0000
0001
0000
0100
0001
0100
0000
,
0010
1000
0010
0000
1000
0000
0001
0000
,
1000
0200
0010
1000
,
0010
1000
0310
0000
,
1000
0100
0010
0001
,
2002
0000
0000
3003
,
0001
1200
0000
1000
,
0000
1000
0300
1100
,
0001
0100
0010
1000
,
0001
0000
0100
0000
0010
1000
0010
0000
,
1000
0201
0000
0001
,
0000
0001
0300
0101
,
1000
0100
0010
0001
,
2002
0000
0000
3003
,
1000
0000
0001
0000
1000
0001
1000
0000
,
0001
0000
0100
0000
0001
0100
0001
0000
,
0100
0000
0010
0000
0100
0010
0100
0000
,
0010
0000
1000
0000
0010
1000
0010
0000
,
1000
0001
1000
0000
0001
1000
0001
0000
,
0010
0100
0010
0000
0100
0010
0100
0000
,
0110
0110
1001
1001
,
0210
0000
0010
0310
,
2002
0000
0000
0000
0000
3003
0000
0000
0000
0000
0000
0000
0000
0000
0000
0000
;

//--------------- dance-single - forcednature ----------------
#NOTEDATA:;
#STEPSTYPE:dance-single;
#DESCRIPTION:forcednature;
#DIFFICULTY:Medium;
#METER:14;
#RADARVALUES:0,0,0,0,0;
#CREDIT:forcednature;
#NOTES:
0000
0000
0000
0000
,
0000
0000
0000
0000
,
0000
0000
0000
0000
,
0000
0000
0000
0000
,
0000
0000
0000
0000
,
1100
0000
0000
1100
0000
0000
0001
0000
,
0101
0000
0000
0101
0000
0000
1000
0000
,
0110
0000
0000
0110
0000
0000
0010
0000
,
2002
0000
0000
0000
0000
0000
0000
0000
0000
0000
0000
0000
0000
3003
0000
0000
,
1100
0000
0000
0000
0001
0000
0000
2000
0000
0000
3000
0000
0001
0000
0000
2000
,
0000
0000
3000
0000
0001
0000
0000
2000
0000
0000
3010
0000
0000
0110
0000
0000
,
1001
0000
0000
0000
1000
0000
0000
0002
0000
0000
0003
0000
1000
0000
0000
0002
,
0000
0000
0003
0000
1000
0000
0000
0002
0000
0000
0013
0000
0000
0110
0000
0000
,
1001
0000
0000
0000
0010
0000
0000
0200
0000
0000
0300
0000
0010
0000
0000
0200
,
0000
0000
0300
0000
0010
0000
0000
0200
0000
0000
0300
0000
0010
0000
0000
0000
,
2002
0000
0000
0000
,
0000
0000
0000
3003
,
1000
0000
0011
0000
0001
0100
1000
0100
,
0010
0000
0000
0000
1010
0000
0000
0000
1000
0000
0000
1000
0100
0000
0010
0000
,
0001
0000
0000
0000
0101
0000
0000
0000
0100
0010
0100
0000
0010
0000
1000
0000
,
0001
0000
0000
0000
0011
0000
0000
0011
0000
0000
0011
0000
0000
0000
0010
0000
,
0100
0000
1001
0000
0001
0010
1000
0010
,
0001
0000
0000
0000
0101
0000
0000
0000
0100
0000
0000
0100
0010
0000
1000
0000
,
0001
0000
0000
0000
0011
0000
0000
0000
0010
0001
0010
0000
0001
0000
1000
0000
,
1001
0000
0000
0000
0000
0000
1001
0000
0000
0000
0000
0000
0000
0010
0000
0000
,
0110
0000
1001
0000
1000
0010
0001
0010
,
0100
0000
0000
0000
0101
0000
0000
0000
0001
0000
0000
0001
0010
0000
0100
0000
,
1000
0000
0010
0000
0100
0000
0010
0000
1000
0000
0100
1000
0100
0000
0100
0000
,
0010
0000
0001
0000
0100
0000
0001
0000
0000
0001
0010
0000
0000
0000
0100
0000
,
1000
0000
0110
0000
0001
0010
1000
0010
,
0100
0000
0000
0000
1100
0000
0000
0000
1000
0000
0000
1000
0010
0000
0100
0000
,
0001
0000
0010
0000
0001
0000
0001
0000
1000
0000
0010
1000
0010
0000
0100
0000
,
1001
0000
0000
0000
0000
0000
1001
0000
0000
0000
0000
0000
0000
0010
0000
0000
,
0120
0000
0000
0000
1030
0000
0000
0100
,
0000
0010
0001
0100
,
0020
0000
0000
0000
1030
0000
0000
0001
,
0000
0010
0100
1000
,
0120
0000
0000
0000
0031
0000
0000
0100
,
0000
0010
1000
0001
,
0010
0000
0000
0000
0010
0000
0000
0000
0000
0000
0000
0000
0000
0100
0000
0000
,
0010
0000
0010
0000
0000
0010
0000
0000
0100
0000
2000
0000
0000
0000
3000
0000
,
0011
0000
1100
0000
0011
0000
0001
0100
,
1000
0101
1010
0001
,
1100
0000
0000
0000
0101
0000
0000
0000
1100
0000
0000
0000
0001
0000
0000
0001
,
0010
0010
0010
0000
0100
1000
0001
0000
,
1010
0000
1100
0000
1010
0000
0001
0100
,
1000
0101
0011
0000
,
1000
0000
0100
0000
1000
0000
0010
0000
0100
0000
0001
0000
0010
0000
0001
1000
,
0002
0000
0000
0000
0000
0003
0000
0000
0200
0000
0000
0000
0000
0000
0300
0000
,
0010
1000
0200
0000
0001
0010
1000
0000
,
0001
0010
1000
0000
0301
0000
0100
0000
,
0010
0000
0000
0000
0010
0000
0001
0000
0000
0000
0001
0000
0100
0000
0000
0010
0000
0000
1000
0000
0000
0000
0000
0000
,
0001
1000
0001
1000
0001
0000
0000
0000
1100
0000
0000
0000
1100
0000
0000
0000
,
0010
0001
0200
0000
1000
0010
0001
0000
,
1000
0010
0001
0000
1300
0000
0100
0000
,
0001
0010
0100
1000
0100
0010
0001
0000
,
2001
0000
0000
0000
0000
0000
0000
0000
0000
0000
0000
0000
0000
0000
0000
0000
0000
0000
0000
0000
0000
0000
0000
0000
0000
0000
0000
0000
0000
0000
0000
0000
3000
0000
0000
0000
0000
0000
0000
0000
0000
0000
0000
0000
0000
0000
0000
0000
0100
0000
0000
0000
0000
0000
0000
0000
0000
0000
0000
0000
0000
0000
0000
0010
0000
0000
0000
0000
0000
0000
0000
0000
0000
0000
0000
0000
0000
0000
0000
0000
0000
0100
0000
0000
0000
0000
0000
0000
0000
0000
0000
0000
0000
0000
0000
0000
,
0010
0001
0200
0000
1000
0010
0001
0000
,
1000
0010
0001
0000
1300
0000
0100
0000
,
0010
0000
0000
0000
0010
0000
1000
0000
0000
0000
1000
0000
0100
0000
0000
0010
0000
0000
0001
0000
0000
0000
0000
0000
,
1000
0001
1000
0001
1000
0000
0000
0000
0101
0000
0000
0000
0101
0000
0000
0000
,
0010
1000
0200
0000
0001
0010
1000
0000
,
0001
0010
1000
0000
0301
0000
0100
0000
,
1000
0010
0100
0001
0100
0010
1000
0000
,
2002
0000
0000
3003
,
1010
0201
0010
1000
,
0010
0001
0310
0110
,
0100
0001
0010
0000
0100
1000
0010
0000
,
1000
0001
0100
0000
0001
1000
0100
0000
,
0011
1200
0010
0001
,
0010
1000
0310
0110
,
0100
1000
0010
0000
0100
0001
0010
0000
,
2002
0000
0000
3003
,
1000
0100
1000
0100
0010
0010
0001
1000
,
0001
0100
0001
0100
0010
0010
1000
0001
,
1000
0100
0010
0100
0001
0001
0100
1000
,
0001
0100
1000
0100
0010
0000
1001
0000
,
0001
0100
0001
0000
0100
0000
0001
0000
0100
0010
0100
0000
0010
0000
0100
0000
,
0010
1000
0010
0000
1000
0000
0010
0000
1000
0001
1000
0000
0001
0000
1000
0000
,
0100
1000
0100
0000
1000
0001
1000
0000
0100
1000
0100
0000
1000
0001
1000
0000
,
0010
0000
0000
0000
0100
0000
0000
0001
0000
0000
1000
0000
0100
0000
0010
0000
,
0020
0000
0000
0000
0000
0030
0000
0000
0000
0000
0000
0000
0000
0000
0000
0000
;

//--------------- dance-single - forcednature ----------------
#NOTEDATA:;
#STEPSTYPE:dance-single;
#DESCRIPTION:forcednature;
#DIFFICULTY:Hard;
#METER:17;
#RADARVALUES:0,0,0,0,0;
#CREDIT:forcednature;
#NOTES:
0000
0000
0000
0000
,
0000
0000
0000
0000
,
0000
0000
0000
0000
,
0000
0000
0000
0000
,
0000
0000
0000
0000
,
1001
0000
0000
1100
0000
0000
0010
0000
,
0101
0000
0000
1001
0000
0000
0010
0000
,
1100
0000
0000
0101
0000
0000
0010
0000
,
2002
0000
0000
0000
0000
0000
0000
0000
0000
0000
0000
0000
0000
3003
0000
0000
,
2100
0000
0000
0000
0001
0000
0000
0010
0000
0000
0100
0000
0001
0000
0000
0010
,
0000
0000
0100
0000
0001
0000
0000
3010
0000
0000
1010
0000
0000
1100
0000
0000
,
0102
0000
0000
0000
1000
0000
0000
0010
0000
0000
0100
0000
1000
0000
0000
0010
,
0000
0000
0100
0000
1000
0000
0000
0013
0000
0000
0011
0000
0000
0101
0000
0000
,
2100
0000
0000
0000
0010
0000
0000
0001
0000
0000
0100
0000
0010
0000
0000
0001
,
0000
0000
0100
0000
0010
0000
0000
0001
0000
0000
3100
0000
1000
0000
0001
0000
,
0021
0000
0000
0000
0100
0230
0000
2300
,
0000
3020
0230
0301
,
1000
0100
0000
0010
0100
0000
0010
0001
0000
1000
0001
0000
0100
0001
0100
0000
,
0010
0000
1000
0000
1001
0000
0000
0000
0001
0010
0000
0010
0001
0000
1000
0000
,
1010
0000
0000
0000
0002
0000
0000
0000
0013
0100
0010
0000
0100
0000
1000
0100
,
1000
0000
1000
0001
0010
0000
1000
0010
0000
0001
0010
0000
0000
0000
0100
0000
,
1000
0010
0000
0100
0010
0000
0100
0001
0000
1000
0001
0000
0010
0001
0010
0000
,
0100
0000
0000
0100
1000
0000
0001
0000
0100
0000
0010
1000
0100
0000
0010
0000
,
0110
0000
0000
0000
1002
0000
0000
0000
0103
0001
0100
0000
0010
0000
1000
0000
,
0011
0000
0000
0000
0000
0000
1010
0000
0000
0000
0000
0000
0000
0001
0000
0000
,
1000
0100
0000
1000
0001
0000
0100
0001
0000
0100
0010
0000
1000
0001
0010
0000
,
0100
0000
0000
0000
0011
0000
0000
0000
1000
0010
0000
0010
1000
0000
0100
0000
,
0010
0001
0100
0000
0001
0010
0100
0000
0110
0000
0100
0010
0001
0000
0001
0000
,
1000
0010
1000
0000
0001
0000
0010
0100
0000
0100
1000
0000
0000
0000
1010
0000
,
0010
0100
0000
0001
0010
0000
0100
1000
0000
0010
0100
0000
0001
0010
0001
0000
,
1000
0000
0010
0100
0001
0000
1000
0100
0010
0001
0000
0001
0100
0000
0100
0000
,
0010
1000
0100
0000
0010
0100
1000
0000
0010
0000
0001
0010
0100
0000
0100
0000
,
0101
0000
0000
0000
0000
0000
1100
0000
0000
0000
0000
0000
0000
0001
0000
0001
,
2000
0000
0000
0000
3100
0000
0000
0010
,
0000
0100
0100
1000
,
0002
0000
0000
0000
0103
0000
0000
0010
,
0000
0100
0100
0001
,
2001
0000
0000
0000
3100
0000
0000
0010
,
0000
0001
0001
0100
,
0020
0000
0000
0000
1000
0000
0000
0000
0000
0000
0000
0000
0000
1000
0000
0000
,
1000
0000
1000
0000
0000
1000
0000
0000
2030
0000
3002
0000
0000
0000
0003
0000
,
0011
0010
0011
0000
0011
0000
0100
1000
,
1010
0010
1010
0000
1010
0000
0100
0001
,
0011
0000
0100
0000
1100
0000
0000
0000
0011
0000
0000
0000
1000
0000
1000
0001
,
0100
0110
1001
0000
0010
0100
1001
0000
,
1100
0100
1100
0000
0011
0000
0001
1000
,
1100
0010
0101
0000
1001
0000
0010
0000
,
0101
0000
1000
0000
1100
0000
0001
0000
0011
0000
1000
0000
1010
0000
0001
1000
,
0200
0000
0000
0000
0000
0300
0000
0000
0020
0000
0000
0000
0000
0000
0030
0000
,
0001
0000
0100
0001
1000
0010
0100
0001
1000
0010
0100
0001
1000
0010
0100
0001
,
1000
0010
0100
0001
1000
0010
0100
0001
1000
0000
0000
0000
0200
0000
0000
0000
,
2300
0000
3002
0000
0023
0000
0032
0000
2003
0000
3020
0000
1030
0000
0000
0001
0000
0000
0100
0000
0000
0000
0000
0000
,
0010
0100
0001
0100
0010
0000
0000
0000
0110
0000
0000
0000
1001
0000
0000
0000
,
1000
0000
0100
1000
0001
0010
0100
1000
0001
0010
0100
1000
0001
0010
0100
1000
,
0001
0010
0100
1000
0001
0010
0100
1000
0001
0000
0000
0000
0200
0000
0000
0000
,
0310
1000
0001
0001
0001
0010
0100
0000
,
2000
0000
0000
0000
0000
0000
0000
0000
3020
0000
0000
0000
0000
0000
0000
0000
0230
0000
0000
0000
0000
0000
0000
0000
0302
0000
0000
0000
0000
0000
0000
0000
0003
0000
0000
0000
0000
0000
0000
0000
0001
0000
0000
0000
0000
0000
0000
0000
1000
0000
0000
0000
0000
0000
0000
0000
0000
0010
0000
0000
0000
0000
0000
1000
0000
0000
0000
0000
0000
0000
0000
0000
0001
0000
0000
0000
0000
0000
0000
0000
0000
0001
0000
0000
0000
0000
0000
0000
0000
0000
0001
0000
0000
0000
0000
0000
,
1000
0000
0100
0010
0001
1000
0100
0010
0001
1000
0100
0010
0001
1000
0100
0010
,
0001
1000
0100
0010
0001
1000
0100
0010
0001
0000
0000
0000
0200
0000
0000
0000
,
0320
0000
2030
0000
3200
0000
0320
0000
0032
0000
0203
0000
0310
0000
0000
1000
0000
0000
0001
0000
0000
0000
0000
0000
,
0010
0100
1000
0100
0010
0000
0000
0000
0110
0000
0000
0000
1001
0000
0000
0000
,
0001
0000
0100
0010
1000
0001
0100
0010
1000
0001
0100
0010
1000
0001
0100
0010
,
1000
0001
0100
0010
1000
0001
0100
0010
1000
0000
0000
0000
0200
0000
0000
0000
,
0310
0000
0001
0000
0100
0000
0100
0000
0100
0000
0010
0000
1000
0000
0000
0100
,
0020
0000
0000
0030
,
1001
0000
0000
0000
0001
0100
0001
0100
0001
0100
0001
0100
0001
0100
0001
0100
,
0001
0100
0001
0100
0001
0100
0001
0100
0001
0000
0000
0000
0010
0000
0000
0000
,
1100
0000
0000
0000
0002
0000
0000
1000
0000
0000
1003
0000
0200
0000
0000
1000
,
0000
0000
1300
0000
0002
0000
0000
1000
0000
0000
1003
0000
0010
0000
0000
0000
,
1001
0000
0000
0000
1000
0100
1000
0100
1000
0100
1000
0100
1000
0100
1000
0100
,
1000
0100
1000
0100
1000
0100
1000
0100
1000
0000
0000
0000
0010
0000
0010
0100
,
0001
0000
0000
0000
2000
0000
0000
0001
0000
0000
3001
0000
0010
0000
0000
0000
,
0220
0000
0000
0330
,
1000
0000
0100
0000
0010
0001
0010
0100
0010
0001
0010
0100
0010
0001
0010
0100
,
0010
0001
0010
0100
0010
0001
0010
0100
0010
0000
0001
0000
0010
0000
0100
1000
,
0001
0000
0010
0000
0011
0000
0001
1000
0010
0000
0100
0000
0110
0000
0010
1000
,
0001
0000
0100
0000
0101
0000
0001
1000
0100
0000
1000
0000
1100
0000
0000
0000
,
0001
0100
0001
0100
0001
0100
0001
0100
0010
1000
0010
1000
0010
1000
0010
1000
,
0001
0010
0001
0010
0001
0010
0001
0010
0100
1000
0100
1000
0100
1000
0100
1000
,
0001
0100
0010
1000
0001
0100
0010
1000
0001
0100
0010
1000
0001
0100
0010
1000
,
0001
0000
0000
0000
0010
0000
0000
0010
0000
0000
0100
0000
1000
0000
0010
0000
,
0020
0000
0000
0000
0000
0030
0000
0000
0000
0000
0000
0000
0000
0000
0000
0000
;

//--------------- dance-double - forcednature ----------------
#NOTEDATA:;
#STEPSTYPE:dance-double;
#DESCRIPTION:forcednature;
#DIFFICULTY:Easy;
#METER:10;
#RADARVALUES:0,0,0,0,0;
#CREDIT:forcednature;
#NOTES:
00000000
00000000
00000000
00000000
,
00000000
00000000
00000000
00000000
,
00000000
00000000
00000000
00000000
,
00000000
00000000
00000000
00000000
,
00000000
00000000
00000000
00000000
,
00001000
00000000
00000000
00001000
00000000
00000000
00001000
00000000
,
00010000
00000000
00000000
00010000
00000000
00000000
00010000
00000000
,
00000100
00000000
00000000
00000100
00000000
00000000
00000100
00000000
,
00000020
00000000
00000000
00000000
00000000
00000000
00000000
00000000
00000000
00000000
00000000
00000000
00000000
00000030
00000000
00000000
,
00000002
00000100
00000000
00000100
,
00000000
00000000
00000000
00000000
00000100
00000000
00000003
00000000
00000000
00000000
00000001
00000000
00000000
00000001
00000000
00000000
,
00002000
00000100
00000000
00000100
,
00000000
00000000
00000000
00000000
00003100
00000000
00000000
00000000
00000000
00000000
00010000
00000000
00000000
00010000
00000000
00000000
,
00002000
01000000
00000000
01000000
,
00000000
01000000
00000000
01003000
,
20020000
00000000
00000000
00000000
,
00000000
00000000
00000000
30030000
,
10000000
00000000
10010000
00000000
00010000
00000000
01000000
00001000
,
01000000
00010000
00000000
00100000
,
00001000
00000000
00010000
00000000
00000010
00000000
00001000
00000001
,
00001000
00000000
00000000
00000000
00000100
00000000
00000000
00000100
00000000
00000000
00000100
00000000
00000000
00000000
00000000
00000000
,
00010000
00000000
00011000
00000000
00001000
00000000
01000000
00010000
,
01000000
00100000
10000000
00010000
,
10000000
00000000
01000000
00000000
00100000
00010000
00100000
00000000
,
00001000
00000000
00000000
00001000
00000000
00000000
00000000
00000000
,
00010000
00000000
00011000
00000000
00001000
00000000
00010000
00000010
,
00010000
00000100
00000000
00000100
,
00000110
00000000
00000000
00000000
00000010
00000001
00000010
00000000
,
00000100
00000000
00001000
00000000
00000100
00010000
00000000
00000000
,
00001000
00000000
00011000
00000000
00010000
00000000
00001000
01000000
,
00001000
00101000
00100000
10010000
,
10000000
00000000
01000000
00000000
00010000
00001000
00010000
00000000
,
00000100
00000000
00000000
00000100
00000000
00000000
00000000
00000000
,
00000020
00000000
00000000
00000000
,
00000000
00000000
00000000
00000030
,
00000002
00000000
00000000
00000000
,
00000000
00000000
00000000
00000003
,
00000200
00000000
00000000
00000000
,
00000000
00000000
00000000
00000300
,
00002002
00000000
00000000
00000000
,
00000000
00000000
00003003
00000000
,
00001000
00000100
00010000
00001000
,
01000000
00010000
00100000
00100000
,
01000000
10000000
00010000
10000000
,
00100000
01000000
01100000
00000000
,
00010000
01000000
00001000
00010000
,
00000100
00001000
00000001
00000000
,
00000100
00000010
00000100
00000000
00000010
00000100
00000010
00000000
,
00000220
00000000
00000330
00000000
,
00001000
00000200
00010000
00001000
,
00010000
00001000
00010300
00000000
,
00001000
00000000
01000000
00000000
00001000
00010000
00001000
00000000
,
00010000
00000100
00010000
00000000
00001000
00000000
00010000
00000000
,
00001000
02000000
00010000
00100000
,
00010000
00100000
03010000
00000000
,
01000000
00000000
00001000
00000000
00010000
00001000
00010000
00000000
,
00000200
00000300
00000110
00000110
,
00000010
00000002
00000100
00000010
,
00000100
00000010
00000103
00000000
,
00000001
00000100
00001000
00010000
,
00001000
00010000
00001000
00000000
00010000
00000000
00010000
00000000
,
00100000
20000000
01000000
00100000
,
01000000
00100000
31000000
00000000
,
10000000
01000000
00010000
00001000
,
00022000
00000000
00000000
00033000
,
00010000
00010200
00000000
00001000
,
00000000
00010000
00000300
00011000
,
00001000
01000000
00010000
01000000
,
00001000
01000000
00010000
01000000
,
00001000
02001000
00000000
00010000
,
00000000
00001000
03000000
00011000
,
00010000
00000100
00001000
00000100
,
00020000
00000000
00000000
00030000
,
00001000
00000000
00010000
00000000
00001000
00010000
00001000
00000000
,
01000000
00000000
00010000
00000000
01000000
00010000
01000000
00000000
,
00100000
00000000
10000000
00000000
00100000
10000000
00100000
00000000
,
10000000
00000000
01000000
00000000
10000000
01000000
10000000
00000000
,
00010000
10000000
00010000
00000000
01000000
00010000
01000000
00000000
,
00001000
01000000
00001000
00000000
00010000
00001000
00010000
00000000
,
00011000
00011000
00010100
00010100
,
00012000
00000000
01000000
01003000
,
00022000
00000000
00000000
00000000
00000000
00033000
00000000
00000000
00000000
00000000
00000000
00000000
00000000
00000000
00000000
00000000
;

//--------------- dance-double - forcednature ----------------
#NOTEDATA:;
#STEPSTYPE:dance-double;
#DESCRIPTION:forcednature;
#DIFFICULTY:Medium;
#METER:14;
#RADARVALUES:0,0,0,0,0;
#CREDIT:forcednature;
#NOTES:
00000000
00000000
00000000
00000000
,
00000000
00000000
00000000
00000000
,
00000000
00000000
00000000
00000000
,
00000000
00000000
00000000
00000000
,
00000000
00000000
00000000
00000000
,
01001000
00000000
00000000
01001000
00000000
00000000
00010000
00000000
,
00010100
00000000
00000000
00010100
00000000
00000000
00001000
00000000
,
00011000
00000000
00000000
00011000
00000000
00000000
00100000
00000000
,
20020000
00000000
00000000
00000000
00000000
00000000
00000000
00000000
00000000
00000000
00000000
00000000
00000000
30030000
00000000
00000000
,
11000000
00000000
00000000
00000000
01000000
00000000
00000000
00020000
00000000
00000000
00030000
00000000
00001000
00000000
00000000
00020000
,
00000000
00000000
00030000
00000000
01000000
00000000
00000000
00020000
00000000
00000000
00031000
00000000
00000000
00000010
00000000
00000000
,
00000101
00000000
00000000
00000000
00000100
00000000
00000000
00002000
00000000
00000000
00003000
00000000
00010000
00000000
00000000
00002000
,
00000000
00000000
00003000
00000000
00000100
00000000
00000000
00002000
00000000
00000000
00013000
00000000
00000000
00100000
00000000
00000000
,
11000000
00000000
00000000
00000000
01000000
00000000
00000000
00020000
00000000
00000000
00030000
00000000
00001000
00000000
00000000
00020000
,
00000000
00000000
00030000
00000000
01000000
00000000
00000000
00020000
00000000
00000000
00030000
00000000
00001000
00000000
00000000
00000000
,
00022000
00000000
00000000
00000000
,
00000000
00000000
00000000
00033000
,
00001000
00000000
00010010
00000000
00000010
00001000
00000100
00000010
,
00001000
00000000
00000000
00000000
00011000
00000000
00000000
00000000
00010000
00000000
00000000
00010000
00100000
00000000
01000000
00000000
,
00010000
00000000
00000000
00000000
10010000
00000000
00000000
00000000
10000000
01000000
10000000
00000000
01000000
00000000
00010000
00000000
,
00001000
00000000
00000000
00000000
00011000
00000000
00000000
00011000
00000000
00000000
00011000
00000000
00000000
00000000
00001000
00000000
,
00000010
00000000
00000110
00000000
00000100
00010000
00001000
00000100
,
00000010
00000000
00000000
00000000
00010010
00000000
00000000
00000000
00010000
00000000
00000000
00010000
00001000
00000000
00100000
00000000
,
01000000
00000000
00000000
00000000
11000000
00000000
00000000
00000000
10000000
00100000
10000000
00000000
01000000
00000000
00010000
00000000
,
00011000
00000000
00000000
00000000
00000000
00000000
00011000
00000000
00000000
00000000
00000000
00000000
00000000
00000010
00000000
00000000
,
00001100
00000000
00010010
00000000
00010000
00001000
00100000
01000000
,
00010000
00000000
00000000
00000000
01001000
00000000
00000000
00000000
10000000
00000000
00000000
10000000
01000000
00000000
00010000
00000000
,
00001000
00000000
00000010
00000000
00000100
00000000
00000010
00000000
00000001
00000000
00000010
00000001
00000010
00000000
00000010
00000000
,
00000100
00000000
00010000
00000000
00001000
00000000
00010000
00000000
00000000
00010000
00000010
00000000
00000000
00000000
00000010
00000000
,
00001000
00000000
00001100
00000000
00000100
00010000
00001000
00010000
,
00100000
00000000
00000000
00000000
01100000
00000000
00000000
00000000
01000000
00000000
00000000
01000000
00010000
00000000
10000000
00000000
,
01000000
00000000
00010000
00000000
00001000
00000000
00001000
00000000
00100000
00000000
00010000
00100000
00010000
00000000
01000000
00000000
,
10010000
00000000
00000000
00000000
00000000
00000000
10010000
00000000
00000000
00000000
00000000
00000000
00000000
00001000
00000000
00000000
,
00021000
00000000
00000000
00000000
00030010
00000000
00000000
00000010
,
00000000
00001000
00000100
00010000
,
00002000
00000000
00000000
00000000
00103000
00000000
00000000
00100000
,
00000000
00010000
10000000
01000000
,
01200000
00000000
00000000
00000000
00301000
00000000
00000000
00001000
,
00000000
00010000
00000010
00001000
,
00000001
00000000
00000000
00000000
00000001
00000000
00000000
00000000
00000000
00000000
00000000
00000000
00000000
00001000
00000000
00000000
,
00000001
00000000
00000001
00000000
00000000
00000001
00000000
00000000
00001000
00000000
00000200
00000000
00000000
00000000
00000300
00000000
,
00010100
00000000
00101000
00000000
00010100
00000000
00010000
00001000
,
01000000
00010010
01001000
00001000
,
00110000
00000000
00000000
00000000
01001000
00000000
00000000
00000000
00110000
00000000
00000000
00000000
00001000
00000000
00000000
00001000
,
00010000
00010000
00010000
00000000
00001000
00000010
00000001
00000000
,
00000011
00000000
00000101
00000000
00000011
00000000
00000010
00001000
,
00010000
00010010
00010100
00000000
,
00010000
00000000
00001000
00000000
01000000
00000000
00010000
00000000
00100000
00000000
00001000
00000000
00010000
00000000
00000010
00001000
,
00000020
00000000
00000000
00000000
00000000
00000030
00000000
00000000
00000200
00000000
00000000
00000000
00000000
00000000
00000300
00000000
,
00000001
00001000
00000200
00000000
00000010
00001000
00010000
00000000
,
00000010
00001000
00010000
00000000
00000310
00000000
00000100
00000000
,
00010000
00000000
00000000
00000000
00010000
00000000
00001000
00000000
00000000
00000000
00001000
00000000
01000000
00000000
00000000
00010000
00000000
00000000
10000000
00000000
00000000
00000000
00000000
00000000
,
01000000
00100000
01000000
00100000
01000000
00000000
00000000
00000000
11000000
00000000
00000000
00000000
11000000
00000000
00000000
00000000
,
00100000
00010000
02000000
00000000
00100000
00010000
00001000
00000000
,
00100000
00010000
00001000
00000000
03100000
00000000
01000000
00000000
,
00001000
00010000
00000010
00000100
00000010
00010000
00001000
00000000
,
00010200
00000000
00000000
00000000
00000000
00000000
00000000
00000000
00000000
00000000
00000300
00000000
00000000
00000000
00000000
00000000
00000100
00000000
00000000
00000000
00000000
00000010
00000000
00000000
00000000
00000000
00000000
00000010
00000000
00000000
00000000
00000000
,
00000001
00000100
00002000
00000000
01000000
00010000
00100000
00000000
,
01000000
00010000
00100000
00000000
01003000
00000000
00001000
00000000
,
00010000
00000000
00000000
00000000
00010000
00000000
00100000
00000000
00000000
00000000
00100000
00000000
10000000
00000000
00000000
00010000
00000000
00000000
01000000
00000000
00000000
00000000
00000000
00000000
,
00001000
00010000
00001000
00010000
00001000
00000000
00000000
00000000
00010100
00000000
00000000
00000000
00010100
00000000
00000000
00000000
,
00010000
00001000
00200000
00000000
01000000
00010000
00001000
00000000
,
01000000
00010000
00001000
00000000
01300000
00000000
00100000
00000000
,
00001000
00010000
00001000
00000010
00000100
00000010
00000001
00000000
,
00002002
00000000
00000000
00003003
,
00010100
02001000
00010000
00100000
,
10000000
00100000
03010000
01001000
,
00001000
00010000
00000010
00000000
00010000
00001000
00100000
00000000
,
00001000
00010000
00000100
00000000
00010000
00001000
01000000
00000000
,
01001000
00010200
00001000
00000010
,
00000001
00000010
00001300
00010100
,
00010000
00001000
00100000
00000000
00001000
00010000
00000010
00000000
,
00000220
00000000
00000000
00000330
,
00000100
00000001
00000100
00000011
00000010
00000010
00000100
00010000
,
00001000
01000000
00001000
01000000
00010000
00010000
10000000
01000000
,
00100000
00001000
00010000
00001000
00000100
00000100
00001000
00010000
,
00100000
10000000
01000000
00010000
00001000
00000000
00011000
00000000
,
00000100
00001000
00000100
00000000
00010000
00000000
00001000
00000000
01000000
00010000
01000000
00000000
00001000
00000000
00010000
00000000
,
00000010
00001000
00000010
00000000
00010000
00000000
00001000
00000000
00100000
00010000
00100000
00000000
00001000
00000000
00010000
00000000
,
00000100
00001000
00000100
00000000
00001000
00000001
00001000
00000000
00000010
00001000
00000010
00000000
00001000
00000001
00001000
00000000
,
00000100
00000000
00000000
00000000
00010000
00000000
00000000
00001000
00000000
00000000
01000000
00000000
00010000
00000000
00100000
00000000
,
00200000
00000000
00000000
00000000
00000000
00300000
00000000
00000000
00000000
00000000
00000000
00000000
00000000
00000000
00000000
00000000
;

//--------------- dance-double - forcednature ----------------
#NOTEDATA:;
#STEPSTYPE:dance-double;
#DESCRIPTION:forcednature;
#DIFFICULTY:Hard;
#METER:18;
#RADARVALUES:0,0,0,0,0;
#CREDIT:forcednature;
#NOTES:
00000000
00000000
00000000
00000000
,
00000000
00000000
00000000
00000000
,
00000000
00000000
00000000
00000000
,
00000000
00000000
00000000
00000000
,
00000000
00000000
00000000
00000000
,
00011000
00000000
00000000
01001000
00000000
00000000
00100000
00000000
,
00011000
00000000
00000000
00010100
00000000
00000000
00000010
00000000
,
00011000
00000000
00000000
00101000
00000000
00000000
01000000
00000000
,
20020000
00000000
00000000
00000000
00000000
00000000
00000000
00000000
00000000
00000000
00000000
00000000
00000000
30030000
00000000
00000000
,
12000000
00000000
00000000
00000000
03010000
00000000
00000000
00001000
00000000
00000000
00000010
00000000
00001000
00000000
00000000
00010000
,
00000000
00000000
00100000
00000000
00010000
00000000
00000000
00001000
00000000
00000000
00000010
00000000
00000000
00000011
00000000
00000000
,
00000201
00000000
00000000
00000000
00001300
00000000
00000000
00010000
00000000
00000000
00100000
00000000
00010000
00000000
00000000
00001000
,
00000000
00000000
00000010
00000000
00001000
00000000
00000000
00010000
00000000
00000000
00100000
00000000
00000000
10100000
00000000
00000000
,
12000000
00000000
00000000
00000000
03010000
00000000
00000000
00001000
00000000
00000000
00000100
00000000
00001000
00000000
00000000
00010000
,
00000000
00000000
01000000
00000000
00010000
00000000
00000000
00001000
00000000
00000000
00000100
00000000
00000000
00000001
00000000
00000000
,
00000021
00000000
00000000
00000000
00000100
00000230
00000000
00020300
,
00000000
00032000
02003000
03100000
,
10000000
00010000
00000000
00100000
00001000
00000000
00010000
00000100
00000000
00001000
00000001
00000000
00000100
00000001
00000100
00000000
,
00000010
00000000
00010000
00000000
00011000
00000000
00000000
00000000
00001000
00100000
00010000
00100000
00001000
00000000
00010000
00000000
,
01000000
00000000
00000000
00000000
20010000
00000000
00000000
00000000
31000000
00100000
01000000
00000000
00010000
00000000
00001000
00010000
,
00001000
00000000
00001000
00010000
00000100
00000000
00001000
00000010
00000000
00000001
00000010
00000000
00000000
00000000
00000100
00000000
,
00000001
00001000
00000000
00000010
00010000
00000000
00001000
01000000
00000000
00010000
10000000
00000000
01000000
00100000
01000000
00000000
,
10000000
00000000
00000000
10000000
00100000
00000000
01000000
00000000
00001000
00000000
00010000
00000010
00001000
00000000
00000100
00000000
,
00000110
00000000
00000000
00000000
00002001
00000000
00000000
00000000
00003100
00010000
00001000
00000000
01000000
00000000
00010000
00000000
,
00110000
00000000
00000000
00000000
00000000
00000000
00110000
00000000
00000000
00000000
00000000
00000000
00000000
10000000
01000000
00000000
,
00100000
00010000
00000000
01000000
00001000
00000000
00010000
00000100
00000000
00001000
00000010
00000000
00000100
00000001
00001000
00000000
,
00000100
00000000
00000000
00000000
00000110
00000000
00000000
00000000
00000010
00000001
00001000
00000001
00000010
00000000
00000100
00000000
,
00010000
00001000
01000000
00000000
00010000
10000000
00100000
00000000
01100000
00000000
01000000
00100000
10000000
00000000
10000000
00000000
,
01000000
00100000
01000000
00000000
00010000
00000000
00001000
00010000
00000000
00000100
00001000
00000000
00000000
00000000
00000011
00000000
,
00000001
00000100
00000000
00000010
00010000
00000000
00001000
01000000
00000000
00100000
10000000
00000000
00010000
00100000
00010000
00000000
,
10000000
00000000
01000000
00100000
00010000
00000000
01000000
00001000
00010000
00000100
00001000
00000100
00010000
00000000
00010000
00000000
,
00000010
00001000
00000001
00000000
00000010
00000100
00001000
00000000
00000010
00000000
00010000
00001000
00100000
00000000
00100000
00000000
,
01100000
00000000
00000000
00000000
00000000
00000000
01100000
00000000
00000000
00000000
00000000
00000000
00000000
00010000
01000000
00010000
,
20000000
00000000
00000000
00000000
31000000
00000000
00000000
00010000
,
00000000
00001000
00001000
00000010
,
00000002
00000000
00000000
00000000
00000103
00000000
00000000
00001000
,
00000000
00010000
00010000
00100000
,
20010000
00000000
00000000
00000000
31000000
00000000
00000000
00010000
,
00000000
00001000
00001000
00000010
,
00000200
00000000
00000000
00000000
00001000
00000000
00000000
00000000
00000000
00000000
00000000
00000000
00000000
00010000
00000000
00000000
,
00001000
00000000
00010000
00000000
00000000
00001000
00000000
00000000
00000320
00000000
00000032
00000000
00000000
00000000
00000003
00000000
,
00000101
00000100
00000101
00000000
00000101
00000000
00000100
00001000
,
00011000
00010000
00011000
00000000
00011000
00000000
00001000
00010000
,
00100000
00000000
01000000
00000000
01100000
00000000
00000000
00000000
01100000
00000000
00000000
00000000
10000000
00000000
00010000
10000000
,
01000000
00010000
00011000
00000000
00000010
00000100
00001001
00000000
,
00010100
00001000
00010100
00000000
00101000
00000000
00011000
00000000
,
01001000
00010000
01001000
00000000
00011000
00000000
00000010
00000000
,
00000100
00000000
00001000
00000000
00010000
00000000
01000000
00000000
00100000
00000000
00001000
00000000
00010000
00000000
00000100
00001000
,
00000002
00000000
00000000
00000000
00000000
00000003
00000000
00000000
00000200
00000000
00000000
00000000
00000000
00000000
00000300
00000000
,
00001000
00000000
01000000
00010000
00100000
00001000
01000000
00010000
00100000
00001000
01000000
00010000
00100000
00001000
01000000
00010000
,
00100000
00001000
01000000
00010000
00100000
00001000
01000000
00010000
00100000
00000000
00000000
00000000
02000000
00000000
00000000
00000000
,
23000000
00000000
30200000
00000000
00320000
00000000
00032000
00000000
00003200
00000000
00000302
00000000
00001003
00000000
00000000
00000001
00000000
00000000
00000010
00000000
00000000
00000000
00000000
00000000
,
00000100
00010000
00001000
00010000
00000100
00000000
00000000
00000000
00001010
00000000
00000000
00000000
01010000
00000000
00000000
00000000
,
00001000
00000000
00010000
00000100
00001000
00000010
00010000
00000100
00001000
00000010
00010000
00000100
00001000
00000010
00010000
00000100
,
00001000
00000010
00010000
00000100
00001000
00000010
00010000
00000100
00001000
00000000
00000000
00000000
00000020
00000000
00000000
00000000
,
00000130
00001000
00010000
00000100
00010000
01000000
00100000
00000000
,
00002000
00000000
00000000
00000000
00000000
00000000
00000000
00000000
00023000
00000000
00000000
00000000
00000000
00000000
00000000
00000000
00230000
00000000
00000000
00000000
00000000
00000000
00000000
00000000
20300000
00000000
00000000
00000000
00000000
00000000
00000000
00000000
30000000
00000000
00000000
00000000
00000000
00000000
00000000
00000000
10000000
00000000
00000000
00000000
00000000
00000000
00000000
00000000
01000000
00000000
00000000
00000000
00000000
00000000
00000000
00000000
00000000
00010000
00000000
00000000
00000000
00000000
00000000
00001000
00000000
00000000
00000000
00000000
00000000
00000000
00000000
00000000
00100000
00000000
00000000
00000000
00000000
00000000
00000000
00000000
00000000
00100000
00000000
00000000
00000000
00000000
00000000
00000000
00000000
00000000
00100000
00000000
00000000
00000000
00000000
00000000
,
00001000
00000000
00010000
00000010
00001000
00000100
00010000
00000010
00001000
00000100
00010000
00000010
00001000
00000100
00010000
00000010
,
00001000
00000100
00010000
00000010
00001000
00000100
00010000
00000010
00001000
00000000
00000000
00000000
00000200
00000000
00000000
00000000
,
00000320
00000000
00002030
00000000
00023000
00000000
02030000
00000000
03020000
00000000
00032000
00000000
00103000
00000000
00000000
01000000
00000000
00000000
10000000
00000000
00000000
00000000
00000000
00000000
,
00100000
01000000
00010000
01000000
00001000
00000000
00000000
00000000
00110000
00000000
00000000
00000000
00001100
00000000
00000000
00000000
,
00010000
00000000
00001000
00100000
00010000
01000000
00001000
00100000
00010000
01000000
00001000
00100000
00010000
01000000
00001000
00100000
,
00010000
01000000
00001000
00100000
00010000
01000000
00001000
00100000
00010000
00000000
00000000
00000000
20000000
00000000
00000000
00000000
,
31000000
00000000
00010000
00000000
00001000
00000000
00100000
00000000
00001000
00000000
00000010
00000000
00000100
00000000
00000000
00001000
,
00000002
00000000
00000000
00000003
,
00001001
00000000
00000000
00000000
00010000
00000010
00010000
00001000
00010000
00000010
00010000
00001000
00010000
00000010
00010000
00001000
,
00010000
00000010
00010000
00001000
00010000
00000010
00010000
00001000
00010000
00000000
00000000
00000000
00100000
00000000
00000000
00000000
,
10100000
00000000
00000000
00000000
10000000
00000000
00000000
01000000
00000000
00000000
00010000
00000000
00001000
00000000
00000000
00010000
,
00000000
00000000
01000000
00000000
10000000
00000000
00000000
01000000
00000000
00000000
00010000
00000000
00001000
00000000
00000000
00000000
,
00011000
00000000
00000000
00000000
00001000
00100000
00001000
00010000
00001000
00100000
00001000
00010000
00001000
00100000
00001000
00010000
,
00001000
00100000
00001000
00010000
00001000
00100000
00001000
00010000
00001000
00000000
00000000
00000000
01000000
00000000
01000000
00001000
,
00010000
00000000
00000000
00000000
00000200
00000000
00000000
00001000
00000000
00000000
00001000
00000000
00000310
00000000
00000000
00000000
,
00002002
00000000
00000000
00003003
,
00000001
00000000
00000100
00000000
00001000
00010000
00000010
00010000
00001000
00010000
00000100
00010000
00001000
00010000
00000010
00010000
,
00001000
00010000
00000100
00010000
00000010
00010000
00001000
00010000
00000100
00000000
00001000
00000000
00000010
00000000
00010000
00001000
,
00100000
00000000
01000000
00000000
01100000
00000000
01000000
10000000
00100000
00000000
01000000
00000000
01100000
00000000
00100000
10000000
,
00010000
00000000
00100000
00000000
00101000
00000000
00001000
00010000
00000010
00000000
00000100
00000000
00000101
00000000
00000000
00000000
,
00010000
00000100
00001000
00000100
00010000
00000100
00001000
00000100
00010000
00001000
01000000
00001000
00010000
00001000
01000000
00001000
,
00010000
00000010
00001000
00000010
00010000
00000010
00001000
00000010
00010000
00001000
00100000
00001000
00010000
00001000
00100000
00010000
,
01000000
00010000
00100000
00001000
01000000
00010000
00100000
00001000
00010000
00000010
00001000
00000100
00010000
00000010
00001000
00000100
,
00000010
00000000
00000000
00000000
00000001
00000000
00000000
00000100
00000000
00000000
00001000
00000000
00010000
00000000
00100000
00000000
,
20000000
00000000
00000000
00000000
00000000
30000000
00000000
00000000
00000000
00000000
00000000
00000000
00000000
00000000
00000000
00000000
;
