#VERSION:0.83;
#TITLE:CLAMARE;
#SUBTITLE:;
#ARTIST:MAX MAXIMIZER;
#TITLETRANSLIT:;
#SUBTITLETRANSLIT:;
#ARTISTTRANSLIT:;
#GENRE:;
#CREDIT:;
#MUSIC:CLAMARE.ogg;
#BANNER:CLAMARE.png;
#BACKGROUND:CLAMARE-bg.png;
#CDTITLE:./CDTitles/RB colette -All Seasons-.png;
#SAMPLESTART:82.593;
#SAMPLELENGTH:15.000;
#SELECTABLE:YES;
#OFFSET:1.509;
#BPMS:0.000=112.000
,52.000=224.000
,181.000=448.000
,189.000=112.000
,217.500=56.000
,219.188=448.000
,441.000=56.000
;
#STOPS:52.000=1.875
,217.000=0.804
,219.188=0.628
,439.000=0.536
;
#TIMESIGNATURES:0.000=4=4,
52.000=1=4,
53.000=4=4
;
#DISPLAYBPM:112.000:448.000;
#BGCHANGES:2.000=../BGAs/14te.mp4=1.000=0=0=0=StretchNoLoop====,
99999.000=-nosongbg-=1.000=0=0=0=StretchNoLoop====
;
#FGCHANGES:;

//--------------- dance-single - forcednature ----------------
#NOTEDATA:;
#STEPSTYPE:dance-single;
#DESCRIPTION:forcednature;
#CREDIT:forcednature;
#DIFFICULTY:Beginner;
#METER:8;
#RADARVALUES:0,0,0,0,0;
#NOTES:
0000
0000
0000
0000
,
0000
0000
0000
0000
,
0000
0000
0000
0000
,
0000
0000
1001
0000
,
0000
0000
0010
0000
,
0110
0000
0100
0000
,
0000
0000
0000
0000
,
1001
0000
0100
0000
,
0010
0000
0000
0100
,
1001
0000
0110
0000
,
1001
0000
0110
0000
,
1001
0100
0110
0010
,
1001
0110
1000
0001
,
1001
1000
0000
0000
,
0000
0100
0000
0000
,
0000
1000
0000
0000
,
0000
0010
0000
0010
,
0000
0100
0000
0000
,
0000
0001
0000
0000
,
0000
1001
0000
0000
,
0000
0010
0000
0010
,
0000
0100
0000
0000
,
0000
0001
0000
0000
,
0000
1000
0000
0000
,
0000
0100
0000
0100
,
0000
1000
0000
0000
,
0000
0010
0000
0000
,
0000
0100
0000
0100
,
0000
0100
0000
0000
,
0000
0001
0000
0001
,
0000
0010
0000
0000
,
0000
0001
0000
0100
,
0000
0001
0000
0000
,
0000
1000
0000
1000
,
0000
0010
0000
0000
,
0000
1000
0000
0100
,
0000
1000
0000
0000
,
0000
0010
0000
0000
,
0000
0100
0000
0100
,
0000
0001
0000
0010
,
0000
0100
0000
1000
,
0000
0010
0000
0000
,
0000
1000
0000
1000
,
0000
0001
0000
0000
,
0000
0100
0100
0100
,
0100
0000
0000
0000
,
0000
0000
0000
0000
,
0000
1001
0000
0000
,
0000
0100
0000
0000
,
0000
1001
0000
0000
,
0000
0100
0000
0000
,
0000
0001
0010
0000
,
0010
0001
0100
0000
,
0100
0001
1000
0000
,
1000
0000
0000
0000
0000
0000
0000
0000
0000
0000
0000
0000
0000
0000
0000
0000
0001
0000
0000
0000
0000
0000
0000
0000
2002
0000
0000
0000
0000
0000
0000
0000
0000
0000
0000
0000
0000
0000
0000
0000
0000
0000
0000
0000
0000
0000
0000
0000
0000
0000
0000
3003
0000
0000
0000
0000
0000
0000
0000
0000
0000
0000
0000
0000
,
0000
1000
0000
0000
,
0000
0000
0000
0000
,
0000
0100
0000
0000
,
0000
1000
0000
0000
,
0000
0010
0000
0000
,
0000
0100
0000
0000
,
0000
0001
0000
1000
,
0000
0001
0000
1000
,
0000
0010
0000
0000
,
0000
0100
0000
0000
,
0000
0001
0000
0000
,
0000
0010
0000
0000
,
0000
0001
0000
0000
,
0000
1000
0000
0000
,
0000
0100
0000
0010
,
0000
0100
0000
0010
,
0000
0001
0000
0000
,
0000
1000
0000
0000
,
0000
0010
0000
0000
,
0000
1000
0000
0000
,
0000
0001
0000
0000
,
0000
0010
0000
0000
,
0000
0100
0000
1000
,
0000
0100
0000
1000
,
0000
0001
0000
0000
,
0000
0100
0000
0000
,
0000
0010
0000
0000
,
0000
1000
0000
0000
,
0000
0001
0000
0010
,
0000
0001
0000
0010
,
0000
0100
0000
1000
,
0000
0100
0000
1000
,
0000
0001
0000
0000
,
0000
0000
0000
0100
,
0000
0100
0000
0000
,
0000
0001
0000
1000
,
0000
0010
0000
0010
,
0000
0000
0000
0220
,
0000
0000
0000
0000
,
0000
0330
0000
0000
,
0000
1000
0001
1000
,
0001
0000
0000
0010
,
0100
0010
0100
0000
,
0000
1000
0000
1000
,
0000
0001
0100
0001
,
0100
0000
0000
0220
,
0000
0000
0000
0330
,
0000
1000
0000
1000
,
0001
0010
0000
0010
,
0100
1000
0000
0001
,
0100
0001
0100
0000
,
0010
0010
0010
0000
,
0000
0000
0000
0000
,
0000
1000
0001
1000
,
0001
1000
0001
1000
,
0000
2002
0000
0000
,
0000
0000
0000
3003
0000
0000
0000
0000
;

//--------------- dance-single - forcednature ----------------
#NOTEDATA:;
#STEPSTYPE:dance-single;
#DESCRIPTION:forcednature;
#CREDIT:forcednature;
#DIFFICULTY:Easy;
#METER:12;
#RADARVALUES:0,0,0,0,0;
#NOTES:
0000
0000
0000
0000
,
0000
0000
0000
0000
,
0000
0000
0000
0000
,
0000
0000
2002
0000
,
0000
0000
0000
3003
,
0220
0000
0000
0000
,
0000
0000
0000
0330
,
2002
0000
0000
0000
,
0000
0000
0000
3003
,
0110
0000
2002
3003
,
0110
2002
3003
0010
,
0110
0100
1001
0010
,
1000
1000
0001
0001
0100
0010
0100
0010
,
1001
0001
0000
0010
,
0000
0100
0010
0001
,
0000
1000
0000
0010
,
0000
0100
0100
0100
,
0100
0001
0000
1000
,
0000
0100
1000
0001
,
0000
0110
0000
0000
,
0000
1000
1000
0001
,
0001
1000
0010
1000
,
0000
0001
0100
0001
,
0000
0010
0100
1000
,
0000
0010
0010
0010
,
0010
0100
0001
1000
,
0000
0100
0010
0001
,
0000
1001
0000
0110
,
0000
0001
0001
1000
,
1001
0001
0100
0001
,
0100
0010
1000
0010
,
1000
0001
0010
0100
,
1000
0100
0110
0010
,
0110
1000
0010
0100
,
0001
0010
0001
1000
,
0010
1001
0000
0110
,
0000
1000
0001
1001
,
0000
1000
0010
0100
,
0010
1000
0100
0001
,
0100
1000
0001
0010
,
0001
0100
1000
0100
,
0001
1001
0000
0110
,
0000
1001
0000
0110
,
0000
2002
0000
3003
,
0000
0010
0010
0010
,
0010
0000
0000
0000
,
0000
0000
0000
0000
,
0000
1001
0000
0000
,
0000
0100
0000
0000
,
0000
1001
0000
0000
,
0000
0010
0000
0000
,
0000
1001
1000
0000
,
1000
0110
0001
0000
,
0001
1001
0010
0000
,
0010
0000
0000
0000
0000
0000
0000
0000
0000
0000
0000
0000
0000
0000
0000
0000
0110
0000
0000
0000
0000
0000
0000
0000
2002
0000
0000
0000
0000
0000
0000
0000
0000
0000
0000
0000
0000
0000
0000
0000
0000
0000
0000
0000
0000
0000
0000
0000
0000
0000
0000
3003
0000
0000
0000
0000
0000
0000
0000
0000
0000
0000
0000
0000
,
0000
1000
0000
0100
,
0000
1000
0000
0010
,
0000
0100
0000
0001
,
0000
0010
0000
0001
,
0000
1001
0000
1000
,
0000
0010
0000
0100
,
0000
0001
0010
0001
,
0000
0010
0001
0010
,
0000
0100
0000
1000
,
0000
0001
0000
0100
,
0000
0110
0000
1000
,
0000
0001
0000
0010
,
0000
0110
0000
1000
,
0000
0001
0000
0100
,
0000
0010
1000
0010
,
0000
1000
0010
0100
,
0000
0001
0000
0010
,
0000
0001
0000
1000
,
0000
0100
0010
0100
,
0000
1000
0000
0010
,
0000
0110
0000
0001
,
0000
1000
0000
0100
,
0000
0010
0001
0010
,
0001
0010
0001
0010
,
0000
0100
0000
1000
,
0000
0010
0000
0100
,
0000
1001
0000
0100
,
0000
1001
0000
0010
,
0000
0001
0100
0001
,
0000
1000
0100
1000
,
0000
0010
0100
0001
,
1000
0010
0100
0001
,
1000
0020
0000
0000
,
0000
0000
0000
1000
,
0000
1000
1030
0000
,
0000
0001
0100
0001
,
0100
0010
0000
0010
,
0100
0000
0000
2002
,
0000
0000
3000
0000
,
0000
0010
0000
0013
,
0000
0001
1000
0001
,
1000
0100
0000
1000
,
0001
1000
0001
0000
,
0000
0110
0000
0110
,
0000
0001
1000
0010
,
0100
0000
0000
2002
,
0000
0000
0000
3003
,
0000
1000
0100
1000
,
0100
0010
0001
0010
,
0001
0100
0010
1000
,
0001
0010
0100
1000
,
0001
0100
0100
0000
,
0000
0000
0000
0000
,
0000
0001
0001
1000
,
1000
0001
0001
1000
,
0000
2002
0000
0000
,
0000
0000
0000
3003
0000
0000
0000
0000
;

//--------------- dance-single - forcednature ----------------
#NOTEDATA:;
#STEPSTYPE:dance-single;
#DESCRIPTION:forcednature;
#CREDIT:forcednature;
#DIFFICULTY:Medium;
#METER:14;
#RADARVALUES:0,0,0,0,0;
#NOTES:
0000
0000
0000
0000
,
0000
0000
0000
0000
,
0000
0000
0000
0000
,
0000
0000
2002
0000
,
0000
0000
0000
0000
0000
0000
0000
0000
3003
0000
0000
0000
1000
0000
0001
1000
0000
0001
1000
0000
0001
1000
0000
0001
,
0020
0000
0100
0000
,
0100
0000
0100
0030
,
2002
3000
0100
0000
,
0100
0000
0000
0000
0000
0000
0000
0000
0000
0000
0000
0000
0100
0000
0000
0000
0000
0000
0013
0000
0100
0010
0000
0100
,
1000
0000
0000
0000
0220
0000
0000
0330
,
1001
0000
0000
0000
0220
0000
0000
0330
,
1001
0100
0110
0010
,
1001
0000
0000
0100
0000
0000
1001
0000
0000
0010
0000
0000
0001
0000
1000
0001
0000
1000
0001
0000
1000
0001
0000
1000
,
0010
0100
0001
0010
,
0001
1000
0010
0000
1000
0100
0001
0000
,
0100
1000
1100
0000
0001
0000
0011
0000
,
0010
0000
0000
0001
0000
0100
0001
0000
0100
0010
0000
1000
,
0010
0000
0100
0010
0000
0000
1000
0000
0000
1100
0000
0000
,
0001
0010
1000
0000
0010
0001
1000
0000
,
0001
0100
0220
0000
0000
0000
0330
0000
,
0000
0000
0000
1000
0000
0001
1000
0000
0010
0100
0000
0001
,
1000
0000
0000
0000
0010
0000
0100
0000
0000
0000
0000
0000
0001
0000
0000
0010
0000
0000
0100
0000
0000
0000
0000
0000
,
0010
0001
0011
0000
1000
0010
0100
0000
,
0001
0000
1001
0000
1000
0100
0001
0000
,
0100
0000
0000
1000
0000
0000
0001
0000
0000
0000
0001
0000
0010
0000
0000
0000
0010
0000
0100
0000
0000
0000
0100
0000
,
1000
0000
1001
0000
0001
0100
0010
0000
,
1000
0100
1100
0000
0001
0010
1000
0010
,
0001
1001
0100
0110
,
0010
0000
0000
1001
0000
0000
1000
0001
1000
0001
0000
0000
,
0110
0000
1000
0001
1000
0001
0100
0001
,
0100
0000
0010
1000
0010
1000
0001
0010
,
0100
0000
1000
0010
1000
0010
0100
0010
,
1000
0000
0000
0001
0000
0010
0001
0000
0010
0100
0000
1000
,
0100
0000
0000
0000
0010
0000
0100
0000
0000
1000
0000
0000
0010
0000
0000
0100
0000
0000
0001
0000
0000
0010
0000
0000
,
0100
0000
0010
0001
1000
0010
1000
0001
,
0100
0000
0010
1000
0100
0010
0001
0100
,
0010
0110
1001
0110
,
1000
0001
1000
0010
0100
0001
0010
0001
,
0100
0000
0010
1000
0100
0010
0001
0100
,
0010
0000
1000
0100
1000
0001
0100
0001
,
0010
0110
1000
0110
,
0001
0000
0000
1000
0100
1000
0100
0000
0000
0010
0001
0010
,
0001
0000
0000
1000
0010
1000
0010
0000
0000
0100
0001
0100
,
0001
2002
0000
3003
,
0000
0000
0010
0010
0100
0100
0010
0010
,
0100
0100
0000
0000
0000
0000
0000
0000
,
0000
0000
0000
0000
,
0000
1001
0000
0000
,
0000
0100
0000
0000
,
0000
1001
0000
0000
,
0000
0010
0000
0000
,
0000
0000
1001
0000
0100
0000
0001
0001
,
0010
0000
0000
0000
1001
0000
0000
0000
0100
0000
0000
0000
1000
0000
1000
0010
,
1000
0000
0010
0000
0110
0000
0100
0000
0001
0000
0000
0010
0001
0000
0010
0010
,
0100
0000
0000
0000
0000
0000
0000
0000
0010
0000
0000
0000
0000
0000
0000
0000
1001
0000
0000
0000
0000
0000
0000
0000
0220
0000
0000
0000
0000
0000
0000
0000
0000
0000
0000
0000
0000
0000
0000
0000
0000
0000
0000
0000
0000
0000
0000
0000
0000
0000
0000
0330
0000
0000
0000
0000
0000
0000
0000
0000
0000
0000
0000
0000
,
0000
0001
0000
0100
,
0000
0001
0000
0010
,
0000
0001
1000
0001
,
0000
1000
0000
0100
,
0000
1001
0000
0010
,
0000
0001
0000
0100
,
0000
0010
1000
0010
,
0000
0100
0001
0100
,
0000
0110
0000
1000
,
0000
0001
0000
0010
,
0000
0100
1000
0100
,
0000
1000
0010
1000
,
0000
0110
0000
0001
,
0000
0010
0000
0001
,
0000
1000
0010
1000
,
0010
0100
0001
0100
,
0000
0010
0000
1010
,
0000
1000
0100
1000
,
0000
0001
0010
0100
,
1000
0100
0010
0001
,
0000
1000
0010
0100
,
0000
0001
0010
0100
,
0000
0010
0001
1000
,
0100
1000
0001
0010
,
0000
0100
1000
0010
,
0000
0100
0001
0010
,
0000
0001
0001
0100
,
0100
0001
1000
0010
,
0000
1000
0100
1000
,
0100
0010
0001
0010
,
0001
0100
0010
1000
,
0001
0010
0100
1000
,
0001
0200
0000
0000
,
0000
0000
0000
0310
,
0100
0010
0100
0000
,
0000
0001
0001
1000
,
0001
1000
0100
1000
,
0100
0000
0000
0220
,
0000
0000
0300
0000
,
0000
0001
0001
0031
,
0000
1000
1000
0010
,
2000
0100
0000
3001
,
0001
0010
0002
0000
,
0000
0000
0103
0010
0000
0000
0100
0010
,
0000
1000
1000
0001
,
0001
0000
0000
2002
,
0000
0000
0000
3003
,
0000
0000
0010
0000
0010
0000
0100
0010
,
0100
0000
0001
0000
1000
0001
1000
0000
,
0001
0020
0100
0100
,
0100
0031
1000
0001
,
1000
0001
1000
0000
0020
0000
0000
0000
,
0000
0000
0000
0000
,
0000
0000
1030
0001
1000
0000
0001
1000
,
0001
0000
1000
0001
1000
0000
0001
0000
,
0000
2002
0000
0000
,
0000
0000
0000
3003
0000
0000
0000
0000
;

//--------------- dance-single - forcednature ----------------
#NOTEDATA:;
#STEPSTYPE:dance-single;
#DESCRIPTION:forcednature;
#CREDIT:forcednature;
#DIFFICULTY:Hard;
#METER:17;
#RADARVALUES:0,0,0,0,0;
#NOTES:
0000
0000
0000
0000
,
0000
0000
0000
0000
,
0000
0000
0000
0000
,
0000
0000
0000
0000
0000
0000
0000
0000
0000
0000
0001
1000
0020
0000
0000
0000
0000
0000
0000
0000
0000
0000
0000
0000
,
0000
0000
0000
0000
0000
0000
0000
0000
0000
0000
0000
0000
0130
0001
0100
0001
0100
0001
0100
0001
0100
0001
0100
0001
,
2000
0000
0010
0000
,
0010
0000
0000
0000
0000
0000
0000
0000
0000
0000
0000
0000
0010
0000
0000
0000
0000
0000
0000
0000
0000
3001
0010
0100
,
0020
0000
0001
0000
,
0001
0000
0000
0000
0000
0000
0000
0000
0000
0000
0000
0000
0001
0000
0000
0000
0000
0000
0130
1000
0010
0100
0001
0010
,
0100
0000
2002
3003
,
0010
0000
2002
3003
,
0110
0010
1001
0100
,
0110
0000
0000
0010
0000
0000
1001
0000
0000
0010
0000
0000
1000
0001
0100
0001
1000
0001
0100
0001
1000
0001
0100
0001
,
0010
0000
0100
1000
0010
0000
1010
0000
,
0001
0000
0010
0100
1000
0010
0100
0000
,
0001
0000
1000
0000
0001
0000
1000
0000
0000
0000
0000
0000
0001
0000
0000
0010
0000
0000
0100
0000
0000
0000
0000
0000
,
0110
0000
0000
0001
0010
0001
0010
0001
0010
0100
1000
0100
,
1000
0000
0100
0000
1000
0000
0010
0000
0000
0100
0000
0000
0001
0000
0000
0100
0000
0000
0010
0000
0000
0000
0000
0000
,
1001
0000
1000
0100
0010
0000
0110
0000
,
1000
0001
1000
0020
0000
0000
0000
0000
0000
0000
0000
0000
,
0030
0000
0000
0100
0001
0100
0010
1000
0010
0100
0001
0100
,
0010
0000
1000
0000
0010
0000
0100
0000
0000
0000
0000
0000
0001
0000
0000
0010
0000
0000
0100
0000
0000
0000
0000
0000
,
0010
0001
1000
0100
0000
0000
1100
0000
0000
0011
0000
0000
,
1000
0001
0100
0001
0000
0000
1000
0010
0100
0010
0000
0000
,
1000
0100
0010
0001
0000
0010
0100
0000
0010
0001
1000
0001
,
1000
0001
1000
0010
0000
0000
0110
0000
0000
0101
0000
0000
,
0001
0010
0100
0000
1100
0000
0011
0000
,
1000
0001
1000
0020
0000
0000
0030
0000
0000
0220
0000
0000
,
0330
0000
0000
0000
1000
0000
0000
0100
1000
0000
0100
0010
0001
0000
0000
0000
,
0110
0000
0001
0100
0001
0010
0001
0100
,
0001
0010
0100
1000
0010
0100
0001
0010
,
0200
0000
1300
0010
0100
0010
1000
0100
,
0010
0000
0000
0000
0000
0000
0100
0000
0000
0000
0000
0000
1000
0000
0000
0000
0000
0000
0000
0000
0000
0001
0000
0000
0100
0000
0000
0000
0000
0000
0000
0000
0000
0001
0000
0000
1000
0000
0000
0000
0010
0000
0000
0000
1000
0000
0000
0000
,
0010
0000
1000
0000
0010
0000
0100
0000
0000
0001
0000
0000
0010
0000
0000
0100
0000
0000
1000
0000
0000
0010
0000
0000
,
0100
0000
0001
0000
0010
0000
0001
0000
1000
0000
0010
1000
0010
0000
0100
0000
,
0002
0000
0000
0013
0100
1000
0100
0000
0000
0010
0001
0100
,
0001
0000
0000
0010
0100
1000
0100
0000
0010
0001
0000
0000
,
1000
0001
1000
0000
0001
0000
0100
0000
0010
0000
0100
0000
0001
0000
0010
0000
,
0100
0000
0010
0000
0100
0000
1000
0000
0000
0001
0000
0000
0100
0000
0000
0001
0000
0000
1000
0000
0000
0010
0000
0000
,
0200
0000
0301
0010
0001
1000
0100
1000
,
0010
0100
0001
0010
1000
0010
0001
1000
,
0100
0000
0000
0100
0000
0000
1000
0000
0100
0000
0010
0000
0001
0000
0000
0000
0000
0000
1000
0000
0010
0000
0100
0000
,
0001
0000
0000
0000
0000
0000
0001
0000
0010
0000
0100
0000
1000
0000
0000
1000
0000
0000
0001
0000
0100
0000
0010
0000
,
1000
2002
0000
3003
,
0000
0000
0000
0000
1000
0001
1000
0001
1000
0001
1000
0001
1000
0001
1000
0001
,
1000
0001
1000
0001
1000
0000
0000
0000
0000
0000
0000
0000
0000
0000
0000
0000
,
0000
0000
0000
0000
,
0000
1001
0000
0000
,
0000
0110
0000
0000
,
0000
1001
0000
0000
,
0000
0110
0000
0000
,
0000
0000
0000
0000
1001
0000
0000
0001
0100
0000
0000
0001
0010
0000
0010
0000
,
0100
0000
0000
0000
1001
0000
0000
1000
0100
0000
0000
1000
0010
0000
0010
0000
,
0100
0100
0100
0000
1001
0000
0000
0001
0010
0000
0000
0001
0100
0000
0010
1000
,
0001
0000
0000
0000
0001
0000
0000
0000
0001
0000
0000
0000
0100
0000
0000
0000
0010
0000
0000
0000
0000
0000
0000
0000
2002
0000
0000
0000
0000
0000
0000
0000
0000
0000
0000
0000
0000
0000
0000
0000
0000
0000
0000
0000
0000
0000
0000
0000
0000
0000
0000
3003
0000
0000
0000
0000
0000
0000
0000
0000
0000
0000
0000
0000
,
0000
1000
0100
0001
,
0100
1000
0010
1000
,
0001
0010
0001
0100
,
0010
0000
1000
0100
1000
0000
0100
0010
,
0100
1000
0010
0100
,
0001
0010
1000
0010
,
0001
1000
0010
0100
,
0001
0000
0010
0001
0010
0000
0100
0010
,
0100
1000
0001
0100
,
0010
0001
0010
1000
,
0001
0010
0100
1000
,
0010
0000
0100
0001
0100
0000
0001
0010
,
0001
0100
0010
1000
,
0100
0010
0001
0100
,
0010
1001
0000
0110
,
0000
0000
1000
0100
1000
0100
0010
0001
,
0010
0001
1000
0000
0010
0000
0100
0000
,
0010
1000
0100
0001
,
0100
1000
0001
0010
,
0001
0000
1000
0010
1000
0010
1000
0010
,
1000
0010
0100
0000
0001
0000
0010
0000
,
0001
1000
0100
0001
,
0100
0010
0001
1000
,
0010
0000
0100
0001
0100
0001
0100
0001
,
0100
0001
1000
0000
0100
0000
1000
0000
,
0010
0110
0001
0010
,
0100
0110
1000
0010
,
0100
0000
1001
0000
0001
0000
0010
0100
,
0010
0100
1000
0000
0010
0000
1000
0010
,
1000
0010
0100
0000
0001
0000
0010
0001
,
0010
0001
1000
0000
0010
0100
0010
0100
,
0010
0100
0001
1000
0010
1000
0001
0100
,
0010
0100
0002
0000
0000
0000
0000
0000
,
0000
0000
0000
0010
,
0010
0010
0010
0000
,
0003
0000
1000
0001
1000
0000
0001
1000
,
0001
0010
0010
0010
,
0010
0000
0200
0000
0000
0300
2002
0000
,
0000
0000
3000
0000
,
0003
0000
0100
0001
0100
0000
0001
0000
,
0000
0011
0010
0100
,
1100
0000
0000
1010
,
0010
0100
0101
0000
,
0000
0000
0001
0010
0001
0000
1000
0010
,
1000
0100
0110
0010
,
0110
0000
0000
1001
,
0000
0000
1000
0100
1000
0000
0001
0100
,
0001
0000
0010
0100
0010
0100
0010
0100
,
0010
0100
1000
0001
1000
0001
1000
0001
,
1000
0001
0100
0010
0100
0010
0100
0010
,
0100
0010
1000
0000
1000
0000
0001
0100
,
0001
0100
0001
0000
0020
0000
0000
0000
,
0000
0000
0000
0000
,
0000
0000
0130
1000
0100
1000
0010
0100
,
0010
0100
0001
0010
0001
0010
0100
0000
,
0000
2002
0000
0000
,
0000
0000
0000
3003
0000
0000
0000
0000
;

//--------------- dance-single - forcednature ----------------
#NOTEDATA:;
#STEPSTYPE:dance-single;
#DESCRIPTION:forcednature;
#CREDIT:forcednature;
#DIFFICULTY:Challenge;
#METER:18;
#RADARVALUES:0,0,0,0,0;
#NOTES:
0000
0000
0000
0000
,
0000
0000
0000
0000
,
0000
0000
0000
0000
,
0000
0000
0000
0000
0000
0000
0000
0000
0000
0000
0001
1000
2002
0000
0000
0000
0000
0000
0003
0000
0000
0000
0000
0000
,
0010
0000
0000
0000
0000
0000
0000
0000
0000
0000
0000
0000
3010
1000
0100
1000
0010
1000
0001
1000
0010
1000
0100
0010
,
1002
0000
0010
0000
,
0010
0000
0000
0000
0000
0000
0000
0000
0000
0000
0000
0000
0010
0000
0000
0000
0000
0000
0000
0000
0003
1000
0001
1000
,
2001
0000
0010
0000
,
0010
0000
0000
0000
0000
0000
0000
0000
0000
0000
0000
0000
0010
0000
0000
3000
0000
0000
1000
0100
0010
0001
0100
0010
,
0110
0000
2002
3003
,
0110
0000
0000
0000
0000
0000
0000
0000
0000
0000
0000
0000
2002
0000
0000
0003
0000
0000
3001
0010
0100
1000
0010
0100
,
1001
0000
0100
0000
0220
0030
0310
0000
,
1001
0000
0000
0100
0000
0000
0110
0000
0000
0010
0000
0000
1000
0100
0010
0001
0100
0010
1000
0100
1000
0001
0100
0001
,
0010
0000
0001
0100
1000
0100
0001
0000
,
0011
0000
0000
0000
1000
0000
0010
1000
0001
0000
0100
0000
0001
0000
0000
0000
,
0010
0000
0001
0000
0010
0000
0100
0000
0000
1000
0000
0000
0010
0000
0000
0100
0000
0000
0110
0000
0000
0000
0000
0000
,
0001
0000
0000
0010
0001
0100
0010
1000
0100
0010
0001
0100
,
0010
0000
1000
0000
0100
0000
0010
0000
0000
0000
0000
0000
0001
0000
0000
0010
0000
0000
1000
0000
0000
0000
0000
0000
,
0011
0000
0000
0000
0001
0000
0100
0001
0100
0000
0010
0000
1000
0000
0000
0000
,
0100
1000
0100
0020
0000
0000
0001
0000
0000
0001
0000
0000
,
0001
0000
0000
0031
0100
1000
0001
0010
1000
0100
0001
1000
,
0010
0000
0001
0000
1000
0000
0010
0000
0000
0100
0000
0000
0001
0000
0000
0100
0000
0000
0010
0000
0000
0000
0000
0000
,
0010
0000
0000
0000
1000
0000
0000
0000
0100
0000
0000
0000
0010
0000
0000
0000
0000
0000
0001
0000
0000
0010
0000
0000
0001
0000
0000
0000
0000
0000
0100
0000
0000
0000
0000
0000
0110
0000
0000
0000
0000
0000
0000
0000
0000
0000
0000
0000
,
1000
0010
0100
0001
0000
0000
0001
0010
0100
1000
0000
0000
,
1000
0010
0100
0001
0010
0100
1000
0010
0100
0001
0010
1000
,
0010
0000
0001
0000
0100
0000
0010
0000
0000
0000
0000
0000
1000
0000
0000
0100
0000
0000
1100
0000
0000
0000
0000
0000
,
0001
0000
0011
0000
1000
0010
0110
0000
,
0001
0000
0010
0000
0100
0000
1000
0000
0000
0000
0000
0000
0010
0000
0000
0100
0000
0000
0110
0000
0000
0000
0000
0000
,
0001
0000
0000
0000
1000
0000
0100
1000
0001
0000
0100
0001
0010
0000
0000
0000
,
0110
0000
1000
0001
0100
1000
0100
0001
,
0010
0000
0001
0000
0010
0000
0100
0000
0000
1000
0000
0000
0010
0000
0000
0100
0000
0000
1000
0000
0000
0100
0000
0000
,
0001
0000
1000
0000
0010
0000
0100
0000
0000
0001
0000
0000
0010
0000
0000
0001
0000
0000
0100
0000
0000
0010
0000
0000
,
1000
0000
0000
0000
0000
0000
0100
0000
0000
0000
0000
0000
1100
0000
0000
0000
0000
0000
0001
0000
0000
0010
0000
0000
0001
0000
0000
0000
0000
0000
0100
0000
0000
0001
0000
0000
0100
0000
0000
0000
0010
0000
0000
0000
1000
0000
0000
0000
,
0100
0000
0010
0000
0001
0000
0100
0000
0000
1000
0000
0000
0100
0000
0000
0001
0000
0000
1000
0000
0000
0010
0000
0000
,
0110
0000
0001
0000
1000
0000
0100
0000
1000
0000
0010
0100
0001
0000
0010
0000
,
0001
1000
0100
1000
0010
0001
0010
0000
0000
1000
0100
0001
,
0100
0000
0000
0010
0001
0100
1000
0000
0000
0110
0000
0000
,
1000
0001
1000
0001
0010
0000
0100
0000
1000
0000
0010
0000
0100
0000
1000
0000
,
0100
0000
0001
0000
0010
0000
0001
0000
0000
1000
0000
0000
0010
0000
0000
1000
0000
0000
0100
0000
0000
0001
0000
0000
,
0100
1000
0100
1000
0001
0000
0010
0000
0100
0000
1000
0000
0010
0000
0100
0000
,
0001
0000
0010
0000
1001
0000
1000
0000
0010
0000
0100
0001
0100
0000
0010
0000
,
1000
0000
0000
0100
0000
0000
0010
0000
0000
0001
0000
0000
1000
0000
0000
0000
0010
0000
0000
0000
0100
0000
0000
0000
0001
0000
0000
0000
0000
0000
0000
0000
0000
0000
0000
0000
1000
0000
0000
0000
0100
0000
0000
0000
0010
0000
0000
0000
,
0001
0000
0000
0000
0000
0000
0001
0000
0100
0000
0010
0000
1000
0000
0000
1000
0000
0000
0001
0000
0010
0000
0100
0000
,
1000
0010
0100
2002
0000
0000
0000
0000
0000
3003
0000
0000
,
0000
0000
0000
0000
0010
0100
0010
0100
0010
0100
0010
0100
0010
0100
0010
0100
,
0010
0100
0010
0100
0010
0000
0000
0000
0000
0000
0000
0000
0000
0000
0000
0000
,
0000
0000
0000
0000
,
0000
1001
0000
0000
,
0000
0110
0000
0000
,
0000
1001
0000
0000
,
0000
0110
0000
0000
,
0000
0000
0000
0000
0000
0000
0000
0000
1001
0000
0000
0001
1000
0000
0000
0000
0100
0000
0000
0000
0000
0000
1000
0000
0010
0000
0000
0000
0100
0000
0001
0000
,
0010
0000
0000
0000
0010
0000
0000
0000
1001
0000
0000
1000
0001
0000
0000
0000
0100
0000
0000
0000
0010
0000
0010
0000
1000
0000
0000
0000
0001
0000
0010
0000
,
0100
0000
1000
0000
1000
0000
0100
0000
1001
0000
0000
0001
0010
0000
0000
0000
0110
0000
0000
0000
1000
0000
1000
0000
0010
0000
0000
0000
0100
0000
0001
1000
,
0001
0000
0000
0000
0010
0000
0000
0000
0010
0000
0000
0000
0001
0000
0000
0000
0100
0000
0000
0000
0000
0000
0000
0000
2002
0000
0000
0000
0000
0000
0000
0000
0000
0000
0000
0000
0000
0000
0000
0000
0000
0000
0000
0000
0000
0000
0000
0000
0000
0000
0000
3003
0000
0000
0000
0000
0000
0000
0000
0000
0000
0000
0000
0000
,
0000
0000
0001
1000
0001
0000
0100
0000
,
0010
0000
1000
0000
0100
0010
0001
0000
,
0100
0010
1000
0000
0010
0000
0100
0000
,
0001
0000
0010
0001
0010
0001
1000
0100
,
1000
0100
0010
0000
0001
0000
0100
0000
,
1000
0000
0100
0000
0001
1000
0010
0000
,
1000
0001
0010
0000
0100
0000
0010
0000
,
0001
0000
1000
0010
1000
0010
0100
0001
,
0100
0001
1000
0000
0100
0000
0010
0000
,
0100
0000
1000
0000
0001
0010
0100
0000
,
1000
0010
0100
0000
0001
0000
0010
0000
,
0001
0000
1000
0010
0100
0001
1000
0010
,
0100
0001
1000
0000
0100
0000
1000
0000
,
0010
0100
0010
0000
0100
0001
0010
0000
,
0100
1000
0010
0000
1000
0000
0001
0000
,
0010
0000
0001
1000
0100
0010
0001
1000
,
0100
0010
0001
0000
0100
0000
0010
0000
,
1000
0100
0010
0000
0100
1000
0010
0000
,
0100
0001
0020
0000
0001
0000
0100
0000
,
0031
0000
1000
0100
1000
0001
1000
0100
,
1000
0001
0010
0000
0100
0000
1000
0000
,
0010
0100
0001
0000
0010
0001
0100
0000
,
0001
1000
0020
0000
0100
0000
1000
0000
,
0130
0000
0001
1000
0001
0100
0010
1000
,
0010
0100
0001
0000
0010
0000
0001
0000
,
0100
0010
1000
0000
0100
0010
0001
0000
,
0100
0010
2000
0000
0001
0000
0010
0000
,
3001
0000
1000
0100
0010
0001
0100
0010
,
1000
0001
0010
0000
0100
1000
0100
1000
,
0001
1000
0100
1000
0100
1000
0010
0100
,
0001
0010
0001
0010
0100
0010
0001
0010
,
0001
1000
0010
0100
0001
0100
0010
1000
,
0001
0010
0200
0000
0000
0000
0000
0000
,
0000
0000
0000
1000
,
1000
1000
1000
0300
,
0000
0000
0001
0010
0001
1000
0001
0010
,
0001
1000
0100
0000
0100
0000
0100
0000
,
0100
0000
0000
1000
0000
0100
0000
0001
0000
0100
0000
1000
0020
0000
0000
0000
,
0000
0000
0000
0000
,
0030
0000
0100
0001
0100
0000
0101
0000
,
0000
0012
0010
1000
,
1003
1100
0000
2010
,
0010
0001
3001
0000
,
0000
0000
1000
0100
0010
0000
0001
0100
,
0010
0110
0110
0110
,
0110
0000
0000
1000
0000
0001
0000
1000
0000
0001
0000
1000
0010
0000
0000
0000
,
0100
0010
1000
0100
1000
0000
0001
0100
,
0001
0000
0010
0100
1000
0100
0010
0001
,
0010
0100
1000
0100
0010
0001
0010
0100
,
1000
0100
0010
0001
0100
0001
1000
0001
,
0100
0001
0010
0000
0100
1000
0100
1000
,
0100
1000
0010
0000
0220
0000
0000
0000
,
0000
0000
0000
0000
,
0330
0000
0001
0100
0010
1000
0100
0010
,
0001
0100
0010
1000
0100
0010
0001
0000
,
0000
2002
0000
0000
,
0000
0000
0000
3003
0000
0000
0000
0000
;

//--------------- dance-double - forcednature ----------------
#NOTEDATA:;
#STEPSTYPE:dance-double;
#DESCRIPTION:forcednature;
#CREDIT:forcednature;
#DIFFICULTY:Easy;
#METER:12;
#RADARVALUES:0,0,0,0,0;
#NOTES:
00000000
00000000
00000000
00000000
,
00000000
00000000
00000000
00000000
,
00000000
00000000
00000000
00000000
,
00000000
00000000
00022000
00000000
,
00000000
00000000
00000000
00033000
,
02200000
00000000
00000000
00000000
,
00000000
00000000
00000000
03300000
,
20020000
00000000
00000000
00000000
,
00000000
00000000
00000000
30030000
,
01100000
00000000
00022000
00033000
,
00000110
00022000
00033000
00100000
,
00011000
00000010
00011000
00100000
,
00001000
00001000
00010000
00010000
00000100
00001000
00000100
00001000
,
00000011
00000001
00000000
00000100
,
00000000
00001000
00010000
00001000
,
00000000
00010000
00000000
00100000
,
00000000
10000000
10000000
10000000
,
10000000
00010000
00000000
00100000
,
00000000
01000000
10000000
00010000
,
00000000
01100000
00000000
00000000
,
00000000
00001000
00001000
00010000
,
00010000
00000100
00001000
00000010
,
00000000
00000100
00000001
00000010
,
00000000
00000100
00010000
00001000
,
00000000
00100000
00100000
00100000
,
00100000
00010000
10000000
00100000
,
00000000
10000000
00010000
00100000
,
00000000
00011000
00000000
00000110
,
00000000
00000001
00000001
00001000
,
00001001
00001000
00000100
00010000
,
00001000
00100000
00010000
00100000
,
00010000
10000000
00100000
01000000
,
00010000
00100000
00100000
00100000
,
00100000
00001000
00010000
00000010
,
00001000
00000001
00000010
00000100
,
00001000
00001001
00000000
00011000
,
00000000
10000000
00010000
10010000
,
00000000
10000000
00100000
01000000
,
00100000
10000000
01000000
00010000
,
00000000
00001000
00000010
00000001
,
00001000
00000100
00001000
00000001
,
00000000
00001001
00000000
00011000
,
00000000
10010000
00000000
00011000
,
00000000
00000220
00000000
00000330
,
00000000
00000001
00000001
00000001
,
00000001
00000000
00000000
00000000
,
00000000
00000000
00000000
00000000
,
00000000
00011000
00000000
00000000
,
00000000
10000000
00000000
00000000
,
00000000
00011000
00000000
00000000
,
00000000
00000001
00000000
00000000
,
00000000
00011000
00100000
00000000
,
00100000
00011000
00000010
00000000
,
00000010
00011000
01000000
00000000
,
01000000
00000000
00000000
00000000
00000000
00000000
00000000
00000000
00000000
00000000
00000000
00000000
00000000
00000000
00000000
00000000
01100000
00000000
00000000
00000000
00000000
00000000
00000000
00000000
20020000
00000000
00000000
00000000
00000000
00000000
00000000
00000000
00000000
00000000
00000000
00000000
00000000
00000000
00000000
00000000
00000000
00000000
00000000
00000000
00000000
00000000
00000000
00000000
00000000
00000000
00000000
30030000
00000000
00000000
00000000
00000000
00000000
00000000
00000000
00000000
00000000
00000000
00000000
00000000
,
00000000
10000000
00000000
01000000
,
00000000
00010000
00000000
00001000
,
00000000
01000000
00000000
00001000
,
00000000
00010000
00000000
00000000
,
00000000
00000010
00000000
00001000
,
00000000
00000001
00000000
00000100
,
00000000
00001000
00010000
00001000
,
00000000
00010000
00001000
00010000
,
00000000
00100000
00000000
10000000
,
00000000
00010000
00000000
00100000
,
00000000
01000000
00000000
00010000
,
00000000
00001000
00000000
00100000
,
00000000
01100000
00000000
10000000
,
00000000
00010000
00000000
01000000
,
00000000
00001000
00010000
00001000
,
00000000
00010000
00001000
00010000
,
00000000
00000010
00000000
00001000
,
00000000
00000001
00000000
00000010
,
00000000
00001000
00010000
00001000
,
00000000
00010000
00000000
01000000
,
00000000
01100000
00000000
00010000
,
00000000
10000000
00000000
00100000
,
00000000
00010000
00001000
00010000
,
00001000
00010000
00001000
00010000
,
00000000
00000010
00000000
00001000
,
00000000
00000001
00000000
00000010
,
00000000
00011000
00000000
00100000
,
00000000
00011000
00000000
00000010
,
00000000
00010000
00001000
00100000
,
00000000
00001000
00010000
00000010
,
00000000
00010000
00001000
01000000
,
00001000
00010000
00001000
01000000
,
00010000
00200000
00000000
00000000
,
00000000
00000000
00000000
00001000
,
00000000
00001000
00301000
00000000
,
00000000
00010000
00001000
00010000
,
00001000
00000010
00000000
00000010
,
00000100
00000000
00000000
00002002
,
00000000
00000000
00000003
00000000
,
00000000
00003010
00000000
00000010
,
00000000
00010000
00001000
00010000
,
00001000
00100000
00000000
00001000
,
00010000
00001000
00010000
00000000
,
00000000
00011000
00000000
00011000
,
00000000
00000010
00001000
00000001
,
00000200
00000300
00000000
00002002
,
00000000
00000000
00000000
00003003
,
00000000
00001000
00000100
00001000
,
00000100
00010000
00001000
00010000
,
00001000
00100000
00010000
01000000
,
00100000
10000000
01000000
00100000
,
00010000
01000000
01000000
00000000
,
00000000
00000000
00000000
00000000
,
00000000
00001000
00001000
00010000
,
00010000
00001000
00001000
00010000
,
00000000
00022000
00000000
00000000
,
00000000
00000000
00000000
00033000
00000000
00000000
00000000
00000000
;

//--------------- dance-double - forcednature ----------------
#NOTEDATA:;
#STEPSTYPE:dance-double;
#DESCRIPTION:forcednature;
#CREDIT:forcednature;
#DIFFICULTY:Medium;
#METER:14;
#RADARVALUES:0,0,0,0,0;
#NOTES:
00000000
00000000
00000000
00000000
,
00000000
00000000
00000000
00000000
,
00000000
00000000
00000000
00000000
,
00000000
00000000
00022000
00000000
,
00000000
00000000
00000000
00000000
00000000
00000000
00000000
00000000
00033000
00000000
00000000
00000000
00001000
00000000
00010000
00001000
00000000
00010000
00001000
00000000
00010000
00001000
00000000
00010000
,
00000020
00000000
00001000
00000000
,
00001000
00000000
00001000
00000030
,
00000202
00000300
00000010
00000000
,
00000010
00000000
00000000
00000000
00000000
00000000
00000000
00000000
00000000
00000000
00000000
00000000
00000010
00000000
00000000
00000000
00000000
00000000
00001003
00000000
00000100
00001000
00000000
00000100
,
00010000
00000000
00000000
00000000
00022000
00000000
00000000
00033000
,
00100000
00000000
00000000
00000000
00022000
00000000
00000000
00033000
,
00000010
00010000
00011000
00100000
,
00010000
00000000
00000000
01000000
00000000
00000000
00010000
00000000
00000000
00100000
00000000
00000000
01000000
00000000
10000000
00010000
00000000
10000000
01000000
00000000
10000000
00010000
00000000
10000000
,
00100000
01000000
00010000
00100000
,
00010000
10000000
00100000
00000000
10000000
01000000
00010000
00000000
,
00001000
00011000
00000010
00001010
,
00010000
00000000
00000000
00001000
00000000
00100000
00010000
00000000
00100000
00001000
00000000
00100000
,
00010000
00000000
00100000
00001000
00000000
00000000
00010000
00000000
00000000
00011000
00000000
00000000
,
00000010
00001000
00000100
00000000
00000010
00000001
00000100
00000000
,
00001000
00022000
00000000
00033000
,
00000000
00000000
00000000
00100000
00000000
00010000
10000000
00000000
01000000
00100000
00000000
00010000
,
10000000
00000000
00000000
00000000
01000000
00000000
00100000
00000000
00000000
00000000
00000000
00000000
01000000
00000000
00000000
10000000
00000000
00000000
00010000
00000000
00000000
00000000
00000000
00000000
,
00100000
00000000
00011000
00000000
00000010
00001000
00000100
00000000
,
00000010
00000000
00001001
00000000
00000001
00000100
00001000
00000000
,
00010000
00000000
00000000
00001000
00000000
00000000
00100000
00000000
00000000
00000000
00100000
00000000
00010000
00000000
00000000
00000000
00010000
00000000
10000000
00000000
00000000
00000000
10000000
00000000
,
01000000
00000000
10010000
00000000
00010000
00100000
01000000
00000000
,
00100000
00000000
00011000
00000000
00000010
00001000
00000001
00001000
,
00000010
00000110
00001000
00011000
,
00010000
00000000
00000000
01100000
00000000
00000000
00010000
00000000
00010000
10000000
00000000
00000000
,
10100000
00000000
00010000
00100000
00010000
00100000
00001000
00010000
,
00001000
00000000
00000010
00000100
00001000
00000000
00000010
00000100
,
00000001
00000000
00001000
00000100
00001000
00000100
00010000
00001000
,
00100000
00000000
00000000
00010000
00000000
01000000
00010000
00000000
01000000
00100000
00000000
10000000
,
00100000
00000000
00000000
00000000
01000000
00000000
00010000
00000000
00000000
00100000
00000000
00000000
00001000
00000000
00000000
00010000
00000000
00000000
00000100
00000000
00000000
00010000
00000000
00000000
,
00001000
00000000
00000010
00000001
00000100
00000000
00000010
00001000
,
00000100
00000000
00010000
00001000
00100000
00001000
00010000
00001000
,
01000000
00100000
10010000
01100000
,
10000000
00010000
10000000
01000000
10000000
01000000
00100000
00010000
,
00100000
00000000
00001000
00010000
00000010
00000000
00010000
00001000
,
00000010
00000000
00000001
00001000
00000100
00001000
00000001
00000100
,
00001000
00011000
00100000
00011000
,
00000010
00000000
00000000
00001000
00000100
00001000
00000100
00000000
00000000
00010000
00001000
00010000
,
00001000
00000000
00000000
00100000
00010000
00100000
00010000
00000000
00000000
10000000
00100000
10000000
,
00100000
02200000
00000000
03300000
,
00000000
00000000
10000000
01000000
10000000
01000000
00010000
00001000
,
00000010
00000001
00000000
00000000
00000000
00000000
00000000
00000000
,
00000000
00000000
00000000
00000000
,
00000000
00001001
00000000
00000000
,
00000000
00010000
00000000
00000000
,
00000000
10010000
00000000
00000000
,
00000000
00001000
00000000
00000000
,
00000000
00000000
00001001
00000000
00010000
00000000
00001000
00001000
,
00100000
00000000
10010000
00000000
00001000
00000000
00010000
00010000
,
00000010
00000000
00000000
00000000
00001001
00000000
00000000
00000000
00000001
00000000
00000000
00000010
00001000
00000000
00010000
00000000
,
00001000
00000000
00000000
00000000
00000000
00000000
00000000
00000000
01000000
00000000
00000000
00000000
00000000
00000000
00000000
00000000
01100000
00000000
00000000
00000000
00000000
00000000
00000000
00000000
20020000
00000000
00000000
00000000
00000000
00000000
00000000
00000000
00000000
00000000
00000000
00000000
00000000
00000000
00000000
00000000
00000000
00000000
00000000
00000000
00000000
00000000
00000000
00000000
00000000
00000000
00000000
30030000
00000000
00000000
00000000
00000000
00000000
00000000
00000000
00000000
00000000
00000000
00000000
00000000
,
00000000
00010000
00000000
01000000
,
00000000
00010000
00000000
00100000
,
00000000
00001000
00010000
00001000
,
00000000
00000010
00000000
00000001
,
00000000
00001100
00000000
00000010
,
00000000
00010000
00000000
00001000
,
00000000
00100000
00010000
00100000
,
00000000
00010000
01000000
00010000
,
00000000
01100000
00000000
10000000
,
00000000
00010000
00000000
00100000
,
00000000
00001000
00010000
00001000
,
00000000
00010000
00000100
00001000
,
00000000
00001100
00000000
00000001
,
00000000
00000010
00000000
00000001
,
00000000
00001000
00000010
00001000
,
00000010
00010000
00001000
00010000
,
00000000
00100000
00000000
01100000
,
00000000
00010000
10000000
00100000
,
00000000
10000000
01000000
10000000
,
01000000
00100000
00001000
00010000
,
00000000
00000010
00001000
00000010
,
00000000
00000100
00000001
00000100
,
00000000
00001000
00010000
00001000
,
00010000
00100000
01000000
00100000
,
00000000
10000000
01000000
10000000
,
00000000
00010000
01000000
00010000
,
00000000
00100000
00100000
00001000
,
00001000
00010000
00000100
00001000
,
00000000
00000001
00000100
00001000
,
00000000
00000100
00001000
00010000
,
00000000
00001000
00010000
00100000
,
00000000
00010000
00100000
10000000
,
00000000
00020000
00000000
00000000
,
00000000
00000000
00000000
00130000
,
00001000
00010000
00000100
00000000
,
00000000
00010000
00010000
00001000
,
00010000
00000010
00010000
00001000
,
01000000
00000000
00000000
02200000
,
00000000
00000000
00000000
03300000
,
00000000
10000000
10000000
10000000
,
00000000
01000000
00010000
00001000
,
00010000
00001000
00000000
00000100
,
00001000
00010000
00001000
00000000
,
00000000
00000000
00100000
00010000
00000000
00000000
00100000
00010000
,
00000000
10000000
01000000
00010000
,
00001000
00000000
00000000
00022000
,
00000000
00000000
00000000
00033000
,
00000000
00000010
00010000
00001000
,
00000010
00000001
00000100
00001000
,
00010000
02000000
00100000
00100000
,
03100000
10000000
00010000
00100000
,
01000000
00010000
00002000
00000000
,
00000000
00000000
00000000
00000000
,
00000000
00103000
00010000
00001000
,
00000100
00010000
00001000
00000010
,
00000000
00002002
00000000
00000000
,
00000000
00000000
00000000
00003003
00000000
00000000
00000000
00000000
;

//--------------- dance-double - forcednature ----------------
#NOTEDATA:;
#STEPSTYPE:dance-double;
#DESCRIPTION:forcednature;
#CREDIT:forcednature;
#DIFFICULTY:Hard;
#METER:17;
#RADARVALUES:0,0,0,0,0;
#NOTES:
00000000
00000000
00000000
00000000
,
00000000
00000000
00000000
00000000
,
00000000
00000000
00000000
00000000
,
00000000
00000000
00000000
00000000
00000000
00000000
00000000
00000000
00000000
00000000
00010000
00001000
00200000
00000000
00000000
00000000
00000000
00000000
00000000
00000000
00000000
00000000
00000000
00000000
,
00000000
00000000
00000000
00000000
00000000
00000000
00000000
00000000
00000000
00000000
00000000
00000000
00310000
10000000
00010000
10000000
00010000
10000000
00010000
10000000
00010000
10000000
00010000
10000000
,
02000000
00000000
00100000
00000000
,
00100000
00000000
00000000
00000000
00000000
00000000
00000000
00000000
00000000
00000000
00000000
00000000
00100000
00000000
00000000
00000000
00000000
00000000
00000000
00000000
00000000
13000000
00010000
00100000
,
00002000
00000000
00010000
00000000
,
00010000
00000000
00000000
00000000
00000000
00000000
00000000
00000000
00000000
00000000
00000000
00000000
00010000
00000000
00000000
00000000
00000000
00000000
00103000
00010000
00100000
00001000
00010000
00000100
,
00001000
00000000
00000220
00000330
,
00011000
00000000
02200000
03300000
,
00011000
00000010
00011000
00100000
,
00011000
00000000
00000000
00000100
00000000
00000000
00011000
00000000
00000000
01000000
00000000
00000000
00010000
00100000
00010000
00100000
00001000
00010000
00001000
00010000
00000100
00001000
00000100
00001000
,
00000010
00000000
00000100
00000001
00000010
00000000
00000011
00000000
,
00001000
00000000
00000100
00000001
00000100
00010000
00001000
00000000
,
00100000
00000000
00010000
00000000
00100000
00000000
00010000
00000000
00000000
00000000
00000000
00000000
10000000
00000000
00000000
00100000
00000000
00000000
00010000
00000000
00000000
00000000
00000000
00000000
,
00001000
00000000
00000000
00010000
00000010
00001000
00000010
00010000
00000010
00001000
00000010
00010000
,
00000010
00000000
00001000
00000000
00000010
00000000
00010000
00000000
00000000
00001000
00000000
00000000
00100000
00000000
00000000
00010000
00000000
00000000
00100000
00000000
00000000
00000000
00000000
00000000
,
10010000
00000000
10000000
01000000
00010000
00000000
00011000
00000000
,
00000010
00001000
00000001
00000200
00000000
00000000
00000000
00000000
00000000
00000000
00000000
00000000
,
00000300
00000000
00000000
00000001
00000010
00000001
00000010
00000100
00000010
00000100
00001000
00000100
,
00010000
00000000
00001000
00000000
00100000
00000000
00010000
00000000
00000000
00000000
00000000
00000000
10000000
00000000
00000000
01000000
00000000
00000000
00010000
00000000
00000000
00000000
00000000
00000000
,
00001000
00100000
00001000
00010000
00000000
00000000
00001100
00000000
00000000
00001010
00000000
00000000
,
00000001
00000100
00000001
00001000
00000000
00000000
00000010
00001000
00000010
00010000
00000000
00000000
,
00001000
00100000
00010000
00100000
00000000
01000000
00100000
00000000
01000000
10000000
00010000
10000000
,
00010000
10000000
00010000
00100000
00000000
00000000
00101000
00000000
00000000
00010100
00000000
00000000
,
00000100
00001000
00000010
00000000
00010010
00000000
01001000
00000000
,
01000000
00010000
10000000
00200000
00000000
00000000
00300000
00000000
00000000
02200000
00000000
00000000
,
03300000
00000000
00000000
00000000
00010000
00000000
00000000
00100000
00010000
00000000
00100000
00001000
00010000
00000000
00000000
00000000
,
00011000
00000000
00000010
00001000
00000010
00010000
00000010
00001000
,
00000010
00010000
00001000
00000010
00000001
00000010
00000100
00001000
,
00000002
00000000
00000103
00001000
00010000
00001000
00010000
00100000
,
10000000
00000000
00000000
00000000
00000000
00000000
00010000
00000000
00000000
00000000
00000000
00000000
00100000
00000000
00000000
00000000
00000000
00000000
00000000
00000000
00000000
01000000
00000000
00000000
10000000
00000000
00000000
00000000
00000000
00000000
00000000
00000000
00000000
01000000
00000000
00000000
00100000
00000000
00000000
00000000
00010000
00000000
00000000
00000000
00100000
00000000
00000000
00000000
,
00010000
00000000
00100000
00000000
00001000
00000000
00010000
00000000
00000000
00000010
00000000
00000000
00001000
00000000
00000000
00000010
00000000
00000000
00010000
00000000
00000000
00001000
00000000
00000000
,
00000010
00000000
00000001
00000000
00001000
00000000
00000100
00000000
00010000
00000000
00001000
00010000
00001000
00000000
00100000
00000000
,
00020000
00000000
00000000
10030000
00100000
01000000
00100000
00000000
00000000
10000000
00010000
01000000
,
00010000
00000000
00000000
00100000
00001000
00010000
00000100
00000000
00010000
00001000
00000000
00000000
,
00010000
00001000
00010000
00000000
00000010
00000000
00001000
00000000
00010000
00000000
00001000
00000000
00000010
00000000
00010000
00000000
,
00001000
00000000
00100000
00000000
00010000
00000000
00100000
00000000
00000000
01000000
00000000
00000000
10000000
00000000
00000000
01000000
00000000
00000000
00010000
00000000
00000000
00001000
00000000
00000000
,
00200000
00000000
00310000
01000000
00001000
00010000
00100000
00010000
,
00001000
00010000
00000100
00001000
00000010
00000100
00000001
00000010
,
00001000
00000000
00000000
00001000
00000000
00000000
00010000
00000000
00001000
00000000
00100000
00000000
00010000
00000000
00000000
00000000
00000000
00000000
10000000
00000000
00100000
00000000
10000000
00000000
,
00010000
00000000
00000000
00000000
00000000
00000000
00100000
00000000
00001000
00000000
00010000
00000000
00000100
00000000
00000000
00001000
00000000
00000000
00000010
00000000
00010000
00000000
00001000
00000000
,
01000000
02200000
00000000
03300000
,
00000000
00000000
00000000
00000000
10000000
00000000
00010000
10000000
00010000
00000000
10000000
00010000
10000000
00000000
00010000
10000000
,
00010000
00000000
10000000
00010000
00100000
00000000
00000000
00000000
00000000
00000000
00000000
00000000
00000000
00000000
00000000
00000000
,
00000000
00000000
00000000
00000000
,
00000000
00011000
00000000
00000000
,
00000000
01000000
00000000
00000000
,
00000000
00011000
00000000
00000000
,
00000000
00000100
00000000
00000000
,
00000000
00000000
00000000
00000000
00011000
00000000
00000000
00100000
00100000
00000000
00000000
00001000
00010000
00000000
00010000
00000000
,
00000010
00000000
00000000
00000000
00011000
00000000
00000000
00000010
00000010
00000000
00000000
00010000
00001000
00000000
00001000
00000000
,
01000000
01000000
01000000
00000000
00011000
00000000
00000000
00000010
00001000
00000000
00000000
00010000
01000000
00000000
00100000
10000000
,
00010000
00000000
00000000
00000000
00010000
00000000
00000000
00000000
00010000
00000000
00000000
00000000
00100000
00000000
00000000
00000000
00001000
00000000
00000000
00000000
00000000
00000000
00000000
00000000
00022000
00000000
00000000
00000000
00000000
00000000
00000000
00000000
00000000
00000000
00000000
00000000
00000000
00000000
00000000
00000000
00000000
00000000
00000000
00000000
00000000
00000000
00000000
00000000
00000000
00000000
00000000
00033000
00000000
00000000
00000000
00000000
00000000
00000000
00000000
00000000
00000000
00000000
00000000
00000000
,
00000000
00000010
00001000
00000100
,
00000010
00000001
00000100
00001000
,
00010000
00100000
10000000
00100000
,
01000000
00000000
00010000
00100000
00010000
00000000
00100000
01000000
,
00100000
01000000
10000000
00100000
,
10000000
01000000
00010000
00001000
,
00000010
00000001
00000100
00000001
,
00000010
00000000
00000100
00001000
00000100
00000000
00010000
00001000
,
00010000
00000010
00001000
00010000
,
01000000
00010000
00100000
10000000
,
00100000
00010000
01000000
00001000
,
00010000
00000000
00000100
00001000
00000100
00000000
00000010
00000100
,
00000010
00000001
00000100
00001000
,
00010000
01000000
10000000
00100000
,
01000000
01100000
00000000
10010000
,
00000000
00000000
10000000
01000000
00100000
00000000
00010000
01000000
,
00100000
10000000
01000000
00010000
,
01000000
00100000
00001000
00010000
,
00000100
00010000
00001000
00000010
,
00000001
00000000
00001000
00000010
00001000
00000000
00000001
00000100
,
00000001
00000010
00001000
00010000
,
01000000
00100000
00001000
00010000
,
00100000
10000000
00010000
01000000
,
00010000
00000000
00100000
00001000
00010000
00000000
00000010
00010000
,
00001000
00010000
00000100
00001000
,
00000010
00000110
00000001
00000010
,
00000100
00000110
00001000
00000010
,
00010000
00000000
00011000
00000000
00001000
00000000
00100000
00010000
,
00100000
00010000
00100000
00000000
01000000
00000000
10000000
00100000
,
01000000
00000000
00010000
00000000
00100000
00000000
00001000
00010000
,
00001000
00000000
00000010
00000000
00000100
00001000
00000100
00000000
,
00000010
00000100
00000010
00000000
00000001
00001000
00000100
00001000
,
00000001
00001000
00000020
00000000
00000000
00000000
00000000
00000000
,
00000000
00000000
00000000
00010000
,
00010000
00010000
00010000
00000000
,
00000030
00000000
00010000
00001000
00010000
00000000
00001000
00010000
,
00001000
00100000
00100000
00100000
,
00100000
00010000
00000000
20020000
,
00000000
00000000
30000000
00000000
,
00030000
00000000
01000000
00010000
01000000
00000000
00001000
00000000
,
00000000
00100000
00010000
00001000
,
00000100
00001100
00000000
00000010
,
00001000
00010000
01000000
00000000
,
00000000
00000000
00100000
10000000
00100000
00000000
01000000
00010000
,
01000000
00001000
00001000
00010000
,
00011000
00000000
00000000
00000110
,
00000000
00000000
00001000
00000100
00001000
00000000
00000100
00010000
,
00001000
00000000
00100000
00010000
00100000
00010000
00100000
00010000
,
00100000
00000000
01000000
10000000
01000000
10000000
01000000
10000000
,
01000000
00000000
00010000
00001000
00010000
00001000
00010000
00001000
,
00010000
00001000
00010000
00000000
00010000
00000000
00000010
00001000
,
00000010
00001000
00000010
00000000
00000200
00000000
00000000
00000000
,
00000000
00000000
00000000
00000000
,
00000000
00000000
00000301
00001000
00000001
00001000
00000001
00001000
,
00000001
00001000
00000001
00001000
00000001
00001000
00000001
00000000
,
00000000
00022000
00000000
00000000
,
00000000
00000000
00000000
00033000
00000000
00000000
00000000
00000000
;

//--------------- dance-double - forcednature ----------------
#NOTEDATA:;
#STEPSTYPE:dance-double;
#DESCRIPTION:forcednature;
#CREDIT:forcednature;
#DIFFICULTY:Challenge;
#METER:18;
#RADARVALUES:0,0,0,0,0;
#NOTES:
00000000
00000000
00000000
00000000
,
00000000
00000000
00000000
00000000
,
00000000
00000000
00000000
00000000
,
00000000
00000000
00000000
00000000
00000000
00000000
00000000
00000000
00000000
00000000
00010000
00001000
00022000
00000000
00000000
00000000
00000000
00000000
00030000
00000000
00000000
00000000
00000000
00000000
,
00100000
00000000
00000000
00000000
00000000
00000000
00000000
00000000
00000000
00000000
00000000
00000000
00103000
00010000
00100000
00001000
00010000
00000010
00001000
00000010
00010000
00001000
01000000
00010000
,
02000000
00000000
00100000
00000000
,
00100000
00000000
00000000
00000000
00000000
00000000
00000000
00000000
00000000
00000000
00000000
00000000
00100000
00000000
00000000
00000000
00000000
00000000
00000000
00000000
00000000
03010000
10000000
00010000
,
20000000
00000000
00100000
00000000
,
00100000
00000000
00000000
00000000
00000000
00000000
00000000
00000000
00000000
00000000
00000000
00000000
00100000
00000000
00000000
30000000
00000000
00000000
10000000
01000000
00010000
00001000
00000100
00000001
,
00000010
00000000
00002002
00003003
,
00011000
00000000
00000000
00000000
00000000
00000000
00000000
00000000
00000000
00000000
00000000
00000000
20020000
00000000
00000000
00030000
00000000
00000000
30100000
01000000
00010000
00100000
00001000
00010000
,
00011000
00000000
00000010
00000000
00022000
00030000
00103000
00000000
,
10010000
00000000
00000000
00001000
00000000
00000000
00011000
00000000
00000000
00010000
00000000
00000000
00000010
00001000
00000100
00010000
00001000
01000000
00010000
00100000
00001000
00010000
00000010
00001000
,
00000100
00000000
00000010
00001000
00010000
00001000
00000010
00000000
,
00000011
00000000
00000000
00000000
00001000
00000000
00000100
00010000
00001000
00000000
00100000
00000000
00010000
00000000
00000000
00000000
,
01000000
00000000
00010000
00000000
01000000
00000000
00100000
00000000
00000000
10000000
00000000
00000000
00010000
00000000
00000000
00100000
00000000
00000000
00110000
00000000
00000000
00000000
00000000
00000000
,
00001000
00000000
00000000
00010000
00000010
00001000
00010000
01000000
00001000
00010000
00000010
00001000
,
00010000
00000000
01000000
00000000
00001000
00000000
00010000
00000000
00000000
00000000
00000000
00000000
00100000
00000000
00000000
10000000
00000000
00000000
01000000
00000000
00000000
00000000
00000000
00000000
,
01100000
00000000
00000000
00000000
00100000
00000000
00010000
00100000
00010000
00000000
00001000
00000000
00000100
00000000
00000000
00000000
,
00000010
00000001
00001000
00000020
00000000
00000000
00001000
00000000
00000000
00001000
00000000
00000000
,
00001030
00000000
00000000
00000001
00000100
00001000
00010000
00001000
00010000
00100000
10000000
00100000
,
10000000
00000000
01000000
00000000
00100000
00000000
00010000
00000000
00000000
00100000
00000000
00000000
00001000
00000000
00000000
00010000
00000000
00000000
00001000
00000000
00000000
00000000
00000000
00000000
,
00000010
00000000
00000000
00000000
00000100
00000000
00000000
00000000
00001000
00000000
00000000
00000000
00000100
00000000
00000000
00000000
00000000
00000000
00000010
00000000
00000000
00000001
00000000
00000000
00000010
00000000
00000000
00000000
00000000
00000000
00000001
00000000
00000000
00000000
00000000
00000000
00000101
00000000
00000000
00000000
00000000
00000000
00000000
00000000
00000000
00000000
00000000
00000000
,
00001000
00000010
00010000
00001000
00000000
00000000
00010000
00001000
00100000
00010000
00000000
00000000
,
10000000
01000000
00010000
00001000
00010000
00001000
00000010
00000001
00000010
00000001
00000100
00000001
,
00001000
00000000
00000100
00000000
00000010
00000000
00000001
00000000
00000000
00000000
00000000
00000000
00001000
00000000
00000000
00000010
00000000
00000000
00001010
00000000
00000000
00000000
00000000
00000000
,
00010000
00000000
00011000
00000000
00100000
00010000
00110000
00000000
,
10000000
00000000
00100000
00000000
01000000
00000000
00010000
00000000
00000000
00000000
00000000
00000000
00100000
00000000
00000000
00001000
00000000
00000000
00011000
00000000
00000000
00000000
00000000
00000000
,
00000010
00000000
00000000
00000000
00001000
00000000
00000100
00001000
00000001
00000000
00000100
00000001
00000010
00000000
00000000
00000000
,
00000110
00000000
00001000
00000100
00000001
00000100
00010000
00000010
,
00010000
00000000
00001000
00000000
00100000
00000000
00010000
00000000
00000000
01000000
00000000
00000000
10000000
00000000
00000000
01000000
00000000
00000000
00001000
00000000
00000000
00100000
00000000
00000000
,
00010000
00000000
10000000
00000000
01000000
00000000
00010000
00000000
00000000
00001000
00000000
00000000
00100000
00000000
00000000
00010000
00000000
00000000
00000010
00000000
00000000
00001000
00000000
00000000
,
00010000
00000000
00000000
00000000
00000000
00000000
00000100
00000000
00000000
00000000
00000000
00000000
00001100
00000000
00000000
00000000
00000000
00000000
00000001
00000000
00000000
00000010
00000000
00000000
00000001
00000000
00000000
00000000
00000000
00000000
00000100
00000000
00000000
00000001
00000000
00000000
00000100
00000000
00000000
00000000
00000010
00000000
00000000
00000000
00001000
00000000
00000000
00000000
,
00000100
00000000
00010000
00000000
00001000
00000000
00100000
00000000
00000000
00010000
00000000
00000000
01000000
00000000
00000000
10000000
00000000
00000000
01000000
00000000
00000000
00001000
00000000
00000000
,
00011000
00000000
00100000
00000000
00010000
00000000
10000000
00000000
01000000
00000000
00010000
00001000
00100000
00000000
00010000
00000000
,
00100000
00001000
00000010
00000100
00001000
00000100
00001000
00000000
00000000
00000001
00000100
00000001
,
00000100
00000000
00000000
00001000
00010000
00100000
01000000
00000000
00000000
01100000
00000000
00000000
,
10000000
00010000
10000000
00010000
00100000
00000000
01000000
00000000
00010000
00000000
01000000
00000000
00100000
00000000
00001000
00000000
,
00000010
00000000
00000100
00000000
00001000
00000000
00000100
00000000
00000000
00000010
00000000
00000000
00000001
00000000
00000000
00000100
00000000
00000000
00000001
00000000
00000000
00000010
00000000
00000000
,
00001000
00010000
00001000
00010000
00001000
00000000
00100000
00000000
00010000
00000000
01000000
00000000
10000000
00000000
01000000
00000000
,
00010000
00000000
00100000
00000000
00011000
00000000
00010000
00000000
00000010
00000000
00001000
00000100
00001000
00000000
00000001
00000000
,
00000010
00000000
00000000
00000100
00000000
00000000
00001000
00000000
00000000
00000100
00000000
00000000
00000010
00000000
00000000
00000000
00000001
00000000
00000000
00000000
00001000
00000000
00000000
00000000
00000010
00000000
00000000
00000000
00000000
00000000
00000000
00000000
00000000
00000000
00000000
00000000
00010000
00000000
00000000
00000000
00001000
00000000
00000000
00000000
01000000
00000000
00000000
00000000
,
00010000
00000000
00000000
00000000
00000000
00000000
00100000
00000000
01000000
00000000
10000000
00000000
01000000
00000000
00000000
01000000
00000000
00000000
00100000
00000000
00001000
00000000
00010000
00000000
,
00000100
00010000
00001000
00000020
00000000
00000000
00000000
00000000
00000000
00000030
00000000
00000000
,
00000000
00000000
00000000
00000000
00001000
00010000
00001000
00010000
00001000
00010000
00001000
00010000
00001000
00010000
00001000
00010000
,
00001000
00010000
00001000
00010000
00001000
00000000
00000000
00000000
00000000
00000000
00000000
00000000
00000000
00000000
00000000
00000000
,
00000000
00000000
00000000
00000000
,
00000000
00011000
00000000
00000000
,
00000000
10000000
00000000
00000000
,
00000000
00011000
00000000
00000000
,
00000000
00000001
00000000
00000000
,
00000000
00000000
00000000
00000000
00000000
00000000
00000000
00000000
00011000
00000000
00000000
00001000
00010000
00000000
00000000
00000000
00100000
00000000
00000000
00000000
00000000
00000000
10000000
00000000
01000000
00000000
00000000
00000000
00010000
00000000
01000000
00000000
,
10000000
00000000
00000000
00000000
00100000
00000000
00000000
00000000
00011000
00000000
00000000
00010000
00001000
00000000
00000000
00000000
00000010
00000000
00000000
00000000
00000001
00000000
00000001
00000000
00000100
00000000
00000000
00000000
00000001
00000000
00000010
00000000
,
00001000
00000000
00010000
00000000
00001000
00000000
00010000
00000000
00100000
00000000
00000000
00100000
01000000
00000000
00000000
00000000
01100000
00000000
00000000
00000000
10000000
00000000
10000000
00000000
00010000
00000000
00000000
00000000
00100000
00000000
00010000
00100000
,
00001000
00000000
00000000
00000000
00010000
00000000
00000000
00000000
00010000
00000000
00000000
00000000
00000100
00000000
00000000
00000000
00000010
00000000
00000000
00000000
00000000
00000000
00000000
00000000
00002002
00000000
00000000
00000000
00000000
00000000
00000000
00000000
00000000
00000000
00000000
00000000
00000000
00000000
00000000
00000000
00000000
00000000
00000000
00000000
00000000
00000000
00000000
00000000
00000000
00000000
00000000
00003003
00000000
00000000
00000000
00000000
00000000
00000000
00000000
00000000
00000000
00000000
00000000
00000000
,
00000000
00000000
00000001
00000100
00000010
00000000
00001000
00000000
,
00000100
00000010
00001000
00010000
,
01000000
00100000
00010000
00000000
10000000
00000000
00100000
00000000
,
10000000
00000000
00010000
00100000
00010000
00100000
00001000
00010000
,
00001000
00010000
00000010
00000000
00001000
00000000
00000100
00000000
,
00000001
00000000
00000100
00000000
00010000
00001000
00100000
00000000
,
00010000
00100000
01000000
00000000
10000000
00000000
00100000
00000000
,
10000000
00000000
00010000
00100000
00010000
00100000
00001000
00010000
,
00001000
00010000
00000010
00000000
00001000
00000000
00010000
00000000
,
00001000
00000000
00000010
00000000
00000100
00000001
00000010
00000000
,
00000100
00001000
00000010
00000000
00000100
00000000
00001000
00000000
,
00010000
00000000
00100000
01000000
00010000
01000000
00100000
01000000
,
00010000
01000000
00100000
00000000
10000000
00000000
01000000
00000000
,
10000000
00010000
00100000
00000000
01000000
00100000
00010000
00000000
,
00100000
00001000
00010000
00000000
00000010
00000000
00010000
00000000
,
00001000
00000000
00000010
00000100
00001000
00000100
00000010
00000100
,
00001000
00000100
00000010
00000000
00000001
00000000
00000100
00000000
,
00000001
00001000
00000010
00000000
00001000
00000100
00010000
00000000
,
00001000
00100000
00020000
00000000
01000000
00000000
10000000
00000000
,
01030000
00000000
00010000
00100000
00001000
00100000
00010000
00100000
,
00001000
00100000
00010000
00000000
01000000
00000000
10000000
00000000
,
01000000
00010000
10000000
00000000
00100000
10000000
01000000
00000000
,
00100000
00001000
00020000
00000000
00000010
00000000
00001000
00000000
,
00030010
00000000
00010000
00001000
00010000
00000100
00001000
00000100
,
00000010
00000001
00000010
00000000
00001000
00000000
00010000
00000000
,
00001000
00100000
00010000
00000000
00100000
00001000
00010000
00000000
,
00001000
01000000
00020000
00000000
10000000
00000000
00100000
00000000
,
10030000
00000000
00010000
00100000
00010000
00100000
00001000
00010000
,
00001000
00010000
00000010
00000000
00000100
00000001
00000100
00000001
,
00001000
00000001
00000100
00000001
00000100
00000001
00000010
00000100
,
00001000
00000100
00001000
00000100
00010000
00001000
00100000
00010000
,
00100000
00010000
10000000
00100000
10000000
00010000
01000000
00010000
,
00100000
00001000
00020000
00000000
00000000
00000000
00000000
00000000
,
00000000
00000000
00000000
00000010
,
00000010
00000010
00000010
00030000
,
00000000
00000000
00010000
00001000
00010000
00000100
00010000
00001000
,
00010000
00000100
00001000
00000000
00001000
00000000
00001000
00000000
,
00001000
00000000
00000000
00000001
00000000
00000010
00000000
00001000
00000000
00010000
00000000
00001000
00200000
00000000
00000000
00000000
,
00000000
00000000
00000000
00000000
,
00300000
00000000
00010000
01000000
00010000
00000000
01010000
00000000
,
00000000
10000000
00100000
00010000
,
00001000
00000110
00000000
00000001
,
00000010
00001000
00010000
00000000
,
00000000
00000000
01000000
10000000
01000000
00000000
00100000
00010000
,
00100000
00011000
00011000
00011000
,
00011000
00000000
00000000
00000010
00000000
00001000
00000000
00000010
00000000
00001000
00000000
00000010
00000100
00000000
00000000
00000000
,
00000001
00000010
00000100
00001000
00000100
00000000
00010000
00001000
,
00010000
00000000
00000010
00001000
00000010
00010000
00001000
00100000
,
00010000
00100000
00001000
00010000
00000100
00001000
00000100
00010000
,
00001000
01000000
00010000
00100000
00010000
00100000
01000000
10000000
,
01000000
10000000
00100000
00000000
00010000
00001000
00010000
00001000
,
00010000
00001000
00010000
00000000
00022000
00000000
00000000
00000000
,
00000000
00000000
00000000
00000000
,
00033000
00000000
01000000
00100000
01000000
00010000
01000000
00001000
,
00010000
00000100
00001000
00000100
00000010
00000100
00000001
00000000
,
00000000
00000220
00000000
00000000
,
00000000
00000000
00000000
00000330
00000000
00000000
00000000
00000000
;
