#VERSION:0.83;
#TITLE:CHRONO DIVER -NORNIR-;
#SUBTITLE:;
#ARTIST:L.E.D.;
#TITLETRANSLIT:;
#SUBTITLETRANSLIT:;
#ARTISTTRANSLIT:;
#GENRE:CYBER DRUM'N'BASS;
#CREDIT:;
#MUSIC:CHRONO DIVER -NORNIR-.ogg;
#BANNER:CHRONO DIVER -NORNIR-.png;
#BACKGROUND:CHRONO DIVER -NORNIR--bg.png;
#CDTITLE:./CDTitles/bm IIDX 22 PENDUAL.png;
#SAMPLESTART:13.153;
#SAMPLELENGTH:15.000;
#SELECTABLE:YES;
#OFFSET:1.111;
#BPMS:0.000=185.000;
#STOPS:;
#TIMESIGNATURES:0.000=4=4;
#BGCHANGES:0.000=CHRONO DIVER -NORNIR-.mp4=1.000=0=0=0=StretchNoLoop====,
99999.000=-nosongbg-=1.000=0=0=0=StretchNoLoop====
;
#FGCHANGES:;

//--------------- dance-single - forcednature ----------------
#NOTEDATA:;
#STEPSTYPE:dance-single;
#DESCRIPTION:forcednature;
#CREDIT:forcednature;
#DIFFICULTY:Beginner;
#METER:4;
#RADARVALUES:0,0,0,0,0;
#NOTES:
0000
0000
0000
0000
,
0000
0000
0000
0000
,
0000
0000
0000
0000
,
0000
0000
0000
0000
,
0000
0000
0000
0000
,
0000
0000
0000
0000
,
0000
0000
0000
0000
,
0000
0000
0000
0000
,
1000
0000
0000
0000
,
0000
0000
0000
0000
,
0001
0000
0000
0000
,
0100
0000
0000
0000
,
1001
0000
0000
0000
,
0000
0000
0000
0000
,
1000
0000
0000
0000
,
0010
0000
0010
0000
,
1000
0000
0000
0000
,
0000
0000
0000
0000
,
0001
0000
0000
0000
,
0100
0000
0100
0000
,
0001
0000
0000
0000
,
0000
0000
0000
0000
,
0010
0000
0000
0000
,
0001
0000
0001
0000
,
1000
0000
0000
0000
,
1000
0000
0000
0000
,
1000
0000
0010
0000
,
0100
0000
0100
0000
,
0001
0000
0000
0000
,
0000
0000
0000
0000
,
0010
0000
0000
0000
,
0001
0000
0000
0000
,
0100
0000
0000
0000
,
0000
0000
0000
0000
,
0010
0000
0000
0000
,
1000
0000
1000
0000
,
0100
0000
0000
0000
,
0000
0000
0000
0000
,
0010
0000
0001
0000
,
0010
0000
0000
0000
,
0001
0000
0000
0000
,
0100
0000
0000
0000
,
0001
0000
1000
0000
,
0001
0000
0000
0000
,
1001
0000
0000
0000
,
1000
0000
1000
0000
,
1000
0000
0000
0000
,
1000
0000
1000
0000
,
0001
0000
0000
0000
,
0001
0000
0001
0000
,
0001
0000
0000
0000
,
2002
0000
3003
0000
,
1000
0000
0000
0000
,
0000
0000
0000
0000
,
0100
0000
0100
0000
,
1000
0000
0010
0000
,
1000
0000
0000
0000
,
0000
0000
0000
0000
,
0001
0000
0001
0000
,
0100
0000
0001
0000
,
0010
0000
0000
0000
,
0000
0000
0000
0000
,
0100
0000
0100
0000
,
1000
0000
0001
0000
,
0010
0000
0000
0000
,
0010
0000
0000
0000
,
0001
0000
0001
0000
,
0100
0000
0001
0000
,
1000
0000
0000
0000
,
1000
0000
1000
0000
,
0010
0000
0000
0000
,
0100
0000
0000
0000
,
0001
0000
0000
0000
,
0010
0000
0010
0000
,
0100
0000
0000
0000
,
2002
0000
3003
0000
,
0001
0000
0000
0000
,
0100
0000
0000
0000
,
0001
0000
0001
0000
,
0010
0000
0100
0000
,
1000
0000
0000
0000
,
0100
0000
0000
0000
,
1000
0000
1000
0000
,
0010
0000
0100
0000
,
0001
0000
0000
0000
,
0001
0000
0000
0000
,
0010
0000
0001
0000
,
0100
0000
0001
0000
,
1000
0000
0000
0000
,
1000
0000
0000
0000
,
0001
0000
0100
0000
,
0010
0010
0010
0000
,
2002
0000
0000
0000
,
0000
0000
0000
0000
,
3003
0000
0000
0000
;

//--------------- dance-single - forcednature ----------------
#NOTEDATA:;
#STEPSTYPE:dance-single;
#DESCRIPTION:forcednature;
#CREDIT:forcednature;
#DIFFICULTY:Easy;
#METER:7;
#RADARVALUES:0,0,0,0,0;
#NOTES:
0000
0000
0000
0000
,
0000
0000
0000
0000
,
0000
0000
0000
0000
,
0000
0000
0000
0000
,
0000
0000
0000
0000
,
0000
0000
0000
0000
,
0000
0000
0000
0000
,
0000
0000
0000
0000
,
0001
0100
0000
0100
,
0001
0010
0000
0010
,
0001
1000
0000
1000
,
2002
0000
0000
3003
,
1000
0100
0000
0010
,
0100
0000
1000
0001
,
0010
0000
0001
1000
,
0010
0100
0001
0000
,
0010
0001
0000
0010
,
0100
0000
1000
0001
,
0100
0000
0010
1000
,
0001
0100
0010
0000
,
1000
0000
0100
0010
,
0000
0100
1000
0000
,
0010
0100
0000
0001
,
0010
0001
1000
0010
,
0100
0000
0001
0010
,
0000
0001
1000
0100
,
1000
0000
0010
0100
,
0001
0001
0010
0001
,
1001
0000
1000
0010
,
0100
0001
1000
0000
,
0010
1000
0100
0000
,
0010
0001
0100
0000
,
0100
0000
0001
0010
,
0100
0010
0001
0000
,
1000
0010
0100
0000
,
0001
0010
0100
0000
,
0110
0000
0001
1000
,
0100
1000
0010
0000
,
1000
0001
0100
0000
,
0001
1000
0100
0000
,
0010
0000
0100
1000
,
0010
1000
0001
0000
,
0010
0100
1000
0000
,
0010
0100
0001
0000
,
0110
0000
1000
1000
,
1000
0000
0001
0000
,
0110
0000
0001
0001
,
1000
1000
0001
0001
,
1001
0000
1000
0100
,
1000
0000
0001
0010
,
1001
0000
0001
0100
,
0220
0000
0000
0330
,
0001
1000
0010
1000
,
0000
0001
0100
0000
,
0001
0010
0100
0010
,
0001
1000
0100
0000
,
1000
0010
1000
0001
,
0000
0100
0010
0000
,
1000
0100
0010
0100
,
1000
0000
0001
0001
,
0100
0010
1000
0010
,
0000
0100
0001
1000
,
0001
0010
0100
0000
,
0010
0001
0100
0000
,
0010
1000
0001
0100
,
0000
0100
0001
0000
,
0010
0100
1000
0100
,
0010
0001
1000
0000
,
1001
0000
0001
0100
,
0010
0010
0010
0000
,
1000
0001
1000
0100
,
0010
0010
0010
0000
,
0110
0000
1000
0001
,
0100
0100
0100
0001
,
1000
1000
0010
0000
,
2002
0000
0000
3003
,
1000
0100
0010
0100
,
1000
0001
0010
0001
,
1000
0010
0100
0001
,
0010
0100
1000
1000
,
0001
0100
0010
0100
,
0001
0010
0100
0010
,
0001
0100
0010
1000
,
0100
0010
0001
0001
,
1000
0010
0100
0001
,
0010
0100
1000
0010
,
0100
0001
0010
0100
,
1000
0001
0100
0100
,
0001
0010
0100
1000
,
0001
0100
0010
1000
,
0100
0100
0010
0100
,
0010
0010
0001
1000
,
2002
0000
0000
0000
,
0000
0000
0000
0000
,
3003
0000
0000
0000
;

//--------------- dance-single - forcednature ----------------
#NOTEDATA:;
#STEPSTYPE:dance-single;
#DESCRIPTION:forcednature;
#CREDIT:forcednature;
#DIFFICULTY:Medium;
#METER:13;
#RADARVALUES:0,0,0,0,0;
#NOTES:
0000
0000
0000
0000
,
0000
0000
0000
0000
,
0000
0000
0000
0000
,
0000
0000
0000
0000
,
0000
0000
0000
0000
,
0000
0000
0000
0000
,
0000
0000
0000
0000
,
0000
0000
0000
0000
,
1000
0000
0100
0000
1000
0010
1000
0000
,
0001
0000
0100
0000
0001
0010
0001
0000
,
0100
0010
1000
0000
0100
0010
0001
0000
,
2002
0000
0000
3003
,
1000
0000
1000
0100
0000
0100
0001
0000
,
0001
0100
0000
0100
1000
0001
0010
0000
,
0001
0000
0001
0100
0000
0100
1000
0000
,
0100
0000
0001
0000
1000
0010
1000
0000
,
0001
0000
0001
0010
0000
0010
1000
0000
,
1000
0010
0000
0010
0001
1000
0100
0000
,
1000
0000
1000
0010
0000
0010
0100
0000
,
0001
0010
0100
0000
1000
0010
0100
0000
,
0110
0000
0001
1000
0000
1000
0100
0000
,
0010
0001
0000
0001
1000
0010
0100
0000
,
0001
0000
1000
0100
0000
0100
1000
0000
,
0010
0000
0100
0001
0010
0100
0010
0000
,
1001
0000
0001
0100
0000
1000
0100
0000
,
0001
1000
0000
0010
1000
0001
0100
0000
,
0010
1000
0100
0000
0010
0001
0100
0000
,
0010
1000
1000
0001
0100
0001
1000
0000
,
0110
0000
0001
0010
0000
0100
0000
1000
,
0000
0100
0010
0001
1000
0010
0100
0000
,
0001
0000
0010
0100
0000
1000
0000
0001
,
0000
0100
0010
1000
0010
0100
0001
0000
,
1001
0000
1000
0100
0000
0010
0000
0100
,
0000
1000
0001
0010
0001
1000
0010
0000
,
0100
0000
0001
0010
0000
0100
0000
1000
,
0000
0010
0100
0001
0010
0100
0010
0001
,
1000
0000
0010
0100
0000
0001
0000
0010
,
0000
0001
1000
0100
1000
0001
0010
0000
,
0001
1000
0010
0100
0000
0001
0000
0010
,
0000
0001
1000
0010
0100
0001
0010
0000
,
0100
1000
0001
0100
0000
0010
0000
1000
,
0000
0100
0010
0100
1000
0010
0100
0000
,
0001
0010
0001
1000
0000
0010
0000
0100
,
0000
0001
0010
0010
0001
1000
0100
1000
,
0001
0000
0010
0000
0011
0000
1000
0010
,
0100
0001
0000
0100
1000
0000
0100
0001
,
1000
1000
1000
0000
0010
0000
0100
0001
,
0010
0001
0000
0100
0010
0010
1000
0000
,
1001
0000
0001
0000
0011
0000
1000
0100
,
0001
0100
0000
1000
0001
0000
0010
0001
,
0100
0100
0100
0000
1001
0000
1000
0010
,
0200
0000
0000
0300
,
0001
0010
0100
0010
0000
0001
0100
0010
,
0100
0001
0000
0010
0100
1000
0010
0000
,
1000
0100
0010
0100
0000
1000
0010
0100
,
0010
0000
1000
0001
0100
1000
0100
0000
,
0001
0010
0100
0010
0000
0001
0100
0010
,
0100
0001
0000
0010
0100
1000
0010
0000
,
1000
0100
0010
0001
0000
0100
0010
0000
,
1000
0001
0100
0001
1000
1000
0010
0000
,
1000
0100
0010
0100
0000
1000
0001
0010
,
0001
1000
0000
0010
0100
0001
0010
0000
,
0100
1000
0001
0100
0000
0010
1000
0100
,
1000
0000
0001
0100
0010
1000
0001
0001
,
0010
0001
0100
0001
0000
0010
0100
1000
,
0010
0100
0000
0010
1000
0100
0010
0001
,
1000
0000
0010
0100
0001
0010
0001
0000
,
0100
0010
0010
1000
0001
0100
0010
0000
,
1010
0000
1010
0000
0101
0000
0001
0010
,
0100
0010
0001
0010
0200
0000
2300
0000
,
3001
0100
1000
0100
0001
0000
1000
0010
,
0200
0000
0000
0001
0000
0000
0000
0000
0000
0310
0000
0000
1001
0000
0000
0000
1001
0000
0000
0000
1001
0000
0000
0000
,
0110
0000
0001
0010
0100
0000
0010
0001
,
1000
1000
1000
1000
0010
0100
0001
0000
,
0010
0100
1000
0000
1100
0000
0001
0010
,
2002
0000
0000
3003
,
0001
0010
0100
0001
0100
1000
0001
0000
,
0010
0001
0100
0000
0010
1000
0100
0000
,
1000
0010
0001
0010
1000
0001
0100
0000
,
0001
0010
1000
0010
0001
0001
1000
1000
,
0010
0100
0001
0010
0100
1000
0001
0000
,
0100
1000
0100
0001
1000
0010
0100
0000
,
0001
1000
0100
0001
0100
1000
0001
0000
,
0010
0100
1000
0010
0100
0100
0001
0001
,
1000
0010
0100
1000
0100
0001
1000
0010
,
0100
1000
0100
0001
1000
0010
0100
0000
,
0001
0010
0100
0001
0100
1000
0001
0010
,
0100
0001
0100
1000
0010
0010
0100
0000
,
0001
1000
0010
1000
0100
0001
0100
0000
,
1000
0001
0010
0001
0100
1000
0100
0000
,
0001
1000
1000
0010
1000
1000
0100
0010
,
0001
0001
0100
0100
0001
1000
0010
0000
,
2002
0000
0000
0000
,
0000
0000
0000
0000
,
3003
0000
0000
0000
;

//--------------- dance-single - forcednature ----------------
#NOTEDATA:;
#STEPSTYPE:dance-single;
#DESCRIPTION:forcednature;
#CREDIT:forcednature;
#DIFFICULTY:Hard;
#METER:17;
#RADARVALUES:0,0,0,0,0;
#NOTES:
0000
0000
0000
0000
,
0000
0000
0000
0000
,
0000
0000
0000
0000
,
0000
0000
0000
0000
,
0000
0000
0000
0000
,
0000
0000
0000
0000
,
0000
0000
0000
0000
,
0000
0000
0000
0000
,
0001
0100
0100
0001
1000
0010
1000
0001
,
0000
0010
0100
1000
0010
0000
1001
0000
,
1000
0100
0100
1000
0001
0010
0100
0000
,
0010
0000
0001
1000
0001
1000
0100
0000
1000
0010
1000
0010
0100
0001
0100
0000
,
0010
1000
0100
0010
0001
0100
0010
1000
,
0001
0000
0010
0000
0001
0000
1000
0000
0010
0100
0010
0000
0100
0001
1000
0000
,
0100
0010
0001
0100
0010
1000
0100
0000
,
0010
0000
0001
0000
1000
0000
0010
0000
0100
0000
0100
0001
1000
0000
0010
0000
,
1010
0001
0010
0100
1000
0001
0100
0010
,
1000
0000
0100
0000
0010
0000
0001
0000
0100
0010
0100
0000
0010
1000
0001
0000
,
0010
0100
0010
0001
1000
0010
0100
0100
,
0001
0000
1000
0000
1001
0000
0000
0001
0010
0001
0010
0000
0100
1000
0100
1000
,
0010
0100
0001
0010
0100
1000
0010
0100
,
0001
0000
0010
0000
0100
0000
1000
0000
0001
0100
0010
0000
1000
0100
0010
0000
,
0001
1000
0010
1000
0001
0010
0100
0000
,
0010
0000
0010
0000
0001
0000
1000
0000
0010
0100
0010
0100
0001
0000
1000
0000
,
1001
0010
0100
0001
0010
0100
1000
0010
,
0110
0000
0001
0000
0010
0000
0100
0000
1000
0001
0010
0001
0010
0000
0100
0000
,
0110
0000
1000
0000
0001
0000
0100
0000
0010
0000
1000
0000
0001
0000
0000
0001
,
0010
0000
0100
1000
0100
1000
0001
0000
0100
0010
1000
0001
1000
0001
0100
0010
,
1000
0100
1000
0020
0000
0230
0000
0302
,
0000
0010
0010
0000
1000
1000
0013
0000
,
0001
0100
0001
0020
0000
0230
0000
2300
,
0000
0000
3020
0000
0100
0000
0230
0000
0000
0000
0302
0000
1000
0003
1000
0001
,
1000
0010
0100
0002
0000
0023
0000
0230
,
0000
1000
1000
0000
0010
1000
1300
0000
,
0100
1000
0001
0020
0000
0032
1000
2003
,
0010
0000
0010
0000
0001
0000
3010
0000
1000
0001
1000
0000
0010
0000
0100
0001
,
0020
0100
0100
0032
0100
0100
2003
0100
,
3100
0000
1000
0000
0010
0000
0100
0001
0000
0001
0100
0000
0010
0000
1000
0001
,
2000
0010
0010
3002
0010
0010
0203
0010
,
0010
0000
0301
0000
1000
0000
0100
0010
0000
0010
0100
0000
1000
0000
0010
0100
,
0002
0010
0010
2003
0010
0010
3200
0010
,
0310
0000
0100
0000
1000
0000
0010
0100
0000
0100
0010
0000
1000
0000
0100
0010
,
0002
0000
0100
0000
0100
0000
2003
0000
0100
0000
0100
0000
3010
0000
0100
0010
,
0100
0000
0001
1000
0001
1000
0010
0000
1000
0001
0100
0010
0100
0010
1000
0001
,
0010
0000
0000
0000
0100
0000
0000
0000
0110
0000
0000
0000
0010
0001
0010
0001
,
1000
0000
0010
0000
0000
0000
1000
0000
1010
0000
0000
0000
0001
0100
0001
0100
,
0010
0000
0010
0000
0010
0000
0000
0000
1001
0000
0000
0000
0001
0010
0001
0010
,
0100
0000
1000
0000
0000
0000
0100
0000
1100
0000
1100
0000
0001
1000
0001
1000
,
0010
0000
0000
0000
0110
0000
0000
0000
1001
0000
0000
0000
1000
0100
1000
0100
,
0010
0000
0100
0000
0000
0000
0010
0000
1001
0000
0000
0000
0001
0100
0001
0100
,
0010
0000
0010
0000
0010
0000
0000
0000
0110
0000
0000
0000
1000
0001
1000
0001
,
1000
0000
0100
0010
0100
0010
0001
0000
0100
0010
1000
0001
1000
0001
0100
0010
,
1000
0000
0100
0000
0001
0000
0100
0000
1000
0001
1000
0000
0001
0000
0100
0000
,
1000
0000
0100
0000
0001
1000
0001
0000
0010
0100
1000
0000
0010
0100
0001
0000
,
0010
0000
0100
0000
1000
0000
0010
0000
0100
0001
0100
0000
0010
0000
1000
0000
,
0100
0000
0100
0000
1000
0000
0001
0000
0010
0100
0010
0001
0010
0000
0010
0000
,
1001
0000
0001
0000
0100
0000
1000
0000
0100
0001
0100
0000
0001
0000
1000
0000
,
0100
0000
0001
0000
0100
1000
0100
0000
0010
0001
1000
0000
0010
1000
0001
0000
,
0100
0000
0010
0000
1000
0000
0100
0010
0100
0000
0010
0000
0001
0000
0100
0001
,
1000
0000
1000
0000
0010
0000
1000
0000
0001
0010
0001
0010
0100
1000
0100
1000
,
0001
0000
0100
0000
0010
0000
0001
0000
0010
1000
0010
0000
1000
0000
0100
0000
,
0010
0000
1000
0000
0010
0001
0010
0000
0100
1000
0001
0000
0100
0001
1000
0000
,
0010
0000
0100
0000
0001
0000
0010
0100
0010
0000
0001
0000
1000
0000
0010
0100
,
0010
0000
0010
0000
1000
0000
0001
0000
0100
0010
1000
0001
0100
0000
0110
0000
,
1001
0000
0001
0000
0010
0000
1000
0000
0010
0001
0010
0000
0001
0000
1000
0000
,
0110
0000
0001
0000
0100
0000
0010
0000
1000
0001
1000
0001
0100
0000
0010
0000
,
0110
0000
1000
0000
0001
0000
0010
0100
1000
0000
0001
0000
0100
0000
0010
1000
,
0001
0000
0010
0100
0010
0100
1000
0100
0010
0001
0010
0001
1000
0010
0100
0001
,
2000
0000
0000
0000
0100
0000
0000
0000
3010
0000
0000
0000
0002
0003
0002
0003
,
0002
0003
0002
0003
0002
0003
0002
0003
0100
0000
0100
0000
0010
1000
0010
1000
,
0200
0300
0200
0300
0200
0300
0200
0300
0200
0300
0010
0000
0001
1000
0001
1000
,
0020
0000
0000
0100
0000
0000
0000
0000
0000
1030
0000
0000
1001
0000
0000
0000
0110
0000
0000
0000
0110
0000
0000
0000
,
1002
0000
0000
0000
0010
0000
0000
0000
0203
0000
0000
0000
0310
1000
0010
1000
,
0002
0003
0002
0003
0002
0003
0002
0003
0010
0000
0110
0000
1000
0001
0100
0010
,
1000
0000
1000
0000
0100
0000
0000
0000
1100
0000
0002
0000
0013
0100
0010
0100
,
1000
0000
0001
0100
0001
0100
0010
0000
1000
0001
0100
0010
0100
0010
1000
0001
,
0010
0000
0100
1000
0001
0000
0100
0000
0010
1000
0001
0000
0010
0000
0100
1000
,
0001
0000
0100
0000
0010
1000
0001
0000
0010
0100
1000
0000
0010
0100
0001
0000
,
1000
0000
0100
0010
0001
0000
1000
0000
0010
0100
0001
0000
1000
0000
0001
0000
,
0010
0100
1000
0100
0010
0000
0001
0000
1000
0000
1000
0100
0001
0000
0100
0000
,
1001
0000
1000
0001
0010
0000
0100
0000
0010
0001
1000
0000
0010
0000
1000
0001
,
0100
0000
0010
0000
1000
0001
0010
0000
0100
1000
0010
0000
0100
0001
0010
0000
,
0001
0000
1000
0010
0100
0000
0001
0000
0010
0001
0100
0000
0010
0000
1000
0000
,
0001
0000
0010
0000
0011
0000
1000
0000
0001
0100
0001
0000
1000
0100
0010
0001
,
1000
0000
0010
0100
0001
0000
0010
0000
0100
1000
0010
0000
0100
0000
0001
0010
,
0100
0000
1000
0000
0010
0100
0001
0000
0010
0001
1000
0000
0010
1000
0001
0000
,
0100
0000
0010
1000
0100
0000
0010
0000
0001
0100
0010
0000
1000
0000
0100
0010
,
0001
0000
0100
0000
0101
0000
1000
0000
0010
0100
0001
1000
0010
0000
0110
0000
,
1001
0000
1000
0100
0010
0000
0100
1000
0001
0000
0010
0000
0011
0000
0001
1000
,
0010
0000
0010
0100
0001
0000
0010
0100
1000
0000
0010
0000
0110
0000
1000
0001
,
0100
0000
0010
1000
0010
1000
0100
0000
0010
0001
0010
0001
1000
0001
1000
0001
,
0100
0010
0100
0010
0100
0010
1000
0100
0010
0001
0100
0010
1000
0100
0010
0001
,
0200
0000
0000
0000
,
0000
0000
0000
0000
,
0300
0000
0000
0000
;

//--------------- dance-double - forcednature ----------------
#NOTEDATA:;
#STEPSTYPE:dance-double;
#DESCRIPTION:forcednature;
#CREDIT:forcednature;
#DIFFICULTY:Easy;
#METER:7;
#RADARVALUES:0,0,0,0,0;
#NOTES:
00000000
00000000
00000000
00000000
,
00000000
00000000
00000000
00000000
,
00000000
00000000
00000000
00000000
,
00000000
00000000
00000000
00000000
,
00000000
00000000
00000000
00000000
,
00000000
00000000
00000000
00000000
,
00000000
00000000
00000000
00000000
,
00000000
00000000
00000000
00000000
,
00001000
00001000
00000000
00001000
,
00000000
01000000
00000000
00010000
,
01000000
01000000
00000000
00100000
,
20020000
00000000
00000000
30030000
,
10000000
00000000
01000000
00000000
,
10000000
00000000
01000000
00100000
,
00010000
00000000
00100000
00001000
,
00010000
00000000
00000100
00000100
,
00001000
00000000
00000001
00000000
,
00000100
00000000
00000001
00001000
,
00000010
00000000
00010000
00001000
,
00100000
00000000
00001000
00010000
,
00011000
00000000
00001000
00000000
,
01000000
00000000
00010000
10000000
,
00100000
00000000
10000000
00010000
,
00100000
00000000
01000000
00000000
,
01100000
00000000
00100000
00001000
,
00010000
00000000
00000100
00010000
,
00001000
00000000
00000010
00000100
,
00000000
00001000
00001000
00000001
,
00000000
00000100
00000001
00000100
,
00000000
00001000
00000000
00010000
,
00000000
00001000
01000000
00010000
,
00000000
01000000
00001000
00010000
,
00000000
00001000
00100000
00010000
,
00000000
00100000
00000000
01000000
,
00000000
10000000
00010000
00100000
,
00000000
00010000
10000000
00100000
,
00000000
01000000
00001000
00010000
,
00000000
00000010
00000000
00001000
,
00000000
00000001
00000010
00000100
,
00000000
00001000
00000100
00000010
,
00000000
00000001
00001000
00000010
,
00000000
00001000
00000000
00000100
,
00000000
00010000
00001000
00100000
,
00000000
00001000
00001000
00000000
,
00011000
00000000
01000000
00000000
,
00000000
01000000
00010000
00000000
,
10010000
00000000
00100000
00000000
,
00000000
10000000
00100000
00000000
,
10010000
00000000
00010000
00000000
,
00000000
01000000
00010000
00000000
,
00100000
00000000
00001000
00000000
,
00022000
00000000
00000000
00033000
,
00001000
00010000
00000000
00010000
,
00000100
00000000
00001000
00000010
,
00001000
00000001
00000000
00000001
,
00000100
00000000
00000010
00000000
,
00001000
00000001
00000000
00000001
,
00000010
00000000
00000100
00001000
,
00000100
00010000
00000000
00010000
,
00001000
00000000
00100000
00000000
,
00011000
00000000
00001000
01000000
,
00000000
00010000
01000000
00000000
,
00010000
00100000
00000000
00010000
,
10000000
01000000
10000000
00000000
,
10010000
00000000
00010000
00100000
,
00000000
00001000
00010000
00000100
,
00010000
00000000
00001000
00010000
,
00000000
00000010
00000010
00001000
,
00000000
00000001
00000001
00000000
,
00000100
00000100
00000200
00000300
,
00000020
00000030
00002000
00003000
,
00000200
00000000
00010300
00001000
,
00011000
00000000
01000000
00010000
,
00200000
00300000
02000000
03000000
,
10000000
10000000
00010000
00000000
,
20020000
00000000
00000000
30030000
,
00010000
01000000
00010000
00100000
,
00000000
00001000
00010000
00000000
,
00000100
00001000
00000010
00000000
,
00000100
00000001
00000010
00000000
,
00000100
00001000
00000001
00000100
,
00000000
00000010
00001000
00000000
,
00000001
00000010
00000100
00000000
,
00001000
00000010
00000100
00000000
,
00000010
00001000
00000100
00010000
,
00000000
00001000
00100000
00000000
,
00010000
00100000
01000000
00000000
,
10000000
00010000
01000000
00000000
,
00100000
10000000
00010000
00100000
,
00000000
00001000
00010000
00000000
,
00000100
00000100
00001000
00001000
,
00000100
00010000
00001000
00000000
,
00022000
00000000
00000000
00000000
,
00000000
00000000
00000000
00000000
,
00033000
00000000
00000000
00000000
;

//--------------- dance-double - forcednature ----------------
#NOTEDATA:;
#STEPSTYPE:dance-double;
#DESCRIPTION:forcednature;
#CREDIT:forcednature;
#DIFFICULTY:Medium;
#METER:13;
#RADARVALUES:0,0,0,0,0;
#NOTES:
00000000
00000000
00000000
00000000
,
00000000
00000000
00000000
00000000
,
00000000
00000000
00000000
00000000
,
00000000
00000000
00000000
00000000
,
00000000
00000000
00000000
00000000
,
00000000
00000000
00000000
00000000
,
00000000
00000000
00000000
00000000
,
00000000
00000000
00000000
00000000
,
00001000
00000000
00010000
00000000
00011000
00000000
00001000
01000000
,
00000000
00010000
00000000
01000000
00100000
00000000
10000000
00000000
,
01000000
00000000
00100000
00000000
01100000
00000000
01000000
10000000
,
00000000
00010000
00010000
00100000
00001000
00010000
00000100
00000000
,
00001000
00000010
00000100
00000001
00000000
00000010
00000100
00000000
,
00001000
00000010
00000000
00010000
00001000
00100000
00010000
00000000
,
01000000
00100000
10000000
01000000
00000000
00100000
00010000
00000000
,
00100000
00001000
00010000
00000000
00000010
00010000
00001000
00000000
,
00000010
00000001
00001000
00000100
00000000
00001000
00000001
00000000
,
00000100
00000001
00001000
00000000
00000010
00001000
00000001
00000000
,
00000010
00000000
00001000
00010000
00000000
00001000
00100000
00100000
,
00000000
00010000
01000000
00010000
10000000
10000000
00100000
00000000
,
10010000
00000000
00010000
00100000
00000000
01000000
10000000
01000000
,
00100000
00010000
00000000
00100000
00001000
00010000
00000100
00000000
,
00001000
00000010
00001000
00000001
00000000
00000100
00000010
00000000
,
00001000
00000100
00000001
00000000
00000100
00000100
00001000
00000010
,
00001000
00000000
00000001
00000100
00000000
00001000
00010000
00001000
,
00100000
00010000
00000000
10000000
01000000
00010000
00001000
00000000
,
00011000
00000000
00000100
00001000
00000010
00001000
00000001
00000000
,
00000010
00000100
00000100
00001000
00000100
00010000
00001000
00000000
,
00011000
00000000
00100000
00020000
00000000
02030000
00000000
03200000
,
00000000
10300000
01000000
10000000
00010000
01000000
00010000
00000000
,
00100000
00000000
00001000
00020000
00000000
00030020
00000000
00002030
,
00000000
00003001
00000010
00000100
00001000
00000010
00000100
00000000
,
00000001
00000000
00000010
00000002
00000000
00002003
00000000
00003200
,
00000000
00010300
00001000
01000000
00010000
01000000
00001000
00000000
,
00010000
00000000
00100000
20000000
00000000
30020000
00000000
02030000
,
00000000
03010000
10000000
01000000
10000000
00010000
00100000
00000000
,
10010000
00000000
00010000
02000000
00000000
03002000
00000000
00023000
,
00000000
00030010
00001000
00000100
00000010
00000001
00000100
00000000
,
00000010
00000000
00001000
00000002
00000000
00000023
00000000
00000230
,
00000000
00010300
00001000
00100000
00010000
00100000
00001000
00010000
,
00000100
00000000
00001000
00000020
00000000
00020030
00000000
00032000
,
00000000
01003000
00010000
00100000
01000000
10000000
00100000
00000000
,
01000000
00000000
00010000
00200000
00000000
00302000
00000000
00013000
,
00000100
00001000
00001000
00000001
00000010
00000001
00001000
00000000
,
00001001
00000000
00000100
00000000
00000110
00000000
00000001
00000100
,
00001000
00000100
00000000
00001000
00010000
00000000
00100000
00000000
,
10000000
10000000
00010000
00000000
10010000
00000000
10000000
01000000
,
00010000
01000000
00000000
00010000
00001000
00001000
00010000
00000000
,
00011000
00000000
00000100
00000000
00001100
00000000
00000001
00000010
,
00001000
00000010
00000000
00000001
00001000
00000000
00000100
00000000
,
00001000
00001000
00000001
00000000
00001001
00000000
00000001
00000100
,
00000000
00001000
00001000
00010000
00001000
00100000
00010000
00000000
,
01000000
00100000
10000000
01000000
00000000
00100000
00010000
00000000
,
01000000
00001000
00000000
00010000
00000100
00001000
00000010
00000000
,
00000100
00000001
00000010
00000001
00000000
00001000
00000010
00000000
,
00010000
00001000
00100000
00010000
01000000
01000000
00010000
00000000
,
00100000
01000000
10000000
00100000
00000000
01000000
00010000
00000000
,
00100000
00001000
00010000
00000100
00010000
00001000
00100000
00000000
,
00001000
00010000
00000010
00001000
00000000
00000001
00000010
00000000
,
00000100
00010000
00001000
00000000
01000000
01000000
00010000
00000000
,
10000000
00100000
10000000
01000000
00000000
10000000
00010000
00100000
,
00001000
00100000
00000000
00010000
01000000
00001000
00010000
00000000
,
00000010
00001000
00000100
00000010
00000000
00000100
00001000
00000001
,
00000100
00000100
00000001
00001000
00000010
00010000
00001000
00000000
,
00011000
00000000
00010000
00001000
00100000
00010000
01000000
00000000
,
10010000
00000000
00010000
10000000
00100000
10000000
01000000
00000000
,
01100000
00000000
00100000
00001000
00010000
00000100
00001000
00000000
,
00000010
00000100
00000100
00000001
00001000
00000010
00001000
00000000
,
00001001
00000000
00000100
00000000
00000110
00000000
00000001
00000100
,
00001000
00000100
00000001
00000100
00002000
00000000
00023000
00000000
,
00130000
10000000
00100000
00010000
00100000
00000000
10000000
10000000
,
00020000
00000000
00000000
01000000
00000000
00000000
00000000
00000000
00000000
01030000
00000000
00000000
00010000
00000000
00000000
00000000
00100000
00000000
00000000
00000000
00100000
00000000
00000000
00000000
,
10010000
01000000
01100000
00010000
,
10000000
01000000
00010000
01000000
10000000
01000000
00020000
00000000
,
00031000
00001000
00010000
00000000
00011000
00000000
00000100
00000100
,
00000000
00001000
00001000
00000010
00001000
00000001
00000100
00000000
,
00000010
00001000
00000001
00000100
00000000
00000001
00000010
00000001
,
00001000
00000100
00000000
00010000
00001000
00100000
00010000
01000000
,
00100000
10000000
00100000
01000000
00000000
00010000
10000000
01000000
,
10000000
00010000
00100000
00000000
00001000
00001000
00010000
00000000
,
00000100
00001000
00000100
00000010
00000000
00000001
00001000
00000010
,
00001000
00000001
00000000
00000010
00000100
00001000
00000100
00010000
,
00001000
01000000
00010000
01000000
00000000
00100000
10000000
10000000
,
00000000
00010000
00100000
01000000
00010000
00001000
00100000
00000000
,
00001000
00010000
00000100
00001000
00000000
00000010
00010000
00001000
,
00010000
00000010
00000000
00001000
00000001
00000100
00000010
00001000
,
00000001
00000010
00000100
00000010
00000000
00000100
00010000
00001000
,
00100000
00000000
00001000
00010000
00001000
00001000
01000000
00010000
,
10000000
00100000
10000000
01000000
00000000
10000000
00010000
00100000
,
00001000
00010000
00000000
00000010
00001000
00000100
00000010
00000001
,
00000000
00000100
00000100
00000000
00001000
00001000
00010000
00000000
,
00100000
00100000
00100000
00100000
01000000
00010000
10000000
00000000
,
20020000
00000000
00000000
00000000
,
00000000
00000000
00000000
00000000
,
30030000
00000000
00000000
00000000
;

//--------------- dance-double - forcednature ----------------
#NOTEDATA:;
#STEPSTYPE:dance-double;
#DESCRIPTION:forcednature;
#CREDIT:forcednature;
#DIFFICULTY:Hard;
#METER:17;
#RADARVALUES:0,0,0,0,0;
#NOTES:
00000000
00000000
00000000
00000000
,
00000000
00000000
00000000
00000000
,
00000000
00000000
00000000
00000000
,
00000000
00000000
00000000
00000000
,
00000000
00000000
00000000
00000000
,
00000000
00000000
00000000
00000000
,
00000000
00000000
00000000
00000000
,
00000000
00000000
00000000
00000000
,
00001000
00010000
00001000
01000000
00010000
00100000
01000000
00010000
,
00000000
01000000
10000000
00010000
00100000
00000000
10010000
00000000
,
00010000
01000000
00001000
00010000
00000010
00001000
00000001
00000010
,
00000000
00000000
00000100
00000010
00000100
00000010
00000100
00000000
00001000
00000100
00001000
00000100
00020000
00000000
00000000
00000000
,
00031000
00100000
00010000
01000000
00010000
00100000
00001000
00010000
,
00000010
00000000
00001000
00000000
00000100
00000000
00000010
00000000
00000001
00000000
00000100
00000001
00000100
00000000
00000001
00001000
,
00000010
00000100
00000001
00000010
00000100
00001000
00000010
00000000
,
00010000
00000000
00001000
00000000
00100000
00000000
00010000
00000000
01000000
00000000
00010000
01000000
00100000
00000000
00100000
00000000
,
10000000
00010000
00100000
01000000
10000000
00100000
01000000
00010000
,
00100000
00000000
00001000
00000000
00010000
00000000
00000010
00000000
00001000
00000000
00000100
00001000
00000001
00000000
00000010
00000001
,
00000010
00000100
00001000
00000001
00000100
00001000
00010000
00010000
,
00000000
00000000
00001000
00000000
01000000
00000000
00010000
00000000
00100000
00010000
00100000
00010000
10000000
01000000
10000000
01000000
,
00100000
00010000
01000000
00100000
10000000
01000000
00100000
00001000
,
00010000
00000000
00000100
00000000
00001000
00000000
00000010
00000000
00000100
00000000
00000001
00001000
00000001
00000000
00000010
00000100
,
00001000
00000010
00001000
00000001
00000100
00001000
00010000
00000000
,
00100000
00000000
01000000
00000000
00010000
00000000
00100000
00000000
01000000
10000000
01000000
10000000
00010000
00000000
00010000
00000000
,
00100000
00001000
00010000
00000010
00010000
00001000
00000010
00000000
,
00000100
00000000
00010000
00000000
00000010
00000000
00001000
00000000
00000001
00000000
00000100
00000001
00000100
00000000
00000010
00001000
,
00000001
00000000
00000010
00000000
00001000
00000000
00010000
00000000
00000100
00000000
00001000
00000000
00000010
00000000
00000000
00010000
,
00001000
00000000
00010000
00001000
00010000
00001000
01000000
00000000
00010000
01000000
00010000
10000000
00010000
10000000
00100000
01000000
,
00010000
00000000
10000000
01000000
00010000
00001000
00100000
00010000
,
00100000
00001000
00000010
00000100
00010000
00000010
00001000
00000000
,
00000001
00000100
00001000
00010000
00000010
00001000
00000100
00000000
,
00010000
00001000
00000010
00000000
00001000
00010000
00100000
00000000
,
01000000
00010000
00100000
01000000
00010000
00001000
00100000
00010000
,
00100000
00001000
00000010
00000100
00010000
00000010
00001000
00000000
,
00000001
00000100
00001000
00010000
00000010
00001000
00000010
00010000
,
00100000
00000000
01000000
00000000
00010000
00000000
10000000
00000000
00100000
00000000
01000000
00100000
01000000
00000000
01000000
00010000
,
10000000
01000000
00010000
00001000
00100000
00010000
01000000
00100000
,
10000000
01000000
00010000
00001000
00000010
00000100
00010000
00000000
,
00000010
00001000
00000001
00000100
00001000
00010000
00100000
00000000
,
00010000
00001000
00000010
00000000
00001000
00010000
00011000
00000000
,
01000000
00010000
00100000
01000000
00010000
00001000
00100000
00010000
,
00100000
01000000
00010000
00001000
00000010
00000100
00010000
00000000
,
00000010
00000000
00001000
00000000
00000001
00000000
00000100
00000000
00001000
00000000
00010000
00000000
00000010
00000000
00001000
00000010
,
00001000
00000000
00000001
00000100
00000001
00000100
00000010
00000000
00001000
00000001
00001000
00000001
00000010
00000000
00000100
00000010
,
00000100
00000000
00000000
00000000
00010000
00000000
00000000
00000000
00011000
00000000
00000000
00000000
00001000
00100000
00001000
00100000
,
00010000
00100000
00000000
01000000
00100000
00000000
01000000
10000000
,
00010000
00000000
00010000
00000000
00100000
00000000
00000000
00000000
00011000
00000000
00000000
00000000
00000010
00001000
00000010
00001000
,
00000001
00000000
00000100
00000000
00000000
00000000
00000001
00000000
00000010
00000000
00000010
00000000
00000001
00001000
00000001
00001000
,
00000100
00000000
00000000
00000000
00010000
00000000
00000000
00000000
00011000
00000000
00000000
00000000
00100000
00010000
00100000
00010000
,
10000000
00000000
01000000
00000000
00000000
00000000
10000000
00000000
00100000
00000000
00000000
00000000
01000000
00010000
01000000
00010000
,
10000000
00000000
10000000
00000000
10000000
00000000
00000000
00000000
00110000
00000000
00000000
00000000
00001000
00010000
00001000
00010000
,
00001000
00000000
00010000
00000100
00010000
00000100
00001000
00000000
00000100
00001000
00000001
00000010
00000001
00000010
00000100
00001000
,
00000001
00000100
00001000
00010000
00000010
00010000
00001000
00000010
,
00000100
00000000
00010000
00000000
00001000
00000000
00100000
00000000
00010000
00000000
00100000
00010000
10000000
00000000
01000000
10000000
,
01000000
00100000
00010000
01000000
00001000
00010000
00000010
00000000
,
00001000
00000000
00000100
00000000
00000001
00000000
00000100
00000000
00001000
00000000
00000100
00010000
00001000
00000000
00001000
00000000
,
00100000
00010000
01000000
00100000
10000000
01000000
00010000
00001000
,
00100000
00000000
00010000
00000000
00100000
00000000
00001000
00000000
00000010
00000000
00000100
00000010
00000001
00000000
00001000
00000100
,
00001000
00000001
00000100
00001000
00010000
00000010
00001000
00001000
,
00000000
00000000
00000001
00000000
00000010
00000000
00001000
00000000
00010000
00001000
00010000
00000000
00001000
00100000
00001000
00100000
,
00010000
01000000
00100000
10000000
01000000
00100000
00001000
00010000
,
00000100
00000000
00001000
00000000
00000010
00000000
00000100
00000000
00000001
00000000
00000010
00000001
00001000
00000000
00000100
00001000
,
00000100
00010000
00001000
01000000
00010000
00100000
01000000
00000000
,
00010000
00000000
00001000
00000000
00100000
00000000
00010000
00000000
10000000
01000000
10000000
01000000
00100000
00000000
00100000
00000000
,
00010000
01000000
00001000
00010000
00000010
00001000
00000100
00000000
,
00000110
00000000
00000001
00000000
00001000
00000000
00000010
00000000
00000100
00000000
00000001
00000100
00000001
00000000
00001000
00000010
,
00010000
00000000
00001000
00000000
00100000
00000000
00010000
00000000
01000000
00000000
00001000
00000000
00010000
00000000
00000000
00001000
,
00100000
00000000
00010000
00100000
00010000
00100000
01000000
00000000
10000000
01000000
10000000
00010000
10000000
00010000
00100000
01000000
,
20000000
00000000
00100000
00000000
30010000
00000000
10000000
01000000
,
00010000
00001000
00000010
00000001
00000100
00000100
00002000
00000000
,
00013000
00100000
10000000
01000000
00010000
00001000
00000010
00000001
,
00000200
00000000
00000000
00001000
00000000
00000000
00000000
00000000
00000000
00000301
00000000
00000000
00000100
00000000
00000000
00000000
00000110
00000000
00000000
00000000
00001001
00000000
00000000
00000000
,
00001000
00000000
00000100
00000000
00000001
00000000
00000100
00000000
00010000
00000000
00001000
00000000
00100000
00010000
00100000
00010000
,
10000000
01000000
00010000
00001000
00000100
00000001
00000020
00000000
,
00000130
00000000
00010000
00000000
00000010
00000000
00000000
00000000
00001001
00000000
00000000
00000000
00000001
00000100
00000001
00000100
,
00000010
00000000
00001000
00000001
00001000
00000001
00000010
00000000
00000100
00001000
00000001
00000010
00000001
00000010
00000100
00001000
,
00000001
00000100
00000010
00001000
00000100
00000010
00000001
00000100
,
00000010
00000000
00010000
00000000
00001000
00000000
01000000
00000000
00010000
00000000
00100000
00010000
10000000
00000000
01000000
10000000
,
00010000
00100000
01000000
00010000
00001000
00100000
00010000
00000000
,
01000000
00000000
00001000
00000000
00010000
00000000
00100000
00000000
01000000
00010000
01000000
00010000
10000000
00000000
00100000
00000000
,
10100000
00010000
00100000
01000000
00010000
00001000
00100000
00010000
,
00100000
00000000
00001000
00000000
00000010
00000000
00000100
00000000
00010000
00000000
00000010
00001000
00000100
00000000
00000010
00000001
,
00000100
00000001
00000010
00001000
00010000
00000100
00001000
00001000
,
00000010
00000000
00000100
00000000
00001000
00000000
00010000
00000000
00100000
01000000
00100000
00000000
01000000
00010000
01000000
00010000
,
10000000
01000000
00010000
00001000
00100000
00010000
10000000
01000000
,
00010000
00000000
00001000
00000000
00100000
00000000
00010000
00000000
01000000
00000000
00010000
00100000
00001000
00000000
00010000
00000100
,
00001000
00000010
00000100
00000001
00000010
00000100
00001000
00000000
,
00000001
00000000
00000100
00000000
00001000
00000000
00010000
00000000
00000010
00001000
00000010
00001000
00000001
00000000
00000001
00000000
,
00000100
00001000
00010000
01000000
00010000
00001000
00000010
00001000
,
00010000
00000000
00100000
00000000
00010000
00000000
00001000
00000000
01000000
00000000
00010000
10000000
00100000
00000000
01000000
00010000
,
10000000
00000000
01000000
10000000
01000000
10000000
00010000
00000000
00100000
00010000
00100000
00000000
00001000
00000000
00010000
00000000
,
00000010
00001000
00000010
00001000
00000010
00001000
00000010
00001000
00000001
00000000
00000010
00000100
00001000
00000000
00000010
00000100
,
00000002
00000000
00000000
00000000
,
00000000
00000000
00000000
00000000
,
00000003
00000000
00000000
00000000
;
