#VERSION:0.83;
#TITLE:白夜幻燈;
#SUBTITLE:;
#ARTIST:猫叉Master;
#TITLETRANSLIT:Byakuya gentou;
#SUBTITLETRANSLIT:;
#ARTISTTRANSLIT:Nekomata Master;
#GENRE:フォレストスノウ2;
#CREDIT:;
#MUSIC:Byakuya gentou.ogg;
#BANNER:Byakuya gentou.png;
#BACKGROUND:Byakuya gentou-bg.png;
#CDTITLE:./CDTitles/pnm 18 Sengoku Retsuden.png;
#SAMPLESTART:71.020;
#SAMPLELENGTH:15.000;
#SELECTABLE:YES;
#OFFSET:1.531;
#BPMS:0.000=128.000;
#STOPS:;
#TIMESIGNATURES:0.000=4=4;
#BGCHANGES:0.000=../BGAs/27em.mp4=1.000=0=0=0=StretchNoLoop====,
99999.000=-nosongbg-=1.000=0=0=0=StretchNoLoop====
;
#FGCHANGES:;

//--------------- dance-single - forcednature ----------------
#NOTEDATA:;
#STEPSTYPE:dance-single;
#DESCRIPTION:forcednature;
#DIFFICULTY:Beginner;
#METER:2;
#RADARVALUES:0,0,0,0,0;
#CREDIT:forcednature;
#NOTES:
0000
0000
0000
0000
,
0000
0000
0000
0000
,
0000
0000
0000
0000
,
1000
0000
0010
0000
,
0100
0000
0000
0000
,
0001
0000
0010
0000
,
0100
0000
0000
0000
,
1000
0000
0001
0000
,
0100
0000
0000
0000
,
0001
0000
1000
0000
,
0100
0000
0000
0000
,
0010
0000
0000
0000
,
1000
0000
0100
0000
,
1000
0000
0010
0000
,
0100
0000
0001
0000
,
0010
0000
0001
0000
,
0100
0000
0010
0000
,
1000
0000
0001
0000
,
0010
0000
0010
0000
,
0100
0000
0100
0000
,
0000
0000
0000
0000
,
1000
0000
0000
0000
,
0001
0000
0001
0000
,
0001
0000
0000
0000
,
1000
0000
1000
0000
,
0100
0000
0000
0000
,
0010
0000
0010
0000
,
0010
0000
0000
0000
,
0100
0000
0100
0000
,
0001
0000
0001
0000
,
0001
0000
1000
0000
,
1000
0000
1000
0000
,
1000
0000
0001
0000
,
0100
0000
1000
0000
,
0100
0000
0001
0000
,
0100
0000
1000
0000
,
0100
0000
0001
0000
,
0010
0000
0010
0000
,
0100
0100
0100
0000
,
1001
0000
0000
0000
,
1000
0000
0010
0000
,
0100
0000
0001
0000
,
0010
0000
0000
0000
,
1001
0000
0000
0000
,
0001
0000
0010
0000
,
0100
0000
1000
0000
,
0010
0000
0000
0000
,
0110
0000
0000
0000
,
0001
0000
0100
0000
,
1000
0000
0100
0000
,
0001
0000
0000
0000
,
0110
0000
1001
0000
,
0100
0100
0100
0000
,
0010
0000
0010
0000
,
0010
0010
0010
0000
,
0100
0000
0001
0000
,
1000
0000
0010
0000
,
1000
0000
0100
0000
,
0010
0000
0001
0000
,
0100
0000
0010
0000
,
1000
0000
0001
0000
,
1000
0000
0100
0000
,
0010
0000
0001
0000
,
0000
0000
0000
0000
,
1001
0000
0000
0000
;

//--------------- dance-single - forcednature ----------------
#NOTEDATA:;
#STEPSTYPE:dance-single;
#DESCRIPTION:forcednature;
#DIFFICULTY:Easy;
#METER:8;
#RADARVALUES:0,0,0,0,0;
#CREDIT:forcednature;
#NOTES:
0000
0000
0000
0000
,
0000
0000
0000
0000
,
0000
0000
0000
1000
,
0001
0100
0001
1000
,
0010
0000
0000
0000
0000
0000
0000
0000
1000
0000
0000
0000
1000
0000
0000
0000
0000
0000
0000
0000
0000
0001
0000
0000
,
0100
0010
1000
0001
,
0010
0000
0000
0100
1000
0000
0000
0000
,
0010
0100
0001
1000
,
0100
0000
0000
0000
0010
0000
0010
0000
0000
0001
0000
0000
,
0100
0000
0010
0000
1000
0000
0001
0010
,
0100
1000
0000
0000
0000
0000
0000
0000
,
0010
0100
0010
0110
,
1002
0023
0032
0203
,
0320
0000
0030
0000
1000
0001
1000
0100
,
0020
0032
0203
0302
,
2003
0000
3000
0000
0100
1000
0001
0100
,
0020
2030
3002
0023
,
0230
0000
0300
0000
0010
0001
1000
0010
,
0200
0302
2003
3200
,
0310
0001
0100
0001
1000
0010
1000
0100
,
0000
0000
0000
0010
,
0100
0000
1001
0000
0100
0010
1000
0100
,
0020
0000
0230
0000
1300
0001
0100
0000
,
0010
0000
1001
0000
1000
0100
0010
0001
,
0100
0001
0100
0000
0010
1000
0010
0000
,
1001
0000
1000
0100
1000
0001
0100
0010
,
2000
0000
3002
0000
0013
0100
1000
0000
,
0020
0001
0100
1030
,
0100
0001
0100
0001
1000
0100
1000
0100
,
0010
0011
0100
1100
,
0010
1010
0100
0101
,
0010
0011
0100
1100
,
0010
1010
0100
0101
,
1100
0100
0101
0100
,
1010
0010
0011
0010
,
1100
0100
0101
0100
,
1010
0011
0101
1100
,
1001
0000
0110
0000
,
1001
1001
1001
0000
,
0100
0000
1001
0000
0001
1000
0100
1000
,
0020
0000
0030
0000
0100
0001
0010
0100
,
2000
0010
3200
0320
,
0032
0000
1000
0000
0013
0000
0001
0100
,
0010
0000
1001
0000
0001
0100
0010
1000
,
0200
0000
0300
0000
0010
0001
1000
0010
,
0200
0302
2003
3020
,
1030
0100
1000
0100
0010
0001
0010
0001
,
0100
0000
0110
0000
0001
1000
0100
0010
,
0200
0000
0300
0000
1000
0001
1000
0010
,
0200
0001
0320
0230
,
2300
0000
0010
0000
3100
0000
1000
0001
,
1001
0000
0000
0000
0100
0100
0100
0100
,
0020
0000
0030
0000
1000
0001
1000
0010
,
0200
0302
2003
3200
,
0310
0010
0001
0001
1000
1000
0010
0010
,
0200
2300
3200
0302
,
0203
0000
0310
0000
1000
0001
1000
0100
,
0020
0230
2300
3002
,
0203
0000
0310
0000
1000
0001
0010
0001
,
2000
3200
0302
0203
,
0320
0000
0031
0000
1000
0010
0100
0001
,
2000
3020
0032
0023
,
0130
0100
0001
0001
1000
1000
0100
0100
,
0000
0000
0000
0000
0000
0000
0010
0100
,
1001
0000
0000
0000
;

//--------------- dance-single - forcednature ----------------
#NOTEDATA:;
#STEPSTYPE:dance-single;
#DESCRIPTION:forcednature;
#DIFFICULTY:Medium;
#METER:12;
#RADARVALUES:0,0,0,0,0;
#CREDIT:forcednature;
#NOTES:
0000
0000
0000
0000
,
0000
0000
0000
0000
,
0000
0000
0000
1000
,
0100
0010
0001
0100
,
0010
0000
0000
0000
0000
0000
0000
0000
1000
0000
0001
0000
1000
0000
0000
0000
0000
0000
0000
0000
0000
0100
0000
0010
,
0001
0100
0010
1000
,
0001
0000
0000
0000
0000
0000
1000
0100
0010
0000
0000
0000
0000
0000
0000
0000
,
0100
1000
0001
0100
,
0010
0000
0000
0000
1000
0001
1000
0000
0000
0100
0000
0000
,
0010
0000
0000
0000
0000
0000
0001
0000
0000
0000
0000
0000
0010
0000
0000
0000
0000
0000
0100
0000
0000
1000
0000
0001
,
0100
0000
0010
1000
0000
0000
0000
0000
0000
0000
0000
0000
0000
0000
0000
0000
0000
0000
0000
0000
0000
0000
0000
0000
,
0001
0100
0010
1000
,
2001
3200
0302
0203
,
0320
0000
0000
0000
0000
0000
0031
0010
0001
0000
1000
0000
0010
0100
0010
0000
,
2000
3200
2300
3020
,
0230
0000
0000
0000
0000
0000
0301
1000
0001
0000
0010
0000
0100
1000
0100
0000
,
0020
0032
2003
3020
,
0230
0000
0000
0000
0000
0000
0301
0010
0001
0000
0100
0000
0010
1000
0010
0000
,
0200
2300
3200
0302
,
1003
0000
0100
0000
1000
0000
0010
0100
0010
0000
1000
0000
0001
0010
0001
0000
,
0000
0000
0000
0000
0000
0000
0000
0100
,
0001
0000
1000
0000
0100
0010
0100
0000
1000
0000
0010
0100
0010
0000
1000
0000
,
0002
0000
0000
0000
0013
0000
0100
1000
0100
0000
0010
0000
0001
0100
0001
0000
,
0010
0000
0001
0000
0100
0010
0100
0000
0001
0000
0010
0100
0010
0000
0001
0000
,
0100
1000
0100
0001
1000
0010
0001
0010
,
0200
0000
0000
0000
0301
1000
0001
0000
0010
0000
1000
0010
1000
0000
0010
0000
,
0002
0000
0000
0000
0103
0000
0010
1000
0010
0000
0001
0000
0010
0100
0010
0000
,
2000
0000
0000
0000
0100
0000
0000
0000
3001
0000
1000
0010
1000
0000
0100
0000
,
0001
0100
0010
1000
0010
0001
1000
0010
,
1001
1100
1001
0101
,
1001
1010
1001
0011
,
0110
1100
0110
0101
,
0110
1010
0110
0011
,
1001
0000
0000
0000
0001
0000
0100
0010
1000
0000
0000
0000
0001
0000
1000
0100
,
0010
0000
0100
1000
0100
0000
0010
0001
0010
0000
0001
0100
0001
0000
1000
0010
,
1000
0000
0000
0000
0010
0000
1000
0001
0010
0000
0000
0000
0100
0000
1000
0001
,
0100
0000
0010
1000
0010
0000
0100
0001
0100
0000
0001
0010
0001
0000
1000
0100
,
1000
0000
0000
0010
1001
0000
0000
0100
,
1001
0000
0110
0000
1001
0000
1000
0100
,
0010
0000
0000
0010
0100
0000
0000
0100
1000
0000
0010
0000
0001
0000
0010
0000
,
0200
0000
0000
0000
0300
0000
0001
1000
0001
0000
0010
0000
0100
0000
0001
0000
,
0200
0000
0000
0000
1000
0000
0300
0010
0001
0000
0000
0001
1000
0000
0010
0000
,
0200
0000
0000
0000
1000
0000
0000
0000
0301
0000
0100
0000
0010
1000
0010
1000
,
0010
0000
0000
0010
0100
0000
0000
0100
0001
0000
0010
0000
1000
0000
0010
0000
,
0200
0000
0000
0000
0300
0000
1000
0001
1000
0000
0010
0000
0100
0000
0001
0000
,
0010
0000
0000
0010
0100
0000
0000
0100
1000
0000
0000
1000
0001
0000
0000
0001
,
0100
0000
1000
0000
0100
0000
0010
1000
0010
0000
0100
0000
0001
0000
0010
0000
,
1001
0000
0000
0001
0100
0000
0000
0100
1000
0000
0100
0000
0001
0000
0010
0000
,
0200
0000
0000
0000
0300
0000
0010
0001
1000
0000
0010
0000
0100
0000
1000
0000
,
0200
0000
0000
0000
0001
0000
0300
0010
1000
0000
0000
1000
0001
0000
0010
0000
,
0200
0000
0000
0000
0001
0000
0000
0000
1300
0000
0100
0000
0010
0001
0010
0001
,
0010
0000
0000
0100
1010
0001
0011
1000
,
2002
0000
0000
0000
3003
0000
0001
0100
0010
0000
0001
0000
0010
0000
1000
0000
,
0100
0000
0000
0100
0010
0000
0000
0010
0001
0000
0000
0001
0100
0000
0000
0100
,
1000
0000
0100
0000
0001
0000
0010
0100
1000
0000
0010
0000
0001
0000
0010
0000
,
1001
1000
0100
0010
0100
1000
0001
0100
,
2000
0000
0000
0000
0000
0000
3100
0001
0100
0000
0010
0000
1000
0001
0010
0000
,
0100
0001
0100
0010
0001
1000
0010
0100
,
0002
0000
0000
0000
0000
0000
0013
0100
0010
0000
0001
0000
1000
0010
0100
0000
,
1001
1000
0010
0001
0010
0100
0001
0010
,
2000
0000
0000
0000
0000
0000
3010
0100
0010
0000
0001
0000
1000
0010
0100
0000
,
1000
0100
0001
1000
0001
0010
1000
0010
,
0100
0000
1000
0000
0010
0000
0100
0001
0100
0000
1000
0000
0100
0010
1000
0001
,
0000
0000
0000
0000
0000
0000
0000
0000
0000
0000
0000
0000
0000
0000
0000
0000
0000
0000
0010
0000
0001
1000
0000
0001
,
1000
0000
0000
0000
;

//--------------- dance-single - forcednature ----------------
#NOTEDATA:;
#STEPSTYPE:dance-single;
#DESCRIPTION:forcednature;
#DIFFICULTY:Hard;
#METER:16;
#RADARVALUES:0,0,0,0,0;
#CREDIT:forcednature;
#NOTES:
0000
0000
0000
0000
,
0000
0000
0000
0000
,
0000
0000
0000
1000
,
0001
0100
0010
1000
,
0100
0000
0000
0000
0000
0000
0000
0000
0010
0000
0001
0000
0010
0000
0000
0000
0000
0000
0000
0000
0000
0100
0000
1000
,
0001
0100
1000
0100
,
0010
0000
0000
0000
0000
0000
1000
0001
0010
0000
0000
0000
0000
0000
0000
0000
,
0100
1000
0001
0100
,
0010
0000
0000
0000
1000
0001
0010
0000
0000
0100
0000
0000
,
1000
0000
0000
0000
0000
0000
0001
0000
0000
0000
0000
0000
0100
0000
0000
0000
0000
0000
0010
0000
0000
1000
0000
0001
,
0010
0000
0100
1000
0000
0000
0000
0000
0000
0000
0000
0000
0000
0000
0000
0000
0000
0000
0001
0000
0000
0000
0000
0000
,
1000
0000
0000
0000
0010
0000
0000
0000
0100
0000
0000
0001
1000
0100
0010
0001
,
0200
2300
3200
0302
,
2003
0000
0000
0000
0000
0000
0000
0000
0000
0000
0000
0000
3100
0000
0010
0000
0001
0000
0000
0000
0100
0000
0000
0000
0001
0000
1000
0100
1000
0000
0000
0000
,
0020
0230
0302
2003
,
3200
0000
0000
0000
0000
0000
0000
0000
0000
0000
0000
0000
0310
0000
0001
0000
1000
0000
0000
0000
0010
0000
0000
0000
0100
0000
0001
1000
0001
0000
0000
0000
,
2001
3020
0032
0023
,
0230
0000
0000
0000
0000
0000
0000
0000
0000
0000
0000
0000
0301
0000
1000
0000
0100
0000
0000
0000
0010
0000
0000
0000
0001
0000
1000
0010
1000
0000
0000
0000
,
0200
0302
0203
2300
,
3010
0000
0000
0000
0100
0000
0000
0000
1000
0000
0000
0000
0100
0000
0001
0000
1000
0000
0000
0000
0100
0000
0000
0000
0010
0000
0001
1000
0001
0000
0000
0000
,
0000
0000
0000
0000
0000
0000
0000
0000
0000
0000
0000
1000
0100
1000
0010
0100
,
0001
0000
0000
0000
0010
0000
0000
0000
0100
0000
1000
0001
1000
0000
0010
0000
0100
0000
0000
0000
0001
0000
1000
0100
1000
0000
0000
0000
0010
0000
0000
0000
,
2000
0000
0000
0000
0000
0000
0000
0000
3100
0000
0000
0000
0001
0000
0100
0000
0010
0000
0000
0000
0001
0000
0000
0000
0100
0000
0001
1000
0001
0000
0000
0000
,
0100
0000
0000
0000
1000
0000
0000
0000
0100
0000
0010
1000
0010
0000
0100
0000
0001
0000
0000
0000
0010
0000
0100
1000
0100
0000
0000
0000
0001
0000
0000
0000
,
0100
0000
1000
0000
0001
0100
0010
1000
0001
1000
0100
0010
0001
0000
0100
0000
,
1002
0000
0000
0000
0000
0000
0000
0000
0013
0000
0100
1000
0100
0000
0010
0000
0001
0000
0000
0000
0100
0000
0001
1000
0001
0000
0000
0000
0100
0000
0000
0000
,
2000
0000
0000
0000
0000
0000
0000
0000
3100
0000
0000
0000
0001
0000
0010
0000
0100
0000
0000
0000
1000
0000
0000
0000
0010
0000
0100
0001
0100
0000
0000
0000
,
0020
0000
0000
0000
0000
0000
0000
0000
0001
0000
0000
0000
0000
0000
0000
0000
1030
0000
0000
0000
0010
0000
1000
0001
1000
0000
0000
0000
0100
0000
0000
0000
,
0010
0000
0000
0000
0010
0000
0000
0000
0001
0000
0000
0000
0001
0000
0000
0000
1000
0000
0010
0000
0100
0000
0001
1000
0001
0000
0000
0000
0010
0000
0000
0000
,
1001
0000
0000
0000
0000
0001
0100
0000
0001
0100
0000
0001
1000
0000
0000
0000
0000
1000
0100
0000
1000
0100
0000
1000
,
0001
0000
0000
0000
0000
0001
0010
0000
0001
0010
0000
0001
1000
0000
0001
1000
0000
0010
1000
0000
0010
1000
0000
0001
,
1000
0000
0000
0000
0000
1000
0100
0000
0010
0001
0000
1000
0001
0000
0000
0000
0000
0001
0100
0000
0010
1000
0000
0001
,
1000
0000
0000
0000
0000
0100
1000
0000
0001
1000
0000
0001
0100
0000
0001
1000
0000
0100
0010
0000
0001
1000
0000
0010
,
0100
0000
0000
0000
0000
0001
0100
0000
0010
1000
0001
0100
0010
0000
0000
0000
0000
1000
0100
0000
0010
0001
1000
0100
,
0010
0000
0000
0001
0100
0010
1000
0000
0000
0001
0010
0100
1000
0000
0010
1000
0000
0001
0100
0000
0001
0010
0000
0100
,
1000
0000
0000
0000
0000
0010
0100
0000
0001
0100
0010
1000
0001
0000
0000
0000
0000
1000
0100
0000
0010
0001
1000
0010
,
0100
0000
0001
0100
0000
0001
1000
0000
0100
1000
0000
0001
1000
0000
0100
0010
0000
0001
1000
0000
0010
0100
0000
0001
,
1000
0000
0000
0101
1100
0000
0000
0110
,
1001
0000
0000
0000
0000
0000
0110
0000
0000
0000
0000
0001
0100
0000
0001
1000
0000
0100
1000
0000
0001
1000
0000
0100
,
0020
0000
0000
0000
0000
0000
0000
0000
0032
0000
0000
0000
0000
0000
1003
0100
1000
0000
0000
0000
0010
0000
0000
0000
1000
0000
0000
0000
0001
0000
0000
0000
,
0200
0000
0000
0000
0000
0000
0000
0000
0300
0000
0000
0000
1000
0000
0100
0000
0001
0000
0000
0000
0010
0000
0000
0000
0100
0000
0000
0000
1000
0000
0001
0010
,
0002
0000
0000
0000
0000
0000
0000
0000
0100
0000
0000
0000
0000
0000
1003
0100
2000
0000
0000
0000
0000
0000
3001
0100
0001
0000
0000
0000
0010
0000
0000
0000
,
0200
0000
0000
0000
0000
0000
0000
0000
0000
0000
0000
0000
0001
0000
0000
0000
0000
0000
0000
0000
0000
1300
0000
0000
0100
0000
0000
0010
0000
0000
0001
0000
0000
1000
0000
0000
0001
0000
0000
0000
1000
0000
0010
0000
0000
0000
0100
0000
,
0002
0000
0000
0000
0000
0000
0000
0000
0023
0000
0000
0000
0000
0000
0130
1000
0100
0000
0000
0000
0001
0000
0000
0000
0100
0000
0000
0000
0010
0000
0000
0000
,
0002
0000
0000
0000
0003
0000
1000
0010
0001
0000
0010
0000
0100
0000
1000
0000
,
0200
0302
2003
3200
,
0310
0000
0000
0000
0000
0000
0000
0000
0000
0000
0000
0000
0001
0000
0000
0000
0000
0000
0000
0000
0000
0000
0000
0000
1000
0000
0000
0000
0000
0000
0000
0000
0000
0000
0000
0000
0010
0000
0000
0000
0000
0000
0100
0000
0000
0001
0000
0000
0100
0000
0000
0000
0000
0000
0000
0000
0001
0000
0000
0000
1000
0000
0000
0000
0000
0000
0000
0000
0100
0000
0000
0000
1000
0000
0000
0000
0000
0000
0000
0000
0001
0000
0000
0000
0010
0000
0000
0000
0000
0000
0001
0000
0000
1000
0000
0000
,
0002
0000
0000
0000
0000
0000
0000
0000
0203
0000
0000
0000
0000
0000
0310
1000
0010
0000
0000
0000
0001
0000
0000
0000
0010
0000
0000
0000
0100
0000
0000
0000
,
0002
0000
0000
0000
0000
0000
0000
0000
0003
0000
0000
0000
1000
0000
0100
0000
0001
0000
0000
0000
0100
0000
0000
0000
0010
0000
0000
0000
0001
0000
1000
0100
,
2000
0000
0000
0000
0000
0000
0000
0000
0010
0000
0000
0000
0000
0000
3001
0010
0002
0000
0000
0000
0000
0000
1003
0010
1000
0000
0000
0000
0100
0000
0000
0000
,
0020
0000
0000
0000
0000
0000
0000
0000
0000
0000
0000
0000
1000
0000
0000
0000
0000
0000
0000
0000
0000
0031
0000
0000
0010
0000
0000
0001
0000
0000
0100
0000
0000
0010
0000
0000
1000
0000
0000
0000
0001
0000
0010
0000
0000
0000
0100
0000
,
2000
0000
0000
0000
0000
0000
3000
0000
0000
0010
0000
0000
0100
0001
1000
0100
0010
0001
1000
0000
0000
0010
0000
0000
,
0200
0000
0000
0000
0300
0000
1000
0100
0001
0000
1000
0000
0001
0000
0010
0000
,
0200
2300
3020
0032
,
0013
0000
0000
0000
0000
0000
0000
0000
0000
0000
0000
0000
1000
0000
0000
0000
0000
0000
0000
0000
0000
0000
0000
0000
0001
0000
0000
0000
0000
0000
0000
0000
0000
0000
0000
0000
0010
0000
0000
0000
0000
0000
0100
0000
0000
1000
0000
0000
0100
0000
0000
0000
0000
0000
0000
0000
0010
0000
0000
0000
0001
0000
0000
0000
0000
0000
0000
0000
1000
0000
0000
0000
0001
0000
0000
0000
0000
0000
0000
0000
1000
0000
0000
0000
0010
0000
0000
0000
0000
0000
0100
0000
0000
0001
0000
0000
,
0100
0000
0000
0100
1000
0000
0000
1000
0100
0000
0000
0100
0001
0000
0000
0001
,
0020
0000
0000
0000
0000
0000
0000
0000
0130
0000
0000
0000
1000
0000
0100
0000
0001
0000
0000
0000
0100
0000
0000
0000
1000
0000
0001
0010
0001
0000
0000
0000
,
0100
0000
0000
0100
0010
0000
0000
0010
0001
0000
0000
0001
0010
0000
0000
0010
,
2000
0000
0000
0000
0000
0000
0000
0000
3100
0000
0000
0000
0010
0000
0001
0000
0100
0000
0000
0000
1000
0000
0000
0000
0100
0000
0010
1000
0010
0000
0000
0000
,
0101
0000
0000
0001
0010
0000
0000
0010
1000
0000
0000
1000
0010
0000
0000
0010
,
0200
0000
0000
0000
0000
0000
0000
0000
1300
0000
0000
0000
0001
0000
1000
0000
0010
0000
0000
0000
0100
0000
0000
0000
0001
0000
1000
0100
1000
0000
0000
0000
,
0010
0000
0000
0010
0001
0000
0000
0001
0010
0000
0000
0010
1000
0000
0000
1000
,
0001
0000
0000
0000
0010
0000
0000
0000
1000
0000
0000
0000
0010
0000
0100
0000
1000
0000
0000
0000
0010
0000
0000
0000
0100
0000
0001
1000
0001
0000
0010
0000
,
0000
0000
0000
0000
0000
0000
0000
0000
0000
0000
0000
0000
0000
0000
0000
0000
0000
0000
0100
0000
1000
0001
0000
0100
,
0010
0000
0000
0000
;

//--------------- dance-double - forcednature ----------------
#NOTEDATA:;
#STEPSTYPE:dance-double;
#DESCRIPTION:forcednature;
#DIFFICULTY:Easy;
#METER:10;
#RADARVALUES:0,0,0,0,0;
#CREDIT:forcednature;
#NOTES:
00000000
00000000
00000000
00000000
,
00000000
00000000
00000000
00000000
,
00000000
00000000
00000000
00001000
,
00010000
00100000
01000000
00010000
,
10000000
00000000
00000000
00000000
00000000
00000000
00000000
00000000
01000000
00000000
00000000
00000000
01000000
00000000
00000000
00000000
00000000
00000000
00000000
00000000
00000000
00010000
00000000
00000000
,
00001000
00000010
00000001
00000100
,
00000010
00000000
00000000
00010000
00001000
00000000
00000000
00000000
,
00000010
00000100
00010000
00001000
,
01000000
00000000
00000000
00000000
00100000
00000000
00100000
00000000
00000000
10000000
00000000
00000000
,
01000000
00000000
00010000
00000000
00001000
00000000
00000100
00000001
,
00000010
00000100
00000000
00000000
00000000
00000000
00000000
00000000
,
00010000
00001000
00010000
00011000
,
02001000
03200000
20300000
32000000
,
03020000
00000000
00030000
00000000
00001000
00000010
00000100
00001000
,
00000002
00000203
00002300
00023000
,
00030020
00000000
00000030
00000000
00001000
00000100
00010000
00001000
,
02000000
03200000
00320000
00230000
,
20300000
00000000
30000000
00000000
01000000
00010000
00001000
00000010
,
00000002
00000203
00000320
00020030
,
00031000
00000010
00000100
00010000
00001000
00000100
00000010
00010000
,
00000000
00000000
00000000
00100000
,
10000000
00000000
01100000
00000000
00010000
01000000
00001000
00010000
,
00000200
00000000
00000320
00000000
00000031
00000100
00000010
00000000
,
00010000
00000000
00001100
00000000
00010000
00001000
01000000
00100000
,
10000000
01000000
00100000
00000000
00010000
01000000
00100000
00000000
,
10010000
00000000
10000000
01000000
00010000
00001000
00000100
00000001
,
00000020
00000000
00000230
00000000
00010300
00001000
00000100
00000000
,
00000020
00000100
00010000
00001030
,
00000010
00010000
00000010
00010000
00001000
00100000
00001000
00100000
,
00001000
00000100
00010000
01000000
,
00001000
00000100
00010000
01000000
,
00001000
00000010
00010000
00100000
,
00001000
00000010
00010000
00100000
,
00001000
00000100
00010000
00100000
,
00001000
00000010
00010000
01000000
,
00001000
00000001
00010000
10000000
,
11000000
01010000
00011000
00001100
,
00000101
00000000
00011000
00000000
,
10010000
10010000
10010000
01000000
,
00001000
00000000
00011000
00000000
00000100
00001000
00000001
00000100
,
00000020
00000000
00000030
00000000
00010000
00001000
00000010
00000001
,
00000200
00000010
00002300
00023000
,
00230000
00000000
01000000
00000000
10300000
00000000
00010000
00100000
,
01000000
00000000
10010000
00000000
00010000
01000000
00001000
00010000
,
00000200
00000000
00000300
00000000
00000010
00000001
00001000
00000010
,
00000200
00002300
00023000
02030000
,
13000000
00010000
10000000
00010000
00100000
00001000
00100000
00001000
,
00010000
00000000
00011000
00000000
00000100
00001000
00000001
00000100
,
00000020
00000000
00000030
00000000
00010000
00001000
00100000
00010000
,
02000000
10000000
03020000
00230000
,
00302000
00000000
00010000
00000000
01003000
00000000
00001000
00010000
,
00011000
00000000
00000000
00000000
00000100
00000010
00000001
00000100
,
00002000
00000000
00003000
00000000
00010000
00100000
10000000
00010000
,
00200000
00302000
00003020
00000032
,
00000103
00000100
00001000
00001000
00010000
00010000
01000000
01000000
,
20000000
30020000
00230000
00302000
,
00023000
00000000
00030000
00000000
00000100
00001000
00000001
00000100
,
00000020
00020030
00032000
02003000
,
03020000
00000000
00030000
00000000
00100000
01000000
10000000
00010000
,
20000000
32000000
03020000
00032000
,
00003020
00000000
00000030
00000000
00000001
00000100
00001000
00000100
,
00000020
00020030
00032000
00203000
,
01300000
00010000
00001000
00000010
00000001
00000100
00001000
00010000
,
00000000
00000000
00000000
00000000
00000000
00000000
01000000
00010000
,
00000010
00000000
00000000
00000000
;

//--------------- dance-double - forcednature ----------------
#NOTEDATA:;
#STEPSTYPE:dance-double;
#DESCRIPTION:forcednature;
#DIFFICULTY:Medium;
#METER:14;
#RADARVALUES:0,0,0,0,0;
#CREDIT:forcednature;
#NOTES:
00000000
00000000
00000000
00000000
,
00000000
00000000
00000000
00000000
,
00000000
00000000
00000000
00010000
,
00001000
00000100
00000001
00000010
,
00001000
00000000
00000000
00000000
00000000
00000000
00000000
00000000
00010000
00000000
01000000
00000000
00010000
00000000
00000000
00000000
00000000
00000000
00000000
00000000
00000000
00001000
00000000
00100000
,
00010000
01000000
10000000
01000000
,
00010000
00000000
00000000
00000000
00000000
00000000
00100000
00001000
00010000
00000000
00000000
00000000
00000000
00000000
00000000
00000000
,
00000100
00000001
00000100
00010000
,
00100000
00000000
00000000
00000000
01000000
00010000
01000000
00000000
00000000
00100000
00000000
00000000
,
10000000
00000000
00000000
00000000
00000000
00000000
01000000
00000000
00000000
00000000
00000000
00000000
00010000
00000000
00000000
00000000
00000000
00000000
00001000
00000000
00000000
00000010
00000000
00000001
,
00001000
00000000
00000001
00000100
00000000
00000000
00000000
00000000
00000000
00000000
00000000
00000000
00000000
00000000
00000000
00000000
00000000
00000000
00000000
00000000
00000000
00000000
00000000
00000000
,
00001000
00010000
00100000
10000000
,
20010000
32000000
03020000
00032000
,
00003020
00000000
00000000
00000000
00000000
00000000
00000031
00001000
00000001
00000000
00000100
00000000
00001000
00010000
00001000
00000000
,
00200000
00320000
02030000
03002000
,
00003020
00000000
00000000
00000000
00000000
00000000
00000130
00001000
00000100
00000000
00010000
00000000
00001000
01000000
00001000
00000000
,
00020000
00230000
20300000
32000000
,
03020000
00000000
00000000
00000000
00000000
00000000
00031000
00100000
00001000
00000000
00010000
00000000
00000010
00001000
00000010
00000000
,
00000200
00020300
02030000
03200000
,
10300000
00000000
01000000
00000000
00010000
00000000
00001000
00000010
00001000
00000000
00010000
00000000
00000100
00001000
00000100
00000000
,
00000000
00000000
00000000
00000000
00000000
00000000
00000000
00000010
,
00000001
00000000
00000100
00000000
00001000
00010000
00001000
00000000
00100000
00000000
00001000
00010000
00001000
00000000
01000000
00000000
,
00200000
00000000
00000000
00000000
10300000
00000000
01000000
00010000
01000000
00000000
00100000
00000000
00001000
00010000
00001000
00000000
,
00000100
00000000
00000001
00000000
00001000
00000100
00001000
00000000
00000010
00000000
00010000
00001000
00010000
00000000
00100000
00000000
,
01000000
10000000
01000000
00010000
00001000
00000100
00000001
00000100
,
00000020
00000000
00000000
00000000
00000031
00001000
00000001
00000000
00000100
00000000
00001000
00010000
00001000
00000000
00100000
00000000
,
02000000
00000000
00000000
00000000
13000000
00000000
00100000
01000000
00100000
00000000
00010000
00000000
00001000
00100000
00001000
00000000
,
00020000
00000000
00000000
00000000
01000000
00000000
00000000
00000000
10030000
00000000
00010000
00100000
00010000
00000000
00001000
00000000
,
00000100
00000010
00000001
00000100
00001000
00000100
00000010
00010000
,
00011000
00110000
01010000
00001010
,
00001100
00110000
00011000
00001010
,
00011000
01001000
00010100
00101000
,
00010010
00001100
00011000
01010000
,
00011000
00000000
00000000
00000000
00010000
00000000
00000100
00001000
00000010
00000000
00000000
00000000
00000100
00000000
00001000
00010000
,
00100000
00000000
01000000
10000000
01000000
00000000
00010000
01000000
00010000
00000000
00100000
00010000
00100000
00000000
00001000
00100000
,
00001000
00000000
00000000
00000000
00000100
00000000
00000001
00001000
00000100
00000000
00000000
00000000
00000010
00000000
00000100
00010000
,
00001000
00000000
00100000
00010000
00100000
00000000
00010000
01000000
00010000
00000000
01000000
10000000
01000000
00000000
10000000
01000000
,
00010000
00000000
00000000
00100000
00011000
00000000
00000000
00000010
,
00011000
00000000
01001000
00000000
00010100
00000000
00010000
00001000
,
00100000
00000000
00000000
00100000
01000000
00000000
00000000
01000000
00010000
00000000
00001000
00000000
00000010
00000000
00000001
00000000
,
00002000
00000000
00000000
00000000
00003000
00000000
00000010
00010000
00000010
00000000
00000100
00000000
00001000
00000000
00010000
00000000
,
02000000
00000000
00000000
00000000
00100000
00000000
03000000
00010000
10000000
00000000
00000000
10000000
00100000
00000000
01000000
00000000
,
00002000
00000000
00000000
00000000
00000100
00000000
00000000
00000000
00013000
00000000
00001000
00000000
00000010
00000001
00000010
00000001
,
00000010
00000000
00000000
00000010
00000100
00000000
00000000
00000100
00010000
00000000
00001000
00000000
00000100
00000000
00001000
00000000
,
00020000
00000000
00000000
00000000
00030000
00000000
00100000
10000000
00100000
00000000
01000000
00000000
00001000
00000000
00010000
00000000
,
00000100
00000000
00000000
00000100
00000001
00000000
00000000
00000001
00000100
00000000
00000000
00000100
00000010
00000000
00000000
00000010
,
00001000
00000000
00100000
00000000
00001000
00000000
00010000
00100000
00010000
00000000
00001000
00000000
00010000
00000000
01000000
00000000
,
10010000
00000000
00000000
10000000
01000000
00000000
00000000
01000000
00010000
00000000
00001000
00000000
00000100
00000000
00000001
00000000
,
00000020
00000000
00000000
00000000
00000030
00000000
00000100
00010000
00001000
00000000
01000000
00000000
00100000
00000000
00010000
00000000
,
00002000
00000000
00000000
00000000
00000010
00000000
00003000
00010000
00100000
00000000
00000000
00100000
01000000
00000000
10000000
00000000
,
02000000
00000000
00000000
00000000
00010000
00000000
00000000
00000000
13000000
00000000
01000000
00000000
00001000
00010000
00001000
00010000
,
00001000
00000000
00000000
00000010
00000001
00000100
00010000
01000000
,
20020000
00000000
00000000
00000000
30030000
00000000
10000000
01000000
00010000
00000000
00001000
00000000
00000100
00000000
00000001
00000000
,
00001000
00000000
00000000
00001000
00000100
00000000
00000000
00000100
00010000
00000000
00000000
00010000
00100000
00000000
00000000
00100000
,
01000000
00000000
00010000
00000000
10000000
00000000
01000000
00010000
00001000
00000000
00000010
00000000
00000001
00000000
00001000
00000000
,
00000100
00000001
00000100
00010000
00001000
01000000
00100000
00010000
,
00200000
00000000
00000000
00000000
00000000
00000000
10300000
00010000
10000000
00000000
01000000
00000000
00010000
00001000
00000100
00000000
,
00000010
00000001
00000010
00010000
00001000
00000010
00000100
00010000
,
00002000
00000000
00000000
00000000
00000000
00000000
00003100
00000001
00000100
00000000
00000010
00000000
00010000
00001000
00100000
00000000
,
01000000
00001000
01000000
10000000
00100000
01000000
00001000
00010000
,
00000020
00000000
00000000
00000000
00000000
00000000
00000130
00000001
00000100
00000000
00001000
00000000
00010000
00100000
01000000
00000000
,
10000000
01000000
00010000
00100000
01000000
00010000
00001000
00000010
,
00000100
00000000
00001000
00000000
00000001
00000000
00000100
00001000
00000100
00000000
00000010
00000000
00010000
00001000
01000000
00010000
,
00000000
00000000
00000000
00000000
00000000
00000000
00000000
00000000
00000000
00000000
00000000
00000000
00000000
00000000
00000000
00000000
00000000
00000000
00100000
00000000
00001000
00010000
00000000
00001000
,
00000100
00000000
00000000
00000000
;

//--------------- dance-double - forcednature ----------------
#NOTEDATA:;
#STEPSTYPE:dance-double;
#DESCRIPTION:forcednature;
#DIFFICULTY:Hard;
#METER:17;
#RADARVALUES:0,0,0,0,0;
#CREDIT:forcednature;
#NOTES:
00000000
00000000
00000000
00000000
,
00000000
00000000
00000000
00000000
,
00000000
00000000
00000000
00001000
,
00010000
01000000
10000000
00010000
,
01000000
00000000
00000000
00000000
00000000
00000000
00000000
00000000
00100000
00000000
10000000
00000000
00100000
00000000
00000000
00000000
00000000
00000000
00000000
00000000
00000000
01000000
00000000
00001000
,
00010000
00000100
00000010
00000001
,
00000100
00000000
00000000
00000000
00000000
00000000
00000010
00010000
00001000
00000000
00000000
00000000
00000000
00000000
00000000
00000000
,
00100000
10000000
00100000
00010000
,
00001000
00000000
00000000
00000000
00000100
00010000
00001000
00000000
00000000
00000100
00000000
00000000
,
00000001
00000000
00000000
00000000
00000000
00000000
00000010
00000000
00000000
00000000
00000000
00000000
00001000
00000000
00000000
00000000
00000000
00000000
00010000
00000000
00000000
00100000
00000000
10000000
,
00010000
00000000
10000000
01000000
00000000
00000000
00000000
00000000
00000000
00000000
00000000
00000000
00000000
00000000
00000000
00000000
00000000
00000000
00010000
00000000
00000000
00000000
00000000
00000000
,
00001000
00000000
00000000
00000000
00000010
00000000
00000000
00000000
00000001
00000000
00000000
00001000
00000010
00000100
00000001
00000100
,
00000020
00020030
00230000
20300000
,
30020000
00000000
00000000
00000000
00000000
00000000
00000000
00000000
00000000
00000000
00000000
00000000
00130000
00000000
00001000
00000000
00010000
00000000
00000000
00000000
00000100
00000000
00000000
00000000
00001000
00000000
00000001
00000100
00000001
00000000
00000000
00000000
,
00002000
00003200
00020300
02030000
,
03200000
00000000
00000000
00000000
00000000
00000000
00000000
00000000
00000000
00000000
00000000
00000000
00310000
00000000
10000000
00000000
00100000
00000000
00000000
00000000
01000000
00000000
00000000
00000000
00001000
00000000
00010000
00000100
00010000
00000000
00000000
00000000
,
00002000
00003200
00000302
00000023
,
00000230
00000000
00000000
00000000
00000000
00000000
00000000
00000000
00000000
00000000
00000000
00000000
00010300
00000000
00001000
00000000
01000000
00000000
00000000
00000000
00100000
00000000
00000000
00000000
10000000
00000000
01000000
00100000
01000000
00000000
00000000
00000000
,
00020000
00032000
00003200
00000320
,
00010030
00000000
00000000
00000000
00100000
00000000
00000000
00000000
01000000
00000000
00000000
00000000
00001000
00000000
00010000
00000000
01000000
00000000
00000000
00000000
10000000
00000000
00000000
00000000
00100000
00000000
01000000
00010000
01000000
00000000
00000000
00000000
,
00000000
00000000
00000000
00000000
00000000
00000000
00000000
00000000
00000000
00000000
00000000
00001000
00010000
00001000
00000100
00000001
,
00001000
00000000
00000000
00000000
00000100
00000000
00000000
00000000
00000010
00000000
00001000
00010000
00001000
00000000
01000000
00000000
00010000
00000000
00000000
00000000
00100000
00000000
00001000
00010000
00001000
00000000
00000000
00000000
00000100
00000000
00000000
00000000
,
00000002
00000000
00000000
00000000
00000000
00000000
00000000
00000000
00001003
00000000
00000000
00000000
00000100
00000000
00010000
00000000
00001000
00000000
00000000
00000000
01000000
00000000
00000000
00000000
00100000
00000000
10000000
00010000
10000000
00000000
00000000
00000000
,
01000000
00000000
00000000
00000000
00010000
00000000
00000000
00000000
00001000
00000000
00000010
00000100
00000010
00000000
00000001
00000000
00001000
00000000
00000000
00000000
00000010
00000000
00010000
00001000
00010000
00000000
00000000
00000000
00100000
00000000
00000000
00000000
,
10000000
00000000
00010000
00000000
00100000
01000000
00010000
00001000
00000010
00000100
00001000
00000001
00000100
00000000
00000010
00000000
,
00020000
00000000
00000000
00000000
00000000
00000000
00000000
00000000
01030000
00000000
10000000
00010000
10000000
00000000
00100000
00000000
00010000
00000000
00000000
00000000
00001000
00000000
01000000
00010000
01000000
00000000
00000000
00000000
00100000
00000000
00000000
00000000
,
20000000
00000000
00000000
00000000
00000000
00000000
00000000
00000000
31000000
00000000
00000000
00000000
00010000
00000000
00001000
00000000
00000100
00000000
00000000
00000000
00000001
00000000
00000000
00000000
00000010
00000000
00000100
00001000
00000100
00000000
00000000
00000000
,
00020000
00000000
00000000
00000000
00000000
00000000
00000000
00000000
00100000
00000000
00000000
00000000
00000000
00000000
00000000
00000000
00031000
00000000
00000000
00000000
00010000
00000000
01000000
10000000
01000000
00000000
00000000
00000000
00010000
00000000
00000000
00000000
,
00001000
00000000
00000000
00000000
00000010
00000000
00000000
00000000
00000001
00000000
00000000
00000000
00001000
00000000
00000000
00000000
00000010
00000000
00000100
00000000
00001000
00000000
00010000
00100000
00010000
00000000
00000000
00000000
00001000
00000000
00000000
00000000
,
00011000
00000000
00000000
00000000
00000000
00000100
00010000
00000000
00000100
00010000
00000000
00001000
01000000
00000000
00000000
00000000
00000000
01000000
00001000
00000000
01000000
00001000
00000000
00010000
,
00000100
00000000
00000000
00000000
00000000
00000100
00010000
00000000
00000100
00010000
00000000
00001000
01000000
00000000
00001000
01000000
00000000
00010000
00100000
00000000
00001000
00010000
00000000
00000010
,
00001000
00000000
00000000
00000000
00000000
00000001
00000100
00000000
00001000
00010000
00000000
01000000
10000000
00000000
00000000
00000000
00000000
10000000
01000000
00000000
00010000
00001000
00000000
00000100
,
00000001
00000000
00000000
00000000
00000000
00000001
00000100
00000000
00000100
00001000
00000000
00001000
00010000
00000000
00010000
01000000
00000000
01000000
10000000
00000000
10000000
00100000
00000000
00100000
,
01000000
00000000
00000000
00000000
00000000
01000000
00010000
00000000
00010000
00100000
00001000
00010000
00000100
00000000
00000000
00000000
00000000
00000100
00001000
00000000
00001000
00000010
00010000
00001000
,
01000000
00000000
00000000
01000000
00001000
00010000
00000100
00000000
00000000
00000100
00010000
00001000
00100000
00000000
00100000
00010000
00000000
00010000
00001000
00000000
00001000
00000100
00000000
00000100
,
00000010
00000000
00000000
00000000
00000000
00000010
00000001
00000000
00000001
00000100
00001000
00010000
00100000
00000000
00000000
00000000
00000000
00100000
10000000
00000000
10000000
01000000
00010000
00001000
,
00000010
00000000
00000001
00000010
00000000
00000001
00000100
00000000
00001000
00000100
00000000
00001000
00010000
00000000
00100000
00010000
00000000
00100000
10000000
00000000
01000000
10000000
00000000
01000000
,
00010000
00000000
00000000
00010100
01001000
00000000
00000000
00101000
,
00010010
00000000
00000000
00000000
00000000
00000000
00011000
00000000
00000000
00000000
00000000
00010000
00100000
00000000
10000000
01000000
00000000
00010000
00001000
00000000
00000100
00000001
00000000
00000010
,
00000200
00000000
00000000
00000000
00000000
00000000
00000000
00000000
00020300
00000000
00000000
00000000
00000000
00000000
00130000
10000000
00100000
00000000
00000000
00000000
01000000
00000000
00000000
00000000
00001000
00000000
00000000
00000000
00000100
00000000
00000000
00000000
,
00000020
00000000
00000000
00000000
00000000
00000000
00000000
00000000
00000030
00000000
00000000
00000000
00010000
00000000
00001000
00000000
00000010
00000000
00000000
00000000
00000001
00000000
00000000
00000000
00001000
00000000
00000000
00000000
00000100
00000000
00010000
00001000
,
00020000
00000000
00000000
00000000
00000000
00000000
00000000
00000000
00100000
00000000
00000000
00000000
00000000
00000000
00030010
00001000
00000020
00000000
00000000
00000000
00000000
00000000
00000130
00000001
00000100
00000000
00000000
00000000
00001000
00000000
00000000
00000000
,
00020000
00000000
00000000
00000000
00000000
00000000
00000000
00000000
00000000
00000000
00000000
00000000
01000000
00000000
00000000
00000000
00000000
00000000
00000000
00000000
00000000
00031000
00000000
00000000
00010000
00000000
00000000
00100000
00000000
00000000
10000000
00000000
00000000
00010000
00000000
00000000
10000000
00000000
00000000
00000000
01000000
00000000
00010000
00000000
00000000
00000000
00001000
00000000
,
00000020
00000000
00000000
00000000
00000000
00000000
00000000
00000000
00000032
00000000
00000000
00000000
00000000
00000000
00001003
00000010
00001000
00000000
00000000
00000000
00010000
00000000
00000000
00000000
01000000
00000000
00000000
00000000
00100000
00000000
00000000
00000000
,
20000000
00000000
00000000
00000000
30000000
00000000
01000000
00010000
00001000
00000000
00000100
00000000
00000010
00000000
00010000
00000000
,
00200000
02300000
03002000
00003020
,
00000031
00000000
00000000
00000000
00000000
00000000
00000000
00000000
00000000
00000000
00000000
00000000
00001000
00000000
00000000
00000000
00000000
00000000
00000000
00000000
00000000
00000000
00000000
00000000
00000010
00000000
00000000
00000000
00000000
00000000
00000000
00000000
00000000
00000000
00000000
00000000
00000100
00000000
00000000
00000000
00000000
00000000
00001000
00000000
00000000
00010000
00000000
00000000
00001000
00000000
00000000
00000000
00000000
00000000
00000000
00000000
00100000
00000000
00000000
00000000
00010000
00000000
00000000
00000000
00000000
00000000
00000000
00000000
10000000
00000000
00000000
00000000
00100000
00000000
00000000
00000000
00000000
00000000
00000000
00000000
01000000
00000000
00000000
00000000
00001000
00000000
00000000
00000000
00000000
00000000
00010000
00000000
00000000
00000100
00000000
00000000
,
00020000
00000000
00000000
00000000
00000000
00000000
00000000
00000000
00032000
00000000
00000000
00000000
00000000
00000000
00003100
00000001
00000100
00000000
00000000
00000000
00000010
00000000
00000000
00000000
00010000
00000000
00000000
00000000
01000000
00000000
00000000
00000000
,
20000000
00000000
00000000
00000000
00000000
00000000
00000000
00000000
30000000
00000000
00000000
00000000
00100000
00000000
00010000
00000000
00001000
00000000
00000000
00000000
00000100
00000000
00000000
00000000
00000001
00000000
00000000
00000000
00001000
00000000
00000100
00010000
,
00000200
00000000
00000000
00000000
00000000
00000000
00000000
00000000
00000001
00000000
00000000
00000000
00000000
00000000
00010300
00001000
00020000
00000000
00000000
00000000
00000000
00000000
00130000
10000000
00100000
00000000
00000000
00000000
01000000
00000000
00000000
00000000
,
00020000
00000000
00000000
00000000
00000000
00000000
00000000
00000000
00000000
00000000
00000000
00000000
00000010
00000000
00000000
00000000
00000000
00000000
00000000
00000000
00000000
01030000
00000000
00000000
00010000
00000000
00000000
00100000
00000000
00000000
00001000
00000000
00000000
00010000
00000000
00000000
00000100
00000000
00000000
00000000
00001000
00000000
00000100
00000000
00000000
00000000
00000010
00000000
,
00000002
00000000
00000000
00000000
00000000
00000000
00000003
00000000
00000000
00000100
00000000
00000000
00001000
00010000
00100000
01000000
00010000
00100000
01000000
00000000
00000000
10000000
00000000
00000000
,
00020000
00000000
00000000
00000000
00030000
00000000
01000000
00001000
00010000
00000000
00000100
00000000
00000010
00000000
00010000
00000000
,
00000020
00000032
00000203
00020300
,
00130000
00000000
00000000
00000000
00000000
00000000
00000000
00000000
00000000
00000000
00000000
00000000
01000000
00000000
00000000
00000000
00000000
00000000
00000000
00000000
00000000
00000000
00000000
00000000
10000000
00000000
00000000
00000000
00000000
00000000
00000000
00000000
00000000
00000000
00000000
00000000
00100000
00000000
00000000
00000000
00000000
00000000
01000000
00000000
00000000
00010000
00000000
00000000
01000000
00000000
00000000
00000000
00000000
00000000
00000000
00000000
00001000
00000000
00000000
00000000
00010000
00000000
00000000
00000000
00000000
00000000
00000000
00000000
00000010
00000000
00000000
00000000
00001000
00000000
00000000
00000000
00000000
00000000
00000000
00000000
00000001
00000000
00000000
00000000
00000010
00000000
00000000
00000000
00000000
00000000
00000100
00000000
00000000
00001000
00000000
00000000
,
00000100
00000000
00000000
00000100
00010000
00000000
00000000
00010000
00100000
00000000
00000000
00100000
10000000
00000000
00000000
10000000
,
00020000
00000000
00000000
00000000
00000000
00000000
00000000
00000000
01030000
00000000
00000000
00000000
00100000
00000000
00010000
00000000
00001000
00000000
00000000
00000000
00000010
00000000
00000000
00000000
00000100
00000000
00001000
00000001
00001000
00000000
00000000
00000000
,
00000010
00000000
00000000
00000010
00001000
00000000
00000000
00001000
00010000
00000000
00000000
00010000
00100000
00000000
00000000
00100000
,
02000000
00000000
00000000
00000000
00000000
00000000
00000000
00000000
13000000
00000000
00000000
00000000
00010000
00000000
00100000
00000000
01000000
00000000
00000000
00000000
00010000
00000000
00000000
00000000
00001000
00000000
00000010
00000001
00000010
00000000
00000000
00000000
,
00000100
00000000
00000000
00000100
00010000
00000000
00000000
00010000
01000000
00000000
00000000
01000000
10000000
00000000
00000000
10000000
,
00020000
00000000
00000000
00000000
00000000
00000000
00000000
00000000
01030000
00000000
00000000
00000000
00001000
00000000
00010000
00000000
00000100
00000000
00000000
00000000
00000010
00000000
00000000
00000000
00000001
00000000
00000100
00000010
00000100
00000000
00000000
00000000
,
00001000
00000000
00000000
00001000
00010000
00000000
00000000
00010000
00100000
00000000
00000000
00100000
10000000
00000000
00000000
10000000
,
00010000
00000000
00000000
00000000
00100000
00000000
00000000
00000000
00001000
00000000
00000000
00000000
00000010
00000000
00000001
00000000
00001000
00000000
00000000
00000000
00000010
00000000
00000000
00000000
00000100
00000000
00001000
00010000
00001000
00000000
00100000
00000000
,
00000000
00000000
00000000
00000000
00000000
00000000
00000000
00000000
00000000
00000000
00000000
00000000
00000000
00000000
00000000
00000000
00000000
01000000
00010000
00000000
00001000
00000010
00000000
00000001
,
00001000
00000000
00000000
00000000
;
