#VERSION:0.83;
#TITLE:Burning Flame;
#SUBTITLE:;
#ARTIST:AJURIKA feat. SAK.;
#TITLETRANSLIT:;
#SUBTITLETRANSLIT:;
#ARTISTTRANSLIT:;
#GENRE:HYPER TECHNO;
#CREDIT:;
#MUSIC:Burning Flame.ogg;
#BANNER:Burning Flame.png;
#BACKGROUND:Burning Flame-bg.png;
#CDTITLE:./CDTitles/bm IIDX 28 BISTROVER.png;
#SAMPLESTART:56.159;
#SAMPLELENGTH:15.000;
#SELECTABLE:YES;
#OFFSET:1.459;
#BPMS:0.000=165.000;
#STOPS:;
#TIMESIGNATURES:0.000=4=4;
#BGCHANGES:3.600=Burning Flame.mp4=1.000=0=0=0=StretchNoLoop====,
99999.000=-nosongbg-=1.000=0=0=0=StretchNoLoop====
;
#FGCHANGES:;

//--------------- dance-single - forcednature ----------------
#NOTEDATA:;
#STEPSTYPE:dance-single;
#DESCRIPTION:forcednature;
#DIFFICULTY:Beginner;
#METER:2;
#RADARVALUES:0,0,0,0,0;
#CREDIT:forcednature;
#CREDIT:forcednature;
#NOTES:
0000
0000
0000
0000
,
0000
0000
0000
0000
,
0000
0000
0000
0000
,
0000
0000
0000
0000
,
0000
0000
0000
0000
,
0000
0000
0000
0000
,
1000
0000
0000
0000
,
0100
0000
0000
0000
,
1000
0000
0000
0000
,
0001
0000
0000
0000
,
0001
0000
0000
0000
,
0100
0000
0000
0000
,
0001
0000
0000
0000
,
1000
0000
0000
0000
,
0010
0000
0000
0000
,
0000
0000
0000
0000
,
0100
0000
0000
0000
,
0001
0000
0000
0000
,
0010
0000
0000
0000
,
0000
0000
0000
0000
,
0100
0000
0000
0000
,
1000
0000
0000
0000
,
0001
0000
0000
0000
,
0001
0000
0000
0000
,
0100
0000
0000
0000
,
0010
0000
0000
0000
,
1000
0000
0000
0000
,
1000
0000
0000
0000
,
0100
0000
0000
0000
,
0010
0000
0000
0000
,
0001
0000
0000
0000
,
0000
0000
0000
0000
,
0100
0000
0000
0000
,
0010
0000
0000
0000
,
1000
0000
0000
0000
,
0000
0000
0000
0000
,
0100
0000
0000
0000
,
0010
0000
0000
0000
,
0001
0000
0000
0000
,
0100
0000
0000
0000
,
1001
0000
0000
0000
,
1000
0000
0000
0000
,
1001
0000
0000
0000
,
0001
0000
0000
0000
,
1001
0000
0000
0000
,
0010
0000
0000
0000
,
1001
0000
0000
0000
,
0100
0000
0000
0000
,
0110
0000
0000
0000
,
1000
0000
0000
0000
,
0110
0000
0000
0000
,
0001
0000
0000
0000
,
1001
0000
0000
0000
,
0010
0000
0000
0000
,
1001
0000
0000
0000
,
0100
0000
0000
0000
,
1000
0000
0000
0000
,
0100
0000
0000
0000
,
1000
0000
0000
0000
,
0001
0000
0000
0000
,
0001
0000
0000
0000
,
0100
0000
0000
0000
,
0001
0000
0000
0000
,
1000
0000
0000
0000
,
1001
0000
0000
0000
,
0010
0000
0000
0000
,
1001
0000
0000
0000
,
0100
0000
0000
0000
,
1000
0000
0000
0000
,
0001
0000
0000
0000
,
0100
0000
0000
0000
,
0010
0000
0000
0000
,
1001
0000
0000
0000
,
0100
0000
0000
0000
,
1001
0000
0000
0000
,
0010
0000
0000
0000
,
0110
0000
0000
0000
,
1000
0000
0000
0000
,
0110
0000
0000
0000
,
0001
0000
0000
0000
;

//--------------- dance-single - forcednature ----------------
#NOTEDATA:;
#STEPSTYPE:dance-single;
#DESCRIPTION:forcednature;
#DIFFICULTY:Easy;
#METER:6;
#RADARVALUES:0,0,0,0,0;
#CREDIT:forcednature;
#CREDIT:forcednature;
#NOTES:
0000
0000
0000
0000
,
0000
0000
0000
0000
,
0000
0000
0000
0000
,
0000
0000
0000
0000
,
0000
0000
0000
0000
,
1000
0000
0001
0000
,
0100
0001
0100
0000
,
0010
1000
0001
0000
,
1000
0100
1000
0000
,
0100
0010
0001
1000
,
0001
0100
0010
0000
,
1000
0001
0010
0000
,
0100
1000
0001
0000
,
0100
0000
0000
0100
0000
0000
0100
0000
,
0010
0000
0010
1000
,
0000
1000
0001
0000
,
0010
0000
0010
0001
,
0000
0001
1000
0000
,
0010
0000
0100
0001
,
0000
0001
1000
0000
,
0010
0000
0100
0100
,
0001
0000
0000
0001
0000
0000
0010
0000
,
0100
1000
0100
1000
,
0010
1000
0010
0000
,
0100
0001
0100
0001
,
0010
0001
0010
0000
,
0100
1000
0100
1000
,
0001
0100
0001
0000
,
0010
0001
0010
0001
,
1000
0010
1000
0000
,
0200
0000
1000
1000
,
1300
0000
0100
0000
,
0020
0000
0001
0001
,
0031
0000
0010
0000
,
0002
0000
0100
0100
,
0103
0000
0001
0000
,
2000
0000
0010
0010
,
3010
0000
1000
0000
,
0001
0000
0000
0001
0000
0000
0001
0000
,
0000
1001
0000
1000
,
0100
1000
0000
0001
,
0100
0001
0000
0010
,
0110
0000
0100
1000
,
0001
1000
0010
0000
,
1001
0000
0001
0100
,
0010
1000
0001
0000
,
1000
0100
1000
0100
,
0010
0001
1000
0000
,
0001
0010
0001
0000
,
1000
0010
1000
0000
,
0110
0000
1000
0001
,
0100
0010
1000
0000
,
1001
0000
0001
1000
,
0100
0010
0001
0000
,
1000
0010
1000
0010
,
0100
0000
0000
0100
0000
0000
0100
0000
,
0001
0000
0010
0001
,
0010
0000
0100
0000
,
1000
0000
0010
1000
,
0010
0000
0100
0010
,
0100
0000
0001
0100
,
0001
0000
1000
0000
,
0100
0000
0010
0100
,
0010
0000
0000
0010
0000
0000
0001
0000
,
2002
0000
3003
0000
,
0010
0000
0000
0010
0000
0000
0000
0000
,
2002
0000
3003
0000
,
0100
0000
0000
0100
0000
0000
0000
0000
,
0002
0000
0023
0000
,
0230
0000
2300
0000
,
3001
0100
0001
0100
,
0010
0000
0000
1000
,
0100
1000
0000
0001
,
0100
0001
0000
0010
,
0110
0000
1000
0001
,
0100
0010
1000
0000
,
1001
0000
0001
1000
,
0100
0010
0001
0000
,
1000
0010
1000
0010
,
0100
0000
0000
0100
0000
0000
0002
0000
,
0003
0000
0000
0000
;

//--------------- dance-single - forcednature ----------------
#NOTEDATA:;
#STEPSTYPE:dance-single;
#DESCRIPTION:forcednature;
#DIFFICULTY:Medium;
#METER:10;
#RADARVALUES:0,0,0,0,0;
#CREDIT:forcednature;
#CREDIT:forcednature;
#NOTES:
0000
0000
0000
0000
,
0000
0000
0000
0000
,
0000
0000
0000
0000
,
0000
0000
0000
0000
,
0100
0000
0000
0100
0000
0000
0100
0000
0000
0100
0000
0000
0100
0000
0000
0000
,
0010
0000
0010
0000
0100
0100
0100
0000
,
1001
1000
0010
0100
,
0001
0010
0100
0000
1000
0100
0010
0000
,
0001
0100
0010
1000
,
0001
0000
0000
1000
0000
0000
0001
0000
0000
1000
0000
0000
0100
0000
0000
0000
,
0110
0010
0001
1000
,
0010
0100
0001
0000
0010
0100
1000
0000
,
0001
0100
0010
1000
,
0100
0000
0000
0100
0000
0000
0100
0000
0000
0010
0000
0000
0001
0000
1000
0000
,
0000
0010
0100
0000
0110
0000
1001
0000
,
0000
0100
0010
0000
0110
0000
1001
0000
,
1000
0100
0001
0000
0100
0000
1000
0000
,
0001
0100
1000
0000
0100
0000
0001
0000
,
0000
1000
0001
0000
0110
0000
1001
0000
,
0000
0001
1000
0000
0110
0000
1001
0000
,
1000
0010
0001
0000
0010
0000
1000
0000
,
0001
0000
0000
0001
0000
0000
0001
0000
0000
0000
0010
0000
0100
0000
0000
0000
,
1000
0001
1000
0000
1010
0000
0101
0000
,
0001
0010
0110
1001
,
1000
0100
1000
0000
0001
0100
0001
0000
,
1000
0010
0100
0001
0010
0100
1000
0000
,
0001
0010
0001
0000
0101
0000
1010
0000
,
0100
0010
0110
1001
,
0001
0000
0100
0000
0010
1000
0001
0000
,
0010
0000
0000
0010
0000
0000
0010
0000
0000
0000
0100
0000
1000
0000
0000
0000
,
2001
0001
0001
0001
,
0100
0100
3100
0000
,
1002
1000
1000
1000
,
0100
0100
0103
0000
,
2001
0001
0001
0001
,
0010
0010
3010
0000
,
1002
1000
1000
1000
,
0010
0010
0013
0000
,
0100
0000
0000
0100
0000
0000
0100
0000
0000
0100
0000
0000
0010
0000
1000
0000
,
0001
0000
2002
0000
3003
1000
0100
0010
,
0000
0110
0000
1100
0000
0001
0100
0010
,
0000
1001
0000
1010
0000
0000
0100
0001
,
0100
0000
0010
1000
0010
0000
1000
0000
,
0001
0010
0100
1000
0100
0010
0001
0000
,
0100
0100
0100
0000
0010
0010
0010
0000
,
1000
0001
0010
0001
1000
0000
0010
0000
,
0100
0000
0001
0000
1000
0100
0010
0000
,
0100
1000
0001
0100
0000
0010
1000
0001
,
0000
0011
0000
1100
0000
1000
0010
0100
,
0000
0110
0000
1001
0000
0001
0010
0000
,
0100
1000
0100
0000
0010
0001
0010
0000
,
0001
1000
0010
0100
0001
1000
0100
0000
,
0010
0010
0010
0000
0100
0100
0100
0000
,
1000
0001
0100
0010
0000
1000
0001
0000
,
1000
0100
1000
0001
0100
0000
0001
0000
,
0010
0000
0100
1000
0000
0001
0100
0000
,
0010
0000
0100
0000
0010
1000
0001
0000
,
0010
0100
0010
1001
,
0001
0000
0100
0000
0010
1000
0001
0000
,
0010
0000
0000
0010
0000
0000
0010
0000
0000
0100
0000
0000
1000
0000
0000
0000
,
0001
0000
0100
0000
0010
1000
0001
0000
,
1000
0000
0100
0000
0010
0001
0011
0000
,
1000
0000
0010
0000
0100
0001
1000
0000
,
0100
0000
0000
0100
0000
0000
0100
0000
0000
0010
0000
0000
0001
0000
0000
0000
,
0202
0000
0000
0303
,
1000
0000
0000
1000
0000
0000
1100
0000
0000
0000
0000
0000
0000
0000
0000
0000
,
2200
0000
0000
3300
,
0001
0000
0000
0001
0000
0000
0101
0000
0000
0000
0000
0000
0000
0000
0000
0000
,
2000
0100
0001
0010
,
0001
0100
0001
0010
,
3001
1000
0001
0000
1000
0001
1000
0000
,
0010
0000
0000
0010
0000
0000
0010
0000
0000
0000
0100
0000
0001
0000
0010
0000
,
0000
0110
0000
1001
0000
0100
1000
0010
,
0000
0110
0000
1001
0000
1000
0010
0000
,
0100
0001
0100
0000
0010
1000
0010
0000
,
1000
0100
0010
0001
0100
0010
1000
0000
,
0001
0001
0001
0000
1000
1000
1000
0000
,
0010
0100
0001
1000
0100
0010
0100
0000
,
1000
0010
1000
0001
0000
0010
0001
0000
,
1001
0000
0000
0110
0000
0100
2002
0000
,
3003
0000
0000
0000
;

//--------------- dance-single - forcednature ----------------
#NOTEDATA:;
#STEPSTYPE:dance-single;
#DESCRIPTION:forcednature;
#DIFFICULTY:Hard;
#METER:14;
#RADARVALUES:0,0,0,0,0;
#CREDIT:forcednature;
#CREDIT:forcednature;
#NOTES:
0000
0000
0000
0000
,
0000
0000
0000
0000
,
0000
0000
0000
0000
,
0000
0000
0000
0000
,
1100
0000
0000
0001
0000
0000
0101
0000
0000
1000
0000
0000
1001
0000
0000
0000
,
1000
0001
1000
0100
0010
0010
0001
0001
,
0100
0000
0000
0100
0001
0000
0100
0000
0000
0100
0001
0000
0010
0000
0010
0000
,
0100
0000
0000
0100
1000
0000
0100
0000
0000
0100
1000
0000
1001
0000
0000
0000
,
1000
0000
0000
1000
0010
0000
1000
0000
0000
1000
0010
0000
0100
0000
0001
0000
,
0011
0000
0000
0100
0000
0000
1010
0000
0000
0100
0000
0000
0001
1000
0001
0000
,
1000
0000
0000
0001
0100
0000
0001
0000
0000
1000
0100
0000
1000
0000
0001
0000
,
1000
0000
0000
0001
0010
0000
0001
0000
0000
1000
0010
0000
1001
0000
0000
0000
,
1000
0000
0000
0100
0010
0000
0001
0000
0000
0100
0010
0000
1000
0000
0001
0000
,
0110
0000
0000
0100
0000
0000
1001
0000
0000
0010
0000
0000
1001
0000
0000
0000
,
1000
0100
0001
0100
1000
0000
1010
0000
,
0001
0100
1000
0100
0001
0000
0011
0000
,
1000
0100
0010
0000
0001
0100
0010
0000
,
1000
1000
0001
0001
0010
0100
0010
0000
,
0001
0100
0010
1000
0001
0000
0110
0000
,
1000
0100
0010
0001
1000
0000
0110
0000
,
0001
0100
1000
0000
0001
0010
1000
0000
,
1001
0000
0000
1001
0000
0000
1001
0000
0000
0000
1000
0000
0100
0000
0010
0000
,
0001
0100
0001
0100
0010
1000
0001
0000
,
1000
0100
0010
0000
0110
0000
0110
0000
,
0100
1000
0001
0100
0001
1000
0100
0000
,
0010
0001
1000
0010
1000
0001
0010
0000
,
0100
1000
0001
0100
0010
1000
0001
0000
,
0010
0100
1000
0000
1001
0000
1001
0000
,
0001
0100
0001
0010
0100
0010
0001
0000
,
1001
0000
0000
1001
0000
0000
1001
0000
0000
1000
0000
0000
0010
0000
0100
0000
,
0002
0100
1000
0100
,
1000
0000
0100
0000
1003
0001
0100
0010
,
2000
0100
0001
0100
,
3001
1000
0010
1000
0001
0010
0100
0000
,
2001
0100
0001
0100
,
0001
0000
0100
0000
3001
1000
0100
0010
,
0002
0100
1000
0100
,
1003
0001
0100
0010
1000
0001
0010
0000
,
0110
0000
0000
0110
0000
0000
1001
0000
0000
1001
0000
0000
0100
0000
0010
0000
,
0100
0000
2002
0000
3003
0001
0100
1000
,
0100
0010
1000
1001
0000
1000
0100
0001
,
0100
0010
0001
1001
0000
0100
0010
0000
,
1001
0000
0001
0100
0010
1000
0100
0010
,
1000
0000
0010
0000
0001
0000
1000
0000
0001
0100
0001
0100
0010
0000
0000
0000
,
1100
1100
0011
0011
,
0001
0100
0010
1000
0010
0100
0001
0000
,
1000
0010
0100
1000
0100
0001
0010
0100
,
1000
0000
0000
1000
0100
0010
0001
0000
0100
0000
0010
0000
1000
0001
1000
0001
,
1000
0010
0100
0101
0000
0001
0010
0100
,
0010
0001
0100
0110
0000
1000
0001
0000
,
0110
0000
0001
0100
1000
0100
0001
0010
,
1000
0000
0010
0000
0001
0000
0100
0000
0010
1000
0010
1000
0001
0000
0000
0000
,
1010
1010
0101
0101
,
0001
0010
1000
0010
0001
1000
0010
0000
,
0100
0000
0001
0000
0100
0000
1000
0000
0100
0000
0010
0000
1000
0001
1000
0001
,
1000
0000
0000
0001
0100
0010
1000
0000
0100
0000
0010
0000
0001
1000
0001
1000
,
0001
0000
0000
0001
0100
0000
0010
0000
0000
0010
1000
0000
0100
0000
0100
0000
,
1000
0000
0000
1000
0100
0000
0010
0000
0000
0010
0001
0000
1001
0000
0000
0000
,
0001
0000
0000
1000
0010
0000
1000
0000
0000
0001
0010
0000
0100
0000
0010
0000
,
0011
0000
0000
0100
0000
0000
1010
0000
0000
0100
0000
0000
1000
0001
1000
0000
,
1001
0000
0000
0010
0001
0000
0100
0000
0000
0010
1000
0000
0001
0000
1000
0000
,
0010
0000
0000
1000
0100
0000
0010
0000
0000
0001
0100
0000
0010
0000
0000
0000
,
1001
0000
0000
0001
0100
0000
0010
0000
0000
1000
0100
0000
0010
0000
0100
0000
,
0110
0000
0000
1001
0000
0000
0110
0000
0000
1001
0000
0000
0010
0000
0100
0000
,
2002
0000
0000
3003
,
1100
0000
0000
1001
0000
0000
0011
0000
0000
0000
0000
0000
0000
0000
0000
0000
,
2002
0000
0000
3003
,
0101
0000
0000
1001
0000
0000
1010
0000
0000
0000
0000
0000
0000
0000
0000
0000
,
2000
0100
0001
0010
,
3002
0100
1000
0010
,
0103
0001
0010
0001
1000
0100
1000
0010
,
0100
0000
0000
0100
0000
0000
0100
0000
0000
0000
0010
0000
1000
0000
0001
0000
,
0010
1000
0010
0110
0000
0001
1000
0001
,
0100
1000
0100
0110
0000
0100
0010
0000
,
1001
0000
1000
0100
1000
0010
0100
0001
,
0010
0000
1000
0000
0010
0000
0001
0000
1000
0100
1000
0100
0010
0000
0000
0000
,
0101
1001
1100
1001
,
0001
0100
1000
0100
0010
1000
0001
0000
,
0010
0000
0010
0000
0001
0000
0001
0000
0100
0000
0100
0000
0001
1000
0001
1000
,
0001
0000
0000
0110
0000
0010
2002
0000
,
3003
0000
0000
0000
;

//--------------- dance-single - forcednature ----------------
#NOTEDATA:;
#STEPSTYPE:dance-single;
#DESCRIPTION:forcednature;
#DIFFICULTY:Challenge;
#METER:16;
#RADARVALUES:0,0,0,0,0;
#CREDIT:forcednature;
#CREDIT:forcednature;
#NOTES:
0000
0000
0000
0000
,
0000
0000
0000
0000
,
0000
0000
0000
0000
,
0000
0000
0000
0000
,
1100
0000
0000
1001
0000
0000
0101
0000
0000
1001
0000
0000
0110
0000
1000
0001
,
1000
0100
0010
0001
0100
0100
0010
0010
,
1000
0100
0000
1000
0100
0000
1000
0100
0000
1000
0100
0000
0010
0000
0010
0000
,
0001
0100
0000
0001
0100
0000
0001
0100
0000
0001
0100
0000
1001
0000
0000
0000
,
0001
0010
0000
0001
0010
0000
0001
0010
0000
0001
0010
0000
0100
0000
0100
0000
,
1000
0010
0000
1000
0001
0000
1000
0100
0000
1000
0001
0000
0100
0000
0010
0000
,
1000
0100
0000
0010
0001
0000
1000
0100
0000
0010
0001
0000
1000
0000
1000
0000
,
0001
0100
0000
0010
1000
0000
0001
0100
0000
0010
1000
0000
1001
0000
0000
0000
,
1000
0001
0000
0100
0010
0000
1000
0001
0000
0010
0100
0000
1000
0000
0001
0000
,
1001
0000
0000
0110
0000
0000
0001
1000
0000
1000
0001
0000
0110
0000
0000
0000
,
0001
1000
0010
1000
0100
0000
0110
0000
,
1000
0001
0010
0001
0100
0000
0110
0000
,
0001
1000
0100
0100
1000
0001
0100
0000
,
0010
0010
0010
1000
0100
0010
0001
0000
,
0100
0001
1000
0001
0010
0000
1001
0000
,
0100
1000
0001
1000
0010
0000
1001
0000
,
1000
0001
0010
0100
0010
0001
0100
0000
,
0110
0000
0000
0110
0000
0000
0001
1000
0000
0000
1000
0010
1000
0010
1000
0001
,
0010
0010
0010
0001
0100
0000
0110
0000
,
1000
0100
0010
0100
2000
3000
2000
3000
,
0001
0100
0001
0001
1000
0010
1000
1000
,
0001
0100
0010
1000
0010
0100
0001
0000
,
1000
1000
1000
0010
0100
0000
0011
0000
,
0001
0100
0010
0100
0002
0003
0002
0003
,
1000
0100
1000
1000
0001
0010
0001
0001
,
0100
0000
0000
0110
0000
0000
1000
0000
0001
1000
0001
1000
0001
0000
1000
0100
,
0020
0001
0100
1000
,
0100
0001
0100
1000
,
0230
1000
0010
0001
,
0310
0000
0100
0000
1000
0000
1000
0000
0010
0000
0100
0000
0001
1000
0000
0000
,
2001
0100
0001
0010
,
0001
0100
0001
0010
,
3002
0000
0000
0000
0100
0000
0000
0000
1000
0000
0000
0000
0010
0003
0010
0001
,
1000
0000
0001
0000
0100
0000
0010
0000
1000
0001
1000
0001
0010
0100
0010
0000
,
1001
0000
0000
1001
0000
0000
1001
0000
0000
1001
0000
0000
0100
0000
0100
0000
,
0110
0000
0000
0000
2002
0000
0000
0000
3003
0000
0001
0000
1000
0001
1000
0001
,
1000
0000
0100
0000
0001
0000
0100
0000
0010
0001
0010
0000
0100
1000
0100
0000
,
0010
0000
0001
0000
1000
0000
0010
0000
0100
0001
0100
0000
0010
1000
0010
0000
,
1000
0001
1000
0000
0100
0000
0010
0000
0001
1000
0001
0000
0100
0000
0010
0000
,
1000
0000
0001
0000
0100
0000
0001
0000
1000
0100
0010
0001
0100
0000
0010
0000
,
1010
1000
1001
0000
0011
0001
1001
0000
,
0001
0100
0010
1000
0100
0010
0110
0000
,
1000
0001
0100
1000
0100
0001
0011
0000
,
0010
0000
0001
1000
0001
0010
0100
0000
0010
0001
0010
0000
0100
1000
0100
1000
,
0010
0000
0100
0000
0001
0000
0010
0000
0001
0100
0001
0000
1000
0010
1000
0000
,
0100
0000
0010
0000
0100
0000
1000
0000
0001
0010
0001
0000
1000
0100
1000
0000
,
0001
0100
0001
0000
1000
0000
0010
0000
1000
0100
1000
0000
0001
0000
0010
0000
,
0001
0000
0100
0000
1000
0000
0100
0000
0001
0100
0010
1000
0001
0000
1000
0000
,
1100
1000
1010
0000
0101
0001
0011
0000
,
1000
0100
0001
0100
0010
0010
1001
0000
,
0001
0100
0001
0100
0010
0000
1000
0000
1000
0100
1000
0100
0010
0000
0001
0000
,
0100
0000
0001
1000
0001
0100
0010
0000
1000
0100
1000
0100
0010
0001
0010
0001
,
0100
0001
0000
1000
0001
0000
0010
0001
0000
1000
0001
0000
1000
0000
0001
0000
,
1000
0100
0000
1000
0001
0000
1000
0010
0000
1000
0001
0000
1001
0000
0000
0000
,
0001
0100
0000
0010
0100
0000
0010
1000
0000
0001
1000
0000
0100
0000
0100
0000
,
1000
0100
0000
0010
0100
0000
0010
0001
0000
1000
0001
0000
0100
0000
0010
0000
,
1000
0100
0000
0010
0100
0000
0001
0100
0000
0010
0001
0000
1000
0000
1000
0000
,
0001
0100
0000
0010
0100
0000
1000
0100
0000
0010
1000
0000
1001
0000
0000
0000
,
1000
0010
0000
0100
0001
0000
1000
0100
0000
0010
0001
0000
0100
0000
0010
0000
,
0110
0000
0000
0110
0000
0000
0001
1000
0000
0110
0000
0000
0100
0010
0100
0000
,
2002
0000
0000
0000
0000
0000
3003
0100
,
0110
0000
0000
0110
0000
0000
0220
0000
0000
0000
0000
0000
0330
0000
0000
0000
,
0220
0000
0000
0330
,
1001
0000
0000
1001
0000
0000
2002
0000
0000
0000
0000
0000
3003
0000
0000
0000
,
2000
0100
0001
0010
,
3002
0100
1000
0010
,
1003
0000
0100
0000
0010
0000
0001
0000
1000
0010
1000
0010
0100
0001
0100
0001
,
2000
0000
0000
0001
0000
0000
3001
0000
0000
0000
1000
0000
0001
0010
0100
1000
,
0010
0000
0100
0000
0001
0000
1000
0000
0100
0010
0001
0000
0100
0010
1000
0000
,
0001
0000
0100
0000
1000
0000
0100
0000
0010
1000
0001
0000
0010
0001
1000
0000
,
0001
0100
0001
0000
1000
0000
0100
0000
1000
0010
1000
0000
0001
0000
0010
0000
,
0100
0000
0001
0000
0100
0000
1000
0000
0001
0100
0010
1000
0001
0000
0010
0000
,
0110
0100
1001
0000
1001
0010
0110
0000
,
1000
0001
0100
1000
0001
0010
0110
0000
,
1000
0100
0010
0000
0001
0000
1000
0000
0001
0100
0010
0000
1000
0000
0001
0000
,
0110
0000
1000
0100
0010
0001
0100
0000
0000
0000
0010
1000
0001
1000
0100
0010
,
0001
0000
0000
0000
;

//--------------- dance-double - forcednature ----------------
#NOTEDATA:;
#STEPSTYPE:dance-double;
#DESCRIPTION:forcednature;
#DIFFICULTY:Easy;
#METER:7;
#RADARVALUES:0,0,0,0,0;
#CREDIT:forcednature;
#CREDIT:forcednature;
#NOTES:
00000000
00000000
00000000
00000000
,
00000000
00000000
00000000
00000000
,
00000000
00000000
00000000
00000000
,
00000000
00000000
00000000
00000000
,
00000000
00000000
00000000
00000000
,
00001000
00000000
00010000
00000000
,
00000100
00001000
00000100
00000000
,
00001000
00000100
00000010
00000000
,
00000001
00000010
00000001
00000000
,
00001000
00000001
00000100
00000000
,
00000010
00001000
00000010
00000000
,
00001000
00000010
00010000
00000000
,
00001000
00010000
00001000
00000000
,
00100000
00000000
00000000
00100000
00000000
00000000
00100000
00000000
,
01000000
00000000
01000000
10000000
,
00000000
10000000
00100000
00000000
,
01000000
00000000
01000000
00010000
,
00000000
00010000
00100000
00000000
,
00001000
00000000
00001000
00010000
,
00000000
00010000
00000010
00000000
,
00001000
00000000
00001000
00001000
,
00000100
00000000
00000000
00000100
00000000
00000000
00000010
00000000
,
00000001
00000001
00000001
00000000
,
00000100
00000010
00000100
00000000
,
00000010
00001000
00000010
00000000
,
00010000
00001000
00010000
00000000
,
00001000
00001000
00001000
00000000
,
00100000
00010000
00100000
00000000
,
01000000
00100000
01000000
00000000
,
10000000
01000000
10000000
00000000
,
00020000
00000000
10000000
10000000
,
10030000
00000000
00010000
00000000
,
02000000
00000000
00001000
00001000
,
03001000
00000000
01000000
00000000
,
00002000
00000000
00010000
00010000
,
00013000
00000000
00001000
00000000
,
00020000
00000000
00000100
00000100
,
00030100
00000000
00010000
00000000
,
00000010
00000000
00000000
00000010
00000000
00000000
00000010
00000000
,
00000000
00001001
00000000
00001000
,
00000100
00001000
00000000
00000100
,
00010000
00000100
00000000
00010000
,
00001000
00000000
01000000
00010000
,
01000000
00100000
10000000
00000000
,
10010000
00000000
00010000
00100000
,
00001000
00010000
00001000
00000000
,
00010000
00000010
00010000
00000010
,
00001000
00000001
00001000
00000000
,
00000100
00001000
00000100
00000000
,
00010000
00001000
00010000
00000000
,
00011000
00000000
00001000
01000000
,
00010000
01000000
00100000
00000000
,
10010000
00000000
10000000
01000000
,
00100000
00010000
00100000
00000000
,
00001000
00010000
00001000
00010000
,
00000010
00000000
00000000
00000010
00000000
00000000
00000010
00000000
,
00001000
00000000
00001000
00000100
,
00001000
00000000
00001000
00000000
,
00000001
00000000
00000001
00001000
,
00000001
00000000
00000001
00000000
,
00000010
00000000
00000010
00000100
,
00000010
00000000
00000010
00000000
,
00000100
00000000
00000100
00001000
,
00000100
00000000
00000000
00000100
00000000
00000000
00000000
00000000
,
00022000
00000000
00033000
00000000
,
00010000
00000000
00000000
00001000
00000000
00000000
00000000
00000000
,
00022000
00000000
00033000
00000000
,
00001000
00000000
00000000
00010000
00000000
00000000
00000000
00000000
,
00002000
00000000
02003000
00000000
,
03020000
00000000
20030000
00000000
,
31000000
00100000
01000000
00100000
,
00010000
00000000
00000000
01000000
,
00010000
01000000
00000000
00001000
,
00010000
00001000
00000000
00010000
,
00000100
00000000
00001000
00000001
,
00000100
00000010
00001000
00000000
,
00001001
00000000
00001000
00000100
,
00010000
00001000
00010000
00000000
,
00001000
01000000
00001000
01000000
,
00010000
00000000
00000000
00010000
00000000
00000000
00200000
00000000
,
00300000
00000000
00000000
00000000
;

//--------------- dance-double - forcednature ----------------
#NOTEDATA:;
#STEPSTYPE:dance-double;
#DESCRIPTION:forcednature;
#DIFFICULTY:Medium;
#METER:11;
#RADARVALUES:0,0,0,0,0;
#CREDIT:forcednature;
#CREDIT:forcednature;
#NOTES:
00000000
00000000
00000000
00000000
,
00000000
00000000
00000000
00000000
,
00000000
00000000
00000000
00000000
,
00000000
00000000
00000000
00000000
,
00011000
00000000
00000000
00011000
00000000
00000000
00011000
00000000
00000000
00011000
00000000
00000000
00011000
00000000
00000000
00000000
,
00001000
00000000
00010000
00000000
01000000
10000000
01000000
00000000
,
00100000
00000000
00000000
00001000
00000000
00000000
00010000
00000000
00000000
00100000
00000000
00000000
01000000
00000000
00000000
00000000
,
00001000
00000000
00000000
00010000
00000000
00000000
00000100
00000000
00000000
00001000
00000000
00000000
00000001
00000000
00000000
00000000
,
00000100
00000000
00000000
00000010
00000000
00000000
00010000
00000000
00000000
00001000
00000000
00000000
00100000
00000000
00001000
00000000
,
00010000
00000000
00000000
00100000
00000000
00000000
10000000
00000000
00000000
00010000
00000000
00000000
10000000
00000000
01000000
00000000
,
00100000
00000000
00000000
00001000
00000000
00000000
00010000
00000000
00000000
00000100
00000000
00000000
00001000
00000000
00000010
00000000
,
00000100
00000000
00000000
00000001
00000000
00000000
00000010
00000000
00000000
00000100
00000000
00000000
00001000
00000000
00000000
00000000
,
00000010
00000000
00000000
00000100
00000000
00000000
00001000
00000000
00000000
00010000
00000000
00000000
01000000
00000000
00100000
00000000
,
00010000
00000000
00000000
10000000
00000000
00000000
10010000
00000000
00000000
10000000
00000000
00000000
00100000
00000000
10000000
00000000
,
01000000
00100000
00010000
00000000
01010000
00000000
01001000
00000000
,
00001000
00010000
00000100
00000000
00001100
00000000
00000110
00000000
,
00000010
00000001
00001000
00000001
,
00000100
00001000
00010000
00000000
00100000
00010000
00001000
00000000
,
00010000
01000000
00100000
00000000
00010000
00000000
10010000
00000000
,
10000000
00100000
00010000
00000000
00001000
00000000
00011000
00000000
,
00000100
00001000
00000010
00000000
00010000
00000000
00001000
00000000
,
01010000
00000000
00000000
01010000
00000000
00000000
01010000
00000000
00000000
00000000
10000000
00000000
01000000
00000000
00000000
00000000
,
00100000
00001000
00010000
00000100
00001000
00000000
00001001
00000000
,
00000001
00000100
00001000
00000000
00011000
00000000
00011000
00000000
,
00100000
00010000
01000000
00000000
00001000
00010000
00000010
00000000
,
00001000
00000100
00000001
00000100
00001000
00000001
00000100
00000000
,
00000010
00010000
00001000
01000000
00010000
00000000
10010000
00000000
,
10000000
01000000
00010000
00000000
00011000
00000000
00011000
00000000
,
00000100
00001000
00000100
00000000
00010000
00001000
01000000
00000000
,
00100000
00000000
00000000
01000000
00000000
00000000
01100000
00000000
00000000
00010000
00000000
00000000
10000000
00000000
01000000
00000000
,
00200000
10000000
01000000
00010000
,
01000000
00000000
10000000
00000000
01000000
00000000
00310000
00100000
,
00001000
00010000
00000010
00001000
,
00000001
00000100
00000001
00000000
00001000
00000100
00001000
00000000
,
00000020
00000001
00000100
00001000
,
00000100
00000000
00000001
00000000
00000100
00000000
00001030
00000010
,
00010000
00000000
00001000
00100000
00010000
00000000
01000000
00000000
,
00001000
00010000
00001000
00000000
00100000
00010000
01000000
00000000
,
00001000
00000000
00000000
00011000
00000000
00000000
00010000
00000000
00000000
00011000
00000000
00000000
00000100
00000000
00001000
00000000
,
00000010
00000000
00000220
00000000
00000330
00000100
00000001
00001000
,
00000100
00000010
00000001
00000100
00000000
00000010
00010000
00001000
,
01000000
00001000
00010000
00000010
00000000
00010000
00001000
00000000
,
00101000
00000000
00001000
00010000
00000000
00100000
01000000
00000000
,
00010000
10000000
01000000
00100000
00010000
01000000
00001000
00000000
,
00020200
00030300
02002000
03003000
,
00001000
00010000
00000100
00001000
00000001
00000100
00000010
00000000
,
00001000
00000100
00010000
00001000
01000000
00010000
00100000
00000000
,
01000000
10000000
00010000
01000000
00100000
10000000
00010000
00000000
,
00100000
01000000
00010000
00001000
00000000
00000010
00000100
00001000
,
00000001
00000100
00000010
00001000
00000000
00010000
01000000
00000000
,
01100000
00000000
00100000
10000000
00000000
00010000
10000000
00000000
,
01000000
00100000
00010000
01000000
00001000
00010000
00000100
00000000
,
00020020
00030030
00202000
00303000
,
00001000
00010000
00000100
00001000
00000010
00000100
00000001
00000000
,
00000010
00000100
00010000
00001000
01000000
00010000
10000000
00000000
,
10010000
00000000
01100000
00000000
10000000
01000000
00010000
00000000
,
00001000
00000000
00000000
00010000
00000000
00000000
00000100
00000000
00000000
00001000
00000000
00000000
00000010
00000000
00000000
00000000
,
00010000
00000000
00000000
00001000
00000000
00000000
00000010
00000000
00000000
00000100
00000000
00000000
00001000
00000000
00000000
00000000
,
00000001
00000000
00000000
00000100
00000000
00000000
00001000
00000000
00000000
00010000
00000000
00000000
00100000
00000000
01000000
00000000
,
00010000
00000000
00000000
10000000
00000000
00000000
01000000
00000000
00000000
00100000
00000000
00000000
01000000
00000000
10000000
00000000
,
00010000
00000000
00000000
01000000
00000000
00000000
00001000
00000000
00000000
00010000
00000000
00000000
00000100
00000000
00000000
00000000
,
00001000
00000000
00000000
00000001
00000000
00000000
00000100
00000000
00000000
00000010
00000000
00000000
00010000
00000000
00000000
00000000
,
00001000
00000000
00000000
00100000
00000000
00000000
00010000
00000000
00000000
01000000
00000000
00000000
00100000
00000000
00010000
00000000
,
00100000
00000000
00000000
01100000
00000000
00000000
10010000
00000000
00000000
00010000
00000000
00000000
10000000
00000000
00000000
00000000
,
02002000
00000000
00000000
03003000
,
00010010
00000000
00000000
00010010
00000000
00000000
00010010
00000000
00000000
00000000
00000000
00000000
00000000
00000000
00000000
00000000
,
00020200
00000000
00000000
00030300
,
00101000
00000000
00000000
00101000
00000000
00000000
00201000
00000000
00000000
00000000
00000000
00000000
00000000
00000000
00000000
00000000
,
00320000
01000000
10000000
00100000
,
00032000
00000100
00000001
00000010
,
00013000
01000000
00100000
00000000
10000000
01000000
00100000
00100000
,
00001000
00000000
00000000
00001000
00000000
00000000
00001000
00000000
00000000
00000000
00000100
00000000
00000001
00000000
00000010
00000000
,
00000100
00001000
00000010
00010000
00000000
00001000
00100000
00001000
,
00010000
00100000
01000000
00010000
00000000
10000000
01000000
00000000
,
01100000
00000000
00100000
00001000
00000000
00010000
00000100
00000000
,
00001000
00000001
00000100
00001000
00010000
01000000
10000000
00000000
,
20200000
30300000
02020000
03030000
,
00010000
00100000
00001000
00010000
00000100
00001000
00000010
00000000
,
00010000
00001000
00000010
00000100
00001000
00000001
00000100
00000000
,
00000110
00000000
00001000
00010000
00000000
01100000
02200000
00000000
,
03300000
00000000
00000000
00000000
;

//--------------- dance-double - forcednature ----------------
#NOTEDATA:;
#STEPSTYPE:dance-double;
#DESCRIPTION:forcednature;
#DIFFICULTY:Hard;
#METER:15;
#RADARVALUES:0,0,0,0,0;
#CREDIT:forcednature;
#CREDIT:forcednature;
#NOTES:
00000000
00000000
00000000
00000000
,
00000000
00000000
00000000
00000000
,
00000000
00000000
00000000
00000000
,
00000000
00000000
00000000
00000000
,
00001000
00000000
00000000
00010000
00000000
00000000
01000000
00000000
00000000
00010000
00000000
00000000
00002000
00000000
00000000
00000000
,
00103000
00010000
00100000
01000000
10000000
00100000
00010000
00000000
,
00001000
00000100
00000001
00000100
00000010
00001000
00000001
00000000
,
00000010
00001000
00010000
00000000
00011000
00000000
01002000
00000000
,
01003000
00010000
00100000
01000000
10000000
00100000
00010000
00000000
,
00001000
00000100
00000001
00000000
00000100
00001000
00010000
00000000
,
00100000
01000000
00010000
10000000
00100000
10000000
01000000
00000000
,
00010000
00001000
00100000
00000000
00101000
00000000
00020100
00000000
,
00030100
00001000
00000010
00010000
00001000
00000010
00000001
00000000
,
00000100
00000000
00000000
00000110
00000000
00000000
00001001
00000000
00000000
00000010
00000000
00000000
00000110
00000000
00000000
00000000
,
00000001
00000100
00001000
00010000
00100000
00000000
01100000
00000000
,
10000000
01000000
00010000
00001000
00000010
00000000
00000110
00000000
,
00000100
00010000
00000010
00001000
00000001
00000100
00000010
00010000
,
00001000
00000000
00100000
00000000
00010000
00000000
00100000
00000000
01000000
10000000
01000000
10000000
00020000
00000000
00000000
00000000
,
01030000
00001000
00100000
00010000
01000000
00100000
00010000
00001000
,
00100000
00001000
00000010
00000100
00001000
00000001
00000010
00000000
,
00000012
00000000
00001000
00000000
00000100
00000000
00001003
00000001
,
00000100
00000000
00000000
00000110
00000000
00000000
00000010
00000000
00010000
00000000
00001000
00000000
01000000
00010000
01000000
00000000
,
00100000
10000000
01000000
00010000
00001000
00010000
01000000
00000000
,
00100000
00001000
00000010
00000000
00000110
00000000
00001001
00000000
,
00000001
00000100
00001000
00010000
01000000
10000000
00200000
00000000
,
10300000
01000000
00010000
00001000
00000100
00000001
00000010
00000000
,
00000010
00000001
00000100
00001000
00010000
00001000
00000100
00000000
,
00000010
00010000
00100000
00000000
01100000
00000000
10010000
00000000
,
10000000
01000000
00010000
00001000
00000100
00000001
00000020
00000000
,
00000130
00000000
00001000
00000000
00000100
00001000
00000100
00000000
00010000
00000000
00001000
00010000
00000100
00000000
00001000
00000000
,
00000020
00000000
00000130
00001000
00010000
00000000
01000000
00000000
,
00200000
00000000
01300000
00010000
00001000
00000000
00000010
00000000
,
00000110
00000000
00000100
00000001
00000020
00000000
00000130
00000000
,
00000010
00001000
00010000
01000000
00010000
00001000
00100000
00000000
,
01200000
00000000
01300000
10000000
00100000
00000000
01100000
00000000
,
10010000
00000000
10000000
01000000
00010000
00000000
00011000
00000000
,
00001000
00100000
00010000
00000000
00100000
00001000
00010000
00000000
,
00000010
00000100
00001000
00010000
00001000
00000100
00000002
00000000
,
00000013
00000000
00000000
00001001
00000000
00000000
00000100
00000000
00000000
00001001
00000000
00000000
00000001
00000000
00000010
00000000
,
00001000
00000000
00000000
00000000
00011000
00000000
00000000
00000000
00010000
00000000
00100000
00000000
10000000
00100000
10000000
00000000
,
00010000
00000000
00100000
00000000
01000000
00000000
00100000
00000000
01000000
10000000
00010000
00000000
00100000
00000000
00001000
00000000
,
00010000
00000000
00000010
00000000
00001000
00000000
00000010
00000000
00000100
00000001
00001000
00000000
00000001
00000000
00000010
00000000
,
00000110
00000000
00000000
00000100
00001000
00000000
00000100
00000000
00010000
00000000
00000000
00001000
00010000
00000000
00001000
00000000
,
00100000
00000000
00010000
00000000
00100000
00010000
10000000
00000000
01000000
10000000
00010000
00000000
01000000
00000000
00001000
00000000
,
00010000
00000000
00000010
00000000
00001000
00000000
00000001
00000000
00000010
00000001
00000010
00000000
00000100
00000000
00001000
00000000
,
00000100
00000000
00010000
00000000
00001000
00000000
01000000
00000000
00010000
01000000
00010000
00000000
10000000
00000000
00100000
00000000
,
01100000
00000000
00000000
01000000
00010000
00000000
00100000
00000000
00001000
00000000
00000000
00010000
00001000
00000000
00010000
00000000
,
00000010
00000000
00001000
00000000
00000010
00000100
00000010
00000100
00000001
00000100
00000001
00000100
00000010
00000000
00001000
00000000
,
00000001
00000000
00000010
00000000
00000100
00000000
00001000
00000000
00000100
00001000
00000100
00000000
00010000
00000000
00001000
00000000
,
01000000
00000000
00010000
00000000
10000000
00000000
00100000
00000000
01000000
00100000
01000000
00000000
00010000
00000000
10000000
00000000
,
11000000
00000000
00000000
01000000
00010000
00000000
00001000
00000000
00010000
00000000
00000000
00000100
00001000
00000000
00000100
00000000
,
00010000
00000000
00001000
00000000
01000000
00010000
01000000
00010000
01000000
00100000
01000000
00100000
10000000
00000000
00010000
00000000
,
00100000
00000000
01000000
00000000
10000000
00000000
01000000
00000000
00010000
01000000
00010000
00000000
00001000
00000000
00100000
00000000
,
00001000
00000000
00010000
00000000
00000010
00000000
00001000
00000000
00000001
00000100
00000001
00000000
00000010
00000000
00000100
00000000
,
00000110
00000000
00000000
00000010
00000001
00000000
00001000
00000000
00000010
00000000
00000000
00010000
00002000
00000000
00000000
00000000
,
00103000
00000000
00010000
00000000
00100000
00000000
01000000
00000000
10000000
00100000
10000000
00100000
01000000
00010000
10000000
00100000
,
01000000
00010000
00100000
01000000
00010000
00001000
00100000
00000000
,
00001000
00010000
00000010
00000000
00001010
00000000
00000201
00000000
,
00000301
00000010
00001000
00000010
00000100
00010000
00001000
00000000
,
00100000
00001000
00010000
00100000
00010000
00001000
00100000
00000000
,
01000000
10000000
00010000
00100000
01000000
00010000
00000100
00000000
,
00001000
00000001
00000100
00000000
00001010
00000000
00010200
00000000
,
00010300
00001000
00000010
00001000
00010000
00000100
00001000
00000000
,
00000010
00000000
00000000
00000110
00000000
00000000
00000100
00000000
00000000
00001001
00000000
00000000
00000001
00000000
00000010
00000000
,
00002000
00000000
00003000
00000000
,
00011000
00000000
00000000
01001000
00000000
00000000
01010000
00000000
00000000
00000000
00000000
00000000
00000000
00000000
00000000
00000000
,
02200000
00000000
03300000
00000000
,
10100000
00000000
00000000
11000000
00000000
00000000
00110000
00000000
00000000
00000000
00000000
00000000
00000000
00000000
00000000
00000000
,
00001000
00010000
00000010
00000000
00010000
00001000
00100000
00000000
,
00010000
01000000
00001000
00000000
00010000
00000100
00001000
00000000
,
00000010
00000000
00000100
00000000
00001000
00000000
00010000
00000000
00100000
00000000
01000000
00000000
00100000
10000000
00010000
01000000
,
00200000
00000000
00300000
00000000
,
10000000
00000000
01000000
00000000
00100000
00000000
01000000
00000000
00100000
00010000
00100000
00000000
00001000
00000000
00010000
00000000
,
00000010
00000000
00001000
00000000
00000001
00000000
00000100
00000000
00000010
00001000
00000010
00000000
00010000
00000000
00001000
00000000
,
00011000
00000000
00000000
00010000
00000100
00000000
00001000
00000000
00000010
00000000
00000000
00010000
00001000
00000000
00100000
00000000
,
00010000
00000000
01000000
00000000
00100000
10000000
00100000
10000000
00100000
01000000
00100000
01000000
00010000
00000000
10000000
00000000
,
01000000
00000000
00010000
00000000
00001000
00000000
00100000
00000000
00010000
00100000
00010000
00000000
01000000
00000000
00001000
00000000
,
00010000
00000000
00000010
00000000
00001000
00000000
00000100
00000000
00001000
00000100
00001000
00000000
00000001
00000000
00000010
00000000
,
00000001
00000100
00001000
00010000
01000000
10000000
00200000
00000000
,
01300000
00010000
01000000
00010000
10000000
00100000
10000000
00100000
10000000
00000000
01000000
00000000
00010000
00000000
00000000
00000000
,
00011000
00000000
00000000
00000000
;

//--------------- dance-double - forcednature ----------------
#NOTEDATA:;
#STEPSTYPE:dance-double;
#DESCRIPTION:forcednature;
#DIFFICULTY:Challenge;
#METER:16;
#RADARVALUES:0,0,0,0,0;
#CREDIT:forcednature;
#CREDIT:forcednature;
#NOTES:
00000000
00000000
00000000
00000000
,
00000000
00000000
00000000
00000000
,
00000000
00000000
00000000
00000000
,
00000000
00000000
00000000
00000000
,
00011000
00000000
00000000
00011000
00000000
00000000
00011000
00000000
00000000
00011000
00000000
00000000
00001000
00000000
00000010
00000000
,
00000002
00000000
00000203
00000000
00001300
00010000
00100000
00000000
,
01000000
00010000
00000000
01000000
00001000
00000000
00010000
00001000
00000000
01000000
00010000
00000000
10000000
00000000
00100000
00000000
,
10000000
01000000
00000000
00100000
01000000
00000000
00100000
00010000
00000000
00100000
00001000
00000000
00020000
00000000
00000000
00000000
,
00030010
00001000
00000000
00000010
00000100
00000000
00000001
00000100
00000000
00000010
00001000
00000000
00000001
00000000
00000010
00000000
,
00000100
00001000
00000000
00000100
00010000
00000000
00001000
00100000
00000000
00010000
00100000
00000000
00001000
00010000
00001000
00000000
,
01000000
00010000
00000000
01000000
00001000
00000000
00010000
00001000
00000000
00100000
00010000
00000000
00100000
00000000
00001000
00000000
,
00010000
00000010
00000000
00001000
00000010
00000000
00010000
00001000
00000000
00010000
00000100
00000000
00002000
00000000
00000000
00000000
,
00003001
00000100
00000000
00000010
00000100
00000000
00000010
00010000
00000000
00001000
00010000
00000000
00000100
00001000
00000100
00000000
,
00010000
00000000
00000000
00011000
00000000
00000000
00101000
00000000
00000000
00100000
01000000
00000000
10000000
01000000
00010000
00000000
,
00001000
00100000
01000000
00010000
00001000
00000000
00011000
00000000
,
00010000
00000010
00000100
00001000
00010000
00000000
00011000
00000000
,
00001000
00000000
00000010
00001000
00000010
00000000
00000001
00000000
00000100
00000000
00000001
00000100
00000001
00000000
00001000
00000000
,
00000010
00000100
00001000
00010000
01000000
00100000
01100000
00000000
,
10000000
01000000
00010000
00001000
00100000
00000000
00011000
00000000
,
00000001
00000100
00001000
00010000
00000010
00000000
00011000
00000000
,
00100000
00010000
00100000
00000000
01000000
00000000
10000000
00000000
00100000
10000000
00100000
00000000
01000000
00000000
00010000
00000000
,
00100000
00000000
00000000
01100000
00000000
00000000
01000000
00000000
00010000
00000000
00001000
00000000
00010000
00000100
00001000
00000000
,
00000001
00000000
00000100
00000000
00000001
00000100
00000010
00000100
00000010
00000000
00001000
00000010
00000000
00010000
00001000
00000000
,
00100000
00000000
00010000
00100000
01000000
00000000
10000000
00000000
10100000
00000000
00000000
00000000
01010000
00000000
00000000
00000000
,
10000000
01000000
00010000
00000000
01000000
00000000
00100000
00000000
00001000
00000000
00010000
00000000
00001000
00000000
00000010
00000000
,
00000001
00000000
00001000
00000000
00000010
00010000
00001000
00000000
01000000
00000000
00010000
00000000
01001000
00000000
00000000
00000000
,
10000000
00000000
01000000
00000000
10000000
01000000
00100000
01000000
00100000
00000000
00010000
00100000
00000000
00001000
00010000
00000000
,
00000010
00000000
00001000
00000010
00000100
00000000
00000001
00000000
00000011
00000000
00000000
00000000
00001100
00000000
00000000
00000000
,
00000001
00000100
00001000
00000000
00000100
00000000
00000010
00000000
00010000
00000000
00001000
00000000
00010000
00000000
00100000
00000000
,
10100000
00000000
00000000
00010000
10000000
00010000
01000000
00000000
00001000
00010000
00000000
00010000
00000010
00000000
00001000
00000010
,
00002000
00000100
00000001
00000010
,
00023000
01000000
10000000
00100000
,
00032000
00000100
00000001
00000010
,
00013000
00000000
01000000
00000000
00100000
00000000
10000000
00000000
00010000
00100000
01000000
10000000
01000000
00100000
00000000
00000000
,
00020000
01000000
10000000
00100000
,
00032000
00000100
00000001
00000010
,
00023000
01000000
10000000
00100000
,
00031000
00000000
00000100
00000000
00000010
00000000
00000001
00000000
00001000
00000010
00001000
00000001
00000100
00000010
00000100
00000001
,
00001000
00000000
00000000
00001010
00000000
00000000
00011000
00000000
00000000
01010000
00000000
00000000
10000000
00010000
01000000
00100000
,
10000000
00000000
00000000
00000000
10010000
00000000
00000000
00000000
10000000
00000000
01000000
00000000
10000000
00010000
00100000
01000000
,
10000000
00000000
00010000
00000000
01000000
00000000
00010000
01000000
00001000
00000000
00010000
00001000
00010000
00000000
00001000
00010000
,
00000010
00000000
00001000
00000000
00000001
00000000
00000010
00000100
00001000
00000000
00000100
00010000
00001000
00000000
00010000
00001000
,
00200000
00000000
00000000
00000000
01300000
10000000
01000000
10000000
00020000
00000000
00000000
00000000
00130000
00010000
00100000
00001000
,
00020000
00000000
00000000
00000000
00030010
00001000
00000010
00001000
00000001
00000100
00000010
00001000
00000001
00000000
00000010
00000000
,
00000110
00000000
00000000
00000100
00010000
00000000
00001000
00000000
00011000
00000000
00000000
00010000
00000010
00000000
00001000
00000000
,
00000001
00000000
00000100
00000010
00001000
00000000
00000010
00000000
00010000
00000000
00001000
00100000
00010000
00000000
00100000
00001000
,
00010000
00000000
00100000
00000000
10000000
00000000
11000000
00000000
00000000
01000000
00010000
00000000
00001000
00010000
00001000
00010000
,
00000100
00000000
00001000
00000000
00000010
00001000
00000010
00010000
00001000
00010000
00000100
00001000
00000100
00000010
00000001
00001000
,
00000001
00000000
00001000
00000000
00000100
00000000
00001000
00000100
00010000
00000000
00001000
00010000
00001000
00000000
00010000
00001000
,
00100000
00000000
00010000
00000000
10000000
00000000
00100000
01000000
00010000
00000000
01000000
00001000
00010000
00000000
00001000
00010000
,
00000020
00000000
00000000
00000000
00000130
00000001
00000100
00000001
00002000
00000000
00000000
00000000
00003010
00001000
00000010
00010000
,
00002000
00000000
00000000
00000000
00103000
00010000
00100000
00010000
10000000
01000000
00100000
00010000
10000000
00000000
00100000
00000000
,
01100000
00000000
00000000
01000000
00001000
00000000
00010000
00000000
00011000
00000000
00000000
00001000
00100000
00000000
00010000
00000000
,
10000000
00000000
01000000
00100000
00010000
00000000
00100000
00000000
00001000
00000000
00010000
00000010
00001000
00000000
00000010
00010000
,
00002000
00000000
00000000
00000000
00003010
00000000
00000001
00000000
00000100
00000000
00001000
00000000
00010000
00001000
00010000
00001000
,
01000000
00000000
00010000
00000000
00100000
00010000
00100000
00001000
00010000
00001000
01000000
00010000
01000000
00100000
10000000
00010000
,
01000000
00010000
00000000
01000000
00001000
00000000
00010000
00001000
00000000
01000000
00010000
00000000
10000000
00000000
00100000
00000000
,
10000000
01000000
00000000
00100000
01000000
00000000
00100000
00010000
00000000
00100000
00001000
00000000
00020000
00000000
00000000
00000000
,
00030010
00001000
00000000
00000010
00000100
00000000
00000001
00000100
00000000
00000010
00001000
00000000
00000001
00000000
00000010
00000000
,
00000100
00001000
00000000
00000100
00010000
00000000
00001000
00100000
00000000
00010000
00100000
00000000
00001000
00010000
00001000
00000000
,
01000000
00010000
00000000
01000000
00001000
00000000
00010000
00001000
00000000
00100000
00010000
00000000
00100000
00000000
00001000
00000000
,
00010000
00000010
00000000
00001000
00000010
00000000
00010000
00001000
00000000
00010000
00000100
00000000
00002000
00000000
00000000
00000000
,
00003001
00000100
00000000
00000010
00000100
00000000
00000010
00010000
00000000
00001000
00010000
00000000
00000100
00001000
00000100
00000000
,
00010000
00000000
00000000
00011000
00000000
00000000
00101000
00000000
00000000
00100000
00010000
00000000
01000000
00000000
00001000
00000000
,
00022000
00000000
00033000
00000000
,
00001010
00000000
00000000
00010100
00000000
00000000
00101000
00000000
00000000
00000000
00000000
00000000
00000000
00000000
00000000
00000000
,
00022000
00000000
00033000
00000000
,
00110000
00000000
00000000
01001000
00000000
00000000
00010010
00000000
00000000
00000000
00000000
00000000
00000000
00000000
00000000
00000000
,
00000002
00000010
00002003
00000010
,
00003001
00000100
00001000
00000000
00010000
01000000
10000000
00000000
,
00100000
00000000
01000000
00000000
00010000
00000000
01000000
00000000
00100000
10000000
00010000
10000000
00100000
01000000
00010000
01000000
,
00100000
00000000
00000000
10000000
00000000
00000000
02000000
00000000
00000000
00000000
03010000
00000000
00001000
00010000
00001000
00010000
,
00000100
00000000
00001000
00000000
00000100
00000000
00010000
00001000
00100000
00000000
00010000
00100000
00010000
00000000
00100000
01000000
,
10000000
00000000
00010000
00000000
01000000
00000000
00001000
00010000
00001000
00000000
00010000
00000100
00001000
00000000
00000100
00001000
,
00000002
00000000
00000000
00000000
00000103
00000010
00000100
00000010
00002000
00000000
00000000
00000000
00003100
00001000
00000100
00010000
,
00002000
00000000
00000000
00000000
01003000
00010000
01000000
00010000
10000000
00100000
01000000
00010000
10000000
00000000
01000000
00000000
,
01100000
00000000
00000000
00100000
00001000
00000000
00010000
00000000
00011000
00000000
00000000
00001000
00010000
00000000
00000010
00000000
,
00001000
00000000
00000001
00000010
00000100
00000000
00000010
00000000
00000100
00000000
00001000
00000100
00010000
00000000
00001000
00010000
,
00000100
00000000
00010000
00000000
00001000
00100000
00001000
00000000
00010000
00001000
00010000
00000000
00001000
01000000
00001000
01000000
,
00010000
00000000
10000000
00010000
01000000
00100000
10000000
00000000
01000000
00000000
00010000
00001000
00000010
00000000
00000000
00000000
,
00000110
00000000
00000000
00000000
;
