#VERSION:0.83;
#TITLE:BroGamer;
#SUBTITLE:;
#ARTIST:USAO;
#TITLETRANSLIT:;
#SUBTITLETRANSLIT:;
#ARTISTTRANSLIT:;
#GENRE:SUPER ULTIMATE HYPER CORE;
#CREDIT:;
#MUSIC:BroGamer.ogg;
#BANNER:BroGamer.png;
#BACKGROUND:BroGamer-bg.png;
#CDTITLE:./CDTitles/bm IIDX 24 SINOBUZ.png;
#SAMPLESTART:99.400;
#SAMPLELENGTH:15.000;
#SELECTABLE:YES;
#OFFSET:0.147;
#BPMS:0.000=207.000;
#STOPS:36.000=0.145
,36.500=0.145
,37.000=0.145
,37.500=0.145
,178.000=0.580
,304.000=0.145
,304.500=0.145
,305.000=0.145
,305.500=0.145
;
#TIMESIGNATURES:0.000=4=4,
36.000=2=4,
38.000=4=4,
178.000=2=4,
180.000=4=4,
304.000=2=4,
306.000=4=4
;
#BGCHANGES:0.000=BroGamer.mp4=1.000=0=0=0=StretchNoLoop====,
99999.000=-nosongbg-=1.000=0=0=0=StretchNoLoop====
;
#FGCHANGES:;

//--------------- dance-single - forcednature ----------------
#NOTEDATA:;
#STEPSTYPE:dance-single;
#DESCRIPTION:forcednature;
#DIFFICULTY:Beginner;
#METER:5;
#RADARVALUES:0,0,0,0,0;
#CREDIT:forcednature;
#NOTES:
0000
0000
0000
0000
,
0000
0000
0000
0000
,
0000
0000
0000
0000
,
0000
0000
0000
0000
,
0000
0000
0000
0000
,
0000
0000
0000
0000
,
0001
0000
0001
0000
,
1000
0000
1000
0000
,
0010
0000
0100
0000
,
0110
0000
1001
0000
,
1000
0000
0100
0000
,
0000
0000
1000
0000
,
1000
0000
0010
0000
,
0000
0000
0100
0000
,
0001
0000
0010
0000
,
0000
0000
0001
0000
,
0001
0000
1000
0000
,
0000
0000
0110
0000
,
0000
0000
0001
0000
,
0000
0000
1000
0000
,
0100
0000
0010
0000
,
0000
0000
0100
0000
,
0000
0000
1000
0000
,
0000
0000
0001
0000
,
0100
0000
0010
0000
,
0000
0000
1000
0000
,
1000
0000
0100
0000
,
0100
0000
1000
0000
,
1000
0000
0001
0000
,
0010
0000
1001
0000
,
0000
0000
0001
0000
,
0000
0000
0100
0000
,
0100
0000
0010
0000
,
0000
0000
1000
0000
,
0001
0000
0100
0000
,
0001
0000
1000
0000
,
0010
0000
0100
0000
,
0010
0000
1001
0000
,
0000
0000
0001
0000
,
0010
0000
0100
0000
,
1000
0000
0010
0000
,
0000
0000
1001
0000
,
0000
0000
0100
0000
,
0000
0000
0010
0000
,
0010
0000
0110
0000
,
1000
1000
1000
0000
,
0100
0100
0100
0000
,
0010
0010
0010
0000
,
0001
0001
0001
0000
,
1000
0010
1000
0000
,
0010
0100
0010
0000
,
0100
0001
0100
0000
,
2002
0000
3003
0000
,
0110
0000
0000
0000
,
0000
0000
0000
0000
,
0001
0000
0001
0000
,
0000
0000
0000
0000
,
1001
0000
0000
0000
,
1000
0000
0000
0000
,
0100
0000
0000
0000
,
0110
0000
0000
0000
,
1001
0000
0000
0000
,
0001
0000
0001
0000
,
0100
0000
0000
0000
,
0010
0000
0000
0000
,
1001
0000
0000
0000
,
1000
0000
1000
0000
,
0100
0000
0000
0000
,
0110
0000
0000
0000
,
1001
0000
1000
0000
,
1000
0000
0000
0000
,
0110
0000
0010
0000
,
0010
0000
0000
0000
,
1001
0000
0100
0000
,
1001
0000
0010
0000
,
0001
0001
1000
1000
,
0001
0000
0100
0000
,
0010
0000
1000
0000
,
0010
0000
0100
0000
,
0001
0000
1000
0000
,
0000
0000
0100
0000
,
0010
0000
0001
0000
,
0010
0000
0100
0000
,
1000
0000
0001
0000
,
0000
0000
0100
0100
,
0100
0000
0010
0000
,
1000
0000
0001
0000
,
0010
0000
0100
0000
,
0000
0000
0010
0010
,
0010
0000
0001
0000
,
1000
0000
0010
0000
,
0100
0000
0001
0000
,
0000
0000
1000
0000
,
0100
0000
1000
0000
,
0100
0000
0010
0000
,
0001
0000
1000
0000
,
0000
0000
0001
0000
,
0100
0000
0001
0000
,
0100
0000
0010
0000
,
1000
0000
0001
0000
,
0000
0000
0010
0100
,
0010
0000
0100
1000
,
0001
0000
0100
0010
,
0100
0000
0010
1000
,
0001
0000
0010
0100
,
1000
0000
0010
0100
,
0001
0000
1000
0100
,
0010
0000
0110
0000
,
0000
0000
1001
0000
;

//--------------- dance-single - forcednature ----------------
#NOTEDATA:;
#STEPSTYPE:dance-single;
#DESCRIPTION:forcednature;
#DIFFICULTY:Easy;
#METER:9;
#RADARVALUES:0,0,0,0,0;
#CREDIT:forcednature;
#NOTES:
0000
0000
0000
0000
,
0000
0000
0000
0000
,
0000
0000
0000
0000
,
0000
0000
0000
0000
,
0000
0000
0000
0000
,
0000
0000
0000
0000
,
1001
0000
0001
0100
,
0001
0000
1000
0100
,
1000
0010
1000
0001
,
0200
0000
0000
0300
1001
0000
0001
0000
,
1000
0010
1000
0001
,
0010
0001
0100
0010
,
0100
0001
0010
0100
,
1000
1000
1001
0001
,
0100
0001
1000
0100
,
1000
0010
0100
0001
,
0010
0100
0220
0000
,
0330
0000
1000
0100
,
1001
0000
0001
0010
,
0001
1000
0010
0100
,
0001
0100
0010
1000
,
0001
0010
0001
0100
,
1001
0000
1000
0100
,
0010
0100
1000
0010
,
1000
0001
0200
0010
,
0000
0300
0001
0001
,
0100
0001
1000
0010
,
0100
0001
1000
1000
,
0100
1000
0001
0010
,
0100
1000
1001
0000
,
0001
0100
0001
1000
,
0100
1000
0010
0100
,
0010
1000
0002
0100
,
0103
0000
0001
0001
,
0010
0010
0100
0100
,
1000
1000
0010
0010
,
0100
0100
0010
0100
,
0001
1000
1001
0000
,
0001
0010
0001
1000
,
0100
1000
0001
0100
,
0001
1000
0020
0100
,
0130
0000
1001
0000
,
0100
0000
0010
0000
,
0100
0000
0001
0001
,
1000
1000
1001
0000
,
1000
0000
0000
0100
0000
0000
1000
0000
0000
0100
0000
0000
1000
0000
0000
0000
,
0100
0000
0000
0010
0000
0000
0100
0000
0000
0010
0000
0000
0100
0000
0000
0000
,
0010
0000
0000
0001
0000
0000
0010
0000
0000
0001
0000
0000
0010
0000
0000
0000
,
0001
0000
0000
1000
0000
0000
0001
0000
0000
1000
0000
0000
0001
0000
0000
0000
,
0100
0000
0000
0001
0000
0000
0100
0000
0000
0001
0000
0000
0100
0000
0000
0000
,
0010
0000
0000
1000
0000
0000
0010
0000
0000
1000
0000
0000
0010
0000
0000
0000
,
1000
0000
0000
0100
0000
0000
1000
0000
0000
0100
0000
0000
1000
0000
0000
0000
,
0001
0000
0010
0000
0001
1000
0001
0000
,
0200
0000
0000
0000
,
0000
0000
0000
0000
,
0010
0010
0010
0010
,
0000
0000
0000
0300
,
1001
1000
0100
0000
,
1000
0001
0100
0000
,
0001
1000
0010
0000
,
0220
0000
0330
0000
,
2001
0000
0100
0000
,
0001
0000
0010
0000
,
0001
0001
0001
0000
,
0100
0000
3010
0000
,
1002
0000
0100
0000
,
1000
0000
0010
0000
,
1000
1000
1003
0000
,
0220
0000
0330
0000
,
1000
0100
1000
0010
,
1000
0100
1000
0000
,
0001
0100
0001
0010
,
0001
0100
0001
0000
,
1001
0000
0110
0000
,
1000
1000
0001
0000
,
0110
0010
0110
0100
,
2002
0000
0000
3003
1000
0000
0100
0000
,
0010
0000
0100
0010
0100
0000
1000
0000
,
0001
0000
0100
0010
,
1000
0000
0001
0100
0001
0000
0010
0000
,
0001
0000
1000
0010
,
1000
0000
0001
0010
0001
0000
0100
0000
,
0010
0000
1000
0001
,
0010
0000
0100
0010
0100
0000
1000
0000
,
0001
0000
1000
0010
,
0110
0110
0100
0001
,
1000
0000
0100
0000
0010
0100
0010
0000
,
0001
1000
0010
0100
,
0001
0010
0100
1000
,
1001
1001
0001
0100
,
0010
0000
1000
0000
0001
0010
0001
0000
,
1000
0010
0220
0000
,
0330
0000
0100
0001
,
0011
0000
0100
1000
,
1010
0000
1000
0001
,
1001
0000
0110
0100
,
0110
0000
0001
0010
,
0110
0000
1000
0010
,
0110
0000
1000
0001
,
1001
0000
0220
0000
,
0330
0000
0000
0000
0000
0000
0000
0000
0001
0000
0000
0100
0000
0000
0001
0000
,
0000
0100
0000
0000
0010
0000
0000
0000
1000
0000
0000
0100
0000
0000
1000
0000
,
0000
0100
0000
0000
0010
0000
0000
0000
0001
0000
0000
1000
0000
0000
0001
0000
,
0000
1000
0000
0000
0010
0000
0000
0000
0100
0000
0000
0100
0000
0000
0100
0000
,
0000
0001
0000
0000
1000
0000
0000
0000
0100
0000
0000
0100
0000
0000
0100
0000
,
0000
0100
0000
0000
0010
0000
0000
0000
0001
0000
0000
0001
0000
0000
0001
0000
,
0000
0001
0000
0000
1000
0000
0000
0000
0010
0000
0000
0010
0000
0000
0010
0000
,
0000
0010
0000
0000
0100
0000
0000
0000
2002
0000
0000
0000
0000
0000
0000
0000
,
3003
0000
0220
0330
;

//--------------- dance-single - forcednature ----------------
#NOTEDATA:;
#STEPSTYPE:dance-single;
#DESCRIPTION:forcednature;
#DIFFICULTY:Medium;
#METER:13;
#RADARVALUES:0,0,0,0,0;
#CREDIT:forcednature;
#NOTES:
0000
0000
0000
0000
,
0000
0000
0000
0000
,
0000
0000
0000
0000
,
0000
0000
0000
0000
,
0000
0000
0000
0000
,
0000
0000
0000
0000
,
1001
0000
1000
0000
0100
0000
0010
0100
,
0010
0001
0100
0010
,
0110
0000
1000
0001
0200
0000
0310
0000
,
2002
0000
0000
3003
1001
0000
1100
0000
,
0001
1100
0001
0010
,
0001
1000
0010
0000
1000
0000
0101
0000
,
0010
0000
0101
0000
1000
0001
0010
0000
,
0100
0000
0110
0000
0010
0001
0010
0001
,
0000
0100
0001
0000
1000
0100
1000
0000
,
0010
1000
0020
0000
0130
0000
0001
0010
,
0001
1000
0100
0000
1000
0000
0001
0000
,
0200
0000
0300
0000
0010
1000
0010
1000
,
0001
0101
0100
0010
,
1000
0100
1000
0000
0001
0010
0100
0010
,
0001
1100
1000
0001
,
0100
0100
0100
0000
0001
1000
0010
1000
,
0001
0101
1000
0100
,
0010
0001
0010
0000
0100
1000
0001
1000
,
0100
0110
0020
0001
,
0100
0000
0030
0000
0001
0100
0001
0000
,
0100
0000
0101
0000
1000
0100
1000
0000
,
0100
0000
1100
0000
0001
0010
0001
0000
,
0010
0001
0010
0000
0100
0000
1100
0000
,
1000
0001
1000
0000
1010
0000
0100
0000
,
0001
0000
0010
0001
0010
0000
0100
1000
,
0100
0000
0010
0001
0020
0000
0031
0000
,
0200
0301
2002
0000
,
0000
3003
1100
1100
,
1010
1010
1000
0100
,
0010
0001
0101
0101
,
0011
0011
0001
0100
,
0010
1000
0010
0000
1001
0000
1000
0000
,
0100
0010
0100
0000
1000
0000
0001
0100
,
0001
0000
0000
0000
0000
0000
0010
0000
0000
0001
0000
0000
0010
0000
0000
0000
0100
0000
0000
0000
0010
0000
0000
0000
,
0100
0000
1000
0000
0100
0000
2002
0000
0000
0000
0000
0000
,
0000
3003
2000
0100
,
0100
3000
0002
0100
,
0100
0003
0020
0100
,
0130
0010
1001
0000
,
1000
0000
0000
0100
0000
0000
1000
0000
0000
0001
0000
0000
1001
0000
0000
0000
,
0001
0000
0000
0100
0000
0000
0001
0000
0000
1000
0000
0000
1001
0000
0000
0000
,
1000
0000
0000
0010
0000
0000
1000
0000
0000
0001
0000
0000
1001
0000
0000
0000
,
0001
0000
0000
0010
0000
0000
0100
0000
0000
1000
0000
0000
0010
0000
0000
0000
,
1000
0000
0000
0001
0000
0000
0101
0000
0000
0100
0000
0000
1010
0000
0000
0000
,
0001
0000
0000
1000
0000
0000
1100
0000
0000
0100
0000
0000
0011
0000
0000
0000
,
0001
0000
0000
1000
0000
0000
1001
0000
0000
0010
0000
0000
0110
0000
0000
0000
,
0001
1000
0001
1000
0020
0000
0130
0000
,
2002
0000
0000
0000
,
0003
0000
0000
0000
,
0100
0100
0100
3100
,
1000
0000
0001
1000
0001
0000
0100
0000
,
0110
0010
1000
0010
,
1000
0100
0010
0100
,
0010
0001
0010
0001
,
1001
0010
0100
0000
,
1002
0000
0100
0000
,
1000
1000
0100
0000
,
1000
1000
0010
0000
,
1000
1000
0103
0000
,
2001
0000
0010
0000
,
0001
0001
0100
0000
,
0001
0001
0010
3000
,
0220
0000
0000
0330
,
1000
0000
0001
0000
0100
0001
0100
0000
,
0001
0000
1000
0000
0100
1000
0100
0000
,
0010
0000
0001
0000
0100
0001
0100
0000
,
0010
0000
1000
0000
0100
1000
0100
0000
,
0110
0001
0110
1000
,
1001
0010
1001
0100
,
1100
0000
1000
0100
0020
0000
0031
0100
,
0020
1000
0100
0130
1001
0000
0001
0100
,
0010
0000
0100
0001
1000
0010
0000
1000
,
0100
0010
0000
0001
0010
0000
0100
1000
,
0001
0000
1000
0010
0100
0001
0000
0100
,
0010
1000
0010
0000
1001
0000
1000
0100
,
0010
0000
0100
1000
0001
0010
0000
0001
,
0010
0010
0001
0000
1000
0000
0010
0100
,
0001
0100
0010
0000
2002
0000
0000
0000
,
3003
0000
0000
0000
1000
0100
0010
0100
,
1000
0000
0011
0000
0001
1000
0010
0000
,
1000
0001
0010
0000
0001
0100
0010
0100
,
0001
0000
1010
0000
0001
0010
0100
0000
,
0010
0001
1000
0000
0010
0100
0001
0010
,
0100
0000
1001
0000
1000
0010
1000
0000
,
0001
0000
0010
0000
0001
0000
0000
0000
0100
0000
0000
0010
0000
0000
1000
0000
,
0010
0000
0000
0100
0000
0000
0001
0000
2000
0000
0000
0000
0100
0000
0000
0000
,
3001
0000
0010
0000
1001
0000
0001
0100
,
0010
0000
1000
0000
0001
0000
0010
0100
,
1000
0000
0010
0000
0100
0000
0001
1000
,
0100
0000
0010
0000
0100
0000
1000
0001
,
0010
0000
0110
0000
0100
1000
0001
0000
,
0100
0001
1000
0000
0010
1000
0001
0000
,
0010
0001
1000
0000
0010
0100
0001
0000
,
0010
0100
1000
0000
2002
0000
0000
0000
,
0000
0000
0000
0000
3003
0000
0000
0000
0101
0000
0000
0001
0000
0000
1010
0000
,
0000
1000
0000
0000
0101
0000
0000
0000
1100
0000
0000
1000
0000
0000
0011
0000
,
0000
0001
0000
0000
1100
0000
0000
0000
1001
0000
0000
0010
0000
0000
0110
0000
,
0000
0100
0000
0000
1001
0000
0000
0000
0110
0000
0000
0110
0000
0000
0110
0000
,
0000
0000
1000
0000
0001
0000
0000
0000
1100
0000
0000
0110
0000
0000
1100
0000
,
0000
0110
0000
0000
0011
0000
0000
0000
0101
0000
0000
0110
0000
0000
0101
0000
,
0000
0110
0000
0000
1010
0000
0000
0000
1001
0000
0000
1100
0000
0000
1001
0000
,
0000
0101
0000
0000
0110
0000
0000
0000
2002
0000
0000
0000
3003
0000
0000
0000
,
0010
0100
0010
0000
0220
0000
0330
0000
;

//--------------- dance-single - forcednature ----------------
#NOTEDATA:;
#STEPSTYPE:dance-single;
#DESCRIPTION:forcednature;
#DIFFICULTY:Hard;
#METER:16;
#RADARVALUES:0,0,0,0,0;
#CREDIT:forcednature;
#NOTES:
0000
0000
0000
0000
,
0000
0000
0000
0000
,
0000
0000
0000
0000
,
0000
0000
0000
0000
,
0000
0000
0000
0000
,
0000
0000
0000
0000
,
1001
0000
0001
0100
0010
0000
0010
1000
,
0001
0000
1000
0100
0010
0000
0010
0001
,
2000
0000
0000
0000
3010
0000
0100
0000
0001
0000
1000
0000
0010
0100
0010
0100
,
0002
0010
1000
1003
1100
0000
0110
0000
,
1000
0001
0010
0000
0100
0010
0001
0000
,
1000
0010
0100
0000
0101
0000
0110
0000
,
0001
1000
0010
0000
1000
0001
0010
0000
,
0110
0000
0110
0000
0100
1000
1000
0010
,
1000
0001
0100
0000
0010
0100
0001
0010
,
0001
0000
0000
0001
0000
0000
1000
0000
0100
0000
1000
0000
0001
0000
0000
0000
0000
0000
0010
0000
0000
0001
0000
0000
,
0100
0100
0010
0000
1000
0001
0010
0000
,
0220
0000
0330
0000
1000
0001
0010
0100
,
0010
0000
0011
0000
0001
1000
0010
0100
,
1000
0100
0001
0000
1000
0010
1000
0001
,
0010
0000
0110
0000
0100
1000
0001
0100
,
0010
0010
0010
0000
1000
0001
0010
0001
,
0100
0000
0110
0000
0010
1000
0001
0010
,
1000
0010
0001
0000
1000
0100
1000
0010
,
0100
0001
0010
0001
0200
0000
1000
0000
,
0301
1000
0010
0000
0101
0000
0011
0000
,
0101
0000
0011
0000
0010
0100
1000
0001
,
0010
0001
1000
0000
1100
0000
1010
0000
,
1000
1000
1000
0000
0001
0100
0010
0100
,
0001
1000
0010
0000
0110
0000
0100
0001
,
0010
0100
1000
0010
1000
0100
0010
0001
,
0100
0000
0000
0010
0000
0000
1000
0000
0001
0000
1000
0000
0001
0000
0000
0000
0000
0000
0011
0000
0000
0000
0000
0000
,
1000
0000
1010
0000
0010
0100
0001
1000
,
0020
0130
1001
1100
,
1001
0000
1100
0000
0100
0010
0001
0100
,
0010
1000
0100
0000
1001
0000
0101
0000
,
1001
0000
0101
0000
1000
0010
0100
0001
,
0010
0100
1000
0000
0010
0100
0001
0010
,
0100
0100
0100
0000
0010
0100
1000
0010
,
0100
0000
0000
0100
0000
0000
0100
0000
0000
0000
0000
0000
0001
0000
0000
0000
1001
0000
0000
0000
0010
0000
0000
0000
,
1000
0000
1001
0000
0100
0000
0220
0000
0000
0000
0000
0000
,
0000
0330
2000
0100
,
3200
0010
0320
0001
,
0032
0000
1000
0000
1003
0010
0100
0001
,
0010
0100
1000
0000
1001
0000
0000
0000
,
1100
0000
0000
0110
0000
0000
0011
0000
0000
0110
0000
0000
1100
0000
0000
0000
,
0101
0000
0000
0110
0000
0000
1010
0000
0000
0110
0000
0000
0101
0000
0000
0000
,
0011
0000
0000
1001
0000
0000
1100
0000
0000
1001
0000
0000
0011
0000
0000
0000
,
0110
0000
0000
1001
0000
0000
0110
0000
0000
0000
1000
0000
0001
0000
0000
0000
,
1100
0000
0000
0110
0000
0000
0011
0000
0000
1001
0000
0000
1010
0000
0000
0000
,
0101
0000
0000
0110
0000
0000
1010
0000
0000
1001
0000
0000
0011
0000
0000
0000
,
0110
0000
0000
1100
0000
0000
0011
0000
0000
0110
0000
0000
1001
0000
0000
0000
,
1000
0000
1000
0000
0010
0000
0010
0000
0100
0000
0001
1000
0010
0000
0000
0000
,
2000
3200
0320
0000
,
0000
0000
0000
0000
,
0001
0001
0000
0000
0001
0000
0001
0000
,
0230
0000
1300
1000
0001
1000
0001
0000
,
0110
0000
1000
0001
0020
0000
0001
0000
,
0100
0000
0031
1000
0020
0000
1000
0000
,
0100
0000
1030
0001
0200
0000
0310
0000
,
2002
0000
0000
3003
,
0001
0100
1000
0100
0001
0000
0011
0000
,
1000
1010
0100
0110
,
1000
0100
0001
0100
1000
0000
1010
0000
,
0001
0011
0100
0110
,
0001
0010
1000
0010
0001
0000
0101
0000
,
1000
1100
0010
0110
,
1001
0000
0000
0100
0000
0100
0000
0000
,
0220
0000
0000
0330
,
1000
0001
0100
0010
2000
0000
0100
0000
,
0001
0010
0001
0100
,
3001
1000
0100
0010
0002
0000
0100
0000
,
1000
0010
1000
0103
,
1001
0000
0010
0000
0110
0000
0100
0010
,
1001
0000
1000
0100
1000
1000
0001
0100
,
0001
0000
0000
0000
0010
0100
0010
0100
0010
0000
0000
0000
0001
1000
0001
1000
,
0002
0100
0010
0013
1001
0000
1000
0100
,
0010
0100
1000
0001
0100
0010
0100
0001
,
0010
0001
1000
0010
1000
0000
0001
0100
,
0010
0100
0001
1000
0100
0010
0001
0100
,
0001
0010
0100
1000
0010
0000
1000
0001
,
0100
0001
0010
0100
1000
0010
0100
0001
,
0010
0010
0010
0000
0110
0000
0100
1000
,
0001
0100
1000
0000
0100
0001
1000
0010
,
0200
0000
0301
0000
1000
0100
1000
0010
,
0100
0000
0101
0000
0001
0010
0100
0010
,
0001
0001
1000
0000
0100
1000
0001
0100
,
0010
0000
1010
0000
0001
0010
0001
1000
,
0010
0010
0100
0000
0001
0010
0001
1000
,
0100
0000
0110
0000
0010
0001
1000
0010
,
0100
0000
0100
0000
0001
0000
0000
0000
1000
0000
0000
0100
0000
0000
1000
0001
,
0010
0000
0000
0001
0000
0000
0100
0000
0020
0000
0000
0000
1000
0000
0000
0000
,
0100
0100
0130
0000
0010
1000
0001
0100
,
0101
0000
0001
0000
0010
0001
1000
0100
,
1100
0000
1000
0000
0010
0100
0001
0010
,
0110
0000
0100
0000
1000
0010
1000
0001
,
0011
0000
0010
0000
0001
0001
1000
0010
,
1000
0100
1000
0010
0100
0001
0010
0001
,
0100
0001
0010
0001
0100
0010
1000
0001
,
0010
0100
1000
0000
2002
0000
0000
0000
,
0000
0000
0000
0000
3003
0000
0000
0000
1100
0000
0000
0110
0000
0000
0011
0000
,
0000
1001
0000
0000
1010
0000
0000
0000
0101
0000
0000
0110
0000
0000
1010
0000
,
0000
1001
0000
0000
0011
0000
0000
0000
1100
0000
0000
1010
0000
0000
0011
0000
,
0000
0101
0000
0000
1010
0000
0000
0000
1001
0000
0000
0110
0000
0000
0001
0000
,
1000
0000
0001
1000
0001
0000
0000
0000
0101
0000
0000
0011
0000
0000
1010
0000
,
0000
1100
0000
0000
0011
0000
0000
0000
1100
0000
0000
1010
0000
0000
0011
0000
,
0000
0101
0000
0000
1010
0000
0000
0000
1100
0000
0000
0101
0000
0000
0011
0000
,
0000
1010
0000
0000
1001
0000
0000
0000
0220
0000
0000
0000
0330
0000
0000
0000
,
0001
1000
0001
0000
2002
0000
3003
0000
;

//--------------- dance-single - forcednature ----------------
#NOTEDATA:;
#STEPSTYPE:dance-single;
#DESCRIPTION:forcednature;
#DIFFICULTY:Challenge;
#METER:17;
#RADARVALUES:0,0,0,0,0;
#CREDIT:forcednature;
#NOTES:
0000
0000
0000
0000
,
0000
0000
0000
0000
,
0000
0000
0000
0000
,
0000
0000
0000
0000
,
0000
0000
0000
0000
,
0000
0000
0000
0000
,
1001
0000
0001
0100
0010
0100
0001
1000
,
0010
0000
1000
0100
0010
0100
1000
0000
,
1001
0000
0000
0000
0001
0000
0100
0000
0010
1000
0010
1000
0001
0100
0001
0100
,
0020
1000
0100
0130
1001
0000
1000
0100
,
0010
0100
1000
0001
0010
0001
1000
0100
,
0010
0100
1000
0001
0010
0000
0001
0100
,
0010
0100
0001
1000
0010
1000
0001
0100
,
0010
0000
0110
0000
0001
0100
1000
0100
,
0001
1000
0010
1000
0100
0001
0100
1000
,
0010
0000
0000
0010
0000
0000
1000
0000
0001
0000
0100
0000
0001
0000
0000
0000
0000
0000
1000
0000
0000
0001
0000
0000
,
0010
0100
0110
0000
1000
0100
0001
0100
,
1000
0001
0010
0001
0010
0000
0000
0000
0001
0000
0100
0000
1000
0000
0100
0000
,
0001
0000
0101
0000
1000
0010
1000
1000
,
0001
0100
0101
0000
1000
0100
0001
0100
,
1000
0000
1100
0000
0001
0010
1000
0010
,
0001
0001
1000
0001
0100
1000
0100
0001
,
1000
0000
1010
0000
0010
0100
0001
1000
,
0010
0000
0010
0000
0100
0000
0000
0000
0001
0000
0010
0000
0100
0010
0100
0000
,
0010
0000
0100
0000
1000
0100
1000
0001
0020
0000
0000
0000
0031
0100
0001
0000
,
0100
0000
0000
0010
0000
0000
1000
0000
0000
0000
0000
0000
1001
0000
0000
0000
0001
0000
0100
0000
0000
0000
1000
0000
,
0100
0000
0110
0000
0010
1000
0001
0100
,
0010
0000
0000
0010
0000
0000
1000
0000
0000
0000
0000
0000
0001
0000
0000
0000
1000
0000
0100
0000
0000
0000
0001
0000
,
0100
0000
0010
0000
0110
0000
0000
0000
0001
0000
1000
0000
0100
1000
0100
0000
,
0010
0000
0001
0000
2000
0000
0000
0000
3010
0100
0010
0000
0100
0000
0001
0000
,
0010
0000
0010
0000
0001
0000
1000
0000
0100
0000
1000
0100
1000
0100
0010
0000
,
0001
0000
0000
0000
0000
0000
0001
0000
0000
0000
0000
0000
1000
0000
0000
0000
0010
0000
0000
0000
0100
0000
0000
0000
0002
0000
0000
0000
0000
0000
0000
0000
0000
0000
0000
0000
0013
0000
0000
0100
0000
0000
0010
0000
0000
0100
0000
0000
,
2000
0000
0000
0000
3010
0100
0010
0100
0002
0000
0000
0000
0010
0000
0000
0000
,
1000
1000
1003
0000
0101
0000
0011
0000
,
0101
0000
0011
0000
0010
0100
1000
0010
,
0100
0001
0010
0000
1100
0000
1010
0000
,
1100
0000
1000
0010
0100
0001
0010
0001
,
0100
0010
0100
0000
1001
0000
1000
0100
,
0001
0000
0001
0000
0100
1000
0100
0000
0010
0000
0001
1000
0100
1000
0001
0000
,
0010
0000
0000
0010
0000
0000
0001
0000
1000
0000
0010
0000
0100
0000
0000
0000
0101
0000
0000
0000
0001
0000
0010
0000
,
0100
0000
0000
0000
1100
0000
0000
0000
1000
0000
0010
0000
0200
0000
0000
0000
0000
0000
1000
0000
0000
1000
0000
0000
,
1000
0000
0301
0000
0110
0000
0010
1000
,
0100
0000
0010
0001
0100
0000
0010
1000
,
0100
0000
0000
0000
0010
0000
0000
0000
0001
0100
0010
0100
0001
1000
0010
1000
,
0001
0010
0100
1000
0100
0010
0001
1000
0010
0000
0000
0000
0000
0000
0000
0000
,
0101
0000
0000
0011
0000
0000
1001
0000
0000
0101
0000
0000
1010
0000
0000
0000
,
1100
0000
0000
1010
0000
0000
1001
0000
0000
1100
0000
0000
0011
0000
0000
0000
,
0101
0000
0000
1100
0000
0000
1010
0000
0000
1100
0000
0000
0011
0000
0000
0000
,
1001
0000
0000
0110
0000
0000
1001
0000
1000
0100
0010
0001
1000
0000
0000
0000
,
0001
0100
0000
0010
0100
0000
0001
1000
0000
0010
1000
0001
0100
0000
0000
0000
,
0001
0010
0000
0100
0010
0000
0100
1000
0000
0001
1000
0100
0010
0000
0001
0000
,
1000
0010
0000
0100
0010
0000
0100
0001
0000
1000
0010
0100
0001
0000
0000
0000
,
1000
0100
1000
0100
0010
0001
0010
0001
1000
0010
0100
0001
1000
0000
0000
0000
,
0001
0010
0100
1000
0010
0000
0020
0000
,
0000
0000
0000
0000
,
0100
0100
0000
0000
1000
0000
1030
0000
,
0002
0000
0013
0100
0001
0100
1000
0000
,
2010
0000
0010
0010
0010
0000
0000
0000
,
0001
0000
0001
0001
0001
0000
0000
0000
,
0100
0000
0100
0100
0100
0000
3000
0000
,
0220
0000
0000
0330
,
0001
1000
0010
0100
0001
0000
0011
0000
,
0100
0011
1000
0011
,
1000
0001
0010
0100
1000
0000
1010
0000
,
0001
1010
0100
1010
,
0001
0010
0100
1000
0001
0000
0101
0000
,
0010
0101
1000
0101
,
1001
0000
0000
0010
0000
0010
0100
0000
,
0220
0000
0000
0330
,
1000
0001
0100
1000
0100
0000
0001
1000
,
0010
0100
0000
0001
0010
0001
1000
0000
,
1100
0000
0100
0010
0001
0100
0001
0000
,
1000
0010
1000
0001
0010
0000
0110
0000
,
0200
0000
1300
0010
0200
0000
0301
0010
,
0210
0000
1300
0010
0100
0100
0001
0001
,
0021
0000
0000
0000
0130
1000
0100
1000
0020
0000
0000
0000
0130
0001
0100
0001
,
0020
0001
0100
0130
1001
1000
0010
0100
,
0001
0010
0100
0001
0100
1000
0001
0010
,
0001
1000
0010
0100
1000
0100
0001
1000
,
0010
0000
1000
0000
0001
0000
0010
0000
0001
0000
0100
0000
0010
1000
0010
1000
,
0001
0010
0100
0010
0001
1000
0010
0100
,
1000
0100
0001
1000
0010
0100
0001
1000
,
0100
0010
0110
0000
0001
0100
0001
0010
,
1000
0000
0010
0000
0001
0000
1000
0000
0100
0000
0100
0000
1000
0001
1000
0001
,
0100
0000
0010
0000
0110
0000
0000
0000
0001
0100
0001
0000
1000
0000
0010
0000
,
1000
0001
0010
0000
0100
0000
0010
0000
0001
1000
0010
0000
0100
0000
0010
0000
,
1000
0010
1000
0000
0001
0100
0010
1000
0001
0000
0010
0000
0100
0010
0100
0000
,
1000
0000
0100
1000
0001
0000
1000
0001
0010
0000
0001
0000
1000
0010
1000
0010
,
0100
0000
0001
0000
0101
0000
0000
0000
1000
0100
1000
0000
0001
0000
0010
0000
,
0001
1000
0010
0000
0100
0000
0010
0000
1000
0001
0010
0000
0100
0000
0010
0000
,
0001
0010
0001
0000
1000
0100
0010
0001
1000
0000
0000
1010
0000
0000
0010
0100
,
0001
0000
0000
0011
0000
0000
0010
0100
1000
0000
0001
0000
0100
0010
1000
0010
,
0100
0001
0101
0000
1000
0100
0010
0001
,
0011
0010
0100
1000
0001
0100
0010
1000
,
1010
0010
0100
0001
0010
0100
1000
0010
,
0110
0100
0001
0010
0100
0001
0100
1000
,
0001
0010
0001
0010
0001
0000
0000
0000
0100
0000
0100
0000
1001
0000
0001
0000
,
1000
0010
0110
0100
0001
0010
1001
1000
,
0001
0010
0110
0100
1000
0010
1001
0001
,
1000
0100
0110
0000
2002
0000
0000
0000
,
0000
0000
0000
0000
3003
0000
0000
0000
1100
0000
0000
1010
0000
0000
0011
0000
,
0000
0101
0000
0000
1010
0000
0000
0000
0101
0000
0000
0011
0000
0000
1010
0000
,
0000
1100
0000
0000
0011
0000
0000
0000
0101
0000
0000
1100
0000
0000
1010
0000
,
0000
0011
0000
0000
1100
0000
0000
0000
1001
0000
0000
0110
0000
0000
1001
0000
,
0001
1000
0010
0100
0001
0000
1000
0000
0100
0010
0000
0001
0100
0000
0010
1000
,
0000
0001
0010
0100
1000
0000
0010
0000
0100
0001
0000
1000
0100
0000
0010
0100
,
0000
0010
0001
1000
0010
0000
0100
0000
0001
0010
0000
0100
1000
0000
0010
0100
,
0000
0001
1000
0100
0010
0001
0010
0100
2000
0000
0000
0000
0000
0000
0000
0000
,
3010
0100
0001
0100
0010
1000
0001
1000
0200
0000
0000
0000
0300
0000
0000
0000
;

//--------------- dance-double - forcednature ----------------
#NOTEDATA:;
#STEPSTYPE:dance-double;
#DESCRIPTION:forcednature;
#DIFFICULTY:Easy;
#METER:9;
#RADARVALUES:0,0,0,0,0;
#CREDIT:forcednature;
#NOTES:
00000000
00000000
00000000
00000000
,
00000000
00000000
00000000
00000000
,
00000000
00000000
00000000
00000000
,
00000000
00000000
00000000
00000000
,
00000000
00000000
00000000
00000000
,
00000000
00000000
00000000
00000000
,
00011000
00000000
00010000
00001000
,
01000000
00000000
00010000
00000000
,
10000000
10000000
00100000
10000000
,
00020000
00000000
00000000
00030000
10010000
00000000
00000000
00000000
,
10000000
01000000
00100000
00010000
,
00100000
00001000
00010000
00000000
,
00000100
00001000
00000010
00000100
,
00000001
00000001
00001001
00000000
,
00001000
00000100
00010000
00001000
,
00100000
00010000
01000000
00000000
,
00100000
10000000
20020000
00000000
,
30030000
00000000
00010000
00100000
,
00001000
00000000
00010000
00000010
,
00001000
00000000
00000001
00000010
,
00000100
00001000
00000100
00010000
,
00001000
00000000
00100000
00010000
,
01000000
00000000
00100000
10000000
,
01000000
00000000
00100000
00001000
,
00010000
00000100
00002000
00000000
,
00003000
00000000
00000001
00000001
,
00000100
00000001
00001000
00000010
,
00001000
00000000
00000100
00000100
,
00001000
00000100
00010000
00001000
,
00100000
00000000
10010000
00000000
,
00010000
01000000
00001000
00010000
,
00000010
00000000
00001000
00000100
,
00010000
00000000
00022000
00000000
,
00033000
00000000
01000000
01000000
,
00010000
00010000
01000000
01000000
,
00100000
10000000
01000000
01000000
,
10000000
10000000
01000000
00100000
,
00001000
00000000
00011000
00000000
,
00000100
00001000
00000010
00000100
,
00000001
00000000
00000010
00000100
,
00010000
00000000
00022000
00000000
,
00033000
00000000
01000000
00000000
,
00010000
00000000
00100000
00000000
,
00001000
00000000
00010000
00010000
,
00001000
00001000
00011000
00000000
,
00000100
00000000
00000000
00001000
00000000
00000000
00000100
00000000
00000000
00001000
00000000
00000000
00000100
00000000
00000000
00000000
,
00000010
00000000
00000000
00000001
00000000
00000000
00000010
00000000
00000000
00000001
00000000
00000000
00000010
00000000
00000000
00000000
,
00000001
00000000
00000000
00000100
00000000
00000000
00000001
00000000
00000000
00000100
00000000
00000000
00000001
00000000
00000000
00000000
,
00001000
00000000
00000000
00001000
00000000
00000000
00001000
00000000
00000000
00000010
00000000
00000000
00010000
00000000
00000000
00000000
,
00001000
00000000
00000000
01000000
00000000
00000000
00001000
00000000
00000000
01000000
00000000
00000000
00001000
00000000
00000000
00000000
,
00100000
00000000
00000000
00010000
00000000
00000000
00100000
00000000
00000000
00010000
00000000
00000000
00100000
00000000
00000000
00000000
,
01000000
00000000
00000000
10000000
00000000
00000000
01000000
00000000
00000000
10000000
00000000
00000000
01000000
00000000
00000000
00000000
,
00200000
00000000
00300000
00000000
00010000
10000000
00010000
00000000
,
02000000
00000000
00000000
00000000
,
00000000
00000000
00000000
00000000
,
00010000
00010000
00010000
00010000
,
00000000
00000000
00000000
03000000
,
00011000
00000000
00000100
00000000
,
00001000
00000000
00000010
00000000
,
00000100
00000000
00000001
00000000
,
00002002
00000000
00003003
00000000
,
00002001
00000000
00000100
00000000
,
00000001
00000000
00000010
00000000
,
00000001
00000001
00000001
00000000
,
00000100
00000000
00003010
00000000
,
00020000
00000000
00000100
00000000
,
00001000
00000000
00000010
00000000
,
00001000
00001000
00031000
00000000
,
00022000
00000000
00033000
00000000
,
01000000
00010000
01000000
00000000
,
00100000
00000000
10000000
00000000
,
01000000
10000000
01000000
00000000
,
00100000
00000000
00001000
00000000
,
00011000
00000000
00011000
00000000
,
00000100
00000100
00001000
00000000
,
00000110
00000000
00001001
00000000
,
00000220
00000000
00000000
00000330
00000001
00000000
00000100
00000000
,
00000001
00001000
00000010
00010000
,
00001000
01000000
00010000
00100000
,
01000000
10000000
01000000
00100000
,
00010000
00000000
01000000
00001000
,
00010000
00000010
00001000
00000100
,
00000010
00000001
00000100
00000010
,
00001000
00000100
00010000
00001000
,
00100000
00000000
00010000
01000000
,
01100000
00000000
00100000
10000000
,
00010000
10000000
01000000
00100000
,
00010000
00100000
00001000
00010000
,
00000100
00000000
00001000
00000010
,
00000110
00000000
00000100
00000001
,
00000010
00000100
00001000
00000010
,
00010000
00001000
00022000
00000000
,
00033000
00000000
01000000
00010000
,
01010000
00000000
10000000
00100000
,
10100000
00000000
00010000
00100000
,
00110000
00000000
00001000
00010000
,
00011000
00000000
00000100
00001000
,
00001010
00000000
00000001
00000100
,
00000110
00000000
00001000
00000100
,
00010100
00000000
00022000
00000000
,
00033000
00000000
00000000
00000000
00000000
00000000
00000000
00000000
01000000
00000000
00000000
00010000
00000000
00000000
01000000
00000000
,
00000000
00010000
00000000
00000000
00100000
00000000
00000000
00000000
00001000
00000000
00000000
00010000
00000000
00000000
00001000
00000000
,
00000000
00010000
00000000
00000000
00000010
00000000
00000000
00000000
00001000
00000000
00000000
00000100
00000000
00000000
00001000
00000000
,
00000000
00000100
00000000
00000000
00000010
00000000
00000000
00000000
00000001
00000000
00000000
00000001
00000000
00000000
00000001
00000000
,
00000000
00000100
00000000
00000000
00000010
00000000
00000000
00000000
00001000
00000000
00000000
00001000
00000000
00000000
00001000
00000000
,
00000000
00001000
00000000
00000000
00000100
00000000
00000000
00000000
00010000
00000000
00000000
00010000
00000000
00000000
00010000
00000000
,
00000000
00010000
00000000
00000000
00001000
00000000
00000000
00000000
00100000
00000000
00000000
00100000
00000000
00000000
00100000
00000000
,
00000000
00100000
00000000
00000000
00010000
00000000
00000000
00000000
20020000
00000000
00000000
00000000
00000000
00000000
00000000
00000000
,
30030000
00000000
02200000
03300000
;

//--------------- dance-double - forcednature ----------------
#NOTEDATA:;
#STEPSTYPE:dance-double;
#DESCRIPTION:forcednature;
#DIFFICULTY:Medium;
#METER:13;
#RADARVALUES:0,0,0,0,0;
#CREDIT:forcednature;
#NOTES:
00000000
00000000
00000000
00000000
,
00000000
00000000
00000000
00000000
,
00000000
00000000
00000000
00000000
,
00000000
00000000
00000000
00000000
,
00000000
00000000
00000000
00000000
,
00000000
00000000
00000000
00000000
,
00011000
00010000
00000100
00001000
,
00000010
00010000
00001000
01000000
,
01100000
00000000
00100000
01000000
00100000
01000000
00100000
00000000
,
20020000
00000000
00000000
30030000
11000000
00000000
01000000
00000000
,
00010000
00001000
00000010
00000001
,
00001000
00000010
00000100
00000001
,
00000100
00001000
00010000
00100000
,
01100000
00000000
01100000
00000000
01000000
00010000
01000000
00100000
,
00000000
10000000
00100000
00000000
10000000
01000000
00100000
00000000
,
00010000
00100000
00002000
00000000
00013000
00000000
00000100
00001000
,
00000100
00000010
00000001
00000000
00000100
00000000
00001000
00000000
,
00022000
00000000
00033000
00000000
01000000
00010000
10000000
00100000
,
01000000
10010000
00010000
00100000
,
00001000
00010000
00000100
00000000
00001000
00000010
00000100
00000001
,
00001000
00000110
00000001
00000010
,
00001000
00001000
00001000
00000000
00010000
00000100
00001000
00000010
,
00010000
00011000
01000000
00010000
,
00100000
01000000
10000000
00000000
01000000
00010000
00001000
00100000
,
00010000
00110000
00002000
00010000
,
01000000
00000000
00003000
00000000
00001000
00010000
00000010
00000000
,
00001000
00000000
00000100
00000000
00010000
00001000
00100000
00000000
,
00010000
00000000
01000000
00000000
00001000
00010000
00000010
00000000
,
00001000
00001000
00001000
00000000
00000100
00000000
00010000
00001000
,
00100000
00010000
00100000
00000000
01100000
00000000
10000000
00000000
,
00010000
00010000
00010000
00000000
00100000
00000000
00001000
00010000
,
00000100
00000100
00000100
00000000
00002000
00000000
00003010
00000000
,
00002000
00003100
00022000
00000000
,
00000000
00033000
01010000
01010000
,
10100000
10100000
10000000
01000000
,
00010000
00001000
00011000
00011000
,
00010100
00010100
00000100
00001000
,
00000010
00001000
00000010
00000000
00001001
00000000
00000001
00000000
,
00000010
00000100
00000010
00000000
00000100
00000000
00001000
00000100
,
00010000
00000000
00000000
00010000
00000000
00000000
00010000
00000000
00000000
00000000
00000000
00000000
00001000
00000000
00000000
00000000
00001000
00000000
00000000
00000000
00100000
00000000
00000000
00000000
,
00010000
00000000
00100000
00000000
01000000
00000000
20020000
00000000
00000000
00000000
00000000
00000000
,
00000000
30030000
00020000
01000000
,
10000000
00100000
00032000
00000100
,
00000001
00000010
00023000
01000000
,
10030000
00010000
00100000
00000000
01100000
00000000
00000000
00000000
,
00010000
00000000
00000000
01000000
00000000
00000000
00001000
00000000
00000000
00010000
00000000
00000000
00000010
00000000
00000000
00000000
,
00001000
00000000
00000000
00000100
00000000
00000000
00010000
00000000
00000000
00001000
00000000
00000000
00100000
00000000
00000000
00000000
,
00010000
00000000
00000000
01000000
00000000
00000000
00001000
00000000
00000000
00010000
00000000
00000000
00000010
00000000
00000000
00000000
,
00000100
00000000
00000000
00000100
00000000
00000000
00000001
00000000
00000000
00000001
00000000
00000000
00000010
00000000
00000000
00000000
,
00000100
00000000
00000000
00010000
00000000
00000000
00001000
00000000
00000000
01000000
00000000
00000000
00010000
00000000
00000000
00000000
,
00100000
00000000
00000000
00001000
00000000
00000000
00010000
00000000
00000000
00000010
00000000
00000000
00001000
00000000
00000000
00000000
,
00000100
00000000
00000000
00010000
00000000
00000000
00001000
00000000
00000000
01000000
00000000
00000000
00010000
00000000
00000000
00000000
,
00100000
01000000
00100000
00000000
02000000
00000000
03100000
00000000
,
20020000
00000000
00000000
00000000
,
00030000
00000000
00000000
00000000
,
01000000
01000000
01000000
31000000
,
00010000
00001000
00000010
00000001
,
00001001
00001000
00000100
00000000
,
00010000
00001000
00100000
00000000
,
00010000
01000000
00100000
00000000
,
20020000
00000000
30030000
00000000
,
10020000
00000000
01000000
00000000
,
10000000
00000000
00100000
00000000
,
00031000
00000100
00000010
00000001
,
00000010
00000100
00001000
00000000
,
00002001
00000000
00000100
00000000
,
00000001
00000000
00000010
00000000
,
00013000
01000000
00100000
00000000
,
02200000
00000000
00000000
03300000
,
10000000
00000000
00010000
00000000
00100000
00010000
00100000
00000000
,
00001000
00010000
00000010
00001000
,
00000001
00000000
00000100
00000000
00000001
00001000
00000001
00000000
,
00000010
00000100
00010000
00001000
,
00011000
00100000
00011000
00000010
,
00011000
01000000
00011000
00000100
,
00001001
00000000
00001000
00000100
00020000
00000000
00031000
00100000
,
00020000
10000000
01000000
01030000
10010000
00000000
00010000
01000000
,
00100000
00000000
10000000
00010000
00100000
00010000
00000000
00100000
,
00001000
00010000
00000000
00000100
00001000
00000000
00000100
00000010
,
00000001
00000000
00000100
00000010
00001000
00000010
00000000
00010000
,
00001000
00100000
00010000
00000000
10010000
00000000
10000000
01000000
,
00100000
00000000
00010000
00100000
00001000
00010000
00000000
00000100
,
00001000
00001000
00000100
00000000
00000010
00000000
00000001
00000100
,
00000001
00001000
00000010
00000000
00000220
00000000
00000000
00000000
,
00000330
00000000
00000000
00000000
00000001
00000100
00001000
00000000
,
00011000
00000000
00011000
00000000
01000000
00010000
00100000
00000000
,
01000000
10000000
00100000
00000000
10000000
01000000
00010000
00000000
,
00011000
00000000
00101000
00000000
00001000
00010000
00000010
00000000
,
00010000
00001000
00100000
00000000
00010000
01000000
10000000
00000000
,
11000000
00000000
01010000
00000000
00010000
00100000
00001000
00000000
,
00010000
00000000
00000010
00000000
00001000
00000000
00000000
00000000
00000100
00000000
00000000
00000100
00000000
00000000
00000010
00000000
,
00000001
00000000
00000000
00000001
00000000
00000000
00001000
00000000
00000020
00000000
00000000
00000000
00000100
00000000
00000000
00000000
,
00001030
00000000
00000000
00000000
00011000
00000000
01000000
00010000
,
00100000
00000000
01000000
00000000
10000000
00000000
01000000
00010000
,
00001000
00000000
00100000
00000000
00001000
00000000
00010000
00000100
,
00001000
00000000
00000010
00000000
00000100
00000000
00000001
00000010
,
00000100
00000000
00000110
00000000
00000010
00000100
00010000
00000000
,
00001000
00100000
00010000
00000000
01000000
00100000
10000000
00000000
,
01000000
00100000
00001000
00000000
00010000
00000100
00000010
00000000
,
00000001
00001000
00000010
00000000
00000220
00000000
00000000
00000000
,
00000000
00000000
00000000
00000000
00000330
00000000
00000000
00000000
00001000
00000000
00000000
00000100
00000000
00000000
00010000
00000000
,
00000000
00000010
00000000
00000000
00001000
00000000
00000000
00000000
00010000
00000000
00000000
01000000
00000000
00000000
00001000
00000000
,
00000000
00100000
00000000
00000000
00010000
00000000
00000000
00000000
00001000
00000000
00000000
00000100
00000000
00000000
00010000
00000000
,
00000000
00000010
00000000
00000000
00001000
00000000
00000000
00000000
00010000
00000000
00000000
01010000
00000000
00000000
01010000
00000000
,
00000000
00000000
10000000
00000000
00100000
00000000
00000000
00000000
10000000
00000000
00000000
01000000
00000000
00000000
00010000
00000000
,
00000000
00001000
00000000
00000000
00000010
00000000
00000000
00000000
00000001
00000000
00000000
00000100
00000000
00000000
00001000
00000000
,
00000000
00010000
00000000
00000000
00100000
00000000
00000000
00000000
10000000
00000000
00000000
01000000
00000000
00000000
00010000
00000000
,
00000000
00001000
00000000
00000000
00000010
00000000
00000000
00000000
00000220
00000000
00000000
00000000
00000330
00000000
00000000
00000000
,
00000001
00001000
00000001
00000000
00002002
00000000
00003003
00000000
;

//--------------- dance-double - forcednature ----------------
#NOTEDATA:;
#STEPSTYPE:dance-double;
#DESCRIPTION:forcednature;
#DIFFICULTY:Hard;
#METER:15;
#RADARVALUES:0,0,0,0,0;
#CREDIT:forcednature;
#NOTES:
00000000
00000000
00000000
00000000
,
00000000
00000000
00000000
00000000
,
00000000
00000000
00000000
00000000
,
00000000
00000000
00000000
00000000
,
00000000
00000000
00000000
00000000
,
00000000
00000000
00000000
00000000
,
00011000
00010000
00000100
00010000
,
00001000
00100000
00000000
00010000
01000000
00000000
00100000
00000000
,
10010000
00000000
00010000
01000000
00010000
00100000
00001000
00010000
,
00002000
00100000
01000000
01003000
00011000
00000000
00000100
00001000
,
00000001
00001000
00000100
00000000
00000010
00000001
00000100
00000000
,
00000010
00001000
00000100
00000000
00011000
00000000
01000000
00010000
,
10000000
00100000
01000000
00000000
00010000
10000000
01000000
00000000
,
01100000
00000000
01100000
00000000
00100000
00001000
00010000
00000100
,
00010000
00001000
00000010
00000000
00000100
00001000
00000001
00000010
,
00000001
00000100
00002000
00000000
00013000
00000000
00100000
10000000
,
00010000
01000000
00100000
00000000
10000000
00010000
00100000
00000000
,
02200000
00000000
03300000
00000000
01000000
10000000
01000000
00010000
,
00001000
00000000
00011000
00000000
00010000
00000100
00001000
00000010
,
00000100
00000001
00000010
00000000
00000001
00000100
00001000
00010000
,
00000010
00000000
00001010
00000000
00001000
00000100
00000010
00000000
,
00001000
00001000
00001000
00000000
00010000
01000000
00100000
00010000
,
10000000
00000000
11000000
00000000
00010000
00100000
00001000
00010000
,
00000010
00001000
00000001
00000000
00000100
00001000
00010000
00000000
,
01000000
00010000
00001000
00000000
00011000
00000000
00202000
00000000
,
00303000
00000000
20010000
32000000
,
03020000
00000000
00032000
00000000
00003010
00000100
00001000
00000001
,
00000010
00000001
00000100
00000000
00001002
00000000
00000203
00000000
,
00001300
00010000
00001000
00000000
00010000
00100000
10000000
00000000
,
00010000
01000000
00100000
00000000
01100000
00000000
10000000
00010000
,
10000000
01000000
00010000
00000000
00001000
00100000
00001000
00010000
,
00000100
00001000
00000020
00000000
00000130
00000000
00001001
00000000
,
00010000
00000000
00001001
00000000
00000010
00000100
00000001
00001000
,
00000020
00000130
00000110
00010010
,
01001000
00000000
01100000
00000000
00100000
10000000
00010000
00100000
,
01000000
00010000
00001000
00000000
00011000
00000000
00101000
00000000
,
00011000
00000000
00010010
00000000
00000010
00001000
00000100
00000010
,
00000001
00000100
00001000
00000000
00011000
00000000
00010000
00100000
,
10000000
10000000
10000000
00000000
00010000
01000000
00010000
00100000
,
01000000
00000000
00000000
01000000
00000000
00000000
01000000
00000000
00000000
00000000
00000000
00000000
00010000
00000000
00000000
00000000
00010000
00000000
00000000
00000000
00001000
00000000
00000000
00000000
,
00000010
00000000
00000110
00000000
00000100
00000000
00002002
00000000
00000000
00000000
00000000
00000000
,
00000000
00003003
00002000
00000100
,
00000001
00000010
00023000
01000000
,
10000000
00000000
00100000
00000000
00031000
00001000
00000100
00000100
,
00000010
00000001
00000100
00000000
00001001
00000000
00000000
00000000
,
00000001
00000000
00000000
00000100
00000000
00000000
00001000
00000000
00000000
00010000
00000000
00000000
00100000
00000000
00000000
00000000
,
10000000
00000000
00000000
01000000
00000000
00000000
00010000
00000000
00000000
00001000
00000000
00000000
00000010
00000000
00000000
00000000
,
00000001
00000000
00000000
00000100
00000000
00000000
00001000
00000000
00000000
00010000
00000000
00000000
00100000
00000000
00000000
00000000
,
01100000
00000000
00000000
01100000
00000000
00000000
01100000
00000000
00000000
00000000
10000000
00000000
00010000
00000000
00000000
00000000
,
11000000
00000000
00000000
01100000
00000000
00000000
00110000
00000000
00000000
00101000
00000000
00000000
00011000
00000000
00000000
00000000
,
00010100
00000000
00000000
00001100
00000000
00000000
00001010
00000000
00000000
00000110
00000000
00000000
00001001
00000000
00000000
00000000
,
00000101
00000000
00000000
00000110
00000000
00000000
00001010
00000000
00000000
00001100
00000000
00000000
00010100
00000000
00000000
00000000
,
00010000
00001000
01000000
00010000
00100000
00000000
01100000
00000000
,
20000000
32000000
03020000
00000000
,
00000000
00000000
00000000
00000000
,
00001000
00001000
00000000
00000000
00001000
00000000
00001000
00000000
,
00030200
00000000
00001300
00001000
00000001
00000010
00000001
00000000
,
00000110
00000000
00000100
00001000
00000020
00000000
00000100
00000000
,
00001030
00000000
00000010
00010000
00002000
00000000
00010000
00000000
,
00103000
00000000
00100000
00010000
02000000
00000000
03100000
00000000
,
20020000
00000000
00000000
30030000
,
10000000
01000000
00010000
01000000
10000000
00000000
00010000
00000000
,
00100000
00001000
00000000
00010000
00000000
00000100
00000100
00000000
,
00001000
00000001
00000010
00001000
00000010
00000000
00000011
00000000
,
00001000
00000100
00010000
00001000
00100000
00000000
00011000
00000000
,
00010000
00100000
10000000
00100000
00010000
00000000
00011000
00000000
,
01000000
00010000
00000000
00100000
00000000
01000000
01000000
00000000
,
10020000
00000000
00000000
00100000
00000000
00100000
00030000
00000000
,
00002200
00000000
00000000
00003300
,
00000001
00000100
00000001
00000010
00002000
00000000
01000000
00000000
,
00010000
00100000
00010000
01000000
,
00013000
00100000
10000000
00010000
02000000
00000000
00100000
00000000
,
00010000
00001000
00010000
03100000
,
01100000
00010000
00011000
00001000
,
00000110
00000000
00000001
00000100
00000001
00000001
00000010
00001000
,
00010000
00000000
00000000
00000000
00000100
00001000
00000100
00010000
00001000
00000000
00000000
00000000
01000000
00010000
01000000
00001000
,
00020000
00000100
00000010
00030010
00011000
00000000
00001000
00000010
,
00000001
00001000
00000100
00010000
00001000
00100000
00000000
00010000
,
01000000
00010000
10000000
00100000
10000000
00000000
01000000
00010000
,
00001000
00100000
00010000
00100000
00001000
00010000
00000100
00001000
,
00000010
00000100
00000001
00000010
00000100
00000000
00000010
00000001
,
00000100
00000001
00001000
00000010
00000100
00001000
00000000
00010000
,
00100000
00100000
00100000
00000000
01100000
00000000
01000000
00010000
,
10000000
00010000
00100000
00000000
01000000
00010000
00001000
00000010
,
00000200
00000000
00001300
00000000
00000001
00000010
00000001
00000100
,
00001000
00000000
00000100
00000001
00001000
00000010
00000000
00010000
,
00001000
00001000
01000000
00000000
00010000
00100000
01000000
10000000
,
01000000
00000000
01100000
00000000
00100000
00001000
00010000
00000100
,
00010000
00010000
00001000
00000000
00000010
00000001
00000100
00000001
,
00000010
00000000
00000110
00000000
00000100
00010000
00000000
00001000
,
00100000
00000000
00100000
00000000
00010000
00000000
00000000
00000000
10000000
00000000
00000000
10000000
00000000
00000000
01000000
00000000
,
00010000
00000000
00000000
00010000
00000000
00000000
00001000
00000000
00000020
00000000
00000000
00000000
00000100
00000000
00000000
00000000
,
00000001
00000001
00000031
00000000
00000010
00000000
00000100
00010000
,
00001000
00000000
01000000
00000000
00010000
00000000
00100000
01000000
,
10000000
00000000
01000000
00000000
00010000
00000000
00001000
00000010
,
00000001
00000000
00000100
00000000
00000001
00001000
00000010
00000100
,
00000001
00000100
00001000
00000000
00010000
00010000
00100000
00000000
,
10000000
00010000
01000000
00000000
00100000
10000000
00010000
00000000
,
00100000
01000000
00010000
00000000
00001000
00000010
00000100
00000000
,
00001000
00000001
00000100
00000000
00002002
00000000
00000000
00000000
,
00000000
00000000
00000000
00000000
00003003
00000000
00000000
00000000
00001100
00000000
00000000
00010100
00000000
00000000
00011000
00000000
,
00000000
00101000
00000000
00000000
00110000
00000000
00000000
00000000
01010000
00000000
00000000
01001000
00000000
00000000
00011000
00000000
,
00000000
00010010
00000000
00000000
00001010
00000000
00000000
00000000
00000110
00000000
00000000
00000101
00000000
00000000
00000011
00000000
,
00000000
00001100
00000000
00000000
00010100
00000000
00000000
00000000
00011000
00000000
00000000
00011000
00000000
00000000
00011000
00000000
,
00000000
00000000
00010000
00001000
00010000
00000000
00000000
00000000
01001000
00000000
00000000
01010000
00000000
00000000
00110000
00000000
,
00000000
00101000
00000000
00000000
00011000
00000000
00000000
00000000
00010100
00000000
00000000
00001100
00000000
00000000
00001010
00000000
,
00000000
00010010
00000000
00000000
00011000
00000000
00000000
00000000
01010000
00000000
00000000
00101000
00000000
00000000
00010010
00000000
,
00000000
00001100
00000000
00000000
00000110
00000000
00000000
00000000
00002002
00000000
00000000
00000000
00003003
00000000
00000000
00000000
,
00000001
00000100
00001000
00000000
00022000
00000000
00033000
00000000
;

//--------------- dance-double - forcednature ----------------
#NOTEDATA:;
#STEPSTYPE:dance-double;
#DESCRIPTION:forcednature;
#DIFFICULTY:Challenge;
#METER:17;
#RADARVALUES:0,0,0,0,0;
#CREDIT:forcednature;
#NOTES:
00000000
00000000
00000000
00000000
,
00000000
00000000
00000000
00000000
,
00000000
00000000
00000000
00000000
,
00000000
00000000
00000000
00000000
,
00000000
00000000
00000000
00000000
,
00000000
00000000
00000000
00000000
,
00011000
00000000
00010000
01000000
00100000
01000000
10000000
00000000
,
00010000
10000000
00100000
00000000
10000000
01000000
00010000
00000000
,
00011000
00000000
00000000
00000000
00001000
00000000
00000010
00000000
00000001
00000000
00001000
00000000
00000001
00000100
00000001
00000100
,
00000020
00001000
00000100
00000130
00001001
00000000
00000001
00000100
,
00000010
00000100
00001000
00010000
00100000
01000000
00100000
10000000
,
00010000
10000000
01000000
00010000
00001000
00000000
00100000
00010000
,
00100000
01000000
00010000
00001000
00100000
00001000
00000010
00000100
,
00001000
00000000
00001001
00000000
00000001
00000100
00001000
00010000
,
00001000
00000100
00000001
00000000
00001000
00000010
00000100
00001000
,
00010000
00000000
00000000
00010000
00000000
00000000
00001000
00000000
00100000
00000000
00010000
00000000
00100000
00000000
00000000
00000000
00000000
00000000
01000000
00000000
00000000
10000000
00000000
00000000
,
01000000
00010000
00011000
00000000
00001000
00100000
00010000
00000010
,
00000100
00001000
00000100
00001000
00000001
00000000
00000000
00000000
00000100
00000000
00001000
00000000
00010000
00000000
00100000
00000000
,
01000000
00000000
01100000
00000000
00100000
10000000
00010000
00010000
,
10000000
01000000
00010000
00000000
00001000
00000010
00000100
00000010
,
00000001
00000000
00001001
00000000
00001000
00000010
00000100
00001000
,
00010000
00010000
00001000
00010000
00100000
10000000
00010000
01000000
,
10000000
00000000
11000000
00000000
01000000
00010000
10000000
00100000
,
10000000
00000000
10000000
00000000
01000000
00000000
00000000
00000000
00010000
00000000
00001000
00010000
00001000
00000000
00010000
00000000
,
00000100
00000000
00001000
00000100
00001000
00000000
00000100
00000010
00000002
00000000
00000000
00000000
00000103
00000001
00000100
00000000
,
00000010
00000000
00000000
00001000
00000000
00000000
00000001
00000000
00000000
00000000
00000000
00000000
00000100
00000000
00000000
00000000
00001000
00000000
00010000
00000000
00000000
00000000
00100000
00000000
,
10000000
00000000
10010000
00000000
00010000
10000000
01000000
00010000
,
00001000
00000000
00000000
00001000
00000000
00000000
00100000
00000000
00000000
00000000
00000000
00000000
00001000
00000000
00000000
00000000
00010000
00000000
00000010
00000000
00000000
00000000
00001000
00000000
,
00000100
00000000
00000100
00000000
00000110
00000000
00000000
00000000
00000010
00000000
00000001
00000000
00000010
00000100
00000010
00000000
,
00000100
00000000
00010000
00000000
00002000
00000000
00000000
00000000
00103000
00010000
00100000
00000000
01000000
00000000
10000000
00000000
,
00100000
00000000
00100000
00000000
10000000
00000000
00000000
00000000
01000000
00000000
00100000
01000000
00100000
00000000
00001000
00000000
,
00010000
00000000
00000000
00000000
00000000
00000000
00010000
00000000
00000000
00000000
00000000
00000000
00000100
00000000
00000000
00000000
00001000
00000000
00000000
00000000
00000100
00000000
00000000
00000000
00000020
00000000
00000000
00000000
00000000
00000000
00000000
00000000
00000000
00000000
00000000
00000000
00000031
00000000
00000000
00000000
00000000
00000000
00000100
00000000
00000000
00001000
00000000
00000000
,
00020000
00000000
00000000
00000000
00130000
00000000
10000000
00010000
02000000
00000000
00000000
00000000
10000000
00000000
00000000
00000000
,
00010000
00010000
03010000
00000000
01010000
00000000
00101000
00000000
,
00010010
00000000
00001100
00000000
00000001
00000010
00001000
00010000
,
00001000
00000010
00000001
00000000
00001100
00000000
00010010
00000000
,
00101000
00000000
01010000
00000000
10000000
01000000
00010000
00001000
,
00100000
00010000
01000000
00000000
10010000
00000000
10000000
01000000
,
00010000
00000000
00010000
00000000
00001000
00010000
00001000
00000000
00000010
00000000
00000001
00000000
00001000
00000001
00001000
00000000
,
00000001
00000000
00000000
00000100
00000000
00000000
00001000
00000000
00010000
00000000
00001000
00000000
00010000
00000000
00000000
00000000
00011000
00000000
00000000
00000000
00010000
00000000
00100000
00000000
,
10000000
00000000
00000000
00000000
10100000
00000000
00000000
00000000
10000000
00000000
01000000
00000000
00020000
00000000
00000000
00000000
00000000
00000000
00001000
00000000
00000000
00001000
00000000
00000000
,
00001000
00030010
00012000
00003020
,
00000032
00000203
00002300
00023000
,
00230000
00000000
00000000
00000000
20300000
00000000
00000000
00000000
30010000
00100000
00010000
00100000
01000000
10000000
01000000
10000000
,
00010000
00100000
00001000
00010000
00000100
00001000
00000100
00000010
00000001
00000000
00000000
00000000
00000000
00000000
00000000
00000000
,
00000101
00000000
00000000
00000011
00000000
00000000
00001010
00000000
00000000
00010100
00000000
00000000
00101000
00000000
00000000
00000000
,
11000000
00000000
00000000
10100000
00000000
00000000
00110000
00000000
00000000
01001000
00000000
00000000
00010010
00000000
00000000
00000000
,
00000011
00000000
00000000
00000101
00000000
00000000
00001100
00000000
00000000
00010010
00000000
00000000
01001000
00000000
00000000
00000000
,
01100000
00000000
00000000
01100000
00000000
00000000
01100000
00000000
00010000
10000000
00100000
01000000
00010000
00000000
00000000
00000000
,
10000000
01000000
00000000
00100000
01000000
00000000
00100000
00001000
00000000
00010000
00000100
00001000
00000010
00000000
00001000
00000000
,
00000001
00000100
00000000
00000010
00000100
00000000
00000010
00010000
00000000
00001000
01000000
00010000
00100000
00000000
00010000
00000000
,
10000000
00100000
00000000
01000000
00100000
00000000
01000000
00001000
00000000
00010000
00000010
00001000
00000100
00000000
00001000
00000000
,
00000001
00000100
00000001
00000100
00000010
00001000
00000010
00001000
00000100
00010000
00001000
00100000
00010000
00000000
00000000
00000000
,
01000000
00100000
10000000
00010000
01000000
00000000
02000000
00000000
,
00000000
00000000
00000000
00000000
,
00100000
00100000
00000000
00000000
00010000
00000000
03010000
00000000
,
00002000
00000000
00013000
00000100
00001000
00000010
00000100
00000000
,
00000210
00000000
00000001
00000001
00000001
00000000
00000000
00000000
,
00000010
00000000
00000010
00000010
00000010
00000000
00000000
00000000
,
00001000
00000000
00001000
00001000
00001000
00000000
00000300
00000000
,
00022000
00000000
00000000
00033000
,
01000000
00010000
00100000
01000000
10000000
00000000
11000000
00000000
,
00010000
00110000
10000000
11000000
,
00010000
00100000
00001000
00010000
00000100
00000000
00000011
00000000
,
00000100
00001001
00000100
00001010
,
00000001
00000100
00001000
00010000
00000010
00000000
00001010
00000000
,
00000100
00000011
00000100
00001010
,
00002001
00000000
00000000
00010000
00000000
00013000
00000000
00000000
,
02200000
00000000
00000000
03300000
,
10000000
01000000
00010000
00001000
00100000
00000000
00001000
00010000
,
00000100
00001000
00000000
00000010
00000100
00000001
00000010
00000000
,
00000110
00000000
00000001
00000100
00001000
00010000
00000010
00000000
,
00001000
00010000
01000000
00100000
10000000
00000000
10010000
00000000
,
20000000
00000000
31000000
00010000
00002000
00000000
00013000
00001000
,
00000020
00000000
00000130
00001000
00000001
00000001
00000001
00000010
,
00002001
00000000
00000000
00000000
00003100
00010000
00001000
00100000
00020000
00000000
00000000
00000000
01030000
00001000
00010000
00000010
,
00002000
00000001
00000100
00003100
00000110
00000000
00000010
00000001
,
00000100
00001000
00010000
00100000
01000000
00001000
00010000
00100000
,
10000000
00010000
01000000
10000000
01000000
00000000
00100000
10000000
,
01000000
00000000
00010000
00000000
00001000
00000000
00100000
00000000
00001000
00000000
00000010
00000000
00000100
00001000
00000100
00001000
,
00000001
00000100
00001000
00000000
00010000
00100000
10000000
00010000
,
01000000
00001000
00010000
01000000
00100000
00001000
00010000
00000100
,
00001000
00000010
00000110
00000000
00000001
00000100
00000001
00000010
,
00001000
00000000
00010000
00000000
01000000
00000000
00000000
00000000
10000000
00000000
10000000
00000000
00010000
00100000
00010000
00100000
,
01000000
00000000
10000000
00000000
11000000
00000000
00000000
00000000
00010000
00100000
01000000
00000000
00100000
00000000
00010000
00000000
,
10000000
00010000
00100000
00000000
01000000
00000000
00010000
00000000
00001000
00100000
00010000
00000000
00100000
00000000
00001000
00000000
,
00010000
00001000
00010000
00000000
00000100
00001000
00000100
00000000
00000010
00000000
00000001
00000000
00000100
00000001
00001000
00000000
,
00000010
00000000
00001000
00000010
00010000
00000000
00001000
00010000
00000100
00000000
00001000
00000000
00000100
00000010
00000100
00000010
,
00000001
00000000
00001000
00000000
00001001
00000000
00000000
00000000
00001000
00000100
00010000
00000000
00001000
00000000
00100000
00000000
,
00010000
10000000
00100000
00000000
01000000
00000000
00010000
00000000
10000000
01000000
00100000
00000000
00010000
00000000
00100000
00000000
,
00001000
00010000
00001000
00000000
00010000
00000100
00001000
00000100
00000010
00000000
00000000
00000110
00000000
00000000
00000100
00001000
,
00000001
00000000
00000000
00000101
00000000
00000000
00000100
00001000
00020000
00000000
00000000
00000000
00000100
00000000
00000000
00000000
,
00130000
01000000
01100000
00000000
10000000
01000000
00010000
00001000
,
00011000
00000000
00100000
00001000
00010000
00000100
00001000
00000010
,
00000110
00000000
00000100
00001000
00000100
00000001
00000010
00000100
,
00000110
00000000
00000010
00001000
00010000
01000000
00100000
00010000
,
10000000
00010000
10000000
00010000
10000000
00000000
00000000
00000000
01000000
00000000
00010000
00000000
00011000
00000000
00001000
00000000
,
00100000
00010000
00110000
00100000
00001000
00010000
00011000
00001000
,
00000010
00000100
00000110
00000010
00000001
00000100
00000101
00000001
,
00000010
00000100
00000110
00000000
00002002
00000000
00000000
00000000
,
00000000
00000000
00000000
00000000
00003003
00000000
00000000
00000000
00000101
00000000
00000000
00001010
00000000
00000000
00011000
00000000
,
00000000
01010000
00000000
00000000
10100000
00000000
00000000
00000000
11000000
00000000
00000000
00110000
00000000
00000000
00011000
00000000
,
00000000
00001100
00000000
00000000
00000011
00000000
00000000
00000000
00000101
00000000
00000000
00001100
00000000
00000000
00011000
00000000
,
00000000
00110000
00000000
00000000
10100000
00000000
00000000
00000000
10010000
00000000
00000000
01100000
00000000
00000000
10010000
00000000
,
10000000
00100000
01000000
00100000
01000000
00000000
00010000
00000000
10000000
01000000
00000000
00100000
01000000
00000000
00010000
00001000
,
00000000
00010000
00000100
00001000
00000100
00000000
00000010
00000000
00000001
00000100
00000000
00000010
00000100
00000000
00001000
00010000
,
00000000
00001000
01000000
00010000
01000000
00000000
00100000
00000000
10000000
01000000
00000000
00100000
01000000
00000000
00100000
00010000
,
00000000
00100000
00001000
00010000
00001000
00010000
00000100
00001000
00000020
00000000
00000000
00000000
00000000
00000000
00000000
00000000
,
00000130
00000001
00000100
00000001
00001000
00000010
00000100
00000001
00002000
00000000
00000000
00000000
00003000
00000000
00000000
00000000
;
