#VERSION:0.83;
#TITLE:Break Through Myself feat. Risa Yuzuki;
#SUBTITLE:;
#ARTIST:DJ Myosuke & Laur;
#TITLETRANSLIT:;
#SUBTITLETRANSLIT:;
#ARTISTTRANSLIT:;
#GENRE:;
#CREDIT:;
#MUSIC:Break Through Myself feat. Risa Yuzuki.ogg;
#BANNER:Break Through Myself feat. Risa Yuzuki.png;
#BACKGROUND:Break Through Myself feat. Risa Yuzuki-bg.png;
#CDTITLE:;
#SAMPLESTART:75.017;
#SAMPLELENGTH:15.000;
#SELECTABLE:YES;
#OFFSET:0.568;
#BPMS:0.000=200.000;
#STOPS:;
#TIMESIGNATURES:0.000=4=4;
#BGCHANGES:1.800=Break Through Myself feat. Risa Yuzuki.mp4=1.000=0=0=0=StretchNoLoop====;
#FGCHANGES:;

//--------------- dance-single - forcednature ----------------
#NOTEDATA:;
#STEPSTYPE:dance-single;
#DESCRIPTION:forcednature;
#DIFFICULTY:Beginner;
#METER:3;
#RADARVALUES:0,0,0,0,0;
#CREDIT:forcednature;
#NOTES:
0000
0000
0000
0000
,
0000
0000
0000
0000
,
0000
0000
0000
0000
,
0000
0000
0000
0000
,
0000
0000
0000
0000
,
1000
0000
0000
0000
,
0000
0000
0000
0000
,
0001
0000
0000
0000
,
0000
0000
0000
0000
,
0100
0000
0000
0000
,
0000
0000
0000
0000
,
0010
0000
0000
0000
,
0000
0000
0000
0000
,
1000
0000
0000
0000
,
0000
0000
0000
0000
,
0100
0000
0000
0000
,
0000
0000
0000
0000
,
0010
0000
0000
0000
,
0000
0000
0000
0000
,
0001
0000
0000
0000
,
0100
0000
0000
0000
,
0000
0000
0000
0000
,
0010
0000
0000
0000
,
1000
0000
0000
0000
,
0100
0000
0000
0000
,
1000
0000
0000
0000
,
0001
0000
0000
0000
,
0100
0000
0000
0000
,
0001
0000
0000
0000
,
0010
0000
0000
0000
,
0001
0000
0000
0000
,
0100
0000
0000
0000
,
0010
0000
0000
0000
,
1000
0000
0000
0000
,
0100
0000
0000
0000
,
1000
0000
0000
0000
,
0010
0000
0000
0000
,
0100
0000
0000
0000
,
0001
0000
0000
0000
,
0010
0000
0000
0000
,
0000
0000
0000
0000
,
0001
0000
0000
0000
,
0100
0000
0000
0000
,
0020
0000
0000
0000
,
0000
0000
0000
0000
,
0000
0000
0000
0000
,
0030
0000
0000
0000
,
1000
0000
0000
0000
,
0000
0000
0000
0000
,
0001
0000
0000
0000
,
0100
0000
0000
0000
,
0001
0000
0000
0000
,
0000
0000
0000
0000
,
1000
0000
0000
0000
,
0100
0000
0000
0000
,
1000
0000
0000
0000
,
0001
0000
0000
0000
,
1000
0000
0000
0000
,
0001
0000
0000
0000
,
0010
0000
0000
0000
,
0100
0000
0000
0000
,
2002
0000
0000
0000
,
3003
0000
0000
0000
,
0001
0000
0000
0000
,
0100
0000
0000
0000
,
0001
0000
0000
0000
,
0010
0000
0000
0000
,
0100
0000
0000
0000
,
1000
0000
0000
0000
,
0001
0000
0000
0000
,
0100
0000
0000
0000
,
0010
0000
0000
0000
,
1000
0000
0000
0000
,
0100
0000
0000
0000
,
1000
0000
0000
0000
,
0001
0000
0000
0000
,
0100
0000
0000
0000
,
0001
0000
0000
0000
,
0010
0000
0000
0000
,
0100
0000
0000
0000
,
0000
0000
0000
0000
,
1000
0000
0000
0000
,
0000
0000
0000
0000
,
0001
0000
0000
0000
,
0000
0000
0000
0000
,
0100
0000
0000
0000
,
0000
0000
0000
0000
,
0010
0000
0000
0000
,
1000
0000
0000
0000
,
0010
0000
0000
0000
,
0100
0000
0000
0000
,
0001
0000
0000
0000
,
0000
0000
0000
0000
,
1000
0000
0000
0000
,
0100
0000
0000
0000
,
2000
0000
0000
0000
,
0000
0000
3000
0000
,
0001
0000
0000
0000
,
0100
0000
0000
0000
,
0001
0000
0000
0000
,
0010
0000
0000
0000
,
0100
0000
0000
0000
,
1000
0000
0000
0000
,
0100
0000
0000
0000
,
0010
0000
0000
0000
,
0001
0000
0000
0000
,
1000
0000
0000
0000
,
0010
0000
0000
0000
,
0100
0000
0000
0000
,
0001
0000
0000
0000
,
0010
0000
0000
0000
,
2002
0000
0000
0000
,
0000
0000
0000
0000
,
0000
0000
0000
0000
,
0000
0000
3003
0000
,
0020
0000
0000
0000
,
0000
0000
0000
0000
,
0000
0000
0000
0000
,
0000
0000
0000
0000
,
0030
0000
0000
0000
;

//--------------- dance-single - forcednature ----------------
#NOTEDATA:;
#STEPSTYPE:dance-single;
#DESCRIPTION:forcednature;
#DIFFICULTY:Easy;
#METER:8;
#RADARVALUES:0,0,0,0,0;
#CREDIT:forcednature;
#NOTES:
0000
0000
0000
0000
,
0000
0000
0000
0000
,
0000
0000
0000
0000
,
0000
0000
0000
0000
,
0000
0000
0000
0000
,
2002
0000
0000
3003
,
1000
0100
0010
0002
,
0000
0000
0003
0000
,
0001
0100
0010
2000
,
0000
0000
3000
0000
,
0100
0010
0001
2000
,
0000
0000
3000
0010
,
0100
0001
1000
0000
,
0001
0000
0000
0001
0000
0000
0001
0000
,
0000
0010
0100
0000
,
1000
0000
0000
1000
0000
0000
1000
0000
,
0000
0010
0100
0000
,
0001
0000
0000
0001
0000
0000
0001
0000
,
0000
1000
0100
0010
,
0001
0001
0100
0010
,
1000
0001
0010
0100
,
0000
0000
0000
0000
,
1000
1000
0001
0100
,
0010
0000
1000
0100
,
1000
0010
0100
0001
,
0010
0000
0100
1000
,
0100
0010
0001
1000
,
0010
0000
0100
0001
,
1000
0100
1000
0010
,
0100
0000
0001
0010
,
0100
1000
0001
0100
,
0010
0000
1000
0100
,
1000
0001
0100
0010
,
1000
0000
0001
0010
,
0100
0010
0001
1000
,
0010
0000
0100
0001
,
1000
0100
1000
0010
,
0100
0000
0001
0010
,
0100
1000
0100
0010
,
0001
0000
0100
0100
,
0001
1000
0010
0000
,
1000
1000
0001
0001
,
0010
0100
1000
0000
,
2002
0000
0000
0000
,
0000
0000
0000
0000
,
0000
0000
0000
0000
,
0000
0000
0000
3003
,
0001
0000
0100
0010
,
0000
0010
0000
1000
,
0000
0100
0000
0010
,
0001
1000
0001
1000
,
0010
0100
0000
0001
,
0000
1000
0000
0100
,
0000
0010
0000
0001
,
0100
0001
0100
0000
,
0001
0001
0010
0001
,
1000
1000
0010
1000
,
0001
0001
0100
0001
,
1000
1000
0100
1000
,
0010
0010
0100
0010
,
1000
0001
1000
0001
,
0020
0000
0000
0000
,
0000
0000
0000
0030
,
0100
1000
0001
0100
,
0010
1000
0100
1000
,
0010
0100
0001
0010
,
0100
0100
1000
0001
,
0100
0010
1000
0001
,
0010
0100
1000
0001
,
0100
0000
0010
0000
1000
0001
1000
0000
,
0200
0300
0020
0030
,
0001
0100
0001
0010
,
0100
1000
0001
0001
,
0100
0010
1000
0100
,
0010
0001
1000
0001
,
0100
0010
1000
0001
,
0010
0100
1000
0001
,
0100
0000
0010
0000
1000
0000
0010
0100
,
0020
0000
0030
0000
,
2002
0000
3003
0000
,
1000
0100
1000
0002
,
0000
0000
0003
0000
,
0001
0100
0001
1000
,
0100
0000
0010
0000
,
0001
1000
0001
0000
,
0100
0000
0010
0000
,
1000
0100
1000
0000
,
0001
0001
0001
0000
,
1000
1000
1000
0010
,
1000
1000
1000
0000
,
0100
0010
0001
0000
,
1001
0000
1000
0010
,
1000
0100
1000
0001
,
1000
0000
0010
0100
,
0001
0000
0010
0000
,
2002
0000
0000
0000
,
0000
0000
0000
3003
,
1000
0100
0010
0001
,
0100
0000
0010
0000
1000
0001
1000
0000
,
0010
0100
0001
0010
,
0100
1000
0010
0100
,
0100
0000
0001
1000
0001
0000
0010
0000
,
0110
0100
2002
3003
,
1000
0100
1000
0010
,
0100
0000
0001
0000
0010
0000
0100
1000
,
0100
0010
0001
1000
,
0010
0000
0100
0000
0001
1000
0001
0000
,
0010
0000
0100
0000
1000
1000
0001
0000
,
0001
0000
0100
0000
0010
1000
0010
0000
,
1001
0000
0000
0000
0010
0100
0010
0000
,
2002
0000
3003
0000
,
0002
0000
0000
0000
,
0000
0000
0000
0000
,
0203
0000
0000
0000
,
0000
0000
0000
0000
,
0320
0000
0000
0000
,
0000
0000
0000
0000
,
2030
0000
0000
0000
,
0000
0000
0000
0000
,
3000
0000
0000
0000
;

//--------------- dance-single - forcednature ----------------
#NOTEDATA:;
#STEPSTYPE:dance-single;
#DESCRIPTION:forcednature;
#DIFFICULTY:Medium;
#METER:12;
#RADARVALUES:0,0,0,0,0;
#CREDIT:forcednature;
#NOTES:
0000
0000
0000
0000
,
0000
0000
0000
0000
,
0000
0000
0000
0000
,
0000
0000
0000
0000
,
0000
0000
0000
0000
,
2002
0000
3003
1000
,
0100
1000
0010
2000
,
0000
0000
3000
0001
,
0100
0001
0010
0002
,
0000
0000
0003
0100
,
0010
0100
0001
2000
,
0000
0000
3000
0100
,
0010
0001
0100
0010
,
1000
0100
0000
1000
0100
0000
1000
0100
,
0000
0010
0001
1000
,
0001
0100
0000
0001
0100
0000
0001
0100
,
0000
0010
1000
0001
,
0010
0100
0000
0010
0100
0000
0010
0100
,
0000
1000
0001
0100
,
0020
1000
1000
0100
,
0130
0010
0100
0000
0001
1000
0002
0000
,
0003
0000
0000
0000
,
1000
0001
1000
0000
0010
0100
0001
0000
,
0010
0000
0001
0000
0100
0001
0100
0000
,
0010
0000
1000
0000
0100
0010
0100
0000
,
1000
0000
0001
0000
0010
0001
0010
0000
,
0100
0000
1000
0000
0001
0100
0001
0000
,
0010
0000
0100
1000
0100
0010
0100
0000
,
1000
0000
0001
0100
0010
0100
0001
0000
,
1000
0000
0010
0100
0001
0010
0100
0000
,
0010
0000
0001
0000
1000
0010
1000
0100
,
0010
0000
0001
0100
0000
0001
0010
0000
,
0100
1000
0100
0000
0010
0001
0100
0000
,
0010
0000
1000
0001
0000
0010
0100
0000
,
0010
0001
0010
0000
0100
1000
0001
0000
,
0101
0000
0100
0010
0000
1000
0001
0000
,
0010
0100
1000
0000
0010
1000
0001
0000
,
0010
0000
0001
0100
0000
0010
1000
0000
,
0100
0010
0100
0000
1000
0001
1000
0000
,
0101
0001
1000
1000
,
0100
0000
0100
0000
0010
0000
0010
0001
,
1000
0010
1000
0000
0001
0010
0001
0000
,
0100
0010
0100
0010
1000
0001
1000
0000
,
2002
0000
0000
0000
,
0000
0000
0000
0000
,
0000
0000
0000
0000
,
0000
0000
0000
3003
,
1000
0001
0100
0010
,
0000
1000
0001
0010
,
0001
1000
0010
0100
,
0002
0023
0230
2300
,
3010
0100
0001
1000
,
0000
0100
1000
0001
,
0100
0010
1000
0001
,
2000
3200
0320
0032
,
0103
0100
0010
1000
,
0100
0000
0100
0000
0010
0000
0001
1000
,
0001
0001
0010
0100
,
1000
0000
1000
0000
0010
0000
0100
0001
,
0100
0010
1000
0001
0100
0010
1000
0000
,
0100
0010
0001
1000
0100
0010
0001
0000
,
2002
0000
0000
0000
,
3003
0000
0000
0000
,
0101
0000
1010
0000
1000
0000
0100
0010
,
0000
0100
1000
0000
0001
0100
0010
1000
,
0000
0100
0010
0000
0001
1000
0010
0100
,
0002
0000
0023
0000
0230
0000
1300
0001
,
1000
0000
0110
0000
0001
0000
1000
0100
,
0000
0010
0001
0000
1000
0010
0100
0001
,
0000
0010
0100
0000
1000
1000
1000
0000
,
0020
0000
0230
0000
0301
0010
0100
0000
,
0110
0000
1001
0000
0001
0000
0100
0010
,
0000
1000
0100
0000
0010
0001
1000
0010
,
0000
0100
0001
0000
1000
0100
1000
0010
,
0200
0000
0302
0000
2003
0000
3010
0010
,
2000
3200
0302
0203
,
2300
0000
3020
0000
0032
0000
0013
0100
,
0002
0000
0023
0000
2030
0000
3010
0100
,
0010
0000
0001
0000
1000
0010
0100
0000
,
2002
0000
3003
1000
,
0100
0010
0001
0200
,
0000
0000
0300
0001
,
0100
0010
1000
0100
,
0020
0000
0000
0032
0000
0000
0013
0000
,
0100
1000
0001
0200
,
0000
0300
0010
1000
,
0001
0010
0100
1000
,
0001
0000
0001
0000
0100
0000
0010
1000
,
0010
1000
0100
0010
,
0001
0000
0001
0000
1000
0000
0010
0100
,
0010
0000
1000
1000
0100
0000
0010
0001
,
0010
0000
0010
0100
1000
0000
1000
0010
,
0100
0000
0100
0001
0010
0000
0010
0001
,
1000
1010
1001
1100
,
0001
0000
0100
0100
0010
0000
1000
0000
,
2002
0000
0000
0000
,
0000
0000
0000
3003
,
0001
0100
0010
0000
1000
0000
0001
0010
,
1000
1000
0010
0001
0100
0000
0110
0000
,
0010
1000
0001
0000
0010
0100
1000
0001
,
0100
0000
0010
1000
0001
0000
0010
0010
,
0200
0000
1300
0001
0200
0000
1300
0100
,
0001
0001
0010
0100
1000
0000
1001
0000
,
0110
0000
1001
0000
1000
0000
0010
0100
,
0001
0000
0010
0100
1000
0000
0001
0100
,
1000
0000
0100
0001
0010
0000
0100
0001
,
0100
1000
0010
0010
0100
0001
1000
0000
,
0110
0000
1001
0000
0001
0100
1000
0000
,
0110
0000
1001
0000
0010
0010
1000
0000
,
0101
0000
1000
0000
0001
0001
0010
0000
,
0110
0000
1000
0000
0100
0010
0001
0000
,
2001
0000
0000
0000
,
0000
0000
0000
0000
,
3020
0000
0000
0000
,
0000
0000
0000
0000
,
0230
0000
0000
0000
,
0000
0000
0000
0000
,
0302
0000
0000
0000
,
0000
0000
0000
0000
,
0003
0000
0000
0000
;

//--------------- dance-single - forcednature ----------------
#NOTEDATA:;
#STEPSTYPE:dance-single;
#DESCRIPTION:forcednature;
#DIFFICULTY:Hard;
#METER:16;
#RADARVALUES:0,0,0,0,0;
#CREDIT:forcednature;
#NOTES:
0000
0000
0000
0000
,
0000
0000
0000
0000
,
0000
0000
0000
0000
,
0000
0000
0000
0000
,
0000
0000
0000
0000
,
2002
0000
3003
0002
,
0203
0320
2030
3002
,
0000
0000
0003
2000
,
3200
0320
0032
2003
,
0000
0000
3000
0020
,
0230
0302
2003
3020
,
0000
0000
0030
0200
,
0302
0000
1003
0100
0010
0001
0100
0000
,
0001
0101
0000
0100
0101
0000
0001
0101
,
0000
0000
1000
0010
1000
0100
0010
0001
,
1000
1100
0000
0100
1100
0000
1000
1100
,
0000
0000
0000
0000
0001
0000
0010
0000
0001
0000
0100
0001
0100
0000
0010
0000
,
1000
1100
0000
0001
0101
0000
0010
0110
,
0000
0000
0000
0000
1000
0000
0001
0000
0100
0000
0010
0000
1000
0001
1000
0000
,
0100
0000
0010
0001
0010
0100
0010
1000
,
0001
0100
1000
0001
1000
0010
0200
0000
,
0300
0000
0002
0000
2003
0000
3100
0010
,
0001
0100
0001
0010
0001
0100
1000
0100
,
0010
0000
1000
0100
1000
0010
0100
1000
,
0100
0000
0001
0000
0010
0001
0010
0000
0100
0000
1000
0000
0010
0000
1000
0000
,
0001
0000
0100
1000
0100
0001
0010
0100
,
1000
0000
0010
0000
0100
0001
0100
0000
0010
0000
1000
0000
0100
0000
0001
0000
,
0100
0000
0010
0001
1000
0001
0100
0010
,
0001
0000
0010
0000
0100
0001
0100
0000
0010
0000
1000
0000
0001
0000
0010
0100
,
0010
0000
0000
0000
0001
0000
1000
0000
0001
0100
0001
0000
1000
0000
0010
0000
,
1000
0000
1000
0100
0010
0000
0000
0000
0001
0000
0100
0000
0010
0000
1000
0000
,
0001
0010
0100
0010
0001
0100
0001
0010
,
0100
0010
0001
0100
0010
1000
0001
0000
,
1000
0100
0010
0100
1000
0010
1000
0100
,
0010
0000
0010
0000
0001
0000
0000
0001
0100
0000
0010
0000
1000
0000
0000
0000
,
0001
0100
1000
0100
0001
0010
1000
0010
,
0100
0000
1000
0000
0001
0000
0100
0000
0010
0000
1000
0000
0001
0000
0010
0100
,
0010
0000
0001
1000
0010
1000
0100
0000
,
0010
0000
0010
0000
0001
0000
0000
0001
0100
0000
0010
0000
1000
0010
1000
0000
,
0001
0000
0010
0100
0010
1000
0010
0100
,
0010
0001
0010
1000
0010
0001
0010
0000
,
0100
1000
0100
0000
1000
0000
0010
0000
0100
0001
0100
0000
0001
0000
0000
0000
,
1000
1000
0100
0100
0010
0010
0001
0000
,
2002
0000
0000
0000
,
0000
0000
0000
0000
,
0000
0000
0000
0000
,
0000
0000
0000
3003
,
0001
0100
0001
0000
1000
0010
1000
0001
,
0000
0010
0100
1000
0100
0010
0001
0001
,
0100
0010
1000
0010
0100
0001
1000
0001
,
0010
0000
0000
0010
0100
0000
0000
0100
1000
0000
0000
1000
0001
0000
0001
0000
,
0100
0010
1000
0000
0001
0010
0001
0100
,
0000
0010
1000
0100
1000
0001
0100
0100
,
0010
1000
0001
0010
0000
0100
1000
0100
,
0010
0000
0000
0010
0001
0000
1000
0000
0010
0000
0000
0000
0100
0000
0001
0000
,
2010
0001
0100
0001
,
3010
0000
1000
0000
0100
0000
1000
0001
,
0012
1000
0100
1000
,
0013
0000
0000
0000
0001
0000
0000
0000
0100
0000
0000
0000
0001
1000
0001
0000
,
0100
0001
0010
0001
1000
0100
1000
0010
,
0100
0001
0100
0000
0010
0000
1000
0000
0001
0000
0010
0000
0100
1000
0100
1000
,
0002
0000
0000
0003
,
0100
0000
0010
0000
1000
0001
0010
0000
,
0100
0000
1000
0000
0001
0000
0100
0010
0100
0000
0001
0100
0001
0000
1000
0000
,
0001
0000
0010
0000
0100
1000
0100
0000
0010
0001
0010
0000
0100
0000
0100
0000
,
1000
0010
1000
0000
0001
0100
0001
0000
0010
0100
0010
0000
0001
0000
1000
0000
,
0010
0000
0000
0010
0100
0000
0000
0100
0001
0000
0000
0001
1000
0000
1000
0000
,
0100
0000
0010
0000
0001
0000
0100
0001
0100
0000
0001
0010
0001
0000
0100
0000
,
0010
0000
1000
0000
0100
1000
0100
0000
1000
0010
1000
0000
0001
0000
0001
0000
,
0010
0100
0010
0000
0100
1000
0100
0000
1000
0010
1000
0010
0100
0000
0001
0000
,
0020
1000
0230
2300
,
3001
0100
1000
0100
0010
1000
0001
0010
,
0100
0001
0100
1000
0010
0100
1000
0001
,
0010
0100
0010
0000
1000
0010
1000
0000
0001
0010
0001
0000
0100
0000
0100
0000
,
0010
1000
0000
0000
0100
0010
0000
0000
0001
0100
0000
0000
0010
1000
0010
1000
,
0001
0000
0000
0001
0010
0000
0000
0010
0100
0000
0000
0100
1000
0000
0000
1000
,
0001
0000
0000
0001
0100
0000
0000
0100
1000
0000
0000
1000
0100
0000
0100
0000
,
0010
0000
0000
0010
1000
0000
0000
1000
0001
0000
0000
0001
0010
0000
0010
0000
,
0200
0000
0001
0000
0310
0100
1000
0000
,
1002
0000
0000
0203
,
0302
0000
2003
0000
3020
0000
1030
0200
,
0000
0000
0300
0020
,
0032
0203
0320
2030
,
3002
0000
0003
0020
0000
0030
0100
1000
,
0002
0000
0203
0000
0320
0000
1030
0002
,
0000
0003
0020
0230
,
2300
0000
3002
0000
0203
0000
0310
1000
,
0001
0000
0001
0000
0010
0000
0100
1000
,
0001
0000
0100
0010
0000
1000
0001
0010
,
0001
0000
0000
0000
0001
0000
0000
0000
0100
0000
0000
0000
0010
0000
1000
0010
,
1000
0000
0000
0000
0001
0010
0001
0010
0100
0000
0000
0000
1000
0001
1000
0000
,
0010
0000
0100
0000
1000
0000
0100
0000
0010
0000
0100
0000
0001
0000
1000
0001
,
1000
0000
0100
0000
0010
0000
0001
1000
0001
0000
0100
0000
0010
0000
1000
0100
,
1000
0000
0100
0010
0100
0000
0010
0001
0010
0000
0001
1000
0001
0000
0100
0000
,
0110
0000
0000
0000
0010
1000
0010
0000
0100
0000
0001
0000
1000
0100
0010
0001
,
0200
0000
0000
0000
,
0000
0000
0000
0310
,
0001
0000
1000
0000
0001
0010
0001
0000
1000
0000
0010
0100
0001
0000
0010
0000
,
0100
0000
0100
0000
0100
1000
0001
1000
0010
0000
0100
0000
0110
0000
0000
0000
,
0001
0000
0100
0000
0010
0000
1000
0100
1000
0000
0001
0100
0001
0000
0010
0000
,
0100
0000
1000
0010
1000
0000
0001
0010
0001
0000
0100
0000
0010
1000
0010
1000
,
0001
0010
0100
1000
0100
0010
1000
0001
,
0100
0000
1000
0000
0001
0100
0010
1000
0100
0000
0000
0000
1001
0000
0000
0000
,
1000
0000
0010
0000
0100
0000
0001
0010
0001
0000
0100
0010
1000
0000
0001
0000
,
0010
0000
0100
0010
0001
0000
1000
0100
1000
0000
0001
0000
0100
0000
0100
0000
,
0010
0000
1000
0000
0001
0010
0001
0000
0100
0000
0010
1000
0001
0000
0010
0000
,
0100
0000
0100
0000
0100
0010
0001
1000
0010
0000
0100
0000
0110
0000
0000
0000
,
0001
0000
0010
0000
0100
1000
0001
0000
0100
0000
0110
0000
1001
0000
0000
0000
,
1000
0000
0010
0000
0100
0001
1000
0000
0100
0010
0001
0100
0010
0000
0000
0000
,
0201
0000
1300
0000
0110
1001
0110
0000
,
1001
0000
0000
1000
0100
0000
0000
0100
0010
0000
0001
0000
0100
0000
0000
0000
,
0120
0000
0000
0000
,
0000
0000
0000
0000
,
2030
0000
0000
0000
,
0000
0000
0000
0000
,
3002
0000
0000
0000
,
0000
0000
0000
0000
,
0023
0000
0000
0000
,
0000
0000
0000
0000
,
0030
0000
0000
0000
;

//--------------- dance-double - forcednature ----------------
#NOTEDATA:;
#STEPSTYPE:dance-double;
#DESCRIPTION:forcednature;
#DIFFICULTY:Easy;
#METER:9;
#RADARVALUES:0,0,0,0,0;
#CREDIT:forcednature;
#NOTES:
00000000
00000000
00000000
00000000
,
00000000
00000000
00000000
00000000
,
00000000
00000000
00000000
00000000
,
00000000
00000000
00000000
00000000
,
00000000
00000000
00000000
00000000
,
00022000
00000000
00000000
00033000
,
00001000
01000000
00010000
00200000
,
00000000
00000000
00300000
00000000
,
01000000
10000000
00010000
02000000
,
00000000
00000000
03000000
00000000
,
00001000
00010000
00000100
00002000
,
00000000
00000000
00003000
00000010
,
00000100
00000001
00000010
00000000
,
00000100
00000000
00000000
00000100
00000000
00000000
00000100
00000000
,
00000000
00010000
00001000
00000000
,
01000000
00000000
00000000
01000000
00000000
00000000
01000000
00000000
,
00000000
00001000
00010000
00000000
,
00100000
00000000
00000000
00100000
00000000
00000000
00100000
00000000
,
00000000
10000000
00010000
00100000
,
00001000
00001000
00010000
00000010
,
00001000
00000100
00000010
00000001
,
00000000
00000000
00000000
00000000
,
00000100
00000100
00001000
00010000
,
00100000
00000000
01000000
00010000
,
10000000
00010000
00100000
00001000
,
00010000
00000000
00000010
00001000
,
00000100
00000010
00000001
00000100
,
00000010
00000000
00001000
00000100
,
00010000
00001000
01000000
00010000
,
00100000
00000000
01000000
10000000
,
01000000
00010000
00001000
00100000
,
00001000
00000000
00010000
00000010
,
00010000
00001000
00000010
00000100
,
00000010
00000000
00000001
00000100
,
00001000
00000100
00000010
00010000
,
00001000
00000000
00100000
00001000
,
00010000
00100000
01000000
00010000
,
10000000
00000000
01000000
00010000
,
00001000
00010000
00000010
00001000
,
00000100
00000000
00000010
00000010
,
00000001
00000100
00001000
00000000
,
00010000
00010000
00100000
00100000
,
10000000
00010000
00100000
00000000
,
02200000
00000000
00000000
00000000
,
00000000
00000000
00000000
00000000
,
00000000
00000000
00000000
00000000
,
00000000
00000000
00000000
03300000
,
01000000
00000000
10000000
01000000
,
00000000
01000000
00000000
00010000
,
00000000
00001000
00000000
00000010
,
00000100
00001000
00000100
00000010
,
00000001
00000100
00000000
00000100
,
00000000
00000010
00000000
00010000
,
00000000
00001000
00000000
00100000
,
00010000
01000000
00010000
00000000
,
00100000
00100000
00001000
00010000
,
00000010
00000010
00010000
00001000
,
01000000
01000000
00001000
00010000
,
00000100
00000100
00010000
00001000
,
00100000
00100000
01000000
00100000
,
00010000
01000000
00001000
00010000
,
00000200
00000000
00000000
00000000
,
00000000
00000000
00000000
00000300
,
00000010
00000001
00000100
00000001
,
00000010
00000100
00010000
00001000
,
01000000
00010000
00100000
01000000
,
10000000
10000000
00010000
01000000
,
00001000
00010000
00000100
00001000
,
00000010
00010000
00001000
00100000
,
00010000
00000000
01000000
00000000
00001000
00010000
00001000
00000000
,
00000020
00000030
00000200
00000300
,
00001000
00000010
00000100
00000001
,
00000010
00000100
00010000
00010000
,
00001000
01000000
00010000
00100000
,
00010000
10000000
00100000
01000000
,
00010000
00100000
00001000
00010000
,
00000010
00010000
00001000
00000010
,
00000100
00000000
00001000
00000000
00000001
00000000
00000100
00000010
,
00000200
00000000
00000300
00000000
,
00002002
00000000
00003003
00000000
,
00001000
00000100
00010000
00002000
,
00000000
00000000
00003000
00000000
,
01000000
00010000
01000000
00100000
,
10000000
00000000
01000000
00000000
,
00100000
00001000
00010000
00000000
,
00000010
00000000
00001000
00000000
,
00000100
00000010
00000001
00000000
,
00000100
00000100
00000100
00000000
,
00001000
00010000
01000000
00000000
,
00100000
00100000
00100000
00000000
,
00010000
10000000
00100000
00000000
,
01100000
00000000
01000000
00001000
,
00010000
00000100
00001000
00000010
,
00001000
00000000
00000100
00000010
,
00000001
00000000
00000100
00000000
,
00002002
00000000
00000000
00000000
,
00000000
00000000
00000000
00003003
,
00001000
00000100
00010000
00001000
,
01000000
00000000
00010000
00000000
00100000
01000000
00100000
00000000
,
00010000
10000000
00100000
10000000
,
01000000
00010000
00001000
00010000
,
00010000
00000000
00000100
00001000
00000100
00000000
00000010
00000000
,
00000110
00000100
00002002
00003003
,
00000001
00000100
00000001
00000010
,
00000100
00000000
00010000
00000000
00001000
00000000
00100000
00010000
,
00100000
01000000
10000000
00010000
,
01000000
00000000
00001000
00000000
00010000
00000010
00010000
00000000
,
00001000
00000000
00000010
00000000
00000100
00000100
00001000
00000000
,
00000001
00000000
00000100
00000000
00000010
00001000
00000010
00000000
,
00011000
00000000
00000000
00000000
00100000
01000000
00100000
00000000
,
20020000
00000000
30030000
00000000
,
00020000
00000000
00000000
00000000
,
00000000
00000000
00000000
00000000
,
02030000
00000000
00000000
00000000
,
00000000
00000000
00000000
00000000
,
03002000
00000000
00000000
00000000
,
00000000
00000000
00000000
00000000
,
00023000
00000000
00000000
00000000
,
00000000
00000000
00000000
00000000
,
00030000
00000000
00000000
00000000
;

//--------------- dance-double - forcednature ----------------
#NOTEDATA:;
#STEPSTYPE:dance-double;
#DESCRIPTION:forcednature;
#DIFFICULTY:Medium;
#METER:13;
#RADARVALUES:0,0,0,0,0;
#CREDIT:forcednature;
#NOTES:
00000000
00000000
00000000
00000000
,
00000000
00000000
00000000
00000000
,
00000000
00000000
00000000
00000000
,
00000000
00000000
00000000
00000000
,
00000000
00000000
00000000
00000000
,
00022000
00000000
00033000
00001000
,
01000000
00010000
00100000
02000000
,
00000000
00000000
03000000
00100000
,
00001000
00010000
00000010
00002000
,
00000000
00000000
00003000
00000100
,
00000010
00000001
00000100
00000020
,
00000000
00000000
00000030
00010000
,
00001000
00100000
00010000
01000000
,
00100000
10000000
00000000
00100000
10000000
00000000
00100000
10000000
,
00000000
00010000
00100000
00001000
,
00010000
00000010
00000000
00010000
00000010
00000000
00010000
00000010
,
00000000
00001000
00000001
00000010
,
00000100
00001000
00000000
00000100
00001000
00000000
00000100
00001000
,
00000000
00000010
00010000
00001000
,
00200000
00010000
00010000
01000000
,
01300000
00100000
01000000
00000000
10000000
00010000
20000000
00000000
,
30000000
00000000
00000000
00000000
,
00010000
10000000
00010000
00000000
00100000
00001000
00010000
00000000
,
00000010
00000000
00001000
00000000
00000010
00001000
00000100
00000000
,
00000010
00000000
00000001
00000000
00000100
00000010
00001000
00000000
,
00000100
00000000
00010000
00000000
00001000
01000000
00010000
00000000
,
00100000
00000000
01000000
00000000
00100000
00001000
00010000
00000000
,
00100000
00000000
10000000
00010000
10000000
01000000
00100000
00000000
,
00010000
00000000
01000000
00001000
00010000
00001000
00100000
00000000
,
00010000
00000000
00001000
00000100
00001000
00000010
00000100
00000000
,
00000001
00000000
00000010
00000000
00000100
00010000
00001000
00100000
,
01000000
00000000
00100000
00001000
00000000
00001000
00100000
00000000
,
00010000
01000000
00010000
00000000
10000000
00100000
01000000
00000000
,
00001000
00000000
00010000
00000010
00000000
00000010
00010000
00000000
,
00001000
00000010
00000001
00000000
00000100
00000001
00000010
00000000
,
00000110
00000000
00000100
00010000
00000000
00001000
01000000
00000000
,
00010000
00100000
01000000
00000000
00100000
00010000
10000000
00000000
,
00100000
00000000
01000000
00001000
00000000
00001000
01000000
00000000
,
00010000
00100000
00010000
00000000
00001000
00000100
00001000
00000000
,
00001010
00000010
00010000
00010000
,
00001000
00000000
00001000
00000000
00100000
00000000
00100000
00010000
,
10000000
01000000
10000000
00000000
00010000
01000000
00010000
00000000
,
00100000
00001000
00100000
00001000
00010000
00000010
00001000
00000000
,
00002002
00000000
00000000
00000000
,
00000000
00000000
00000000
00000000
,
00000000
00000000
00000000
00000000
,
00000000
00000000
00000000
00003003
,
00001000
00000100
00010000
00001000
,
00000000
01000000
00010000
00100000
,
01000000
10000000
00010000
01000000
,
00002000
00023000
00030200
00002300
,
00003010
00010000
00001000
00100000
,
00000000
00010000
01000000
00010000
,
10000000
01000000
00100000
00010000
,
02000000
03002000
00023000
00030020
,
00001030
00001000
00000100
00000010
,
00000001
00000000
00000001
00000000
00000100
00000000
00000010
00001000
,
00000010
00010000
00001000
00100000
,
00010000
00000000
00010000
00000000
01000000
00000000
00100000
10000000
,
00010000
00100000
01000000
10000000
01000000
00100000
00010000
00000000
,
01000000
00001000
00010000
00000010
00010000
00001000
00000010
00000000
,
00000220
00000000
00000000
00000000
,
00000330
00000000
00000000
00000000
,
00010100
00000000
00011000
00000000
00001000
00000000
01000000
00010000
,
00000000
00100000
01000000
00000000
10000000
00100000
01000000
00010000
,
00000000
00100000
00001000
00000000
00010000
00000010
00001000
00000010
,
00000200
00000000
00000302
00000000
00000023
00000000
00000130
00001000
,
00000100
00000000
00011000
00000000
01000000
00000000
00010000
00100000
,
00000000
01000000
10000000
00000000
00010000
01000000
00001000
00010000
,
00000000
00000100
00001000
00000000
00000010
00000010
00000010
00000000
,
00000200
00000000
00000302
00000000
00000013
00000100
00010000
00000000
,
00011000
00000000
01001000
00000000
01000000
00000000
00010000
00100000
,
00000000
01000000
10000000
00000000
00100000
01000000
00010000
00100000
,
00000000
00001000
00010000
00000000
00000010
00001000
00000001
00000010
,
00000200
00000000
00020300
00000000
00032000
00000000
00103000
00100000
,
00020000
02030000
23000000
32000000
,
03020000
00000000
00230000
00000000
00302000
00000000
00013000
00000010
,
00002000
00000000
00003200
00000000
00000302
00000000
00000103
00000010
,
00000001
00000000
00000100
00000000
00001000
00010000
00100000
00000000
,
02200000
00000000
03300000
01000000
,
00010000
10000000
01000000
00200000
,
00000000
00000000
00300000
00001000
,
00010000
00000010
00010000
00001000
,
00000020
00000000
00000000
00000230
00000000
00000000
00001300
00000000
,
00000001
00000100
00001000
00020000
,
00000000
00030000
00100000
10000000
,
00010000
10000000
01000000
00010000
,
00001000
00000000
00001000
00000000
00000010
00000000
00000100
00001000
,
00000100
00000010
00000001
00000100
,
00001000
00000000
00001000
00000000
00010000
00000000
00100000
01000000
,
00100000
00000000
10000000
10000000
01000000
00000000
00100000
00010000
,
00100000
00000000
00100000
00001000
00010000
00000000
00010000
00000010
,
00001000
00000000
00001000
00000100
00000001
00000000
00000001
00000100
,
00000010
00000011
00001001
00000101
,
00000100
00000000
00001000
00001000
00010000
00000000
00100000
00000000
,
20020000
00000000
00000000
00000000
,
00000000
00000000
00000000
30030000
,
10000000
01000000
00100000
00000000
00010000
00000000
01000000
00001000
,
00010000
00010000
00001000
01000000
00010000
00000000
00110000
00000000
,
00100000
00001000
00010000
00000000
00000010
00010000
00001000
00000010
,
00000100
00000000
00001000
00000010
00000100
00000000
00000001
00000001
,
00000020
00000000
00000130
00010000
00002000
00000000
01003000
00010000
,
00100000
00100000
01000000
00100000
00001000
00000000
00011000
00000000
,
01001000
00000000
01010000
00000000
00010000
00000000
10000000
01000000
,
00100000
00000000
01000000
10000000
00010000
00000000
01000000
00001000
,
00010000
00000000
00100000
00010000
00001000
00000000
00000010
00000100
,
00001000
00000010
00000001
00000001
00000010
00000100
00000001
00000000
,
00000101
00000000
00000011
00000000
00000010
00001000
00010000
00000000
,
00011000
00000000
01001000
00000000
00010000
00010000
10000000
00000000
,
11000000
00000000
00010000
00000000
01000000
01000000
00001000
00000000
,
00011000
00000000
00010000
00000000
00000100
00001000
00000010
00000000
,
00000102
00000000
00000000
00000000
,
00000000
00000000
00000000
00000000
,
00000023
00000000
00000000
00000000
,
00000000
00000000
00000000
00000000
,
00000230
00000000
00000000
00000000
,
00000000
00000000
00000000
00000000
,
00020300
00000000
00000000
00000000
,
00000000
00000000
00000000
00000000
,
00030000
00000000
00000000
00000000
;

//--------------- dance-double - forcednature ----------------
#NOTEDATA:;
#STEPSTYPE:dance-double;
#DESCRIPTION:forcednature;
#DIFFICULTY:Hard;
#METER:17;
#RADARVALUES:0,0,0,0,0;
#CREDIT:forcednature;
#NOTES:
00000000
00000000
00000000
00000000
,
00000000
00000000
00000000
00000000
,
00000000
00000000
00000000
00000000
,
00000000
00000000
00000000
00000000
,
00000000
00000000
00000000
00000000
,
00022000
00000000
00033000
02000000
,
03020000
00230000
00320000
20030000
,
00000000
00000000
30000000
02000000
,
03020000
00032000
00003020
00000032
,
00000000
00000000
00000003
00000200
,
00000320
00020030
00032000
00203000
,
00000000
00000000
00300000
02000000
,
23000000
00000000
30010000
01000000
00010000
00100000
00001000
00000000
,
00010000
00010100
00000000
00000100
00010100
00000000
00010000
00010100
,
00000000
00000000
00001000
00010000
00001000
01000000
00010000
00100000
,
00001000
01001000
00000000
01000000
01001000
00000000
01000000
01001000
,
00000000
00000000
00000000
00000000
00010000
00000000
00001000
00000000
00010000
00000000
00000100
00001000
00000100
00000000
00000010
00000000
,
00000001
00000101
00000000
00000100
00000101
00000000
00000001
00000101
,
00000000
00000000
00000000
00000000
00000100
00000000
00000010
00000000
00000100
00000000
00001000
00000000
00010000
00001000
00010000
00000000
,
00100000
00000000
01000000
10000000
01000000
00100000
01000000
00010000
,
01000000
00001000
00010000
00000100
00010000
00001000
00000020
00000000
,
00000030
00000000
00000200
00000000
00002300
00000000
00003001
00000100
,
00001000
00010000
00001000
01000000
00001000
00100000
01000000
10000000
,
00100000
00000000
01000000
10000000
01000000
00010000
00100000
01000000
,
00100000
00000000
00001000
00000000
00010000
00000010
00010000
00000000
00001000
00000000
00000010
00000000
00000100
00000000
00000010
00000000
,
00000001
00000000
00000100
00001000
00000100
00000001
00000010
00000100
,
00010000
00000000
00001000
00000000
01000000
00010000
01000000
00000000
00100000
00000000
10000000
00000000
01000000
00000000
00010000
00000000
,
01000000
00000000
00100000
00001000
00010000
00000010
00010000
00001000
,
00000010
00000000
00000100
00000000
00001000
00000010
00001000
00000000
00000100
00000000
00000001
00000000
00000100
00000000
00000010
00000001
,
00000010
00000000
00000000
00000000
00000100
00000000
00010000
00000000
00001000
01000000
00001000
00000000
00010000
00000000
00100000
00000000
,
10000000
00000000
10000000
01000000
00100000
00000000
00000000
00000000
00010000
00000000
01000000
00000000
00001000
00000000
00010000
00000000
,
00000100
00001000
00000010
00001000
00010000
01000000
00010000
00100000
,
01000000
00010000
00001000
00010000
00100000
10000000
00010000
00000000
,
10000000
01000000
00010000
00001000
00000010
00000100
00010000
00001000
,
00000100
00000000
00000100
00000000
00000001
00000000
00000000
00000001
00000010
00000000
00000100
00000000
00010000
00000000
00000000
00000000
,
00001000
00100000
01000000
00100000
00001000
00010000
00100000
00010000
,
00001000
00000000
00000010
00000000
00000100
00000000
00001000
00000000
00000001
00000000
00000100
00000000
00001000
00000000
00010000
00000010
,
00010000
00000000
00001000
00100000
00010000
00100000
01000000
00000000
,
10000000
00000000
10000000
00000000
00010000
00000000
00000000
00010000
01000000
00000000
00001000
00000000
00010000
00000010
00010000
00000000
,
00001000
00000000
00000010
00000100
00000010
00000001
00000010
00000100
,
00010000
00001000
00010000
00000010
00001000
00010000
01000000
00000000
,
00100000
10000000
00100000
00000000
10000000
00000000
01000000
00000000
00100000
00010000
00100000
00000000
00001000
00000000
00000000
00000000
,
00010000
00010000
00000010
00000010
00001000
00001000
00000001
00000000
,
00002002
00000000
00000000
00000000
,
00000000
00000000
00000000
00000000
,
00000000
00000000
00000000
00000000
,
00000000
00000000
00000000
00003003
,
00010000
00000100
00001000
00000000
00000010
00001000
00010000
01000000
,
00000000
00010000
00100000
01000000
00100000
00001000
00010000
00010000
,
00100000
01000000
00100000
10000000
01000000
00010000
00001000
00010000
,
00000100
00000000
00000000
00000100
00001000
00000000
00000000
00001000
00000010
00000000
00000000
00000010
00000100
00000000
00000100
00000000
,
00000001
00000010
00000100
00000000
00000010
00000001
00000100
00000001
,
00000000
00000010
00001000
00010000
01000000
00100000
00010000
00010000
,
01000000
10000000
01000000
00010000
00000000
00100000
01000000
00100000
,
00001000
00000000
00000000
00001000
00010000
00000000
00000010
00000000
00001000
00000000
00000000
00000000
00000100
00000000
00000010
00000000
,
00000012
00000203
00002300
00023000
,
00130000
00000000
10000000
00000000
01000000
00000000
10000000
00100000
,
21000000
32000000
03020000
00032000
,
00003010
00000000
00000000
00000000
00000100
00000000
00000000
00000000
00001000
00000000
00000000
00000000
00000001
00000100
00000001
00000000
,
00000010
00000100
00001000
00000100
00010000
00001000
01000000
00010000
,
00100000
01000000
00100000
00000000
00010000
00000000
10000000
00000000
00010000
00000000
01000000
00000000
00001000
00010000
00001000
00010000
,
00000200
00000000
00000000
00000300
,
00000010
00000000
00000001
00000000
00000100
00001000
00020000
00000000
,
00130000
00000000
01000000
00000000
00010000
00000000
10000000
00100000
10000000
00000000
01000000
10000000
01000000
00000000
00100000
00000000
,
00001000
00000000
00010000
00000000
00000010
00001000
00000010
00000000
00000100
00000010
00000100
00000000
00000001
00000000
00000001
00000000
,
00000010
00000100
00000010
00000000
00000100
00001000
00000100
00000000
00010000
00001000
00010000
00000000
00100000
00000000
10000000
00000000
,
01000000
00000000
00000000
01000000
00010000
00000000
00000000
00010000
00001000
00000000
00000000
00001000
00100000
00000000
00100000
00000000
,
00010000
00000000
01000000
00000000
00001000
00000000
00010000
00000100
00010000
00000000
00000100
00001000
00000100
00000000
00000010
00000000
,
00000001
00000000
00001000
00000000
00000010
00001000
00000010
00000000
00010000
00001000
00010000
00000000
00000100
00000000
00000100
00000000
,
00001000
00000010
00001000
00000000
00000010
00010000
00000010
00000000
00010000
00001000
00010000
00001000
00100000
00000000
00010000
00000000
,
02000000
10000000
03020000
00230000
,
01300000
00010000
00001000
00100000
00010000
01000000
00100000
00010000
,
00001000
00000010
00000100
00000010
00000001
00000100
00001000
00010000
,
00001000
00100000
00001000
00000000
00100000
00010000
00100000
00000000
01000000
00100000
01000000
00000000
10000000
00000000
10000000
00000000
,
00100000
01000000
00000000
00000000
01000000
00001000
00000000
00000000
00001000
00010000
00000000
00000000
00010000
00000100
00010000
00000100
,
00001000
00000000
00000000
00001000
00000010
00000000
00000000
00000010
00000100
00000000
00000000
00000100
00001000
00000000
00000000
00001000
,
00010000
00000000
00000000
00010000
01000000
00000000
00000000
01000000
00100000
00000000
00000000
00100000
00010000
00000000
00010000
00000000
,
10000000
00000000
00000000
10000000
00100000
00000000
00000000
00100000
00010000
00000000
00000000
00010000
00001000
00000000
00001000
00000000
,
00200000
00000000
01000000
00000000
00310000
00100000
00001000
00000000
,
00021000
00000000
00000000
00030020
,
00002030
00000000
00003002
00000000
00000023
00000000
00000130
00020000
,
00000000
00000000
00030000
00002000
,
02003000
03020000
00230000
02300000
,
23000000
00000000
30000000
00200000
00000000
00300000
01000000
00001000
,
00020000
00000000
00030200
00000000
00002300
00000000
00003010
00000200
,
00000000
00000300
00000002
00000023
,
00000230
00000000
00020300
00000000
00032000
00000000
01003000
00010000
,
00100000
00000000
00100000
00000000
01000000
00000000
01000000
10000000
,
00010000
00000000
01000000
00001000
00000000
00010000
00000100
00001000
,
00000100
00000000
00000000
00000000
00000100
00000000
00000000
00000000
00000010
00000000
00000000
00000000
00000001
00000000
00000010
00000001
,
00000010
00000000
00000000
00000000
00000100
00001000
00000100
00001000
00000010
00000000
00000000
00000000
00010000
00001000
00010000
00000000
,
00000100
00000000
00001000
00000000
00000010
00000000
00010000
00000000
00001000
00000000
00100000
00000000
00010000
00000000
01000000
00010000
,
01000000
00000000
00100000
00000000
10000000
00000000
00010000
00100000
00010000
00000000
01000000
00000000
00001000
00000000
00010000
00000100
,
00010000
00000000
00000100
00001000
00000100
00000000
00001000
00000010
00001000
00000000
00000010
00000100
00000010
00000000
00001000
00000000
,
00001001
00000000
00000000
00000000
00000001
00000010
00000001
00000000
00000100
00000000
00000010
00000000
00001000
00000100
00010000
00001000
,
00200000
00000000
00000000
00000000
,
00000000
00000000
00000000
01300000
,
00100000
00000000
00010000
00000000
10000000
00100000
10000000
00000000
00010000
00000000
00100000
00001000
00010000
00000000
00000010
00000000
,
00001000
00000000
00001000
00000000
00001000
00000100
00000010
00000001
00000100
00000000
00000010
00000000
00000110
00000000
00000000
00000000
,
00000100
00000000
00000001
00000000
00000010
00000000
00000100
00001000
00000100
00000000
00010000
00001000
00010000
00000000
00100000
00000000
,
01000000
00000000
00010000
00100000
00010000
00000000
10000000
00100000
10000000
00000000
01000000
00000000
00100000
00010000
00100000
00010000
,
01000000
00001000
00010000
00001000
00000100
00000010
00000100
00000001
,
00000010
00000000
00000100
00000000
00010000
00001000
01000000
00010000
00100000
00000000
00000000
00000000
01100000
00000000
00000000
00000000
,
01000000
00000000
10000000
00000000
00010000
00000000
01000000
00001000
01000000
00000000
00010000
00100000
00001000
00000000
00010000
00000000
,
00000010
00000000
00001000
00000100
00000010
00000000
00000001
00000010
00000001
00000000
00000100
00000000
00001000
00000000
00001000
00000000
,
00010000
00000000
00100000
00000000
01000000
00010000
01000000
00000000
00100000
00000000
10000000
00010000
00100000
00000000
01000000
00000000
,
00100000
00000000
00100000
00000000
00100000
00001000
00010000
00000100
00001000
00000000
00000010
00000000
00000110
00000000
00000000
00000000
,
00000100
00000000
00001000
00000000
00010000
00100000
01000000
00000000
00010000
00000000
00110000
00000000
11000000
00000000
00000000
00000000
,
01000000
00000000
00010000
00000000
00001000
00010000
00000100
00000000
00001000
00000010
00000100
00000001
00000010
00000000
00000000
00000000
,
00000210
00000000
00010300
00000000
00011000
01001000
01010000
00000000
,
00110000
00000000
00000000
00010000
10000000
00000000
00000000
10000000
00100000
00000000
00010000
00000000
00001000
00000000
00000000
00000000
,
00021000
00000000
00000000
00000000
,
00000000
00000000
00000000
00000000
,
00030200
00000000
00000000
00000000
,
00000000
00000000
00000000
00000000
,
00002300
00000000
00000000
00000000
,
00000000
00000000
00000000
00000000
,
00003002
00000000
00000000
00000000
,
00000000
00000000
00000000
00000000
,
00000003
00000000
00000000
00000000
;
