#VERSION:0.83;
#TITLE:Booths of Fighters;
#SUBTITLE:;
#ARTIST:RoughSketch + DD''ナカタ''Metal;
#TITLETRANSLIT:;
#SUBTITLETRANSLIT:;
#ARTISTTRANSLIT:RoughSketch + DD"Nakata"Metal;
#GENRE:;
#CREDIT:;
#MUSIC:Booths of Fighters.ogg;
#BANNER:Booths of Fighters.png;
#BACKGROUND:Booths of Fighters-bg.png;
#CDTITLE:./CDTitles/SDVX II -infinite infection-.png;
#SAMPLESTART:85.159;
#SAMPLELENGTH:15.000;
#SELECTABLE:YES;
#OFFSET:-0.006;
#BPMS:0.000=225.000
,192.000=200.000
,196.000=175.000
,256.000=155.000
,260.000=112.500
,278.500=225.000
;
#STOPS:278.500=0.400;
#DISPLAYBPM:155.000:225.000;
#BGCHANGES:0.000=../BGAs/21te.mp4=1.000=0=0=0=StretchNoLoop====,
99999.000=-nosongbg-=1.000=0=0=0=StretchNoLoop====
;
#FGCHANGES:;

//--------------- dance-single - forcednature ----------------
#NOTEDATA:;
#STEPSTYPE:dance-single;
#DESCRIPTION:forcednature;
#CREDIT:forcednature;
#DIFFICULTY:Beginner;
#METER:5;
#RADARVALUES:0,0,0,0,0;
#NOTES:
0000
0000
0000
0000
,
0000
0000
0000
0000
,
0000
0000
0000
0000
,
0000
0000
0000
0000
,
0000
0000
0000
0000
,
0000
0000
0000
0000
,
0000
0000
0000
0000
,
0000
0000
0000
0000
,
0000
0000
0000
0000
,
2002
0000
0000
0000
,
0000
0000
0000
0000
,
0000
0000
0000
0000
,
3003
0000
0000
0000
,
0001
0000
0000
0000
,
0100
0000
0000
0000
,
0010
0000
0000
0000
,
2002
0000
3003
0000
,
1000
0000
0000
0000
,
0100
0000
1000
0000
,
0001
0000
0010
0000
,
0001
0000
0000
0000
,
0100
0000
0000
0000
,
0010
0000
1000
0000
,
0001
0000
0100
0000
,
0010
0000
0000
0000
,
1001
0000
0000
0000
,
1000
0000
0100
0000
,
1000
0000
0001
0000
,
0100
0000
0100
0000
,
0110
0000
0000
0000
,
1001
0000
0000
0000
,
0110
0000
0000
0000
,
1001
0000
0000
0000
,
0001
0000
0001
0001
,
0001
0000
0000
0000
,
0100
0000
0100
0100
,
0100
0000
0000
0000
,
0010
0000
0010
0010
,
0010
0000
0000
0000
,
1000
0000
1000
1000
,
1000
0000
0000
0000
,
1001
0000
0001
0000
,
0001
0000
0001
0000
,
0110
0000
0010
0000
,
0010
0000
0010
0000
,
1001
0000
1000
0000
,
1000
0000
1000
0000
,
0110
0000
0100
0000
,
0010
0100
0010
0000
,
2002
0000
3003
0000
,
1000
0000
0100
0000
,
1000
0000
0000
0000
,
0001
0000
0100
0000
,
0001
0000
0000
0000
,
1000
0000
0010
0000
,
1000
0000
0000
0000
,
0001
0000
0010
0000
,
1001
0000
0001
0000
,
0100
0000
0000
0000
,
1001
0000
1000
0000
,
0100
0000
0000
0000
,
0110
0000
0001
0000
,
1000
0000
0000
0000
,
0110
0000
1000
0000
,
0010
0010
0010
0000
,
2002
0000
0000
3003
,
0000
0000
0000
0000
,
1000
0000
0100
0000
,
0010
0000
0001
0000
,
2002
0000
0000
0000
0000
3003
0000
0000
,
1000
1000
1000
0000
,
0001
0000
0000
0000
,
0100
0000
0100
0000
,
0100
0000
0000
0000
,
0001
0001
0001
0000
,
1000
0000
0000
0000
,
0100
0000
0100
0000
,
0010
0000
0010
0000
,
0000
0110
0000
0000
,
0001
1000
0001
0000
,
0100
0000
0000
0000
,
0010
0010
0010
0000
,
1000
0000
0000
0000
,
0100
0100
0010
0000
,
0110
0000
1001
0000
,
0220
0000
0000
0330
,
1000
0000
1000
0000
,
1000
0000
1000
0000
,
0110
0000
0010
0000
,
0010
0000
0010
0000
,
1001
0000
0001
0000
,
0001
0000
0001
0000
,
0110
0000
0100
0000
,
0010
0010
0010
0000
,
1001
0000
0000
0000
,
1000
0000
0001
0000
,
2002
0000
0000
0000
,
3003
0000
0000
0000
;

//--------------- dance-single - forcednature ----------------
#NOTEDATA:;
#STEPSTYPE:dance-single;
#DESCRIPTION:forcednature;
#CREDIT:forcednature;
#DIFFICULTY:Easy;
#METER:9;
#RADARVALUES:0,0,0,0,0;
#NOTES:
0000
0000
0000
0000
,
0000
0000
0000
0000
,
0000
0000
0000
0000
,
0000
0000
0000
0000
,
0000
0000
0000
0000
,
0000
0000
0000
0000
,
0000
0000
0000
0000
,
0000
0000
0000
0000
,
0000
0000
0000
0000
,
2002
0000
0000
0000
,
0000
0000
0000
0000
,
0000
0000
0000
0000
,
0000
0000
3003
0000
,
0001
0100
0001
0000
,
1000
0100
1000
0000
,
0010
0100
0010
0000
,
2002
0000
3003
0000
,
1000
0100
1000
0000
,
0001
0000
0010
0000
,
0001
0100
0001
0000
,
1000
1000
1000
0000
,
0001
0001
0010
0100
,
0010
0001
1000
0000
,
0110
0000
1001
0000
,
0220
0000
0000
0330
,
1001
0000
1000
0001
,
0010
0001
1000
0000
,
0010
0100
0001
0010
,
0110
0110
0110
0000
,
1002
0000
0103
0010
,
2001
0000
3100
0010
,
0110
0000
1001
0000
,
0220
0000
0000
0330
,
2001
0000
0100
0100
,
0001
0001
3010
0000
,
1002
0000
0100
0100
,
1000
1000
0013
0000
,
2001
0000
0010
0010
,
0001
0001
3100
0000
,
1002
0000
0010
0010
,
1000
1000
0103
0000
,
2002
3003
2000
3200
,
0320
0032
0203
0300
,
2002
3003
0002
0203
,
0320
2030
3200
0300
,
2002
3003
2000
3020
,
0230
0302
0023
0030
,
2002
3003
1000
0001
,
0100
0000
0010
0000
0100
0000
0020
0000
0000
0030
0000
0000
,
1001
0000
1000
0000
,
1000
0001
1000
0001
1000
0000
0000
0000
,
0010
0000
0100
0000
,
0001
1000
0001
1000
0001
0000
0000
0000
,
0010
0000
0100
0000
,
0100
0010
0100
0010
0100
0000
0000
0000
,
1000
0000
0001
0000
,
0100
0010
0100
0010
0100
0000
0000
0000
,
1001
0000
0001
0100
0002
0000
0000
0000
,
1000
1000
1003
0000
,
0001
0000
1000
0100
2000
0000
0000
0000
,
0001
0001
3001
0000
,
0001
0000
1000
0001
0020
0000
0000
0000
,
0100
0100
0130
0010
,
2002
0000
3003
0000
0001
1000
0001
0000
,
0100
0000
0000
0010
0000
0000
0100
0000
0010
0000
0000
0000
0110
0000
0000
0000
,
2002
0000
0000
3003
,
0000
0000
0000
0000
,
1001
0000
0110
0000
,
1001
0000
0110
0000
,
2002
0000
0000
0000
0000
3003
0000
0000
,
1000
0100
1000
0000
0001
0000
0000
0000
,
1000
0010
1000
0000
0001
0000
0000
0000
,
1000
0001
1000
0000
0100
0000
0000
0000
,
0010
0100
0010
0000
,
0001
0100
0001
0000
1000
0000
0000
0000
,
0001
0010
0001
0000
1000
0000
0000
0000
,
0001
1000
0001
0000
0100
0000
0000
0000
,
0110
0110
0110
0000
,
0000
1001
0000
0001
,
0100
0010
0100
0000
0001
0000
0000
0000
,
0010
0100
0010
0000
0001
0000
0000
0000
,
0100
0000
0010
0000
0100
0000
0010
0000
0100
0000
0010
0000
,
1000
0000
0001
0100
,
0010
0000
0000
1000
0000
0000
0010
0000
0100
0000
0010
0000
,
2000
3001
0002
1003
,
0001
0100
0010
1000
,
2002
3003
1000
0100
,
0010
0100
0010
0001
,
2002
3003
0001
0100
,
0010
0100
0010
1000
,
2002
3003
1000
0100
,
0010
0100
0010
0001
,
2002
3003
0001
1000
,
0010
0000
0100
0000
0010
0000
0200
0000
0000
0300
0000
0000
,
1001
0000
1000
1000
,
0010
0000
0100
0010
,
2002
0000
0000
0000
,
3003
0000
0000
0000
;

//--------------- dance-single - forcednature ----------------
#NOTEDATA:;
#STEPSTYPE:dance-single;
#DESCRIPTION:forcednature;
#CREDIT:forcednature;
#DIFFICULTY:Medium;
#METER:14;
#RADARVALUES:0,0,0,0,0;
#NOTES:
0000
0000
0000
0000
,
0000
0000
0000
0000
,
0000
0000
0000
0000
,
0000
0000
0000
0000
,
0000
0000
0000
0000
,
0000
0000
0000
0000
,
0000
0000
0000
0000
,
0000
0000
0000
0000
,
0000
0000
0000
0000
,
1001
0000
0000
0000
0001
0000
0000
0100
,
0000
0010
0000
0000
0000
1000
0000
0000
,
0001
0000
0000
0000
1000
0000
0000
0100
,
0000
0010
0000
0001
0000
0000
0100
0000
,
1001
0001
0100
0010
,
1001
1000
0100
0010
,
0110
0000
0001
0000
1000
0000
0010
0100
,
0010
0100
0000
0220
0000
0000
0330
0000
,
0001
1000
0100
0000
0100
0000
0010
0001
,
1000
0000
1000
0001
0100
0000
1000
0000
,
0100
0000
0100
0001
1000
0000
1000
0001
,
0010
0000
0100
0000
1000
0001
1000
0000
,
1001
0000
0001
0100
0010
0000
1000
0000
,
0010
0100
0001
0000
1000
0001
0000
0000
,
2020
3030
0202
0303
,
2000
0000
3200
0000
0320
0000
0031
1000
,
0001
0000
0001
0100
0010
0000
0010
1000
,
0100
0000
0100
0010
0001
0000
0101
0000
,
1000
0000
1000
0100
0010
0000
0010
0001
,
1000
1010
1001
1100
,
0001
1000
0100
0000
0220
0000
0330
0000
,
1000
0001
0100
0000
0220
0000
0330
0000
,
2001
3010
1002
0013
,
0100
0010
0100
0000
0010
0000
0110
0000
,
2001
0100
0100
0001
,
0001
0010
3010
0100
,
1002
0000
0100
0000
0100
0000
1000
1000
,
1000
0010
0013
0010
,
2001
0010
0010
0001
,
0001
0100
3100
0010
,
1002
0000
0010
0000
0010
0000
1000
1000
,
1000
0000
0100
0000
0103
0010
0100
0000
,
2001
0000
0000
0000
0100
0100
0100
0000
,
0001
0001
0001
0000
0010
0010
3010
0000
,
1002
0000
0000
0000
0100
0100
0100
0000
,
1000
1000
1000
0000
0010
0010
0013
0000
,
2001
0000
0000
0000
0010
0010
0010
0000
,
0001
0001
0001
0000
0100
0100
3100
0000
,
2002
0000
3003
0000
0100
0010
0100
0000
,
0010
0000
0010
0000
0100
0000
0220
0000
0000
0330
0000
0000
,
2002
0000
3003
0000
1000
0000
0100
0010
,
1000
0010
0001
1000
0100
0000
0010
0000
,
2002
0000
3003
0000
0001
0000
1000
0010
,
0100
1000
0100
0001
2000
0000
3010
0000
,
1002
0000
0000
1000
0000
0000
0013
0000
0011
0000
0000
0000
0001
0000
0010
0000
,
0100
0001
0100
1000
0002
0000
0013
0000
,
2001
0000
0000
0001
0000
0000
3010
0000
1010
0000
0000
0000
1000
0000
0100
0000
,
0001
0100
1000
0010
0200
0000
0300
0000
,
1001
0000
0000
0000
1000
0000
0100
0000
0010
0000
0001
0010
0001
0000
0010
0000
,
0100
0000
1000
0100
1000
0000
0100
0000
0010
0000
0001
0010
0001
0000
0000
0000
,
1001
0000
0000
0000
0001
0000
0100
0000
0010
0000
1000
0010
1000
0000
0010
0000
,
0100
0000
0001
0100
0001
0000
0100
0000
0010
0000
1000
0010
1000
0000
0000
0000
,
1001
0000
0000
0000
0001
0000
0100
0000
0010
0000
1000
0010
1000
0000
0100
0000
,
0010
0000
0001
0010
0001
0000
0100
0000
0010
0000
0000
0000
0100
0000
0100
0000
,
1001
0000
1000
0001
0010
0010
0110
0000
,
1001
0000
0000
1001
0000
0000
0100
0000
0010
0000
0000
0000
0110
0000
0000
0000
,
2002
0000
0000
3003
,
0000
0000
0000
0000
,
0002
0100
0100
0100
2003
0100
0100
0100
,
3002
0010
0010
0010
2003
0010
0010
0010
,
3002
0023
0230
2300
3020
0030
0000
0000
,
1000
0100
1000
0001
0000
0000
0012
0000
0000
0013
0000
0000
,
0001
0100
0001
1000
0000
0000
2010
0000
0000
3010
0000
0000
,
1000
0001
0010
0100
0000
0000
0210
0000
0000
0310
0000
0000
,
0002
0000
0000
0203
0000
0000
0310
0000
0010
2000
0000
0000
,
3001
0010
0100
0010
0000
0000
2100
0000
0000
3001
0000
0000
,
1000
0010
0100
0010
0000
0000
0102
0000
0000
1003
0000
0000
,
0100
0010
0001
1000
0000
0000
0012
0000
0000
1003
0000
0000
,
0010
1010
1001
2100
,
3000
0000
0100
0010
0000
0000
0210
0000
0000
1300
0000
0000
,
0001
0100
0010
1000
0000
0000
0021
0000
0000
0031
0000
0000
,
1000
0100
0010
0001
0000
0000
1020
0000
0000
1030
0000
0000
,
0001
0000
0010
0000
1000
0000
0001
0000
0100
0000
1000
0000
,
0001
1000
0010
1000
0000
0000
2100
0000
0000
3001
0000
0000
,
1000
0001
0010
0001
0000
0000
0100
0000
0100
0000
0010
0000
,
2010
3100
0012
0103
,
2000
0000
3200
0000
0310
0001
0010
0000
,
1002
0000
0103
0100
0100
0001
1000
1000
,
1000
0001
0010
0010
0010
0000
0100
0000
,
2001
0000
3100
0100
0100
1000
0001
0001
,
0001
1000
0010
0010
0010
0100
0010
0000
,
1002
0000
0013
0010
0010
0001
1000
1000
,
1000
0001
0100
0100
0100
0010
0100
0000
,
2001
0000
3010
0010
0010
0100
0010
0000
,
1000
0000
0001
0000
1000
0000
2002
0000
0000
3003
0000
0000
,
0110
0000
0110
0000
1000
0001
1000
0000
,
0001
0010
0100
1000
0100
0010
0001
0000
,
2002
0000
0000
0000
,
3003
0000
0000
0000
;

//--------------- dance-single - forcednature ----------------
#NOTEDATA:;
#STEPSTYPE:dance-single;
#DESCRIPTION:forcednature;
#CREDIT:forcednature;
#DIFFICULTY:Hard;
#METER:17;
#RADARVALUES:0,0,0,0,0;
#NOTES:
0000
0000
0000
0000
,
0000
0000
0000
0000
,
0000
0000
0000
0000
,
0000
0000
0000
0000
,
0000
0000
0000
0000
,
0000
0000
0000
0000
,
0000
0000
0000
0000
,
0000
0000
0000
0000
,
0000
0000
0000
0000
,
1001
0000
0000
0001
1000
0200
0000
0320
,
0000
0032
0000
0003
0000
0100
0001
0100
,
0010
0000
0000
1000
0001
1000
0000
0002
,
0000
0023
0000
0230
0000
1300
0010
0000
,
0110
0000
0100
0001
0000
0010
0001
0000
,
0110
0000
0100
1000
0000
0010
1000
0000
,
1001
0000
0001
0100
0000
0001
1000
0010
,
0100
0100
0000
2002
0000
0000
3003
0000
,
1000
0100
0001
0000
0101
0000
1100
0000
,
0001
0010
0100
1000
0200
0000
0310
0000
,
0001
0100
1000
0000
1000
0100
0001
0000
,
1000
0010
0100
0001
1000
0001
0010
0000
,
1000
0010
0001
0000
0011
0000
0001
0100
,
1000
0000
0000
0000
1000
0000
0100
0000
0001
0000
2000
0000
0000
3000
0000
0000
,
0011
0000
0000
0001
0200
0000
0000
0000
0310
0000
0000
1000
0200
0000
0000
0000
,
0310
0000
0001
0000
0001
0000
0100
0000
0001
0000
1000
0000
0010
0000
0000
0100
,
1000
0000
0100
0001
1000
0100
1000
0001
,
0010
0100
0010
0001
0100
0000
0110
0000
,
0010
1000
0001
0100
2000
0000
3100
0001
,
0010
1001
0101
1001
,
1000
0100
0001
0000
0101
0000
2000
0000
,
3001
0100
1000
0000
1100
0000
0002
0000
,
0013
0000
0010
0100
1000
0000
1000
0010
,
0200
0000
0001
0001
0001
0000
0310
0000
,
1001
0000
0001
0100
0010
0100
0001
0100
,
0010
0100
0001
0100
0010
0100
0001
0000
,
1001
0000
1000
0100
0010
0100
1000
0100
,
0010
0010
0100
1000
0001
0010
0001
0000
,
1001
0000
1000
0010
0100
0010
1000
0010
,
0100
0010
1000
0010
0100
0010
1000
0000
,
1001
0000
0001
0010
0100
0010
0001
0010
,
0100
0100
0010
0001
1000
0100
1000
0000
,
1001
0000
1000
0100
0010
0100
0001
0100
,
0010
0100
1000
0001
0020
0000
0100
0130
,
1001
0000
0001
0100
0010
0100
1000
0100
,
0010
0100
0001
1000
0020
0000
0100
0130
,
1001
0000
1000
0010
0100
0010
0001
0010
,
0100
0010
1000
0001
0200
0000
0010
0310
,
1001
0000
0001
1000
0010
0100
0001
0000
,
0100
0000
0110
0000
0010
0000
2002
0000
0000
3003
0000
0000
,
0110
0000
0000
0001
0000
0000
1000
0000
1010
0000
0000
0000
1000
0000
0001
0100
,
0010
0000
0010
0100
0001
0000
1000
0000
1020
0000
0000
0000
0031
0000
0000
0000
,
0110
0000
0000
1000
0000
0000
0001
0000
0011
0000
0000
0000
0001
0000
1000
0100
,
0010
0000
0010
0100
1000
0000
0001
0000
0021
0000
0000
0000
1030
0000
0000
0000
,
0110
0000
0000
0110
0000
0000
0001
0000
1002
0000
0000
0000
0103
0000
0001
1000
,
0010
0000
0010
1000
0001
0000
0100
0000
0201
0000
0000
0000
1300
0000
0000
0000
,
0110
0000
0000
0110
0000
0000
1000
0000
1001
0000
0000
0000
0001
0000
1000
0000
,
1100
0101
2002
3003
,
0011
0000
0000
0001
0100
0000
0001
0000
1000
0100
1000
0100
1000
0100
1000
0100
,
0010
0001
0010
0001
0010
0001
0010
0001
1000
0100
0010
0001
1000
0000
0000
0000
,
1010
0000
0000
1000
0100
0000
1000
0000
0001
0100
0001
0100
0001
0100
0001
0100
,
0010
1000
0010
1000
0010
1000
0010
1000
0001
0100
0010
1000
0001
0000
0000
0000
,
1001
0000
0000
1000
0100
0000
0010
0000
0001
1000
0001
1000
0001
1000
0001
1000
,
0010
0100
0010
0100
0010
0100
0010
0100
0001
1000
0010
0100
0001
0000
0000
0000
,
1001
0000
0000
1000
0001
0000
0100
0000
0110
0000
0110
0000
0110
0000
0000
0000
,
1001
0000
0000
1001
0000
0000
0100
0000
0210
0000
0000
0000
0310
0000
0110
0000
,
2002
0000
0000
3003
,
0000
0000
0000
0000
,
0021
0001
0031
1000
1020
1000
1030
0001
,
0201
0001
0301
1000
2100
3200
0320
0032
,
1003
0000
1000
0010
0000
0010
0100
0000
0100
0001
0000
0001
2000
0000
0000
3000
0000
0000
0000
0000
0000
0000
0000
0000
,
0001
0010
0100
1000
0000
0000
1100
0000
0000
0100
0010
0001
,
1000
0010
0100
0001
0000
1000
0001
0000
0010
0200
0000
1300
,
0001
0100
0010
1000
0000
0000
1010
0000
0000
0010
0100
0001
,
1000
0100
0000
0010
0100
0000
0010
0001
1000
0010
1000
0001
,
0010
0100
1000
0001
0000
0000
0011
0000
0000
0010
0001
1000
,
0010
0100
0001
1000
0000
0010
0200
0000
0301
0010
0001
1000
,
0100
1000
0001
0100
0000
0000
0110
0000
0000
0010
1000
0001
,
0020
0000
0000
0130
1000
0100
1000
0001
0010
0001
1000
0020
,
0000
0000
0100
0130
0000
0000
1001
0000
0000
0001
0100
0010
,
1000
0001
0010
0100
0000
1000
0010
0000
0100
0002
0000
1003
,
0100
1000
0001
0010
0000
0000
0011
0000
0000
0001
0100
0010
,
1000
0000
1100
0000
0110
0000
0011
0000
0110
0000
1100
0000
,
1000
0001
0100
0010
0000
0000
1010
0000
0000
1000
0100
1000
,
0001
0100
0001
0010
0000
0000
0011
0000
0101
0000
1100
0000
,
2010
3100
0012
0103
,
2000
3010
2000
3100
0020
0031
0200
0300
,
1001
0000
1000
0100
0001
0100
1000
0100
,
0001
0100
1000
0100
0001
0100
0010
0001
,
1001
0000
0001
0100
1000
0100
0001
0100
,
1000
1000
0100
0001
1000
0010
1000
0010
,
1001
0000
0001
0010
1000
0010
0001
0010
,
1000
0010
0001
0010
1000
0010
0100
1000
,
1001
0000
1000
0010
0001
0010
1000
0010
,
0100
0000
0110
0000
0010
0000
2002
0000
0000
3003
0000
0000
,
1100
0000
0101
0000
0001
0010
1000
0010
,
0001
0100
0001
1000
0010
0010
0010
0000
,
2002
0000
0000
0000
,
3003
0000
0000
0000
;

//--------------- dance-double - forcednature ----------------
#NOTEDATA:;
#STEPSTYPE:dance-double;
#DESCRIPTION:forcednature;
#CREDIT:forcednature;
#DIFFICULTY:Easy;
#METER:9;
#RADARVALUES:0,0,0,0,0;
#NOTES:
00000000
00000000
00000000
00000000
,
00000000
00000000
00000000
00000000
,
00000000
00000000
00000000
00000000
,
00000000
00000000
00000000
00000000
,
00000000
00000000
00000000
00000000
,
00000000
00000000
00000000
00000000
,
00000000
00000000
00000000
00000000
,
00000000
00000000
00000000
00000000
,
00000000
00000000
00000000
00000000
,
00022000
00000000
00000000
00000000
,
00000000
00000000
00000000
00000000
,
00000000
00000000
00000000
00000000
,
00000000
00000000
00033000
00000000
,
00010000
00000000
00001000
00000000
,
01000000
00000000
00001000
00000000
,
00010000
00000000
00001000
00000000
,
00022000
00000000
00033000
00000000
,
00010000
00001000
00010000
00000000
,
00000100
00000000
00001000
00000000
,
00000100
00000000
00000010
00000000
,
00000001
00000000
00000000
00000000
,
00000100
00000001
00000100
00000000
,
00000010
00000000
00010000
00000000
,
00011000
00000000
00011000
00000000
,
00200000
00000000
00300000
00000000
,
10010000
00000000
10000000
00000000
,
01000000
00000000
00010000
00000000
,
00001000
00000000
00010000
00000000
,
00001000
00010000
00001000
00000000
,
00020000
00000000
00030100
00000000
,
00002000
00000000
01003000
00000000
,
00011000
00000000
00011000
00000000
,
00022000
00000000
00033000
00000000
,
00000100
00000000
00001000
00000100
,
00001000
00000000
00000100
00000000
,
00010000
00000000
00001000
00010000
,
00001000
00000000
00010000
00000000
,
00001000
00000000
01000000
00010000
,
01000000
00000000
00001000
00000000
,
00010000
00000000
00000010
00001000
,
00000010
00000000
00010000
00000000
,
00011000
00000000
00200000
00320000
,
00230000
00320000
00230000
00300000
,
00011000
00000000
00000020
00002030
,
00003020
00002030
00003020
00000030
,
00011000
00000000
02000000
03020000
,
02030000
03020000
02030000
03000000
,
00011000
00000000
00000100
00000000
,
00001000
00000001
00000010
00000000
,
00001001
00000000
00000000
00000000
,
00000001
00000100
00001000
00010000
,
00200000
00000000
00300000
00000000
,
10000000
01000000
00010000
00001000
,
00000020
00000000
00000030
00000000
,
00000001
00000100
00001000
00010000
,
00200000
00000000
00300000
00000000
,
10000000
00010000
10010000
00000000
,
10000000
01000000
00020000
00000000
,
00001000
00001000
00031000
00000000
,
00010000
00001000
00000020
00000000
,
00000001
00000001
00000031
00000000
,
00000001
00000100
00002000
00000000
,
00010000
00010000
00013000
00000000
,
00022000
00000000
00033000
00000000
,
00001000
00000000
00000000
00010000
00000000
00000000
00001000
00000000
00010000
00000000
00000000
00000000
00011000
00000000
00000000
00000000
,
02000000
00000000
00000000
03000000
,
00000000
00000000
00000000
00000000
,
10010000
00000000
00010000
00000000
,
01000000
00000000
00001000
00000000
,
00022000
00000000
00000000
00000000
00000000
00033000
00000000
00000000
,
00000100
00001000
00000100
00010000
,
00001000
00001000
00010000
00000000
,
00001000
01000000
00010000
10000000
,
00100000
00100000
10000000
00000000
,
00010000
00100000
00001000
00010000
,
00000100
00000100
00001000
00000000
,
00000001
00000100
00000010
00000000
,
00000110
00000110
00000110
00000000
,
00000000
00001001
00000000
00001000
,
00000100
00010000
00001000
00000000
,
01000000
00010000
00100000
00000000
,
01000000
01100000
00100000
01100000
,
10000000
00000000
00010000
01000000
,
00001000
00010000
00000010
00000010
,
00002000
00003000
00000002
00000003
,
00000010
00000100
00001000
00000100
,
00020000
00030000
00001000
01000000
,
00010000
01000000
00001000
00000000
,
00022000
00033000
00010000
00000100
,
00001000
00000100
00010000
00000000
,
00022000
00033000
00001000
00100000
,
00010000
00100000
00001000
00000000
,
00022000
00033000
00010000
00000010
,
00001000
00000001
00002002
00003003
,
00000001
00000000
00000001
00000001
,
00000100
00000000
00001000
00000000
,
00022000
00000000
00000000
00000000
,
00033000
00000000
00000000
00000000
;

//--------------- dance-double - forcednature ----------------
#NOTEDATA:;
#STEPSTYPE:dance-double;
#DESCRIPTION:forcednature;
#CREDIT:forcednature;
#DIFFICULTY:Medium;
#METER:14;
#RADARVALUES:0,0,0,0,0;
#NOTES:
00000000
00000000
00000000
00000000
,
00000000
00000000
00000000
00000000
,
00000000
00000000
00000000
00000000
,
00000000
00000000
00000000
00000000
,
00000000
00000000
00000000
00000000
,
00000000
00000000
00000000
00000000
,
00000000
00000000
00000000
00000000
,
00000000
00000000
00000000
00000000
,
00000000
00000000
00000000
00000000
,
00011000
00000000
00000000
00000000
00010000
00000000
00000000
00001000
,
00000000
01000000
00000000
00000000
00000000
00010000
00000000
00000000
,
10000000
00000000
00000000
00000000
00100000
00000000
00000000
10000000
,
00000000
01000000
00000000
00010000
00000000
00000000
00001000
00000000
,
00011000
00010000
00000100
00010000
,
00011000
00001000
01000000
00001000
,
00010000
00100000
10000000
00010000
,
10000000
01000000
00000000
02200000
00000000
00000000
03300000
00000000
,
00100000
00001000
00010000
00000000
00000100
00000000
00001000
00000000
,
00000001
00000000
00000100
00000010
00001000
00000000
00000001
00000000
,
00000010
00000000
00000100
00010000
00001000
00000000
00100000
00001000
,
00010000
00000000
00001000
00000000
01000000
00010000
10000000
00000000
,
00010000
00010000
00010000
00000000
00100000
00000000
01000000
00000000
,
10000000
01000000
00010000
00000000
00001000
00010000
00000000
00000000
,
00021000
00030010
00012000
00103000
,
00011000
00000000
00010000
00000100
00010000
00000000
00002000
00000000
,
00103000
00000000
00010000
01000000
00100000
00000000
00100000
10000000
,
00010000
00000000
00010000
00100000
00001000
00000000
00011000
00000000
,
00010000
00000000
00010000
00000010
00001000
00000000
00001000
00000100
,
00000010
00001100
00000110
00000011
,
00000001
00000100
00001000
00000000
00022000
00000000
00033000
00000000
,
00010000
00100000
02200000
03300000
,
20010000
31000000
20010000
30100000
,
10000000
01000000
00200000
00000000
00010000
00000000
00301000
00000000
,
00012000
01000000
01000000
00010000
,
00010000
00100000
00103000
00001000
,
00021000
00000100
00000100
00001000
,
00001000
00000000
00000010
00000000
00031000
00010000
00001000
00000000
,
00012000
00100000
00100000
00010000
,
00010000
01000000
01000000
00013000
,
00021000
00000010
00000010
00001000
,
00000100
00000100
00000100
00000000
00031000
00010000
00001000
00000000
,
00012000
00000000
00000000
00000000
01000000
01000000
01000000
00000000
,
00010000
00010000
00010000
00000000
00100000
00100000
00103000
00000000
,
00021000
00000000
00000000
00000000
00000100
00000100
00000100
00000000
,
00001000
00001000
00001000
00000000
00000010
00000010
00030010
00000000
,
00012000
00000000
00000000
00000000
00100000
00100000
00100000
00000000
,
00010000
00010000
00010000
00000000
01000000
01000000
01003000
00000000
,
00022000
00033000
00001000
00010000
,
00100000
00000000
01000000
00000000
00100000
00000000
02000000
00000000
00000000
03000000
00000000
00000000
,
20020000
00000000
30030000
00000000
10000000
00000000
01000000
00010000
,
00001000
00000000
00010000
00001000
00000020
00000000
00000031
00000000
,
00002002
00000000
00003003
00000000
00000001
00000000
00000100
00001000
,
00010000
00000000
00001000
00010000
00200000
00000000
10300000
00000000
,
20020000
00000000
30030000
00000000
10000000
00000000
01000000
00010000
,
00001000
00010000
01000000
00010000
00001000
00000000
00000010
00000000
,
00002002
00000000
00003003
00000000
00000001
00000000
00000100
00001000
,
00010000
00001000
00000100
00001000
00020000
00000000
00030000
00000000
,
00011000
00000000
00001000
01000000
00010000
00100000
01000000
00010000
,
00001000
00100000
00010000
00100000
00001000
00000010
00001000
00000000
,
00011000
00000000
00010000
00000100
00001000
00000010
00000100
00001000
,
00010000
00000010
00001000
00000010
00010000
00100000
00010000
00000000
,
00011000
00000000
00001000
01000000
00010000
10000000
00100000
10000000
,
01000000
00010000
00001000
00100000
00001000
00000010
00000100
00000000
,
00000220
00000000
00000330
00000000
00001001
00001001
00001001
00000000
,
00000001
00000000
00000000
00000100
00000000
00000000
00001000
00000000
00011000
00000000
00000000
00000000
00100000
00000000
00000000
00000000
,
20020000
00000000
00000000
30030000
,
00000000
00000000
00000000
00000000
,
10000000
01000000
00010000
00000000
00001000
00010000
01000000
00000000
,
00010000
00001000
00000010
00000000
00000001
00000010
00001000
00000000
,
00020000
02030000
23000000
30200000
00320000
00030000
00000000
00000000
,
00001000
00000000
00010000
00000100
00000000
00000000
00002100
00000000
00000000
00003001
00000000
00000000
,
00000010
00000000
00000001
00000010
00000000
00000000
00000100
00000000
00001000
00000001
00000000
00000000
,
00000100
00000000
00000010
00001000
00000000
00000000
00001020
00000000
00000000
00010030
00000000
00000000
,
00002000
00000000
00000000
02003000
00000000
00000000
03010000
00000000
00010000
20000000
00000000
00000000
,
30100000
00000000
01000000
00010000
00000000
00000000
00210000
00000000
00000000
00301000
00000000
00000000
,
00010000
00000000
00000100
00001000
00000000
00000000
00000100
00000000
00000010
00000001
00000000
00000000
,
00001000
00000000
00000010
00000100
00000000
00000000
00001002
00000000
00000000
00000013
00000000
00000000
,
00000100
00001100
00010100
00012000
,
00003000
00000000
00100000
00010000
00000000
00000000
01020000
00000000
00000000
10030000
00000000
00000000
,
00010000
00000000
00100000
00001000
00000000
00000000
00010000
00000000
00000100
00001000
00000000
00000000
,
00000001
00000000
00000100
00000010
00000000
00000000
00002010
00000000
00000000
00003100
00000000
00000000
,
00000001
00000000
00000100
00000000
00001000
00000000
00010000
00000000
00100000
00000000
10000000
00000000
,
00010000
00000000
01000000
00010000
00000000
00000000
20100000
00000000
00000000
31000000
00000000
00000000
,
10000000
00000000
00010000
00100000
00000000
00000000
01000000
00000000
00010000
00000000
00001000
00000000
,
00020000
00030100
00020000
00030010
,
00200000
00300000
00002000
00003000
00020000
00030000
00000200
00000300
,
00001002
00000000
00000103
00000001
00000100
00000000
00001000
00000100
,
00001000
00000000
00010000
00001000
00010000
00000000
00100000
00000000
,
20010000
00000000
31000000
10000000
01000000
00000000
00010000
01000000
,
00010000
00000000
00001000
00010000
00001000
00000000
00000010
00000000
,
00001002
00000000
00000103
00000001
00000100
00000000
00001000
00000100
,
00001000
00000000
00010000
00001000
00010000
00000000
00100000
00000000
,
20010000
00000000
31000000
10000000
01000000
00000000
00010000
00000000
,
00001000
00000000
00011000
00000000
00010000
00000000
00022000
00000000
00000000
00033000
00000000
00000000
,
00000100
00000000
00000100
00000000
00000100
00001000
00000100
00010000
,
00001000
00000000
01000000
00010000
10000000
00100000
10000000
00000000
,
20020000
00000000
00000000
00000000
,
30030000
00000000
00000000
00000000
;

//--------------- dance-double - forcednature ----------------
#NOTEDATA:;
#STEPSTYPE:dance-double;
#DESCRIPTION:forcednature;
#CREDIT:forcednature;
#DIFFICULTY:Hard;
#METER:17;
#RADARVALUES:0,0,0,0,0;
#NOTES:
00000000
00000000
00000000
00000000
,
00000000
00000000
00000000
00000000
,
00000000
00000000
00000000
00000000
,
00000000
00000000
00000000
00000000
,
00000000
00000000
00000000
00000000
,
00000000
00000000
00000000
00000000
,
00000000
00000000
00000000
00000000
,
00000000
00000000
00000000
00000000
,
00000000
00000000
00000000
00000000
,
00011000
00000000
00000000
00010000
00001000
02000000
00000000
03020000
,
00000000
20030000
00000000
30000000
00000000
00100000
10000000
01000000
,
10000000
00000000
00000000
01000000
00010000
00001000
00000000
00000020
,
00000000
00000230
00000000
00020300
00000000
00031000
00000010
00000000
,
00000110
00000000
00000100
00010000
00000000
00001000
01000000
00000000
,
01100000
00000000
01000000
00001000
00000000
00010000
00000100
00000000
,
00000110
00000000
00000010
00000001
00000000
00000100
00000001
00001000
,
00000010
00000010
00000000
00002002
00000000
00000000
00003003
00000000
,
00000001
00000100
00001000
00000000
00011000
00000000
00100000
00000000
,
00010000
01000000
00010000
10000000
00200000
00000000
01300000
00000000
,
00100000
10000000
01000000
00000000
00010000
01000000
10000000
00000000
,
01000000
00010000
00001000
00100000
00001000
00010000
00000100
00000000
,
00000010
00001000
00010000
00000000
00011000
00000000
00001000
00100000
,
00010000
00000000
00000000
00000000
01000000
00000000
10000000
00000000
01000000
00000000
00020000
00000000
00000000
00030000
00000000
00000000
,
00110000
00000000
00000000
00001000
00020000
00000000
00000000
00000000
00030010
00000000
00000000
00010000
00002000
00000000
00000000
00000000
,
00103000
00000000
00010000
00000000
00010000
00000000
01000000
00000000
00010000
00000000
10000000
00000000
00100000
00000000
00000000
01000000
,
00010000
00000000
00100000
01000000
10000000
01000000
00010000
00001000
,
00100000
00010000
00100000
00001000
00000010
00000000
00000110
00000000
,
00000100
00010000
00001000
00000010
00000002
00000000
00000103
00000001
,
00000010
00000110
00010100
00101000
,
00001000
00010000
00100000
00000000
10000000
00000000
02000000
00000000
,
03010000
00001000
00000010
00000000
00000001
00000000
00000200
00000000
,
00001300
00000000
00001000
00010000
00100000
00000000
00100000
10000000
,
02000000
00000000
00100000
00100000
00100000
00000000
03010000
00000000
,
00011000
00000000
00001000
01000000
00010000
01000000
00100000
01000000
,
10000000
01000000
00100000
01000000
00010000
01000000
00001000
00000000
,
00011000
00000000
00010000
00000100
00001000
00000100
00000010
00000100
,
00000001
00000100
00000010
00000100
00001000
00000100
00010000
00000000
,
00011000
00000000
00001000
00100000
00010000
00100000
01000000
00100000
,
10000000
00100000
01000000
00100000
00010000
00100000
00001000
00000000
,
00011000
00000000
00010000
00000010
00001000
00000010
00000100
00000010
,
00000001
00000010
00000100
00000010
00001000
00000010
00010000
00000000
,
00011000
00000000
00001000
00100000
01000000
10000000
01000000
00100000
,
00010000
01000000
10000000
01000000
00020000
00000000
00130000
00001000
,
00011000
00000000
00010000
00000010
00000100
00000001
00000100
00000010
,
00001000
00000100
00000001
00000100
00002000
00000000
00003010
00010000
,
00011000
00000000
00001000
01000000
00100000
10000000
00100000
01000000
,
00010000
00100000
10000000
00100000
00020000
00000000
01030000
00001000
,
00011000
00000000
00010000
00000100
00001000
00000000
00000001
00000000
,
00000100
00000000
00001000
00000000
00010000
00000000
00200000
00000000
00000000
00300000
00000000
00000000
,
01100000
00000000
00000000
00010000
00000000
00000000
10000000
00000000
10100000
00000000
00000000
00000000
10000000
00000000
01000000
00000000
,
00010000
00000100
00001000
00000001
00000021
00000000
00000130
00000000
,
00000110
00000000
00000000
00001000
00000000
00000000
00000001
00000000
00000011
00000000
00000000
00000000
00000001
00000000
00000100
00000000
,
00001000
01000000
00010000
10000000
10200000
00000000
01300000
00000000
,
01100000
00000000
00000000
01100000
00000000
00000000
10000000
00000000
10020000
00000000
00000000
00000000
00130000
00000000
01000000
00000000
,
00010000
00000100
00001000
00000001
00000021
00000000
00000130
00000000
,
00000110
00000000
00000000
00000110
00000000
00000000
00000001
00000000
00002001
00000000
00000000
00000000
00003010
00000000
00000100
00000000
,
00001000
01000000
20020000
30030000
,
01100000
00000000
00000000
00000000
10000000
00000000
00010000
00000000
10000000
01000000
10000000
01000000
10000000
01000000
10000000
01000000
,
00100000
00010000
00100000
00010000
00100000
00001000
00100000
00001000
00010000
00000000
00000100
00000000
00001000
00000000
00000000
00000000
,
00000110
00000000
00000000
00000000
00000001
00000000
00001000
00000000
00000001
00000100
00000001
00000100
00000001
00000100
00000001
00000100
,
00000010
00001000
00000010
00001000
00000010
00010000
00000010
00010000
00001000
00000000
01000000
00000000
00010000
00000000
01000000
00000000
,
00100000
00000000
00000000
00000000
10000000
00000000
00010000
00000000
00100000
01000000
00100000
01000000
00100000
00010000
00100000
00010000
,
00100000
00001000
00100000
00001000
00010000
00001000
00010000
00001000
00010000
00000000
00000100
00000000
00001000
00000000
00000000
00000000
,
00002002
00000000
00003003
00000000
00000110
00000110
00000110
00000000
,
00000001
00000000
00000000
00000100
00000000
00000000
00001000
00000000
00020000
00000000
00000000
00000000
00130000
00000000
01100000
00000000
,
20020000
00000000
00000000
30030000
,
00000000
00000000
00000000
00000000
,
00020000
01000000
10000000
00100000
00032000
00000100
00000001
00000010
,
00023000
01000000
10000000
00100000
00032000
00003200
00000320
00000032
,
00000103
00000000
00000001
00000100
00000000
00000100
00001000
00000000
00001000
00010000
00000000
00010000
00200000
00000000
00000000
00300000
00000000
00000000
00000000
00000000
00000000
00000000
00000000
00000000
,
10000000
00010000
01000000
00010000
00000000
00000000
01100000
00000000
00000000
00010000
01000000
00001000
,
00010000
00001000
00010000
00000010
00000000
00001000
00000100
00000000
00000010
00000200
00000000
00001300
,
00000001
00000010
00000001
00001000
00000000
00000000
00001100
00000000
00000000
00000100
00001000
00000100
,
00010000
00001000
00000000
00100000
00010000
00000000
10000000
00100000
01000000
00010000
01000000
00100000
,
10000000
00010000
01000000
00010000
00000000
00000000
00110000
00000000
00000000
00001000
00010000
00001000
,
00010000
00000100
00001000
00000100
00000000
00000010
00000002
00000000
00000103
00000010
00001000
00000010
,
00010000
00001000
00010000
00001000
00000000
00000000
00011000
00000000
00000000
00100000
00010000
10000000
,
00200000
00000000
00000000
01300000
00010000
01000000
00001000
00010000
00000010
00001000
00000010
00000200
,
00000000
00000000
00000001
00000301
00000000
00000000
00001001
00000000
00000000
00001000
00000100
00010000
,
00001000
00010000
00001000
00100000
00000000
00010000
01000000
00000000
00100000
02000000
00000000
03010000
,
10000000
00100000
10000000
00010000
00000000
00000000
00110000
00000000
00000000
00100000
00001000
00010000
,
00001000
00000000
00011000
00000000
00010100
00000000
00001100
00000000
00001010
00000000
00000110
00000000
,
00000100
00000001
00001000
00000001
00000000
00000000
00000011
00000000
00000000
00000010
00000100
00001000
,
00000100
00010000
00001000
00010000
00000000
00000000
00011000
00000000
00101000
00000000
00110000
00000000
,
00020000
02030000
03020000
00230000
,
01300000
00010000
00001000
00010000
00001000
00000010
00000001
00000000
,
00001001
00000000
00000001
00000100
00001000
00000100
00000001
00000100
,
00001000
00000100
00000001
00000100
00001000
00010000
00100000
10000000
,
00020000
00000000
10030000
01000000
00010000
01000000
10000000
01000000
,
00010000
01000000
10000000
01000000
00010000
00001000
00000010
00000001
,
00002000
00000000
00003001
00000100
00001000
00000100
00000001
00000100
,
00001000
00000100
00000001
00000100
00001000
00010000
00100000
10000000
,
00020000
00000000
10030000
01000000
00010000
01000000
10000000
01000000
,
00010000
00000000
00011000
00000000
00010100
00000000
00002200
00000000
00000000
00003300
00000000
00000000
,
00000110
00000000
00000010
00000000
00000010
00000001
00000100
00000001
,
00000020
00000000
00000130
00010000
00001000
00001000
00100000
00000000
,
20020000
00000000
00000000
00000000
,
30030000
00000000
00000000
00000000
;
