#VERSION:0.83;
#TITLE:Boomy and The Boost;
#SUBTITLE:;
#ARTIST:Eagle;
#TITLETRANSLIT:;
#SUBTITLETRANSLIT:;
#ARTISTTRANSLIT:;
#GENRE:NEO JUNGLE;
#CREDIT:;
#MUSIC:Boomy and The Boost.ogg;
#BANNER:Boomy and The Boost.png;
#BACKGROUND:Boomy and The Boost-bg.png;
#CDTITLE:./CDTitles/bm IIDX 25 CANNON BALLERS.png;
#SAMPLESTART:90.133;
#SAMPLELENGTH:15.000;
#SELECTABLE:YES;
#OFFSET:0.880;
#BPMS:0.000=174.000;
#STOPS:;
#TIMESIGNATURES:0.000=4=4;
#BGCHANGES:0.000=Boomy and The Boost.mp4=1.000=0=0=0=StretchNoLoop====,
99999.000=-nosongbg-=1.000=0=0=0=StretchNoLoop====
;
#FGCHANGES:;

//--------------- dance-single - forcednature ----------------
#NOTEDATA:;
#STEPSTYPE:dance-single;
#DESCRIPTION:forcednature;
#DIFFICULTY:Beginner;
#METER:5;
#RADARVALUES:0,0,0,0,0;
#CREDIT:forcednature;
#NOTES:
0000
0000
0000
0000
,
0000
0000
0000
0000
,
0000
0000
0000
0000
,
0000
0000
0000
0000
,
0000
0000
0000
0000
,
0000
0000
0000
0000
,
0001
0000
0000
0000
,
0100
0000
0000
0000
,
0010
0000
0000
0000
,
1000
0000
1000
0000
,
0100
0000
0000
0000
,
0010
0000
0000
0000
,
0001
0000
0000
0000
,
0100
0000
0000
0000
,
0010
0000
0000
0000
,
1000
0000
0000
0000
,
0001
0000
0000
0000
,
0010
0000
0010
0000
,
0100
0000
0000
0000
,
1000
0000
0000
0000
,
0010
0000
0010
0000
,
0100
0000
0100
0000
,
0001
0000
0000
0000
,
0010
0000
0000
0000
,
0100
0000
0100
0000
,
1000
1000
1000
0000
,
1001
0000
0001
0000
,
0100
0000
0000
0000
,
0010
0000
1000
0000
,
0001
0000
0000
0000
,
1000
0000
0100
0000
,
0010
0000
0000
0000
,
0001
0001
0001
0000
,
1000
1000
1000
0000
,
0110
0000
0001
0000
,
0010
0000
0000
0000
,
0100
0000
1000
0000
,
0010
0000
0000
0000
,
0100
0000
0001
0000
,
1000
0000
0000
0000
,
0110
0000
0000
0000
,
0001
0001
1000
1000
,
0010
0000
0100
0000
0000
0100
0000
0000
,
0100
0000
0000
0100
0000
0000
0100
0000
,
0000
0000
0001
0000
0000
0001
0000
0000
,
0001
0000
0000
0001
0000
0000
0001
0000
,
0000
0000
1000
0000
0000
1000
0000
0000
,
1000
0000
0000
1000
0000
0000
1000
0000
,
0000
0000
0010
0000
0000
0010
0000
0000
,
0010
0000
0000
0010
0000
0000
0010
0000
,
0100
0000
0000
0000
,
0001
0000
0000
0000
,
1000
0000
0000
0000
,
0100
0000
0000
0000
,
0010
0000
0000
0000
,
0001
0000
0000
0000
,
1000
0000
0000
0000
,
0010
0000
0100
0000
,
0001
0000
0000
0000
,
0010
0000
0010
0000
,
0100
0000
0000
0000
,
1000
0000
1000
0000
,
0001
0000
0000
0000
,
0100
0000
0100
0000
,
0010
0000
0000
0000
,
1000
0000
1000
0000
,
0001
0000
0001
0000
,
0010
0000
0010
0000
,
0100
0000
0100
0000
,
1000
0000
1000
0000
,
0001
0100
0001
0000
,
1000
0100
1000
0000
,
0010
0010
0010
0010
,
0100
0000
0000
0100
0000
0000
0100
0000
,
0000
0000
1001
0000
0000
1001
0000
0000
,
1001
0000
0000
1001
0000
0000
1001
0000
,
0000
0100
0100
0100
,
0000
0010
0010
0010
,
0000
0000
0110
0000
0000
0110
0000
0000
,
0110
0000
0000
0110
0000
0000
0110
0000
,
0000
0001
0001
0001
,
0000
1000
1000
1000
,
0000
0000
1001
0000
0000
0110
0000
0000
,
1001
0000
0000
0110
0000
0000
1001
0000
,
0000
0010
0001
0010
,
0000
0100
1000
0100
,
0000
0000
0110
0000
0000
1001
0000
0000
,
0110
0000
0000
1001
0000
0000
0110
0000
,
0000
0001
1000
0001
,
0100
0010
1000
0000
,
1001
0000
0000
0000
;

//--------------- dance-single - forcednature ----------------
#NOTEDATA:;
#STEPSTYPE:dance-single;
#DESCRIPTION:forcednature;
#DIFFICULTY:Easy;
#METER:8;
#RADARVALUES:0,0,0,0,0;
#CREDIT:forcednature;
#NOTES:
0000
0000
0000
0000
,
0000
0000
0000
0000
,
0000
0000
0000
0000
,
0000
0000
0000
0000
,
0000
0000
0000
0000
,
0000
0000
0000
0000
,
0001
0100
0000
0000
,
0010
1000
0000
0000
,
0001
0010
0000
0000
,
0100
1000
0100
0000
,
1000
0001
0000
0001
,
0100
0001
0000
0001
,
0010
0001
0000
1000
,
0010
0100
0000
0010
,
1000
0100
0000
0100
,
1000
0001
0000
0001
,
1000
0010
0000
0100
,
0001
0000
1000
0000
,
0100
0100
0100
0000
,
1000
0000
0001
0000
,
0100
0100
0100
0000
,
0001
0000
1000
0000
,
0010
0010
0010
0000
,
0100
0100
0100
0000
,
0001
0001
0001
0000
,
1000
0000
0000
1000
0000
0000
0000
0000
,
0001
0010
0001
0000
,
0100
0001
0100
0000
,
0010
1000
0010
0000
,
1000
1000
1000
0000
,
0100
1000
0100
0000
,
1000
0010
1000
0000
,
0002
0000
0023
0000
,
0230
0000
2300
3000
,
0001
0100
0001
0000
,
0010
0100
0010
0000
,
0001
0100
0001
0000
,
1000
1000
1000
0000
,
0001
0010
0001
0000
,
0100
0010
0100
0000
,
2002
0000
0000
3003
,
0020
0030
0200
0300
,
0000
0000
0001
0000
0000
1000
0000
0000
,
0001
0000
0000
1000
0000
0000
0001
0000
,
0000
0000
1000
0000
0000
0001
0000
0000
,
1000
0000
0000
0001
0000
0000
1000
0000
,
0000
0000
0000
0000
0001
0000
0000
1000
0000
0000
0001
0000
0000
1000
0000
0000
,
0001
0000
0000
1000
0000
0000
0001
0000
0000
1000
0000
0000
0001
0000
0000
0000
,
0000
0000
0000
0000
1000
0000
0000
0001
0000
0000
1000
0000
0000
0001
0000
0000
,
1000
0000
0001
0000
,
0010
0000
0000
0000
,
0100
0000
0000
0000
,
1000
0000
0000
0000
,
1000
0000
0000
0000
,
0010
0000
0000
0000
,
0100
0000
0000
0000
,
0001
0000
0000
0000
,
0010
0000
0000
0000
,
0100
0000
1000
0000
,
0100
0000
0000
0000
,
0010
0000
0001
0000
,
1000
0000
0000
0000
,
0010
0000
0100
0000
,
0001
0000
0000
0000
,
1000
0000
0100
0000
,
1000
0000
0000
0000
,
0010
0000
0100
0000
,
0010
0100
0010
0000
,
0100
0000
0001
0000
,
0100
0001
0100
0000
,
0001
0010
0001
0000
,
0010
0100
0010
0000
,
0100
1000
0100
0000
,
1000
0000
0000
1000
0000
0000
0000
0000
,
0000
0000
0000
0000
0001
0000
0000
1000
0000
0000
0001
0000
0000
1000
0000
0000
,
0001
0000
0000
1000
0000
0000
0001
0000
0000
1000
0000
0000
0001
0000
0000
0000
,
0000
0100
0010
0100
,
0000
0010
0100
0010
,
0000
0000
0000
0000
1000
0000
0000
0001
0000
0000
1000
0000
0000
0001
0000
0000
,
1000
0000
0000
0001
0000
0000
1000
0000
0000
0001
0000
0000
1000
0000
0000
0000
,
0000
0100
0010
0100
,
0000
0010
0100
0010
,
0000
0000
0000
0000
0001
0000
0000
0100
0000
0000
0001
0000
0000
0100
0000
0000
,
0010
0000
0000
1000
0000
0000
0010
0000
0000
1000
0000
0000
0001
0000
0000
0000
,
0000
0010
0100
0010
,
0000
0100
0010
0100
,
0000
0000
0000
0000
1000
0000
0000
0100
0000
0000
1000
0000
0000
0100
0000
0000
,
0010
0000
0000
0001
0000
0000
0010
0000
0000
0001
0000
0000
0100
0000
0000
0000
,
0010
0010
1000
1000
,
0001
0010
0100
0000
,
2002
0000
0000
0000
,
0000
0000
0000
0000
,
3003
0000
0000
0000
;

//--------------- dance-single - forcednature ----------------
#NOTEDATA:;
#STEPSTYPE:dance-single;
#DESCRIPTION:forcednature;
#DIFFICULTY:Medium;
#METER:12;
#RADARVALUES:0,0,0,0,0;
#CREDIT:forcednature;
#NOTES:
0000
0000
0000
0000
,
0000
0000
0000
0000
,
0000
0000
0000
0000
,
0000
0000
0000
0000
,
0000
0000
0000
0000
,
0000
0000
0000
0000
,
1000
0100
1000
0002
0000
0000
0003
0000
,
1000
0010
0100
0020
0000
0000
0030
0000
,
1000
0100
0010
0002
0000
0000
0003
0000
,
0100
0010
0100
0000
0001
0100
0001
0000
,
1001
0000
1000
0100
0000
0100
1000
0000
,
0010
0000
0100
0001
0000
0001
0100
0000
,
0010
0000
1000
0001
0000
0001
0010
0000
,
0100
0000
1000
0010
0100
0010
1000
0000
,
0001
0000
0001
0010
0000
0010
0100
0000
,
1000
0000
0010
0100
0000
0100
0001
0000
,
1000
0000
0100
0010
0000
0010
0001
0000
,
1000
0010
1000
0010
0100
0001
0100
0000
,
0110
0000
0000
0000
0010
0000
0000
0000
1000
0000
0000
1000
0000
0000
0001
0000
,
0000
0000
0010
0000
0100
0000
0000
0000
1000
0000
0000
1000
0000
0000
0010
0000
,
0100
0000
0000
0000
0001
0000
0000
0000
0010
0000
0000
0010
0000
0000
0100
0000
,
0000
0000
1000
0000
0001
0000
0000
0000
0100
0000
0000
0100
0000
0000
0010
0000
,
1000
0100
1000
0100
0010
0001
0010
0000
,
0001
0100
0001
0100
0010
1000
0010
0000
,
1000
0001
1000
0001
0010
0100
0010
0000
,
0220
0000
0000
0330
0000
0000
0220
0000
0000
0330
0000
0000
0000
0000
0000
0000
,
1000
0010
0100
0001
0100
0010
1000
0000
,
0001
0000
0000
0010
0000
0000
0100
0000
0000
0010
0000
0000
0001
0000
0000
0000
,
0100
0010
0100
0001
0010
0100
1000
0000
,
0010
0000
0000
0010
0000
0000
0010
0000
0100
0000
0001
0000
1000
0000
0000
0000
,
0001
0010
0100
0010
0001
0100
0010
0000
,
1000
0000
0000
0100
0000
0000
1000
0000
0000
0001
0000
0000
0010
0000
0000
0000
,
0110
0000
0000
0000
0100
0000
0000
0000
1000
0000
0000
1000
0000
0000
0010
0000
,
0000
0100
0001
0000
0010
0000
0110
0000
,
1001
0000
1000
0010
0100
0001
0100
0010
,
1000
0000
0100
0010
0100
1000
0001
0100
,
0010
0000
1000
0001
0010
0100
1000
0010
,
0100
0000
0000
0110
0000
0000
0010
0000
1000
0000
0001
0000
1000
0000
0000
0000
,
0100
0000
0010
0001
0100
0010
0100
0001
,
0010
0000
0100
1000
0010
0100
0010
1000
,
0200
0000
0000
0300
,
0010
0000
0000
0000
0001
0000
0000
0000
1000
0000
0000
0010
0000
0000
0100
0000
,
0000
0000
0000
0000
0001
0000
0000
0101
0000
0000
1000
0000
0000
1010
0000
0000
,
0001
0000
0000
0101
0000
0000
1000
0000
0000
1010
0000
0000
0200
0000
0000
0000
,
0300
0000
0000
0000
1000
0000
0000
1100
0000
0000
0001
0000
0000
0011
0000
0000
,
1000
0000
0000
1100
0000
0000
0001
0000
0000
0011
0000
0000
0200
0000
0000
0000
,
0300
0000
0000
0000
1000
0000
0000
1001
0000
0000
0100
0000
0000
1100
0000
0000
,
0001
0000
0000
1001
0000
0000
0100
0000
0000
0101
0000
0000
0020
0000
0000
0000
,
0030
0000
0000
0000
1001
0000
0000
1001
0000
0000
0110
0000
0000
0110
0000
0000
,
1001
0000
0100
0000
0010
0100
0010
0000
,
1001
0001
0100
0010
,
2000
0000
0000
3200
0000
0000
0310
0000
,
0002
0000
0000
1000
0000
0103
0000
0000
,
0002
0000
0000
1000
0000
0013
0000
0000
,
0001
0010
0100
0000
1000
0100
0010
0000
,
0001
0000
1000
0010
0000
0100
0010
0000
,
2000
0000
0000
0001
0000
3100
0000
0000
,
1000
0001
0010
0000
0001
1000
0010
0000
,
0100
0000
0100
0000
0001
1000
0001
0000
,
0010
0000
0010
0000
0001
1000
0001
0000
,
0100
0000
0100
0010
1000
0001
0010
0000
,
0100
0000
0100
0010
0001
1000
0010
0000
,
0100
0000
0010
0000
1000
0001
1000
0000
,
0100
0000
0010
0000
0001
1000
0001
0000
,
0100
0000
0100
0001
0100
0010
1000
0000
,
0100
1000
0100
0000
0010
0001
0010
0000
,
0100
1000
0001
1000
0100
0010
0001
0000
,
0100
0001
1000
0001
0100
0010
1000
0000
,
0100
0010
0001
1000
0100
0010
0001
0000
,
0100
0010
1000
0001
0100
0010
1000
0000
,
0100
1000
0100
1000
0001
0010
0001
0000
,
0100
0001
0100
0001
1000
0010
1000
0000
,
0100
0010
0100
0010
0001
1000
0001
0000
,
0100
0010
0000
0100
0010
1000
0001
0000
,
0000
0000
0000
0000
0001
0000
0000
0101
0000
0000
1000
0000
0000
1100
0000
0000
,
0001
0000
0000
0011
0000
0000
1000
0000
0000
1010
0000
0000
0100
0000
0000
0000
,
1000
0100
0010
0001
0010
0100
1000
0000
,
0001
0100
0010
1000
0010
0100
0001
0000
,
0000
0000
0000
0000
0001
0000
0000
0101
0000
0000
1000
0000
0000
1100
0000
0000
,
0001
0000
0000
0011
0000
0000
1000
0000
0000
1010
0000
0000
0100
0000
0000
0000
,
1000
0001
0100
0010
0100
0001
1000
0000
,
0001
1000
0100
0010
0100
1000
0001
0000
,
0000
0000
0000
0000
0101
0000
0000
0101
0000
0000
1010
0000
0000
1010
0000
0000
,
1100
0000
0000
1100
0000
0000
0011
0000
0000
0011
0000
0000
0001
0000
0000
0000
,
0100
0010
1000
0001
0010
0100
0010
0000
,
0001
0100
0010
1000
0001
0010
0100
0000
,
0000
0000
0000
0000
1100
0000
0000
1100
0000
0000
0011
0000
0000
0011
0000
0000
,
0101
0000
0000
0101
0000
0000
1010
0000
0000
1010
0000
0000
1000
0000
0000
0000
,
0001
0010
0100
0010
0100
1000
0001
0000
,
0100
0100
0010
0010
1000
0001
1000
0000
,
2002
0000
0000
0000
,
0000
0000
0000
0000
,
3003
0000
0000
0000
;

//--------------- dance-single - forcednature ----------------
#NOTEDATA:;
#STEPSTYPE:dance-single;
#DESCRIPTION:forcednature;
#DIFFICULTY:Hard;
#METER:15;
#RADARVALUES:0,0,0,0,0;
#CREDIT:forcednature;
#NOTES:
0000
0000
0000
0000
,
0000
0000
0000
0000
,
0000
0000
0000
0000
,
0000
0000
0000
0000
,
0000
0000
0000
0000
,
0000
0000
0000
0000
0000
0000
0000
0001
,
0100
0001
1000
0020
0000
0000
0030
0000
,
1000
0100
0010
0002
0000
0000
0003
0100
,
0010
0100
0001
2000
0000
0000
3000
0000
,
0100
1000
0010
1000
0001
0100
0001
0010
,
0100
0000
1000
0100
0000
1000
1000
0001
,
0100
0000
0000
0000
0001
0000
0100
0000
0000
0000
0001
0000
0010
0000
0100
1000
,
0100
0000
0000
0000
0010
0000
0001
0000
0000
0000
0100
0000
0100
0000
0010
1000
,
0010
0000
0000
0000
0100
0000
0001
0000
1000
0000
1000
0000
0100
0000
0010
0001
,
0010
0000
0100
1000
0000
0001
0001
0100
,
0010
0000
0000
0000
1000
0000
0001
0000
0000
0000
0010
0000
0010
0000
0100
1000
,
0100
0000
0010
0001
0000
1000
1000
0000
,
0010
0100
0001
0010
0100
1000
0001
0000
,
1010
0000
0000
0000
0101
0000
0000
0000
0001
0000
0000
0001
0010
0000
0100
0000
,
0000
0000
1000
0000
0010
0000
0000
0000
0100
0000
0000
0100
0001
0000
1000
0000
,
1100
0000
0000
0000
1010
0000
0000
0000
0001
0000
0000
0001
0100
0000
0010
0000
,
0000
0000
1000
0000
0001
0000
0000
0000
1000
0000
0000
1000
0100
0000
0010
0000
,
0001
0100
0001
0010
0001
0100
0001
0010
,
0100
1000
0010
1000
0100
1000
0010
1000
,
0100
0100
0010
0010
0001
0001
1000
1000
,
0010
0100
0001
0000
1000
0000
0100
0010
0001
0000
0100
0000
1000
0000
0100
0000
,
0010
0000
0101
0001
0000
1100
1000
0000
,
0011
0000
0000
0001
0000
0000
0100
0000
0000
0010
0000
0000
1000
0000
0001
0000
,
0010
0000
1100
1000
0000
0101
0001
0000
,
1010
0000
0000
0001
0000
0000
0010
0000
0100
0000
0100
0000
1000
0001
1000
0000
,
0010
0000
0101
1000
0000
1100
0001
0000
,
0110
0000
0000
1000
0000
0000
0001
0000
0000
0010
0000
0000
0100
0000
1000
0000
,
0001
0000
0000
0000
0100
0000
0000
0000
0010
0000
0000
0010
0000
0000
1000
0000
,
0000
0001
0100
0000
0001
0000
0010
0000
,
1001
0000
1000
0100
0001
0100
0010
0001
,
1000
0000
0000
0001
0100
0000
0001
0000
0000
1000
0100
0000
0010
0000
0001
0000
,
0100
1000
0100
0010
1000
0001
0010
0100
,
1001
0000
0000
0110
0000
0000
1001
0000
2000
0000
0000
0000
3001
0000
0100
0000
,
1010
0000
0001
0010
1000
0010
0100
1000
,
0001
0000
0000
0010
0100
0000
1000
0000
0000
0010
0100
0000
0001
0000
1000
0000
,
0200
0000
0000
0000
,
0310
0000
0000
0000
0001
0000
0000
0000
0100
0000
0000
0001
0000
0000
1000
0000
,
1001
0000
0000
0000
1010
0000
0000
1010
0000
0000
0101
0000
0000
0101
0000
0000
,
0011
0000
0000
0011
0000
0000
1100
0000
0000
1100
0000
0000
0001
0000
1000
0000
,
0001
0000
0000
0000
1100
0000
0000
1100
0000
0000
1010
0000
0000
1010
0000
0000
,
0101
0000
0000
0101
0000
0000
0011
0000
0000
0011
0000
0000
1000
0001
1000
0000
,
0010
0000
0000
0000
0101
0000
0000
1010
0000
0000
0110
0000
0000
1001
0000
0000
,
0011
0000
0000
1100
0000
0000
0110
0000
0000
1001
0000
0000
0001
0100
0001
0000
,
0010
0000
0000
0000
1100
0000
0000
0101
0000
0000
1010
0000
0000
0011
0000
0000
,
1001
0000
0000
0001
0100
0000
0001
0000
1000
0100
1000
0000
0010
0000
0100
0001
,
0100
0010
1000
0000
0001
0010
0200
0000
,
0310
0000
0001
1000
0000
0001
0100
0000
,
0020
0000
0030
0010
0000
0100
0000
0000
,
0020
0000
0030
0010
0000
0100
0001
1000
,
0000
0100
0010
0000
0100
1000
0020
0000
,
0130
0000
0001
1000
0000
0010
1000
0000
,
0200
0000
0300
0010
0000
0010
0000
0000
,
0001
0100
0001
1000
0100
1000
0010
0000
,
0100
0001
0100
1000
0100
0010
1000
0000
,
0001
0010
0100
0001
0100
0010
0001
0000
,
1000
0010
1000
0001
0010
0100
1000
0000
,
0010
0100
1000
0100
0001
0100
0010
0000
,
1000
0000
0100
0000
0010
0000
0001
0000
0100
0000
0010
0000
1000
0001
1000
0000
,
0001
0000
0100
0000
0010
0000
1000
0000
0001
0000
0010
0000
0100
1000
0100
0000
,
0010
0000
0001
0000
0100
0000
0010
0000
1000
0000
0001
0000
0010
0100
0010
0000
,
0001
0000
0100
0000
1000
0000
0100
0000
0010
0000
1000
0000
0001
0010
0001
0000
,
1000
0000
0010
0000
0100
0000
0001
0000
1000
0000
0100
0010
0000
0010
0001
0000
,
0100
0000
0010
0000
1000
0000
0001
0000
0010
0000
0100
1000
0000
1000
0001
0000
,
0100
0000
0010
0000
1000
0001
1000
0000
0100
0000
0010
0001
0000
0001
0100
0000
,
0010
0000
1000
0000
0001
0010
0001
0000
0100
0000
0010
1000
0000
1000
0001
0000
,
0010
0100
1000
0100
0001
0100
0010
0100
,
1000
0010
0001
0010
0100
0010
1000
0001
,
1000
0100
1000
0000
0001
0100
0001
0000
1000
0010
1000
0000
0001
0010
0001
0000
,
1000
0100
0010
0000
0001
0000
1000
0010
0100
0000
0001
0000
0010
0000
0001
0000
,
0100
0000
0000
0000
1001
0000
0000
1100
0000
0000
0011
0000
0000
1001
0000
0000
,
0110
0000
0000
0101
0000
0000
1010
0000
0000
0110
0000
0000
0001
0010
0100
1000
,
0010
0000
0000
0000
0100
0000
1000
0000
0100
0000
0001
0000
1000
0010
1000
0000
,
0100
0000
0001
0000
0100
0000
0010
0000
0001
0000
1000
0000
0001
0100
0001
0000
,
0010
0000
0000
0000
1100
0000
0000
1010
0000
0000
0101
0000
0000
0011
0000
0000
,
1100
0000
0000
0101
0000
0000
0110
0000
0000
1001
0000
0000
0001
0100
0010
1000
,
0001
0000
0000
0000
0010
0000
0100
0000
1000
0000
0010
0000
0100
0001
0100
0000
,
1000
0000
0100
0000
0010
0000
1000
0000
0001
0000
0010
0000
0100
1000
0100
0010
,
0001
0000
0000
0000
0001
0100
0000
0001
0010
0000
0100
1000
0000
0010
1000
0000
,
0001
0010
0000
0100
1000
0000
0001
0100
0000
0010
1000
0000
0001
1000
0100
0010
,
0001
0000
0100
0000
0010
0000
1000
0000
0001
0000
0010
0000
0100
1000
0100
0000
,
0010
0000
0001
0000
1000
0000
0010
0000
0001
0000
0010
0000
0100
0001
0100
0000
,
0010
0000
0000
0000
1000
0100
0000
1000
0010
0000
0100
0001
0000
0010
0001
0000
,
0100
0010
0000
1000
0001
0000
0010
0100
0000
1000
0001
0000
0100
0001
1000
0010
,
0100
0100
0001
0001
1000
1000
0100
0100
,
0010
0001
0010
0000
0100
1000
0100
0000
0010
0000
0001
0000
0001
0000
1000
0010
,
0200
0000
0000
0000
,
0000
0000
0000
0000
,
0300
0000
0000
0000
;

//--------------- dance-double - forcednature ----------------
#NOTEDATA:;
#STEPSTYPE:dance-double;
#DESCRIPTION:forcednature;
#DIFFICULTY:Easy;
#METER:9;
#RADARVALUES:0,0,0,0,0;
#CREDIT:forcednature;
#NOTES:
00000000
00000000
00000000
00000000
,
00000000
00000000
00000000
00000000
,
00000000
00000000
00000000
00000000
,
00000000
00000000
00000000
00000000
,
00000000
00000000
00000000
00000000
,
00000000
00000000
00000000
00000000
,
00010000
00000000
00000000
00000000
,
00001000
00000000
00000000
00000000
,
01000000
00000000
00000000
00000000
,
00010000
10000000
00010000
00100000
,
01000000
00000000
00000000
01000000
00000000
00000000
00010000
00000000
,
00001000
00000000
00000000
00001000
00000000
00000000
00000100
00000000
,
00000010
00000000
00000000
00000010
00000000
00000000
00001000
00000000
,
00000001
00000000
00000010
00000000
00000100
00000010
00000100
00000000
,
00001000
00000000
00000000
00000001
00000000
00000000
00000100
00000000
,
00000010
00000000
00000000
00001000
00000000
00000000
00000010
00000000
,
00010000
00000000
00000000
00001000
00000000
00000000
00100000
00000000
,
00010000
00000000
10000000
00000000
00100000
01000000
00100000
00000000
,
10000000
10000000
01000000
01000000
,
00100000
00100000
00001000
00001000
,
00010000
00010000
00000010
00000010
,
00001000
00001000
00000001
00000001
,
00000100
00000010
00000100
00000000
00000001
00000000
00001000
00000000
,
00000100
00000010
00000100
00010000
,
00001000
01000000
00010000
10000000
,
01000000
00000000
00000000
01000000
00000000
00000000
00100000
00000000
,
00000000
01100000
10000000
00010000
,
01000000
00000000
00000000
01000000
00000000
00000000
01000000
00000000
,
00000000
00001000
00010000
00000100
,
00001000
00000000
00000000
00001000
00000010
00000000
00000010
00000000
,
00000000
00000100
00000001
00000010
,
00000100
00000000
00000000
00000100
00000000
00000000
00010000
00000000
,
00001000
01000000
00010000
00010000
,
00000000
10000000
01000000
00100000
,
01100000
01000000
10000000
00010000
,
01000000
00010000
01000000
00000000
00001000
00000000
00010000
00000000
,
00000100
00001000
00000100
00000010
,
00000001
00000000
00000000
00000001
00000000
00000000
00000001
00000000
00000000
00000000
00000000
00000000
00000000
00000000
00000000
00000000
,
00000100
00000000
00000010
00000000
00001000
00000001
00001000
00000000
,
00000100
00010000
00001000
01000000
,
00020000
00000000
00000000
00000000
,
10000000
10000000
10030000
00000000
,
00100000
00000000
11000000
00000000
00000000
11000000
00000000
00000000
,
11000000
00000000
00000000
11000000
00000000
00000000
00100000
00000000
,
00000000
00000000
00011000
00000000
00000000
00011000
00000000
00000000
,
00011000
00000000
00000000
00011000
00000000
00000000
00000010
00000000
,
00000000
00000000
00000000
00000000
00000101
00000000
00000000
00000101
00000000
00000000
00000101
00000000
00000000
00000101
00000000
00000000
,
00000101
00000000
00000000
00000101
00000000
00000000
00000101
00000000
00000000
00000101
00000000
00000000
00000010
00000000
00000000
00000000
,
00000000
00000000
00000000
00000000
00001100
00000000
00000000
00001100
00000000
00000000
00001100
00000000
00000000
00001100
00000000
00000000
,
00001100
00000000
00000000
00001100
00000000
00000000
00001100
00000000
00000000
00000000
00000000
00000000
00000010
00000000
00000000
00000000
,
00010000
00000000
00001000
00000000
00000000
00100000
00000000
00000000
,
00010000
00000000
01000000
00000000
00000000
00100000
00000000
00000000
,
10000000
00000000
00000000
10000000
00000000
01000000
00000000
00000000
,
00010000
00000000
00000000
00010000
00000000
01000000
00000000
00000000
,
00000000
00100000
00000000
00000000
00000000
00001000
00000000
00000000
,
00010000
00000000
00000010
00000000
00000000
00001000
00000000
00000000
,
00000100
00000000
00000000
00000100
00000000
00000100
00000000
00000000
,
00000010
00000001
00001000
00000001
,
00000100
00000010
00001000
00000100
,
00010000
00001000
01000000
00010000
,
00100000
01000000
10000000
00100000
,
01000000
00100000
10000000
00000000
,
01000000
00010000
00001000
00010000
,
00000010
00001000
00000100
00000010
,
00000001
00000100
00000010
00000100
,
00001000
00010000
00100000
00000000
,
01000000
00000000
00010000
00000000
10000000
00100000
10000000
00000000
,
01000000
00010000
00001000
00000010
,
00000100
00000000
00001000
00000001
00000000
00001000
00000001
00000000
,
00000100
00000000
00000010
00001000
00000000
00000010
00001000
00000000
,
00000100
00001000
00000100
00000000
00010000
00000000
00001000
00000000
,
01000000
00000000
00010000
10000000
00000000
00010000
10000000
00000000
,
02000000
00100000
00100000
03100000
,
01000000
10000000
00000000
01000000
00010000
00000000
00001000
00000000
,
00000000
00000000
00000000
00000000
00010100
00000000
00000000
00010100
00000000
00000000
00010100
00000000
00000000
00010100
00000000
00000000
,
00010100
00000000
00000000
00010100
00000000
00000000
00010100
00000000
00000000
00010100
00000000
00000000
00010100
00000000
00000000
00000000
,
00000100
00000000
00001000
00000000
00000010
00001000
00000010
00000000
,
00000100
00000001
00000010
00000001
,
00000000
00000000
00000000
00000000
00000110
00000000
00000000
00000110
00000000
00000000
00000110
00000000
00000000
00000110
00000000
00000000
,
00000110
00000000
00000000
00000110
00000000
00000000
00000110
00000000
00000000
00000110
00000000
00000000
00000110
00000000
00000000
00000000
,
00000100
00010000
00001000
01000000
,
00010000
00000000
10000000
00000000
01000000
00100000
01000000
00000000
,
00000000
00000000
00000000
00000000
10010000
00000000
00000000
10010000
00000000
00000000
10010000
00000000
00000000
10010000
00000000
00000000
,
10010000
00000000
00000000
10010000
00000000
00000000
10010000
00000000
00000000
10010000
00000000
00000000
10010000
00000000
00000000
00000000
,
10000000
00000000
00100000
00000000
00010000
00001000
00010000
00000000
,
00000100
00001000
00000010
00001000
,
00000000
00000000
00000000
00000000
00011000
00000000
00000000
00011000
00000000
00000000
00011000
00000000
00000000
00011000
00000000
00000000
,
00011000
00000000
00000000
00011000
00000000
00000000
00011000
00000000
00000000
00011000
00000000
00000000
00011000
00000000
00000000
00000000
,
00100000
00010000
01000000
00100000
,
10000000
01000000
10000000
00000000
00010000
01000000
00010000
00000000
,
00200000
00000000
00000000
00000000
,
00000000
00000000
00000000
00000000
,
00300000
00000000
00000000
00000000
;

//--------------- dance-double - forcednature ----------------
#NOTEDATA:;
#STEPSTYPE:dance-double;
#DESCRIPTION:forcednature;
#DIFFICULTY:Medium;
#METER:12;
#RADARVALUES:0,0,0,0,0;
#CREDIT:forcednature;
#NOTES:
00000000
00000000
00000000
00000000
,
00000000
00000000
00000000
00000000
,
00000000
00000000
00000000
00000000
,
00000000
00000000
00000000
00000000
,
00000000
00000000
00000000
00000000
,
00000000
00000000
00000000
00000000
00000000
00000000
00000000
00010000
,
00000100
00001000
00000100
00000010
00000000
00000000
00000000
00000000
,
00000001
00000100
00000010
00001000
00000000
00000000
00000000
00010000
,
01000000
00010000
00100000
01000000
00000000
00000000
00000000
00000000
,
10000000
00100000
10000000
00010000
10000000
01000000
00100000
00000000
,
01000000
00000000
10000000
00010000
00000000
00010000
01000000
00000000
,
00001000
00000000
00010000
00000100
00000000
00000100
00001000
00000001
,
00000100
00000000
00000010
00001000
00000000
00001000
00000001
00000000
,
00000010
00000000
00000100
00001000
00000010
00000010
00010000
00001000
,
00100000
00000000
00010000
01000000
00000000
01000000
00100000
00000000
,
10000000
00000000
01000000
00010000
00000000
00010000
00001000
00100000
,
00001000
00000000
00010000
00000010
00000000
00000010
00001000
00000000
,
00000100
00000010
00000001
00001000
00000001
00000100
00000010
00000000
,
00001000
00000000
00000000
00000000
00010000
00000000
00000000
00000000
01000000
00000000
00000000
00100000
00000000
00000000
01000000
00000000
,
00000000
00000000
00010000
00000000
10000000
00000000
00000000
00000000
01000000
00000000
00000000
00100000
00000000
00000000
01000000
00000000
,
00010000
00000000
00000000
00000000
00001000
00000000
00000000
00000000
00000100
00000000
00000000
00000010
00000000
00000000
00000100
00000000
,
00000000
00000000
00000001
00000000
00000010
00000000
00000000
00000000
00000100
00000000
00000000
00001000
00000000
00000000
00000100
00000000
,
00010000
00000000
00000000
00000000
00001000
00000000
00000000
00000000
01000000
00000000
00000000
00010000
00000000
00000000
01000000
00000000
,
00000000
00000000
00100000
00000000
10000000
00000000
00000000
00000000
00010000
00000000
00000000
00100000
00000000
00000000
00010000
00000000
,
01000000
00000000
00000000
00000000
00001000
00000000
00000000
00000000
00010000
00000000
00000000
00000100
00000000
00000000
00001000
00000000
,
00000010
00000001
00000000
00000010
00001000
00000000
00000100
00000000
,
00000110
00000000
00000000
00000000
00000010
00000000
00000000
00000001
00000000
00000000
00001000
00000000
00000000
00000001
00000000
00000000
,
00000100
00000000
00000000
00001000
00000000
00000000
00010000
00000000
00000000
00100000
00000000
00000000
01000000
00000000
00010000
00000000
,
10000000
00000000
00000000
00000000
01000000
00000000
00000000
00010000
00000000
00000000
00001000
00000000
00000000
00010000
00000000
00000000
,
00100000
00000000
00000000
01000000
00000000
00000000
00100000
00000000
10000000
00000000
00010000
00000000
10000000
00000000
01000000
00000000
,
00100000
00000000
00000000
00000000
01000000
00000000
00000000
00010000
00000000
00000000
00001000
00000000
00000000
00010000
00000000
00000000
,
00000100
00000000
00000000
00001000
00000000
00000000
00000010
00000000
00000000
00001000
00000000
00000000
00000100
00000000
00000010
00000000
,
00000001
00000000
00000000
00000000
00000100
00000000
00000000
00000000
00001000
00000000
00000000
00010000
00000000
00000000
00100000
00000000
,
00000000
10000000
00010000
00000000
01000000
00000000
00200000
00000000
,
10300000
00000000
01000000
00010000
00000000
00001000
00010000
00000000
,
00000010
00000000
00000000
00001000
00000000
00000000
00000001
00000000
00000000
00001000
00000000
00000000
00000100
00000000
00000010
00000000
,
00000001
00000000
00000100
00001000
00000000
00000100
00000001
00000000
,
00001001
00000000
00000000
00001001
00000000
00000000
00001001
00000000
00000000
00000000
00001000
00000000
00000100
00000000
00000010
00000000
,
00000001
00000000
00000100
00000010
00000000
00000100
00001000
00000000
,
00010000
00000000
00000000
01000000
00000000
00000000
00100000
00000000
00000000
00010000
00000000
00000000
01000000
00000000
00100000
00000000
,
10000000
00000000
00000000
00000000
,
01000000
00000000
00000000
00000000
00010000
00000000
00000000
00000000
00001000
00000000
00000000
00000010
00000000
00000000
00000001
00000000
,
00001000
00000000
00000000
00000000
00000101
00000000
00000000
00000101
00000000
00000000
00001001
00000000
00000000
00001001
00000000
00000000
,
00001100
00000000
00000000
00001100
00000000
00000000
00010100
00000000
00000000
00010100
00000000
00000000
00010000
00000000
00001000
00000000
,
01000000
00000000
00000000
00000000
01010000
00000000
00000000
01010000
00000000
00000000
10010000
00000000
00000000
10010000
00000000
00000000
,
11000000
00000000
00000000
11000000
00000000
00000000
01100000
00000000
00000000
01100000
00000000
00000000
00100000
00000000
00001000
00000000
,
00010000
00000000
00000000
00000000
00011000
00000000
00000000
00011000
00000000
00000000
00010100
00000000
00000000
00010100
00000000
00000000
,
00001100
00000000
00000000
00001100
00000000
00000000
00001010
00000000
00000000
00001010
00000000
00000000
00000010
00000000
00000100
00000000
,
00000001
00000000
00000000
00000000
00000011
00000000
00000000
00000011
00000000
00000000
00000110
00000000
00000000
00000110
00000000
00000000
,
00001100
00000000
00001000
00000100
00010000
00001000
01000000
00000000
,
00010000
00100000
01000000
10000000
00000000
00000000
00000000
00000000
,
10000000
00100000
01000000
00010000
00000000
00000000
00000000
00100000
,
00001000
00010000
00000010
00002000
00000000
00000000
00000000
00000000
,
00000100
00000000
00000000
00000100
00000000
00003100
00000000
00000000
,
00001000
00000100
00000010
00000001
00000000
00000000
00000000
00000000
,
00000100
00000001
00001000
00000010
00000000
00000000
00000000
00010000
,
00001000
00100000
00010000
02000000
00000000
00000000
00000000
00000000
,
03100000
10000000
00010000
10000000
01000000
00010000
00001000
00000000
,
00100000
00010000
01000000
00001000
00010000
00000100
00001000
00000000
,
00000010
00010000
00001000
00010000
00000100
00001000
00000010
00000000
,
00000100
00000001
00000010
00000100
00001000
00000010
00001000
00000000
,
00000100
00010000
00001000
01000000
00010000
00100000
01000000
00000000
,
10000000
00010000
01000000
00100000
10000000
01000000
00100000
00000000
,
01000000
10000000
00010000
01000000
00001000
00010000
00000100
00000000
,
00001000
00000010
00001000
00000100
00000010
00000001
00000100
00000000
,
00000010
00001000
00000001
00000010
00000100
00001000
00000010
00000000
,
00000100
00000000
00000000
00000000
00001000
00000000
00000000
00000000
00010000
00000000
00000000
00010000
00000000
00000000
00100000
00000000
,
00000000
00000000
10000000
00000000
00010000
00000000
00000000
00000000
10000000
00000000
00000000
10000000
00000000
00000000
01000000
00000000
,
00010000
00000000
00000000
00000000
00001000
00000000
00000000
00000000
00000010
00000000
00000000
00000010
00000000
00000000
00000100
00000000
,
00000000
00000000
00001000
00000000
00000001
00000000
00000000
00000000
00000100
00000000
00000000
00000100
00000000
00000000
00000010
00000000
,
00001000
00000100
00001000
00000100
00010000
00001000
00010000
00001000
,
01000000
00010000
01000000
00010000
10000000
01000000
10000000
01000000
,
00010000
00001000
00010000
00000100
00010000
00001000
00010000
00000010
,
00001000
00000100
00000000
00000001
00000100
00000000
00000010
00000000
,
00000100
00000000
00000000
00000000
00001100
00000000
00000000
00010100
00000000
00000000
00011000
00000000
00000000
01001000
00000000
00000000
,
01010000
00000000
00000000
10010000
00000000
00000000
11000000
00000000
00000000
01100000
00000000
00000000
00100000
00000000
00010000
00000000
,
01000000
00000000
00100000
00010000
00001000
00010000
00000100
00000000
,
00010000
00001000
00000010
00000100
00001000
00000001
00000100
00000000
,
00000010
00000000
00000000
00000000
00001010
00000000
00000000
00001100
00000000
00000000
00010100
00000000
00000000
00011000
00000000
00000000
,
01001000
00000000
00000000
01010000
00000000
00000000
00110000
00000000
00000000
01100000
00000000
00000000
01000000
00000000
10000000
00000000
,
00010000
00000000
10000000
00100000
00010000
00100000
01000000
00000000
,
00010000
00100000
01000000
00010000
00001000
00000010
00000100
00000000
,
00001000
00000000
00000000
00000000
00001001
00000000
00000000
00000101
00000000
00000000
00000110
00000000
00000000
00001010
00000000
00000000
,
00001100
00000000
00000000
00010100
00000000
00000000
00011000
00000000
00000000
01001000
00000000
00000000
01000000
00000000
00010000
00000000
,
00100000
00000000
01000000
10000000
01000000
00010000
00001000
00000000
,
00010000
00000100
00001000
00000010
00010000
00001000
00000010
00000000
,
00000100
00000000
00000000
00000000
00001100
00000000
00000000
00001001
00000000
00000000
00000101
00000000
00000000
00000110
00000000
00000000
,
00010010
00000000
00000000
00011000
00000000
00000000
00101000
00000000
00000000
00110000
00000000
00000000
00100000
00000000
01000000
00000000
,
10000000
00010000
10000000
00010000
01000000
00100000
01000000
00100000
,
10000000
01000000
00010000
00001000
00000100
00000001
00000010
00000000
,
00000220
00000000
00000000
00000000
,
00000000
00000000
00000000
00000000
,
00000330
00000000
00000000
00000000
;

//--------------- dance-double - forcednature ----------------
#NOTEDATA:;
#STEPSTYPE:dance-double;
#DESCRIPTION:forcednature;
#DIFFICULTY:Hard;
#METER:16;
#RADARVALUES:0,0,0,0,0;
#CREDIT:forcednature;
#NOTES:
00000000
00000000
00000000
00000000
,
00000000
00000000
00000000
00000000
,
00000000
00000000
00000000
00000000
,
00000000
00000000
00000000
00000000
,
00000000
00000000
00000000
00000000
,
00000000
00000000
00000000
00000000
00000000
00000000
00000000
00000000
00000000
00000000
00000000
00000000
00000000
00000000
00001000
00010000
,
00001000
01000000
00010000
00100000
00000000
00000000
00000000
00000000
,
01000000
00000000
10000000
00000000
00010000
00000000
01000000
00000000
00000000
00000000
00000000
00000000
00000000
00000000
00100000
10000000
,
00100000
01000000
00010000
00100000
00000000
00000000
00000000
00000000
,
00001000
00000000
00010000
00000000
00000100
00000000
00001000
00000000
00000100
00000000
00000010
00000000
00000001
00000000
00000100
00000001
,
00000100
00000000
00000010
00001000
00000000
00001000
00000100
00000000
,
00000110
00000000
00000000
00000000
00000010
00000000
00001000
00000000
00000000
00000000
00001000
00000000
00010000
00000000
00001000
01000000
,
00001000
00000000
01000000
00010000
00000000
00010000
00100000
00000000
,
01100000
00000000
00000000
00000000
01000000
00000000
10000000
00000000
00100000
00000000
00100000
00000000
10000000
00000000
01000000
00100000
,
01000000
00000000
00010000
00001000
00000000
00001000
00000100
00000001
,
00001000
00000000
00000000
00000000
00001000
00000000
00000100
00000000
00000000
00000000
00000100
00000000
00000010
00000000
00000001
00001000
,
00000001
00000000
00000000
00000000
00000100
00000000
00001000
00000000
00000000
00000000
00001000
00000000
00010000
00000000
00001000
00100000
,
00001000
00000000
01000000
00000000
00010000
00000000
00100000
00000000
01000000
00000000
10000000
00000000
10000000
00000000
00100000
01000000
,
00100000
00000000
00000000
00000000
00010000
00000000
00000000
00000000
00001000
00000000
00000000
00000010
00000000
00000000
00000100
00000000
,
00000000
00000000
00001000
00000000
00000001
00000000
00000000
00000000
00000100
00000000
00000000
00001000
00000000
00000000
00010000
00000000
,
01000000
00000000
00000000
00000000
00100000
00000000
00000000
00000000
00001000
00000000
00000000
00010000
00000000
00000000
00100000
00000000
,
00000000
00000000
10000000
00000000
01000000
00000000
00000000
00000000
00010000
00000000
00000000
00001000
00000000
00000000
00000010
00000000
,
00000100
00000001
00000100
00001000
00000100
00000001
00000100
00001000
,
00010000
01000000
10000000
01000000
00010000
01000000
10000000
01000000
,
00100000
00100000
00010000
00010000
00001000
00001000
00000010
00000010
,
00000100
00001000
00000010
00000000
00010000
00000000
00000100
00001000
00000010
00000000
00010000
00000000
00001000
00000000
00010000
00000000
,
00100000
00000000
01100000
10000000
00000000
01100000
00010000
00000000
,
10000000
01000000
00000000
01000000
00100000
00000000
00100000
00010000
00000000
00010000
01000000
00000000
00100000
00000000
00010000
00000000
,
00001000
00000000
00000110
00000001
00000000
00000110
00001000
00000000
,
00000001
00000100
00000000
00000100
00000010
00000000
00000010
00001000
00010000
00000000
00010000
00000000
01000000
00010000
10000000
00100000
,
01000000
00000000
01010000
10000000
00000000
11000000
00010000
00000000
,
01000000
00010000
00000000
00010000
00100000
00000000
00100000
00001000
00000000
00001000
00000010
00000000
00000100
00000000
00001000
00000000
,
00000001
00000000
00000000
00000000
00001000
00000000
00000000
00000000
00010000
00000000
00000000
10000000
00000000
00000000
00100000
00000000
,
00000000
10000000
00010000
00000000
00001000
00000000
00000010
00000000
,
00001001
00000000
00001100
00000010
00000001
00000101
00000010
00001000
,
00000001
00000010
00000000
00000010
00001000
00000000
00001000
00010000
00000000
00010000
00000100
00000000
00001000
00000000
00000010
00000000
,
00000100
00000000
00001000
00010000
00001000
00000000
00100000
00000000
00010000
00000000
01010000
00000000
00000000
00000000
10000000
00000000
,
11000000
00000000
00000000
11000000
00000000
00000000
11000000
00000000
00010000
00100000
00000000
00100000
00001000
00010000
00001000
00000000
,
00000010
00000000
00000100
00001000
00000100
00000000
00000010
00000000
00000001
00001000
00000001
00000000
00000100
00000000
00001000
00000000
,
00010000
00100000
00000000
00100000
10000000
00000000
10000000
01000000
00000000
01000000
00010000
00000000
00001000
00000000
00000010
00000000
,
00000220
00000000
00000000
00000330
,
00000001
00000000
00000000
00000000
00001000
00000000
00000000
00000000
00010000
00000000
00000000
10000000
00000000
00000000
00100000
00000000
,
10010000
00000000
00000000
00000000
11000000
00000000
00000000
11000000
00000000
00000000
00110000
00000000
00000000
00110000
00000000
00000000
,
00001100
00000000
00000000
00001100
00000000
00000000
00000011
00000000
00000000
00000011
00000000
00000000
00000001
00000100
00000010
00001000
,
00000001
00000000
00000000
00000000
00000101
00000000
00000000
00000101
00000000
00000000
00001010
00000000
00000000
00001010
00000000
00000000
,
01010000
00000000
00000000
01010000
00000000
00000000
10100000
00000000
00000000
10100000
00000000
00000000
10000000
01000000
00100000
00010000
,
10000000
00000000
00000000
00000000
11000000
00000000
00000000
01010000
00000000
00000000
00011000
00000000
00000000
00001100
00000000
00000000
,
00000101
00000000
00000000
00000011
00000000
00000000
00001010
00000000
00000000
00011000
00000000
00000000
00000100
00001000
00000010
00010000
,
00001000
00000000
00000000
00000000
00000110
00000000
00000000
00001100
00000000
00000000
00011000
00000000
00000000
01010000
00000000
00000000
,
01100000
00000000
00000000
00100000
10000000
00000000
00010000
00000000
10000000
01000000
00100000
00000000
00010000
00000000
00100000
00001000
,
00010000
00100000
20000000
30000000
01000000
00010000
00002000
00000000
,
00003010
00000000
00000100
00001000
00000000
00000001
00000100
00000000
,
00001000
00010000
00100000
00010000
00000000
00001000
00000000
00000000
,
00001000
00010000
00100000
00010000
00000000
00001000
01000000
00010000
,
10000000
01000000
00020000
00030000
00001000
00000010
00000200
00000000
,
00001300
00000000
00000001
00000100
00000000
00000010
00001000
00000000
,
00000100
00000010
00001000
00010000
00000000
00000010
00000000
00000000
,
00000100
00000010
00001000
00000001
00000010
00001000
00010000
00100000
,
01000000
00010000
01000000
00100000
01000000
10000000
01000000
00100000
,
10000000
01000000
00010000
00001000
00000010
00000100
00001000
00000001
,
00000100
00001000
00010000
00000100
00001000
00000010
00010000
00001000
,
00100000
00010000
01000000
00001000
00010000
00100000
01000000
00000000
,
00010000
10000000
01000000
00010000
01000000
00100000
00001000
00010000
,
00000010
00000100
00001000
00000100
00000001
00001000
00000100
00000001
,
00000100
00001000
00000010
00010000
00001000
00100000
00001000
00010000
,
00100000
00000000
01000000
00000000
10000000
00000000
01000000
00000000
00010000
00000000
00100000
00000000
01000000
10000000
01000000
10000000
,
01000000
00000000
00010000
00000000
00001000
00000000
00000010
00000000
00000100
00000000
00001000
00000001
00000000
00000001
00000100
00000000
,
00000010
00000000
00001000
00000000
00000100
00000000
00000010
00000000
00001000
00000000
00010000
00000100
00000000
00000100
00001000
00000000
,
00000010
00000000
00010000
00000000
00001000
00000000
01000000
00000000
00100000
00000000
10000000
00010000
00000000
00010000
00100000
00000000
,
01000000
00000000
00010000
00000000
00001000
00000000
00000100
00000000
00000010
00000000
00001000
00000001
00000000
00000001
00000010
00000000
,
00000001
00000100
00000010
00001000
00010000
01000000
00100000
10000000
,
10000000
01000000
00100000
00010000
00001000
00000100
00000010
00000001
,
00001000
00000100
00001000
00000100
00000010
00000001
00000010
00000001
00001000
00000010
00001000
00000010
00010000
00001000
00010000
00001000
,
00100000
00010000
01000000
00000000
00100000
00000000
01000000
00010000
00100000
00000000
01000000
00000000
10000000
00000000
01000000
00000000
,
00010000
00000000
00000000
00000000
00011000
00000000
00000000
00010100
00000000
00000000
00001010
00000000
00000000
00010100
00000000
00000000
,
01001000
00000000
00000000
00110000
00000000
00000000
01001000
00000000
00000000
00011000
00000000
00000000
00001000
00010000
00000010
00001000
,
00000010
00000000
00000000
00000000
00000100
00000001
00000100
00000000
00001000
00000000
00010000
00001000
00010000
00000000
00100000
00000000
,
01000000
00000000
00010000
10000000
00010000
00000000
00100000
00000000
01000000
00000000
10000000
00000000
00100000
01000000
00010000
00000000
,
00100000
00000000
00000000
00000000
01100000
00000000
00000000
00110000
00000000
00000000
00011000
00000000
00000000
00001100
00000000
00000000
,
00000110
00000000
00000000
00001010
00000000
00000000
00011000
00000000
00000000
01010000
00000000
00000000
10000000
00010000
00100000
01000000
,
10000000
00000000
00000000
10000000
00100000
00000000
01000000
00010000
01000000
00000000
00100000
00000000
10000000
00010000
10000000
00000000
,
01000000
00000000
00010000
00001000
00100000
00000000
00001000
00000000
00010000
00000000
00000010
00000000
00000100
00000001
00001000
00000001
,
00000010
00000000
00000000
00000000
00001100
00000000
00000000
00011000
00000000
00000000
01010000
00000000
00000000
00011000
00000000
00000000
,
00001010
00000000
00000000
00011000
00000000
00000000
00110000
00000000
00000000
00011000
00000000
00000000
00100000
00010000
10000000
00010000
,
01000000
00000000
00100000
10000000
00010000
10000000
01000000
00000000
00100000
00000000
00001000
00010000
00000010
00001000
00000010
00000000
,
00000100
00000000
00000001
00001000
00000001
00000000
00000010
00000000
00000100
00000000
00001000
00000010
00010000
00001000
00010000
00000000
,
00100000
00000000
00000000
00000000
10100000
00000000
00000000
11000000
00000000
00000000
01010000
00000000
00000000
00011000
00000000
00000000
,
00001100
00000000
00000000
00000101
00000000
00000000
00000011
00000000
00000000
00001010
00000000
00000000
00010000
00001000
00010000
00001000
,
01000000
00000000
01000000
00000000
00010000
00000000
00010000
00000000
00100000
00000000
00100000
01000000
10000000
00000000
00100000
00000000
,
01000000
00010000
01000000
00010000
01000000
00001000
01000000
00001000
00010000
00000000
00000010
00000000
00000010
00000000
00000100
00000001
,
00000020
00000000
00000000
00000000
,
00000000
00000000
00000000
00000000
,
00000030
00000000
00000000
00000000
;
