#VERSION:0.83;
#TITLE:Blue Goose;
#SUBTITLE:;
#ARTIST:Mutsuhiko Izumi;
#TITLETRANSLIT:;
#SUBTITLETRANSLIT:;
#ARTISTTRANSLIT:;
#GENRE:;
#CREDIT:;
#MUSIC:Blue Goose.ogg;
#BANNER:Blue Goose.png;
#BACKGROUND:Blue Goose-bg.png;
#CDTITLE:./CDTitles/jubeat saucer fulfill.png;
#SAMPLESTART:11.728;
#SAMPLELENGTH:15.000;
#SELECTABLE:YES;
#OFFSET:0.253;
#BPMS:0.000=200.000;
#STOPS:;
#TIMESIGNATURES:0.000=4=4;
#BGCHANGES:0.000=../BGAs/14tr.mp4=1.000=0=0=0=StretchNoLoop====,
99999.000=-nosongbg-=1.000=0=0=0=StretchNoLoop====
;
#FGCHANGES:;

//--------------- dance-single - forcednature ----------------
#NOTEDATA:;
#STEPSTYPE:dance-single;
#DESCRIPTION:forcednature;
#DIFFICULTY:Beginner;
#METER:2;
#RADARVALUES:0,0,0,0,0;
#CREDIT:forcednature;
#NOTES:
0000
0000
0000
0000
,
0000
0000
0000
0000
,
0000
0000
0000
0000
,
0000
0000
0000
0000
,
0000
0000
0000
0000
,
0000
0000
0000
0000
,
0000
0000
0000
0000
,
0000
0000
0000
0000
,
0010
0000
0000
0000
,
0010
0000
0000
0000
,
1001
0000
0000
0000
,
1000
0000
0000
0000
,
0001
0000
0000
0000
,
0100
0000
0000
0000
,
0020
0000
0000
0000
,
0030
0000
0000
0000
,
0200
0000
0000
0000
,
0300
0000
0000
0000
,
0001
0000
0000
0000
,
1000
0000
0000
0000
,
0100
0000
0000
0000
,
1000
0000
0000
0000
,
0001
0000
0000
0000
,
0010
0000
0000
0000
,
0001
0000
0000
0000
,
0100
0000
0000
0000
,
0010
0000
0000
0000
,
1000
0000
0000
0000
,
0100
0000
0000
0000
,
1000
0000
0000
0000
,
0001
0000
0000
0000
,
0100
0000
0000
0000
,
0001
0000
0000
0000
,
0010
0000
0000
0000
,
0100
0000
0000
0000
,
1000
0000
0000
0000
,
0001
0000
0000
0000
,
0100
0000
0000
0000
,
0010
0000
0000
0000
,
1000
0000
0000
0000
,
0001
0000
0000
0000
,
0010
0000
0000
0000
,
0001
0000
0000
0000
,
1001
0000
0000
0000
,
1000
0000
0000
0000
,
0010
0000
0000
0000
,
0100
0000
0000
0000
,
0001
0000
0000
0000
,
0010
0000
0000
0000
,
0100
0000
0000
0000
,
1000
0000
0000
0000
,
0001
0000
0000
0000
,
0100
0000
0000
0000
,
0001
0000
0000
0000
,
0010
0000
0000
0000
,
0100
0000
0000
0000
,
1000
0000
0000
0000
,
0010
0000
0000
0000
,
1000
0000
0000
0000
,
0001
0000
0000
0000
,
0010
0000
0000
0000
,
0000
0000
0000
0000
,
0000
0000
0000
0000
,
0000
0000
0000
0000
,
0000
0000
0000
0000
,
0000
0000
0000
0000
,
0000
0000
0000
0000
,
0100
0000
0000
0000
,
1000
0000
0000
0000
,
1001
0000
0000
0000
,
0001
0000
1000
0000
,
0001
0000
0000
0000
,
1000
0000
0001
0000
,
1000
0000
0000
0000
,
0010
0000
0100
0000
,
0010
0000
0000
0000
,
1000
0000
0001
0000
,
0010
0000
0000
0000
,
0100
0000
0000
0000
,
1000
0000
0000
0000
,
0001
0000
0000
0000
,
0100
0000
0000
0000
,
0100
0000
0000
0000
,
0010
0000
1000
0000
,
0001
0000
0000
0000
,
0010
0000
0000
0000
,
0100
0000
0000
0000
,
1000
0000
0000
0000
,
0001
0000
0100
0000
,
0001
0000
0000
0000
,
0010
0000
0000
0000
,
0100
0000
0000
0000
,
1000
0000
0001
0000
,
1000
0000
0001
0000
,
0100
0000
0010
0000
,
1000
0000
0001
0000
,
0010
0000
0000
0000
,
1001
0000
0000
0000
;

//--------------- dance-single - forcednature ----------------
#NOTEDATA:;
#STEPSTYPE:dance-single;
#DESCRIPTION:forcednature;
#DIFFICULTY:Easy;
#METER:7;
#RADARVALUES:0,0,0,0,0;
#CREDIT:forcednature;
#NOTES:
0000
0000
0000
0000
,
0000
0000
0000
0000
,
0000
0000
0000
0000
,
0000
0000
0000
0000
,
0000
0000
0000
0000
,
0000
0000
0000
0000
,
0000
0000
0000
0000
,
0000
0000
0000
0000
,
2002
0000
0000
0000
,
0000
0000
3003
0000
,
1000
0100
1000
0000
,
0001
0010
0001
0000
,
1000
0010
1000
0000
,
0001
0100
0001
0000
,
2000
0000
0100
0000
,
0001
0000
3100
0000
,
0002
0000
0010
0000
,
1000
0000
0013
0000
,
0001
0100
0001
0000
,
1000
0010
1000
0000
,
0100
0010
0100
0000
,
1000
0001
1000
0000
,
0010
0010
0010
0000
,
0100
0100
0100
0000
,
0001
1000
0001
0000
,
0010
0000
0000
0110
0000
0000
0000
0000
,
0002
0000
0103
0000
,
2000
0000
3100
0000
,
0002
0000
0013
0000
,
0100
0000
0000
0110
0000
0000
0000
0000
,
2000
0000
3010
0000
,
0002
0000
0013
0000
,
0200
0000
0310
0000
,
0001
0000
0000
1001
0000
0000
0000
0000
,
1000
0000
0000
1001
0000
0000
0000
0000
,
0110
0000
1000
0100
,
0020
0000
0032
0000
,
1003
0000
0010
0100
,
0002
0000
0023
0000
,
0230
0000
2300
0000
,
3002
0000
0203
0000
,
0310
1000
0010
0000
,
0100
0001
0100
0000
,
0001
0010
0100
1000
,
0001
0010
0100
0000
,
1000
0010
0100
0001
,
1000
0010
0100
0000
,
0001
1000
0100
1000
,
0001
0100
0001
0000
,
1000
0010
1000
0001
,
0010
0001
0100
0000
,
0110
0000
0010
1000
,
0001
0000
0010
0000
,
0110
0000
0010
0000
,
0001
1000
0010
0000
,
0110
0000
0100
0000
,
0001
1000
0100
0000
,
0110
0000
0100
1000
,
0001
0000
0100
0001
,
1000
0000
0010
0010
,
0100
0000
0000
0000
,
0000
0000
0000
0000
,
0000
0000
0000
0000
,
0000
0000
0000
0000
,
0000
0000
0000
0000
,
0000
0000
0000
0000
,
0000
0000
0000
0000
,
2002
0000
0000
0000
,
0000
0000
3003
0000
,
0110
0000
0000
0000
,
1000
0000
0001
0000
,
1001
0000
0000
0000
,
0010
0000
0100
0000
,
0110
0000
0000
0000
,
0001
0000
1000
0000
,
0100
0000
0010
0000
,
0110
0000
0000
0000
,
1000
0100
1000
0000
,
0001
0010
0001
0000
,
1000
0010
0100
0000
,
0001
0010
0100
0000
,
1000
1000
1000
0000
,
0001
0001
0001
0000
,
0100
0100
0100
0000
,
0010
0000
0000
0110
0000
0000
0000
0000
,
1000
0100
1000
0100
,
0010
0001
0010
0001
,
1000
0100
1000
0100
,
0010
0000
0000
0010
0000
0000
0000
0000
,
0001
0100
0001
0100
,
0010
1000
0010
1000
,
0001
0100
0001
0100
,
0010
0000
0000
0110
0000
0000
0000
0000
,
1000
0000
0000
1001
0000
0000
0000
0000
,
0001
0000
0000
1001
0000
0000
0000
0000
,
1000
0100
0010
0001
,
0100
0000
0000
0000
,
0010
0000
1001
0000
;

//--------------- dance-single - forcednature ----------------
#NOTEDATA:;
#STEPSTYPE:dance-single;
#DESCRIPTION:forcednature;
#DIFFICULTY:Medium;
#METER:11;
#RADARVALUES:0,0,0,0,0;
#CREDIT:forcednature;
#NOTES:
0000
0000
0000
0000
,
0000
0000
0000
0000
,
0000
0000
0000
0000
,
0000
0000
0000
0000
,
0000
0000
0000
0000
,
0000
0000
0000
0000
,
0000
0000
0000
0000
,
0000
0000
0000
0000
,
1000
0000
0000
0000
1000
0000
0100
0000
0000
0010
0000
0000
0001
0000
0000
0000
,
0001
0000
0000
0000
0001
0000
0100
0000
0000
0010
0000
0000
1000
0000
0000
0000
,
1001
0000
0001
0010
0000
0100
1000
0000
,
0100
0000
0010
0001
0000
1000
0010
0000
,
0100
0000
0001
1000
0000
0100
1000
0000
,
0010
0000
0100
0001
0000
0010
0100
0000
,
0110
0000
0010
0001
0000
1000
0010
0000
,
0100
0000
0001
1000
0000
0100
1000
0000
,
0001
0000
0010
0000
0100
0000
1000
0000
0100
0000
0010
0000
,
0001
0000
0000
1001
0000
0000
0000
0000
,
1000
0000
0100
0010
0000
0001
0010
0000
,
0100
0000
1000
0001
0000
0100
0001
0000
,
1000
0000
0010
0100
0000
0001
0010
0000
,
0100
0000
1000
0001
0000
0100
0010
0000
,
1000
0000
0100
0100
0000
0010
0001
0000
,
1000
0000
0010
0010
0000
0100
0001
0000
,
1000
0000
0100
0000
0010
0000
0001
0000
0100
0000
0010
0000
,
0100
0000
0000
1001
0000
0000
0000
0000
,
2000
0100
0001
3000
,
0002
0010
1000
0003
,
0200
0010
0001
0300
,
0110
0000
0000
1001
0000
0000
0000
0000
,
0002
0010
0100
0003
,
2000
0010
0100
3000
,
0020
0100
1000
0030
,
0110
0000
0000
1000
0000
0000
0001
0000
,
0010
0000
0000
0220
0000
0000
0330
0000
,
0100
0000
1000
0001
0000
0100
0001
0000
,
0020
0000
0130
1000
,
0001
0000
0100
0010
0000
1000
0100
0000
,
0020
0000
0000
0032
0000
0000
2003
0000
,
3020
0000
0000
0230
0000
0000
0302
0000
,
0023
0000
0000
0230
0000
0000
2300
0000
,
3010
0100
1000
0100
,
0001
0100
0010
1000
,
0001
0010
0001
0010
0000
0100
1000
0000
,
0002
0100
1000
0013
,
1000
0010
1000
0010
0000
0100
0001
0000
,
2000
0000
0000
3200
0000
0000
0320
0000
,
0032
0000
0000
2003
0000
0000
3020
0000
,
0230
0000
0000
0302
0000
0000
0023
0000
,
0130
0001
0100
0010
,
0100
1000
0001
0010
,
0002
0000
0000
0000
0103
0000
0010
1000
,
0010
0100
0001
1000
,
2001
0000
3001
0010
,
0100
1000
0010
0000
,
0120
0000
0130
0001
,
1000
0010
1000
0001
,
0020
0000
0100
1000
,
0230
0000
1000
0010
,
1300
0000
0010
0000
0100
0001
0100
0000
,
0002
0003
0020
0030
,
0200
0300
2000
3000
,
0002
0003
0200
0300
,
0020
0030
2000
3000
,
0200
0000
0320
0000
,
0032
0000
2003
0000
,
3020
0000
0230
0000
,
0301
0000
0000
0000
0001
0000
0100
0000
0000
0010
0000
0000
1000
0000
0000
0000
,
1000
0000
0000
0000
1000
0000
0100
0000
0000
0010
0000
0000
0001
0000
0000
0000
,
2002
0000
3003
0000
,
1100
0000
0011
0000
,
2002
0000
3003
0000
,
0101
0000
1010
0000
,
0220
0000
0330
0000
,
1010
0000
0011
0000
,
1000
0000
0001
0000
0100
0000
0001
0000
1000
0000
0100
0000
,
0010
0000
0000
0220
0000
0000
0330
0000
,
0100
1000
0100
1000
0000
0001
0010
0000
,
0001
0100
0001
0100
0000
0010
1000
0000
,
0100
0010
0100
0010
0000
0001
1000
0000
,
0001
0100
0001
0100
0000
0010
1000
0000
,
0100
0100
1000
0100
0000
0010
0001
0000
,
0100
0100
0001
0100
0000
0010
1000
0000
,
0001
0000
0010
0000
0100
0000
1000
0000
0010
0000
0100
0000
,
0010
0000
0000
1001
0000
1000
0100
0000
,
0010
0000
0001
0100
0001
0000
1000
0010
,
1000
0000
0001
0010
0001
0000
1000
0100
,
1000
0000
0010
0100
0010
0000
1000
0001
,
1000
0000
0000
1001
0000
0000
0001
0010
,
0001
0000
1000
0010
1000
0000
0001
0100
,
0001
0000
1000
0100
1000
0000
0001
0010
,
0100
0000
1000
0100
0010
0000
0001
1000
,
0010
0000
0000
0110
0000
0100
0001
0000
,
0010
0000
0000
0110
0000
0100
1000
0000
,
1001
0000
0000
0110
0000
1000
0001
0000
,
0100
0010
1000
0000
0100
0010
0001
0000
,
1001
0000
0000
0000
0000
0000
1000
0100
,
0001
0000
0110
0000
;

//--------------- dance-single - forcednature ----------------
#NOTEDATA:;
#STEPSTYPE:dance-single;
#DESCRIPTION:forcednature;
#DIFFICULTY:Hard;
#METER:14;
#RADARVALUES:0,0,0,0,0;
#CREDIT:forcednature;
#NOTES:
0000
0000
0000
0000
,
0000
0000
0000
0000
,
0000
0000
0000
0000
,
0000
0000
0000
0000
,
0000
0000
0000
0000
,
0000
0000
0000
0000
,
0000
0000
0000
0000
,
0000
0000
0000
0000
,
1000
0000
0100
0000
1000
0000
0010
0000
0000
1000
0000
0000
0100
0000
1000
0000
,
0001
0000
0100
0000
0001
0000
0010
0000
0000
0001
0000
0000
0100
0000
0001
0000
,
0010
0010
0100
1000
0000
0001
0100
0010
,
1000
1000
0100
0001
0000
0001
0100
0010
,
0001
0001
1000
0010
0000
0100
1000
0100
,
0010
0010
1000
0001
0000
0001
0010
0100
,
1000
0010
1000
0100
0000
0100
0001
0100
,
0010
0001
0100
0001
0000
0001
0100
1000
,
0100
0000
0001
0000
0010
0000
0100
0000
1000
0000
0010
0000
,
1001
0000
0010
0110
0000
1000
0001
0000
,
0100
0000
0100
0000
0010
0000
1000
0000
0000
0000
0001
0000
0010
0100
0000
0000
,
1000
0000
1000
0000
0001
0000
0100
0000
0000
0000
0010
0000
1000
0001
0000
0000
,
0001
0000
0001
0000
0010
0000
0100
0000
0000
0000
0010
0000
0001
1000
0000
0000
,
0010
0010
0100
0001
0000
0010
0001
1000
,
0100
0100
0100
0110
0000
0100
0010
0001
,
0100
0100
0100
0110
0000
0100
0010
1000
,
0100
0000
0001
0000
0100
0000
1000
0000
0010
0000
0100
0000
,
0110
0000
0100
1001
0000
1000
0100
0010
,
0002
0000
0100
0000
1003
0001
0010
0001
,
0200
0000
0010
0000
0301
1000
0010
1000
,
0200
0000
0001
0000
0310
0100
1000
0001
,
1001
0000
0100
0110
0000
0001
0100
0010
,
2000
0000
0100
0000
3010
1000
0001
0010
,
0200
0000
0001
0000
1300
0100
0010
0001
,
0200
0000
1000
0000
0301
0100
0010
1000
,
1010
0000
1000
0100
0001
0100
0010
0000
,
0011
0000
0001
0100
1000
0100
0010
0000
,
1000
1000
1000
0001
0000
0001
0010
0100
,
2000
0000
0010
0000
3100
0010
0001
0100
,
0010
0010
0010
0100
0000
0100
0001
0010
,
0200
0000
1000
2300
0000
3010
0100
0001
,
0020
0000
0001
0230
0000
1000
0310
0001
,
2000
0000
0010
3002
0000
0100
1003
0010
,
0100
1000
0100
0010
0100
0001
1000
0001
,
0010
0100
0010
1000
0010
0100
1000
0000
,
0001
0001
0001
0100
0010
1000
0001
0000
,
0021
0000
0100
0000
1030
0010
0001
0010
,
0100
0100
0100
1000
0001
0100
0010
0000
,
2020
0000
0000
3030
0000
0000
0202
0000
0000
0000
0303
0000
0001
0000
0010
0000
,
0100
0001
0100
0010
0100
1000
0001
0000
,
0100
1000
0100
0010
0100
0001
1000
0000
,
0010
0001
0010
1000
0100
0001
0100
1000
,
0010
0100
1000
0100
0001
0010
0100
0000
,
0021
0000
0001
0000
0130
1000
0001
0010
,
0002
0100
2003
3010
,
0201
0000
0001
0000
0010
0000
1300
0100
,
0002
0000
0013
0100
2000
0000
3010
0000
,
1002
0000
0100
0100
0000
1003
0001
0000
,
2001
0000
0100
0100
0000
3001
1000
0000
,
1020
0000
0100
0000
0031
0010
0100
0010
,
2000
0000
0100
0000
3001
1000
0010
0100
,
0001
0000
0010
0000
0001
0000
0100
0000
0010
1000
0000
0000
0010
1000
0000
0000
,
0002
0000
0023
0000
,
0230
0000
2300
0000
,
3020
0000
0230
0000
,
0302
0000
2003
0000
,
3200
0320
0032
0003
,
0200
0320
2030
3000
,
0002
0023
0230
0300
,
1000
0000
1000
0000
1000
0000
0001
0000
0000
0010
0000
0000
0001
0000
0100
0000
,
0001
0000
0001
0000
0001
0000
1000
0000
0000
0010
0000
0000
1000
0000
0100
0000
,
1100
0000
0000
0000
,
0101
0000
0010
0000
,
1001
0000
0000
0000
,
0110
0000
1000
0000
,
0202
0000
0303
0000
,
2200
0300
3010
0000
,
0100
0000
0101
0000
1010
0000
0100
0000
1100
0000
0011
0000
,
1001
0000
0100
0110
0000
0000
0000
0000
,
0001
0000
0001
0000
0100
0000
0110
0000
0000
0000
1000
0000
0001
1000
0001
0000
,
0010
0000
0010
0000
0100
0000
1100
0000
0000
0000
0001
0000
0100
0010
0100
0000
,
0001
0000
0001
0000
0010
0000
0110
0000
0000
0000
1000
0000
0001
0100
0001
0000
,
1000
1000
0010
1010
0000
0001
0010
0001
,
1000
0000
1100
0000
1000
0000
1100
0000
0000
0000
0001
0000
0010
0100
0010
0000
,
0001
0000
0101
0000
0001
0000
0101
0000
0000
0000
1000
0000
0010
0100
0010
0000
,
1000
0000
0001
0000
0100
0000
0001
0000
1000
0000
0100
0000
,
0110
0000
0010
1001
0000
1000
0100
0010
,
0001
0100
1000
0100
0001
0010
0100
1000
,
0010
0100
1000
0100
0001
1000
0010
0001
,
0010
0100
0001
0010
0100
0001
0100
1000
,
1001
0000
0010
0110
0000
0001
0010
0100
,
0001
0100
1000
0010
0001
0010
0100
0001
,
0010
0100
0001
0100
1000
0010
0100
1000
,
0001
0010
0100
0001
1000
0100
0001
0100
,
0110
0000
0010
1001
1000
0001
0100
0010
,
0110
0000
0010
1001
0001
1000
0100
0010
,
0110
0000
0100
1001
1000
0001
0100
1000
,
0100
0100
0001
0001
0010
0010
1000
1000
,
1001
0000
0000
0000
0000
0000
0100
0010
,
1001
0000
0000
0000
0000
0000
0001
1000
0100
0000
0000
0000
0000
0000
0000
0000
;

//--------------- dance-double - forcednature ----------------
#NOTEDATA:;
#STEPSTYPE:dance-double;
#DESCRIPTION:forcednature;
#DIFFICULTY:Easy;
#METER:9;
#RADARVALUES:0,0,0,0,0;
#CREDIT:forcednature;
#NOTES:
00000000
00000000
00000000
00000000
,
00000000
00000000
00000000
00000000
,
00000000
00000000
00000000
00000000
,
00000000
00000000
00000000
00000000
,
00000000
00000000
00000000
00000000
,
00000000
00000000
00000000
00000000
,
00000000
00000000
00000000
00000000
,
00000000
00000000
00000000
00000000
,
00001000
01000000
00001000
00000000
,
00010000
00000100
00010000
00000000
,
00001000
00000010
00000000
00000001
,
00000010
00000001
00000000
00000100
,
00000001
00001000
00000000
00000010
,
00010000
00001000
00000000
00100000
,
00010000
00010000
00000000
01000000
,
00100000
00100000
00000000
10000000
,
01000000
00010000
00001000
00100000
,
00010000
00000000
00000000
00100000
00000000
00000000
00001000
00000000
,
00010000
00000010
00000000
00001000
,
00000100
00000010
00000000
00000001
,
00001000
00000010
00000000
00010000
,
00001000
00100000
00000000
00010000
,
01000000
01000000
00000000
00100000
,
10000000
10000000
00000000
01000000
,
00100000
00001000
00010000
00000100
,
00000010
00000000
00000000
00000010
00000000
00000000
00000001
00000000
,
00000100
00000010
00001000
00000010
,
00010000
00001000
00010000
00001000
,
01000000
00010000
01000000
00100000
,
10000000
00000000
00000000
10000000
00000000
00000000
00000000
00000000
,
01000000
10000000
00010000
00100000
,
00001000
00010000
00000100
00001000
,
00000100
00000010
00000001
00001000
,
00000010
00000000
00000000
00000010
00000000
00000000
00000100
00000000
,
00000001
00000000
00000000
00000001
00000000
00000000
00000000
00000000
,
00000010
00000100
00001000
00000100
,
00010000
00000000
00001000
01000000
,
00010000
01000000
00100000
10000000
,
00010000
00000000
00000000
00100000
00000000
00000000
00010000
00000000
,
01000000
00000000
00000000
00001000
00000000
00000000
00010000
00000000
,
00000100
00000000
00000000
00010000
00000000
00000000
00001000
00000000
,
00010000
00000010
00001000
00000010
,
00000100
00000001
00001000
00000001
,
00000010
00000100
00001000
00000100
,
00010000
00000000
00001000
01000000
,
00010000
01000000
00001000
00010000
,
00001000
00000000
00100000
00010000
,
00100000
01000000
10000000
01000000
,
00100000
00010000
00100000
00001000
,
00010000
00000010
00001000
00000010
,
00000100
00000001
00001000
00000001
,
00000010
00000000
00000100
00001000
,
00000100
00010000
00001000
01000000
,
00010000
00000000
10000000
00100000
,
10000000
00010000
00100000
00000000
,
01000000
00000000
10000000
01000000
,
00100000
00010000
00100000
00000000
,
00001000
00000000
00010000
00000010
,
00001000
00000000
00000001
00000010
,
00000100
00001000
00000001
00000001
,
00000100
00000000
00000000
00000000
,
00000000
00000000
00000000
00000000
,
00000000
00000000
00000000
00000000
,
00000000
00000000
00000000
00000000
,
00000000
00000000
00000000
00000000
,
00000000
00000000
00000000
00000000
,
00000000
00000000
00000000
00000000
,
00001000
00001000
00001000
00000000
,
00010000
00010000
00010000
00000000
,
00100000
00000000
00000000
00000000
,
10000000
00000000
01000000
00000000
,
00010000
00000000
00000000
00000000
,
00001000
00000000
00000010
00000000
,
00000001
00000000
00000000
00000000
,
00000100
00000000
00001000
00000000
,
00010000
00010000
00001000
00001000
,
00010000
00000000
00000000
00010000
00000000
00000000
00000000
00000000
,
00001000
01000000
00010000
10000000
,
01000000
10000000
00010000
01000000
,
00001000
00010000
00000100
00001000
,
00000001
00000100
00000001
00001000
,
00000100
00001000
00000100
00000000
00010000
00000000
00001000
00000000
,
01000000
00010000
01000000
00000000
00001000
00000000
00010000
00000000
,
00000010
00000010
00001000
00000100
,
00000010
00000000
00000000
00000010
00000000
00000000
00000001
00000000
,
00000100
00000010
00001000
00000100
,
00010000
00001000
00100000
00010000
,
01000000
00100000
10000000
01000000
,
00100000
00000000
00000000
01000000
00000000
00000000
10000000
00000000
,
01000000
00100000
00010000
01000000
,
00001000
00010000
00000010
00001000
,
00000100
00000010
00000001
00000100
,
00000010
00000000
00000000
00000010
00000000
00000000
00001000
00000000
,
00000100
00000000
00000000
00000100
00000000
00000000
00010000
00000000
,
00001000
00000000
00000000
00001000
00000000
00000000
01000000
00000000
,
00010000
10000000
00010000
00100000
,
01000000
00000000
00000000
00010000
,
00001000
00000000
00000010
00000000
;

//--------------- dance-double - forcednature ----------------
#NOTEDATA:;
#STEPSTYPE:dance-double;
#DESCRIPTION:forcednature;
#DIFFICULTY:Medium;
#METER:13;
#RADARVALUES:0,0,0,0,0;
#CREDIT:forcednature;
#NOTES:
00000000
00000000
00000000
00000000
,
00000000
00000000
00000000
00000000
,
00000000
00000000
00000000
00000000
,
00000000
00000000
00000000
00000000
,
00000000
00000000
00000000
00000000
,
00000000
00000000
00000000
00000000
,
00000000
00000000
00000000
00000000
,
00000000
00000000
00000000
00000000
,
00001000
00000000
00001000
00000000
00001000
00000000
00010000
00000000
00000000
00001000
00000000
00000000
00010000
00000000
00000000
00000000
,
00010000
00000000
00010000
00000000
00010000
00000000
00001000
00000000
00000000
00010000
00000000
00000000
00001000
00000000
00000000
00000000
,
01000000
00010000
00100000
00010000
00000000
10000000
00100000
10000000
,
01000000
00100000
00010000
00100000
00000000
00001000
00010000
00000010
,
00001000
00000010
00000100
00000001
00000000
00001000
00000100
00001000
,
00000001
00000100
00000001
00000010
00000000
00000100
00001000
00000100
,
00010000
00001000
00010000
00000010
00000000
00001000
00000100
00010000
,
00001000
01000000
00010000
01000000
00000000
00100000
10000000
00010000
,
10000000
00000000
01000000
00000000
00010000
00000000
00001000
00000000
00010000
00000000
01000000
00000000
,
00100000
00000000
00100000
00001000
00000000
00001000
00010000
00000000
,
00000010
00000010
00000010
00000100
00000000
00000001
00000010
00000100
,
00001000
00001000
00001000
00000010
00000000
00010000
00001000
00100000
,
00010000
00010000
00010000
01000000
00000000
00100000
10000000
01000000
,
00100000
00100000
00100000
00001000
00000000
00010000
00000010
00001000
,
00000100
00000001
00000100
00000001
00000000
00000100
00001000
00000010
,
00000100
00001000
00000100
00001000
00000000
00010000
00100000
01000000
,
00010000
00000000
10000000
00000000
01000000
00000000
10000000
00000000
00100000
00000000
00010000
00000000
,
00001000
00000000
00001000
00000010
00000000
00000010
00000001
00000100
,
00002000
00000000
01000000
00000000
00013000
00001000
00100000
00010000
,
00200000
00000000
01000000
00000000
00310000
00100000
00001000
00010000
,
00000020
00000000
00001000
00000000
00000130
00000010
00001000
00000001
,
00000010
00000000
00000010
00001000
00000000
00001000
00010000
00001000
,
00200000
00000000
00010000
00000000
00301000
00010000
00001000
01000000
,
00020000
00000000
10000000
00000000
00130000
01000000
10000000
01000000
,
00020000
00000000
00001000
00000000
00030010
00010000
00001000
00000010
,
00000100
00000000
00000100
00001000
00000001
00000100
00000010
00000000
,
00010000
00000000
00010000
00001000
00100000
00010000
01000000
00000000
,
00100000
00100000
00100000
10000000
00000000
01000000
00010000
00001000
,
00200000
00000000
00000000
00000000
00301000
00010000
00000100
00001000
,
00000001
00000001
00000001
00000100
00000000
00001000
00010000
00000010
,
00001000
00000000
00001000
00000001
00000000
00000001
00000010
00000100
,
00002000
00000000
00000000
00003020
00000000
00000000
00010030
00001000
,
00200000
00000000
00000000
00320000
00000000
00000000
01030000
00100000
,
20000000
32000000
03020000
00032000
,
00003200
00000302
00000023
00000230
,
00000310
00000001
00000100
00001000
00000000
00010000
01000000
10000000
,
00200000
00000000
00000000
00000000
10300000
01000000
00100000
00010000
,
10000000
01000000
00010000
00001000
00000000
00010000
00001000
00000100
,
00000002
00000000
00000000
00000023
00000000
00000000
00000130
00001000
,
00000002
00000000
00000000
00000203
00000000
00000000
00001300
00010000
,
00200000
00000000
00000000
02300000
00000000
00000000
03010000
10000000
,
01000000
00000000
01000000
00010000
00001000
00000000
00001000
00100000
,
00010000
00000000
00010000
00001000
00000100
00000000
00000010
00000000
,
00000001
00000000
00000100
00000000
00001000
00000000
00010000
00100000
,
01000000
00000000
00010000
00000000
10000000
00000000
01000000
00010000
,
00001000
00000000
00100000
00000000
00010000
00000000
01000000
00001000
,
00010000
00000000
00000100
00010000
00001000
00000000
00000010
00000000
,
00000001
00000000
00000100
00000000
00001000
00000000
00010000
00000010
,
00001000
00000000
00010000
01000000
00001000
00000000
00100000
00000000
,
01000000
00000000
00010000
00000000
00001000
00100000
00010000
00100000
,
02000000
00000000
10000000
00000000
03100000
00010000
00100000
00001000
,
00020000
00000000
00000010
00000000
00031000
00001000
00010000
00010000
,
00000000
00000000
00000000
00000000
,
00000000
00000000
00000000
00000000
,
00000000
00000000
00000000
00000000
,
00000000
00000000
00000000
00000000
,
00000000
00000000
00000000
00000000
,
00000000
00000000
00000000
00000000
,
00000000
00000000
00000000
00000000
,
00000100
00000000
00000100
00000000
00000100
00000000
00010000
00000000
00000000
00010000
00000000
00000000
00001000
00000000
00000000
00000000
,
01000000
00000000
01000000
00000000
01000000
00000000
00001000
00000000
00000000
00001000
00000000
00000000
00010000
00000000
00000000
00000000
,
00000020
00000000
00000000
00000000
,
00001030
00000000
00000001
00000000
,
00000020
00000000
00000000
00000000
,
00001030
00000000
00010000
00000000
,
02000000
00000000
00000000
00000000
,
13000000
00000000
00010000
00000000
,
00100000
00000000
00001000
00000000
00000010
00000000
00000100
00000000
00010000
00000000
00001000
00000000
,
00100000
00000000
00100000
00020000
00000000
00000000
00030000
00000000
,
01000000
00100000
10000000
01000000
00000000
00010000
00001000
00000010
,
00000100
00010000
00001000
00000100
00000000
00000001
00000010
00000100
,
00010000
00001000
00100000
01000000
00000000
00010000
00001000
01000000
,
00010000
10000000
00100000
00010000
00000000
00001000
01000000
00010000
,
00100000
00001000
00000010
00001000
00000000
00010000
00000100
00001000
,
00000010
00010000
00100000
00010000
00000000
00001000
01000000
00010000
,
00100000
00000000
01000000
00000000
00010000
00000000
00001000
00000000
00000010
00000000
00000100
00000000
,
00001000
00000000
00001000
00000010
00000000
00000010
00000100
00001000
,
00020000
00000000
00100000
00000000
00031000
01000000
00010000
01000000
,
00200000
00000000
10000000
00000000
01300000
00010000
00100000
01000000
,
00020000
00000000
00001000
00000000
00030010
00001000
00000100
00000010
,
00000001
00000000
00000001
00000100
00000000
00000100
00001000
00010000
,
00200000
00000000
01000000
00000000
10300000
01000000
00010000
00001000
,
00200000
00000000
00010000
00000000
01300000
00010000
00001000
00000010
,
00000200
00000000
00001000
00000000
00010300
00001000
00010000
00000010
,
00001000
00000000
00001000
00000001
00000010
00000100
00001000
00000010
,
00010000
00000000
00010000
00001000
00100000
00010000
01000000
00001000
,
00010000
00000000
00010000
01000000
00100000
00001000
00010000
00100000
,
10000000
01000000
00100000
00010000
00001000
00000100
00000010
00000001
,
00000100
00000000
00000000
00000000
00000000
00000000
00001000
00010000
,
00200000
00000000
00000000
10300000
00010000
00000000
00000000
00000000
;

//--------------- dance-double - forcednature ----------------
#NOTEDATA:;
#STEPSTYPE:dance-double;
#DESCRIPTION:forcednature;
#DIFFICULTY:Hard;
#METER:17;
#RADARVALUES:0,0,0,0,0;
#CREDIT:forcednature;
#NOTES:
00000000
00000000
00000000
00000000
,
00000000
00000000
00000000
00000000
,
00000000
00000000
00000000
00000000
,
00000000
00000000
00000000
00000000
,
00000000
00000000
00000000
00000000
,
00000000
00000000
00000000
00000000
,
00000000
00000000
00000000
00000000
,
00000000
00000000
00000000
00000000
,
00001000
00010000
00001000
00010000
00001000
00000000
00010000
00001000
00000000
00010000
00001000
00000000
00001000
00000000
00001000
00000000
,
00010000
00001000
00010000
00001000
00010000
00000000
00001000
00010000
00000000
00001000
00010000
00000000
00010000
00000000
00010000
00000000
,
00001000
01000000
00010000
00110000
00000000
00100000
01000000
00010000
,
00001000
00000010
00000100
00001100
00000000
00001000
00000010
00000001
,
00000010
00000100
00000001
00000011
00000000
00000010
00000100
00010000
,
00001000
00100000
01000000
01010000
00000000
00010000
00001000
00100000
,
00010000
01000000
10000000
11000000
00000000
01000000
00010000
00100000
,
00001000
00000010
00000100
00001100
00000000
00001000
00000010
00000001
,
00000020
00000000
00020030
00000000
00230000
00000000
00320000
00000000
00032000
00000000
00003010
00000000
,
00000110
00000000
00000000
00000000
00000100
00000000
00001001
00000000
00000000
00000000
00010000
00001000
00010000
00000000
00000000
00000000
,
00001000
00000000
00100000
00000000
01000000
00000000
01100000
00000000
00000000
00000000
00100000
00000000
00001000
00010000
00001000
00010000
,
00000010
00000000
00001000
00000000
00000100
00000000
00000110
00000000
00000000
00000000
00000010
00000000
00000001
00000100
00000001
00000100
,
00000010
00000000
00010000
00000000
00001000
00000000
00101000
00000000
00000000
00000000
00100000
00000000
01000000
10000000
01000000
10000000
,
00010000
00000000
01000000
00000000
00001000
00000000
00011000
00000000
00000000
00000000
00010000
00000000
00000100
00001000
00000100
00001000
,
00000001
00000000
00000011
00000000
00000010
00000000
00000011
00000000
00000000
00000000
00000001
00000000
00000100
00000010
00000100
00000010
,
00001000
00000000
00001010
00000000
00000010
00000000
00001010
00000000
00000000
00000000
00001000
00000000
00000100
00010000
00000100
00010000
,
00001000
00000000
00101000
00000000
00110000
00000000
10010000
00000000
10100000
00000000
01100000
00000000
,
02010000
00000000
03001000
00021000
00000000
00030100
00000010
00001000
,
00010000
00000010
00000100
00001000
00010000
00100000
01000000
00001000
,
00010000
01000000
00100000
00001000
00010000
00000010
00000100
00001000
,
00010000
00000100
00000010
00001000
00010000
01000000
00100000
00001000
,
00012000
00000000
01003000
02010000
00000000
03010000
00100000
01000000
,
00010000
00001000
01000000
00100000
00010000
00001000
00000100
00000010
,
00010000
00001000
00000010
00000100
00010000
00001000
01000000
00100000
,
00010000
00001000
00100000
01000000
00010000
00001000
00000010
00000100
,
00000210
00000000
00000000
00000000
00000310
00000000
00002001
00000000
00000000
00000000
00003001
00000100
00000001
00000100
00000010
00000100
,
00000020
00000000
00000000
00000000
00001030
00000000
00001200
00000000
00000000
00000000
00010300
00001000
00010000
00001000
00100000
00010000
,
00100000
00000000
01000000
00000000
10000000
00000000
10100000
00000000
00000000
00000000
00100000
00000000
10000000
01000000
00100000
00010000
,
02000000
00000000
00000000
00000000
00001000
00000000
00000000
00000000
03010000
01000000
00001000
00010000
00001000
00010000
00000100
00001000
,
00000100
00000000
00000010
00000000
00000001
00000000
00000101
00000000
00000000
00000000
00000100
00000000
00000001
00000010
00000100
00001000
,
00000010
00000000
00010000
00000000
00001000
00000000
00000010
00000000
00001000
00000000
00010000
00000000
00000010
00001000
00000001
00000100
,
00000010
00000000
00010000
00000000
00100000
00000000
00010000
00000000
00001000
00000000
00100000
00000000
00010000
10000000
01000000
00100000
,
00010000
00000000
01000000
00000000
10000000
00000000
01000000
00000000
00010000
00000000
00100000
00000000
00001000
00010000
00000100
00001000
,
00000100
00000010
00001000
00000010
00000001
00000100
00001000
00000100
,
00000010
00000000
00001000
00000000
00100000
00000000
00010000
00000000
00001000
00000000
01000000
00000000
00010000
00100000
01000000
10000000
,
00010000
00000000
01000000
00010000
01000000
00000000
00001000
00010000
00001000
00000000
00100000
00010000
00100000
00000000
00001000
00000000
,
00021000
00000010
00001000
00030100
,
00010000
00000000
00001000
01000000
00001000
00000000
01000000
00010000
01000000
00000000
00010000
00100000
00010000
00000000
00100000
00000000
,
02100000
00000000
00000000
00000000
13000000
00000000
10200000
00000000
00000000
00000000
01300000
00000000
00010000
10000000
01000000
00100000
,
00010000
00000000
01000000
00000000
00001000
00000000
00100000
00000000
01000000
00000000
00010000
00000000
00001000
00010000
00000100
00001000
,
00000100
00000000
00000010
00000000
00000001
00000000
00000100
00000000
00001000
00000000
00000100
00000000
00000010
00001000
00000010
00010000
,
00001000
00000010
00000100
00000010
00000001
00000100
00000010
00000100
,
00001000
00000000
00010000
00000000
01000000
00000000
00010000
00000000
00001000
00000000
00100000
00000000
00010000
01000000
00100000
10000000
,
00020000
00000000
00100000
00000000
10030000
00010000
01000000
00001000
,
00020000
00000000
00000100
00000000
00032000
00000000
01003000
00010000
,
00210000
00000000
01000000
00000000
00010000
00000000
00301000
00010000
,
00000020
00000000
00001030
00000001
00000020
00000000
00001030
00000010
,
00000012
00000000
00001000
00000000
00000103
00001000
00010000
00100000
,
01000000
00000000
00001000
00002000
00000000
00100000
00103000
00000000
,
00021000
00000000
00000010
00000000
00031000
00000010
00000100
00000010
,
00000002
00000000
00001000
00000000
00000103
00000010
00000100
00001000
,
00020000
00000000
00000000
00000000
00000010
00000000
00000000
00000000
00031000
00010000
00001000
00010000
00001000
00010000
00001000
00010000
,
00001000
00000000
00100000
00000000
,
01000000
00000000
00010000
00000000
,
00001000
00000000
00000010
00000000
,
00000100
00000000
00010000
00000000
,
00000010
00000100
00001000
00010000
,
00100000
01000000
00010000
00100000
,
01000000
00010000
00001000
00000010
,
00001000
00010000
00001000
00010000
00001000
00000000
00010000
00001000
00000000
00010000
00001000
00000000
00001000
00000000
00001000
00000000
,
00010000
00001000
00010000
00001000
00010000
00000000
00001000
00010000
00000000
00001000
00010000
00000000
00001000
00000000
00001000
00000000
,
02002000
00000000
03003000
00000000
,
00020200
00000300
00030010
00000000
,
00022000
00000000
00033000
00000000
,
00202000
00300000
01003000
00000000
,
00022000
00000000
00033000
00000000
,
00020020
00000030
00030100
00000000
,
00000010
00000000
00000001
00000000
00000100
00000000
00001000
00000000
00010000
00000000
01000000
00000000
,
02100000
00000000
00000000
00000000
03100000
00000000
10020000
00000000
00000000
00000000
10030000
01000000
10000000
01000000
00100000
01000000
,
00100000
00000000
00001000
00000000
00010000
00000000
00012000
00000000
00000000
00000000
00003010
00000000
00000100
00001000
00000001
00000010
,
00000100
00000000
00010000
00000000
00001000
00000000
02001000
00000000
00000000
00000000
03100000
00000000
10000000
01000000
00100000
00010000
,
01000000
00000000
00001000
00000000
00010000
00000000
00010200
00000000
00000000
00000000
00000310
00000000
00000001
00000100
00000010
00001000
,
00000001
00000000
00000010
00000000
00001000
00000000
00021000
00000000
00000000
00000000
00130000
00000000
01000000
00010000
10000000
00100000
,
01000000
00000000
00001000
00000000
00011000
00000000
00011000
00000000
00000000
00000000
00010000
00000100
00001000
00000100
00000010
00000001
,
00001000
00000000
00000010
00000000
00000110
00000000
00000110
00000000
00000000
00000000
00000001
00000100
00000001
00001000
00000100
00001000
,
00000001
00000000
00000010
00000000
00001000
00000000
00010000
00000000
00100000
00000000
10000000
00000000
,
12000000
00000000
00000000
00000000
03100000
00000000
00102000
00000000
00000000
00000000
00013000
00000000
00000010
00000000
00001000
00000100
,
00001000
00000010
00000100
00001000
00010000
00000100
00000010
00001000
,
00010000
01000000
00100000
00001000
00010000
00100000
01000000
00001000
,
00010000
01000000
10000000
01000000
00010000
00001000
00100000
00001000
,
00021000
00000000
00000000
00000000
00030010
00000000
00002010
00000000
00000000
00000000
00003100
00000000
00000010
00000000
00000001
00001000
,
00000001
00000100
00000010
00000100
00001000
00010000
01000000
00100000
,
00001000
00010000
00100000
01000000
00001000
00010000
01000000
00100000
,
00001000
00000010
00001000
00010000
00000100
00001000
00000010
00000100
,
00000110
00000000
00000000
00000010
00001000
00000000
00001100
00000000
00000100
00000000
00010000
00001000
00010000
00001000
01000000
00010000
,
01000000
00000000
00000000
00100000
10000000
00000000
11000000
00000000
01000000
00000000
00100000
00010000
00100000
00001000
00010000
00001000
,
01000000
00000000
00000000
00010000
00100000
00000000
01100000
00000000
01000000
00000000
00010000
00001000
00010000
00001000
00010000
00000100
,
00001000
00000000
00000001
00000100
00000001
00000000
00001000
00000010
00010000
00001000
00010000
00000100
00001000
00000100
00010000
00001000
,
00100000
00000000
00000000
00000000
00000000
00000000
01000000
00100000
,
20010000
00000000
00000000
00000000
00000000
00000000
31000000
00010000
00001000
00000000
00000000
00000000
00000000
00000000
00000000
00000000
;
