#VERSION:0.83;
#TITLE:Berry Go!!;
#SUBTITLE:;
#ARTIST:Freezer feat.妃苺;
#TITLETRANSLIT:;
#SUBTITLETRANSLIT:;
#ARTISTTRANSLIT:Freezer feat. Kiichigo;
#GENRE:HYBRID J-POP;
#CREDIT:;
#MUSIC:Berry Go!!.ogg;
#BANNER:Berry Go!!.png;
#BACKGROUND:Berry Go!!-bg.png;
#CDTITLE:./CDTitles/SDVX EXCEED GEAR.png;
#SAMPLESTART:88.812;
#SAMPLELENGTH:15.000;
#SELECTABLE:YES;
#OFFSET:1.302;
#BPMS:0.000=175.000;
#STOPS:;
#TIMESIGNATURES:0.000=4=4;
#BGCHANGES:4.000=Berry Go!!.mp4=1.000=0=0=0=StretchNoLoop====,
99999.000=-nosongbg-=1.000=0=0=0=StretchNoLoop====
;
#FGCHANGES:;

//--------------- dance-single - forcednature ----------------
#NOTEDATA:;
#STEPSTYPE:dance-single;
#DESCRIPTION:forcednature;
#DIFFICULTY:Beginner;
#METER:1;
#RADARVALUES:0,0,0,0,0;
#CREDIT:forcednature;
#NOTES:
0000
0000
0000
0000
,
0000
0000
0000
0000
,
0000
0000
0000
0000
,
0000
0000
0000
0000
,
0000
0000
0000
0000
,
0000
0000
0000
0000
,
1000
0000
0000
0000
,
0000
0000
0000
0000
,
0001
0000
0000
0000
,
0000
0000
0000
0000
,
0100
0000
0000
0000
,
0000
0000
0000
0000
,
0010
0000
0000
0000
,
0000
0000
0000
0000
,
1000
0000
0000
0000
,
0000
0000
0000
0000
,
0001
0000
0000
0000
,
0010
0000
0000
0000
,
0100
0000
0000
0000
,
0000
0000
0000
0000
,
1000
0000
0000
0000
,
0001
0000
0000
0000
,
1000
0000
0000
0000
,
0000
0000
0000
0000
,
0001
0000
0000
0000
,
0100
0000
0000
0000
,
0010
0000
0000
0000
,
0010
0000
0000
0000
,
1000
0000
0000
0000
,
0000
0000
0000
0000
,
0001
0000
0000
0000
,
0001
0000
0000
0000
,
0010
0000
0000
0000
,
0000
0000
0000
0000
,
0100
0000
0000
0000
,
0100
0000
0000
0000
,
1000
0000
0000
0000
,
0000
0000
0000
0000
,
0001
0000
0000
0000
,
0001
0000
0000
0000
,
0100
0000
0000
0000
,
0000
0000
0000
0000
,
0010
0000
0000
0000
,
0000
0000
0000
0000
,
1000
0000
0000
0000
,
0000
0000
0000
0000
,
0001
0000
0000
0000
,
0000
0000
0000
0000
,
0010
0000
0000
0000
,
0000
0000
0000
0000
,
0100
0000
0000
0000
,
0000
0000
0000
0000
,
1000
0000
0000
0000
,
0000
0000
0000
0000
,
0001
0000
0000
0000
,
0100
0000
0000
0000
,
0001
0000
0000
0000
,
1000
0000
0000
0000
,
0100
0000
0000
0000
,
0000
0000
0000
0000
,
0010
0000
0000
0000
,
0000
0000
0000
0000
,
0001
0000
0000
0000
,
0000
0000
0000
0000
,
1000
0000
0000
0000
,
0000
0000
0000
0000
,
0010
0000
0000
0000
,
0010
0000
0000
0000
,
0100
0000
0000
0000
,
0000
0000
0000
0000
,
0001
0000
0000
0000
,
0001
0000
0000
0000
,
1000
0000
0000
0000
,
0000
0000
0000
0000
,
0100
0000
0000
0000
,
0100
0000
0000
0000
,
0010
0000
0000
0000
,
0000
0000
0000
0000
,
0001
0000
0000
0000
,
0001
0000
0000
0000
,
0100
0000
0000
0000
,
0010
0000
0000
0000
,
1001
0000
0000
0000
;

//--------------- dance-single - forcednature ----------------
#NOTEDATA:;
#STEPSTYPE:dance-single;
#DESCRIPTION:forcednature;
#DIFFICULTY:Easy;
#METER:4;
#RADARVALUES:0,0,0,0,0;
#CREDIT:forcednature;
#NOTES:
0000
0000
0000
0000
,
0000
0000
0000
0000
,
0000
0000
0000
0000
,
0000
0000
0000
0000
,
0000
0000
0000
0000
,
0000
0000
0000
0000
,
0001
0000
0000
0000
,
1000
0000
0000
0000
,
0010
0000
0000
0000
,
0200
0000
0000
0300
,
0001
0000
0000
0000
,
1000
0000
0100
0000
,
1000
0000
0000
0000
,
0001
0000
0100
0000
,
0001
0000
0010
0000
,
0100
0000
1000
0000
,
0010
0000
0100
0000
,
0002
0000
0000
0003
,
1000
0000
0100
0000
,
0001
0000
0100
0000
,
1000
0000
0010
0000
,
0001
0000
0000
0000
,
0010
0000
0000
0010
,
1000
0000
0000
1000
,
0100
0000
0100
0000
,
2000
0000
3000
0000
,
0001
0001
0001
0000
,
1000
1000
1000
0000
,
0010
0000
0100
0000
,
0001
0000
1000
0000
,
0100
0100
0100
0000
,
0010
0010
0010
0000
,
0001
0000
0100
0000
,
0010
0000
1000
0000
,
0001
0001
0001
0000
,
0010
0010
0010
0000
,
0100
0000
1000
0000
,
0001
0000
0100
0000
,
0010
0010
0010
0000
,
1000
1000
1000
0000
,
0100
0000
0010
0000
,
0001
1000
0001
0000
,
0100
0000
0000
0000
,
0010
0000
0000
0000
,
1000
0000
0000
0000
,
0001
0000
0010
0000
,
0001
0000
0000
0000
,
0100
0000
0000
0000
,
0010
0000
0000
0000
,
2000
0000
0000
3000
,
0001
0000
0000
0010
,
0001
0000
0000
0100
,
0001
0000
0000
1000
,
0010
0000
0000
0000
,
1000
0000
0100
0000
,
1000
0000
0001
0000
,
0100
0000
0001
0000
,
0020
0000
0030
0000
,
0100
0000
1000
0000
,
0010
0000
0010
0000
,
0100
0000
0001
0000
,
0010
0000
0010
0000
,
0100
0000
1000
0000
,
0001
0000
0001
0000
,
0100
0000
0001
0000
,
0020
0000
0030
0000
,
0100
0100
0100
0000
,
1000
1000
1000
0000
,
0001
0000
0100
0000
,
0010
0000
1000
0000
,
0001
0001
0001
0000
,
0010
0010
0010
0000
,
0100
0000
1000
0000
,
0001
0000
0100
0000
,
0010
0010
0010
0000
,
1000
1000
1000
0000
,
0001
0000
0010
0000
,
0001
0000
0100
0000
,
0010
0010
0010
0000
,
1000
1000
1000
0000
,
0100
0000
0010
0000
,
0001
0000
0010
0000
,
2002
0000
0000
0000
0000
0000
0000
3003
;

//--------------- dance-single - forcednature ----------------
#NOTEDATA:;
#STEPSTYPE:dance-single;
#DESCRIPTION:forcednature;
#DIFFICULTY:Medium;
#METER:10;
#RADARVALUES:0,0,0,0,0;
#CREDIT:forcednature;
#NOTES:
0000
0000
0000
0000
,
0000
0000
0000
0000
,
0000
0000
0000
0000
,
0000
0000
0000
0000
,
0000
0000
0000
0000
,
0000
0000
0000
0000
,
0001
0100
0010
1000
,
0000
0001
0010
0100
,
1000
0000
0001
0100
,
0020
0000
0000
0030
,
1001
0000
1000
0000
0100
0000
0010
0001
,
0000
0100
0001
0000
0010
0000
0100
0000
,
0000
0000
1000
0000
0001
0000
0100
0010
,
0000
1000
0010
0000
0100
0000
0001
0000
,
1001
1000
0100
1000
,
0001
0100
0010
1000
,
0001
0010
0001
0000
1000
0010
1000
0000
,
0200
0000
0000
0300
,
0110
0000
0000
1000
0001
0000
0100
0000
,
0110
0000
0000
0001
1000
0000
0100
0000
,
1001
0000
0000
1000
0001
0000
0010
0000
,
0200
0000
0000
0300
,
1001
0000
0001
0100
0001
0000
0010
0000
,
1001
0000
1000
0100
1000
0000
0010
0000
,
0100
0000
0001
0000
0010
0100
0010
0100
,
2000
0001
3001
0010
,
1100
0011
1100
0001
,
0101
0000
1010
0000
0101
0000
1000
0100
,
1000
0000
0001
0100
0001
0000
0010
0100
,
0010
0100
1001
1000
,
0101
1010
0101
1000
,
1100
0011
1100
0001
,
1000
0010
1000
0000
0001
0010
0001
0000
,
0200
1000
0301
0100
,
1001
0110
1001
0010
,
0110
0000
1001
0000
0110
0000
1000
0010
,
1000
0101
0001
1100
,
0010
0110
1001
1000
,
0011
1010
1001
0100
,
1010
0011
1001
0100
,
0002
0010
1000
0103
,
0001
0000
1000
0010
1000
0000
0100
0000
,
0220
0000
0000
0000
0000
0330
0000
0010
,
0000
0001
0000
1000
0010
0000
0100
0000
,
0001
0000
1000
0100
0000
1000
0000
0001
,
0000
0100
0000
0010
1000
0000
0001
0000
,
0010
0100
0000
1000
0000
0001
0100
0001
,
0100
0000
0010
1000
0010
0000
0100
0000
,
0001
0000
1000
0000
0100
0010
0000
0001
,
2000
0010
0001
3100
,
1000
0000
0000
0010
0100
0000
1001
0000
,
0001
0000
0000
0010
0100
0000
1001
0000
,
1000
0000
0000
0100
0010
0000
1001
0000
,
0220
0000
0000
0330
,
0001
0000
0100
0001
0100
0000
1001
0000
,
1000
0000
0100
1000
0100
0000
1001
0000
,
1000
0010
1000
0000
0001
0010
0001
0000
,
0100
0010
0220
0330
,
1000
0000
1000
0000
0100
0010
0000
0010
,
0001
0010
0000
0001
0100
0001
0000
1000
,
0010
0000
1000
0000
0001
0010
0000
0010
,
0100
0010
0000
0100
1000
0000
1000
0000
,
1001
0000
0001
0000
0100
0001
0000
0001
,
0010
0001
0000
1000
0010
1000
0000
0100
,
1000
0000
0001
0000
0100
0010
0000
0010
,
2000
0000
0000
3100
,
1010
0110
0101
1000
,
0011
0000
0110
0000
1100
0000
0001
0100
,
0001
0000
1000
0100
1000
0000
0010
0000
,
0100
0010
0110
1000
,
0011
0110
1100
0001
,
1010
0110
0101
1000
,
0001
0100
0001
0000
1000
0100
1000
0000
,
0010
0100
0110
1000
,
0011
0101
1010
0001
,
1010
1100
0011
1000
,
0001
0000
0100
0000
0010
1000
0010
0000
,
0100
0001
1001
1000
,
0101
1100
0011
1000
,
1100
0101
1010
0001
,
2000
0100
0001
3010
,
1000
0000
0001
0100
0001
0000
0010
0000
,
2002
0000
0000
0000
0000
0000
0000
3003
;

//--------------- dance-single - forcednature ----------------
#NOTEDATA:;
#STEPSTYPE:dance-single;
#DESCRIPTION:forcednature;
#DIFFICULTY:Hard;
#METER:14;
#RADARVALUES:0,0,0,0,0;
#CREDIT:forcednature;
#NOTES:
0000
0000
0000
0000
,
0000
0000
0000
0000
,
0000
0000
0000
0000
,
0000
0000
0000
0000
,
0000
0000
0000
0000
,
0000
0000
0000
0000
,
1000
0000
0001
0100
0001
0000
0010
0100
,
0000
1000
0010
1000
0001
0000
0010
0000
,
0100
0000
1000
0001
0000
0100
0000
0010
,
1000
0000
0000
1000
0100
0000
0010
0000
0001
0000
0100
0000
0010
0000
0000
0000
,
1001
0000
1000
0010
0100
0000
0001
0010
,
0100
0000
1000
0001
0100
0010
2000
0000
,
3100
0000
0010
0001
1000
0000
0010
0100
,
0001
0000
0010
0100
1000
0001
0100
0100
,
0110
0000
1000
0010
1000
0000
0001
0010
,
0001
0100
0010
1000
0001
0010
0100
0000
,
0010
0010
0001
0001
1000
0010
1000
0001
,
0020
0100
0031
0000
,
1001
0000
0001
0100
1000
0000
0110
0000
,
1001
0000
1000
0100
0001
0000
0110
0000
,
1001
0000
0001
0010
1000
0000
0110
0000
,
0001
0000
0001
0100
0000
0100
0010
0000
0010
1000
0000
0000
,
1001
0000
0000
0000
1000
0000
0100
0000
0010
0000
0000
0010
0001
0000
0100
0000
,
0010
0000
0000
0000
0001
0000
0100
0000
0010
0000
0000
0010
1000
0000
0001
0000
,
0010
0100
1000
0100
0010
0010
0001
0001
,
0200
0000
1000
0000
0301
0000
0100
0010
,
1000
0100
0000
0000
1000
0100
0000
0000
1000
0100
0000
0000
0010
0000
0001
0000
,
0100
0001
0000
0000
0100
0001
0000
0000
0100
0001
0000
0000
0010
0000
0100
0000
,
1000
0000
0100
0010
0001
0000
0100
0001
,
1000
0000
1100
0000
0011
0000
0001
0100
,
0010
1000
0000
0000
0010
1000
0000
0000
0010
1000
0000
0000
0001
0000
0100
0000
,
0001
0010
0000
0000
0001
0010
0000
0000
0001
0010
0000
0000
0100
0000
1000
0000
,
0001
0001
0100
0100
0010
0010
1000
1000
,
0100
0010
0100
0000
1001
0000
1000
0100
,
0010
0001
0000
0000
1000
0100
0000
0000
0010
0001
0000
0000
1000
0000
0010
0000
,
0100
0001
0000
0000
1000
0010
0000
0000
0100
0001
0000
0000
1000
0000
0100
0000
,
1000
1010
0110
0101
,
0002
0000
0010
0000
1003
0000
0001
0100
,
0010
1000
0000
0000
0100
1000
0000
0000
0010
1000
0000
0000
0100
0000
0010
0000
,
0001
0100
0000
0000
0001
0010
0000
0000
0001
0100
0000
0000
0010
0000
1000
0000
,
0001
0000
0000
0010
0000
0000
0100
0000
1001
0000
0000
0000
1000
0000
0010
0000
,
1000
0000
0001
0000
0010
0000
0001
0000
0100
0000
0000
0100
0010
0000
1000
0000
,
0002
0000
0010
0000
1003
0001
0100
0010
,
0000
0000
1000
0000
0000
0000
0100
0000
1000
0000
0001
0010
0001
0000
1000
0000
,
0010
0100
0001
0010
0000
0110
0000
1100
,
0000
0000
1000
0000
0010
0000
0100
0000
0001
0000
0010
0001
0010
0000
0000
0000
,
0100
1000
0100
0000
1000
0010
1000
0000
0001
0010
0001
0000
0100
0000
0010
0000
,
1000
0000
0100
1000
0100
0000
0010
0000
0000
0000
0001
0100
0001
0000
1000
0000
,
0010
0000
1000
0001
1000
0000
0100
0000
0000
0000
0010
0000
0001
0000
0100
0000
,
0220
0000
0000
0330
,
1001
0000
1000
0010
0001
0000
0110
0000
,
1001
0000
0001
0010
1000
0000
0110
0000
,
1001
0000
1000
0100
0001
0000
0110
0000
,
0001
0000
0001
0000
0100
0000
0000
0100
0000
0000
0010
0000
1001
0000
0000
0000
,
0110
0000
0000
0000
1000
0000
0100
0000
0010
0000
0000
0010
0001
0000
0100
0000
,
0010
0000
0000
0000
1000
0000
0001
0000
0010
0000
0000
0010
0100
0000
1000
0000
,
0001
0010
0001
0100
0010
0010
1000
1000
,
0200
0000
0010
1000
1300
0100
1001
0000
,
1100
0000
0000
0100
0010
0000
0001
0000
0100
0000
0010
0000
0010
0000
1000
0000
,
1000
0100
1000
0000
0001
0100
0001
0000
0020
0000
0230
0000
2300
0000
3002
0000
,
0103
0000
0000
0100
0010
0000
1000
0000
0001
0000
0010
0000
0100
1000
0100
1000
,
0001
0000
0100
0000
0010
1000
0010
0000
0100
0000
0001
0010
0100
0000
0100
0000
,
1001
0000
0000
0001
0100
0000
0010
0000
1000
0000
0100
0000
0100
0000
0010
0000
,
0010
0001
0010
0000
0001
0100
0001
0000
2000
0000
3020
0000
0230
0000
0302
0000
,
1003
0000
0000
1000
0100
0000
0010
0000
0001
0000
0100
0000
0010
1000
0010
1000
,
0002
0000
0010
0010
0010
0000
1003
0001
,
0100
0010
0000
0000
1000
0001
0000
0000
0100
0010
0000
0000
1000
0000
0001
0000
,
0010
0100
0000
0000
1000
0001
0000
0000
0010
0100
0000
0000
1000
0000
0001
0000
,
0200
0000
0310
1000
0001
0000
0010
0000
,
1100
0000
0101
0000
1001
0000
1000
0010
,
0100
0001
0000
0000
0010
0001
0000
0000
0100
0001
0000
0000
0010
0000
0100
0000
,
1000
0010
0000
0000
1000
0100
0000
0000
1000
0010
0000
0000
0100
0000
0000
0000
,
0001
0001
0010
0010
0100
0100
1000
1000
,
0010
0100
0110
0000
1001
0000
0001
0100
,
0010
1000
0000
0000
0010
0001
0000
0000
0010
1000
0000
0000
0001
0000
0010
0000
,
0100
1000
0000
0000
0100
0001
0000
0000
0100
1000
0000
0000
0010
0000
0100
0000
,
0002
0000
1003
0100
0010
0001
0100
0001
,
1000
0000
0110
0000
1001
0000
1000
0100
,
0010
0001
0000
0000
0010
1000
0000
0000
0010
0001
0000
0000
1000
0000
0010
0000
,
0100
0001
0000
0000
0100
1000
0000
0000
0100
0001
0000
0000
1000
0000
0010
0000
,
0100
0101
0011
1010
,
1000
0100
1000
0000
0001
0100
0001
0000
0010
0000
0100
1000
0001
0000
0000
0000
,
2002
0000
0000
0000
0000
0000
0000
3003
;

//--------------- dance-double - forcednature ----------------
#NOTEDATA:;
#STEPSTYPE:dance-double;
#DESCRIPTION:forcednature;
#DIFFICULTY:Easy;
#METER:4;
#RADARVALUES:0,0,0,0,0;
#CREDIT:forcednature;
#NOTES:
00000000
00000000
00000000
00000000
,
00000000
00000000
00000000
00000000
,
00000000
00000000
00000000
00000000
,
00000000
00000000
00000000
00000000
,
00000000
00000000
00000000
00000000
,
00000000
00000000
00000000
00000000
,
00001000
00000000
00000000
00000000
,
00010000
00000000
00000000
00000000
,
00001000
00000000
00000000
00000000
,
02000000
00000000
00000000
03000000
,
00010000
00000000
00000000
00000000
,
10000000
00000000
01000000
00000000
,
10000000
00000000
00000000
00000000
,
00010000
00000000
01000000
00000000
,
00001000
00000000
00000000
00000000
,
00010000
00000000
00000100
00000000
,
00010000
00000000
00001000
00000000
,
00020000
00000000
00000000
00030000
,
00000100
00000000
00001000
00000000
,
00000100
00000000
00000010
00000000
,
00000100
00000000
00001000
00000000
,
00000010
00000000
00000000
00000000
,
00010000
00000000
00000000
00010000
,
00001000
00000000
00000000
00001000
,
01000000
00000000
01000000
00000000
,
00020000
00000000
00030000
00000000
,
10000000
10000000
10000000
00000000
,
00010000
00010000
00010000
00000000
,
01000000
00000000
00001000
00000000
,
00010000
00000000
00000100
00000000
,
00001000
00001000
00001000
00000000
,
00000001
00000001
00000001
00000000
,
00000100
00000000
00000010
00000000
,
00001000
00000000
00000010
00000000
,
00010000
00010000
00010000
00000000
,
00001000
00001000
00001000
00000000
,
01000000
00000000
00010000
00000000
,
00100000
00000000
00010000
00000000
,
10000000
10000000
10000000
00000000
,
00010000
00010000
00010000
00000000
,
01000000
00000000
00001000
00000000
,
00010000
00001000
00010000
00000000
,
00001000
00000000
00000000
00000000
,
00010000
00000000
00000000
00000000
,
00000100
00000000
00000000
00000000
,
00001000
00000000
00000100
00000000
,
00001000
00000000
00000000
00000000
,
00000001
00000000
00000000
00000000
,
00000100
00000000
00000000
00000000
,
00000002
00000000
00000000
00000003
,
00000010
00000000
00000000
00000010
,
00000100
00000000
00000000
00000100
,
00001000
00000000
00000000
00001000
,
00000010
00000000
00000000
00000000
,
00010000
00000000
00001000
00000000
,
00010000
00000000
00001000
00000000
,
01000000
00000000
01000000
00000000
,
00200000
00000000
00300000
00000000
,
10000000
00000000
10000000
00000000
,
01000000
00000000
01000000
00000000
,
00100000
00000000
00010000
00000000
,
00100000
00000000
00001000
00000000
,
00010000
00000000
00010000
00000000
,
00000010
00000000
00000010
00000000
,
00001000
00000000
00000010
00000000
,
00000200
00000000
00000300
00000000
,
00000001
00000001
00000001
00000000
,
00001000
00001000
00001000
00000000
,
00000100
00000000
00010000
00000000
,
00001000
00000000
00100000
00000000
,
00010000
00010000
00010000
00000000
,
10000000
10000000
10000000
00000000
,
00010000
00000000
01000000
00000000
,
00001000
00000000
00010000
00000000
,
00000010
00000010
00000010
00000000
,
00000100
00000100
00000100
00000000
,
00000001
00000000
00001000
00000000
,
00000100
00000000
00010000
00000000
,
00001000
00001000
00001000
00000000
,
00010000
00010000
00010000
00000000
,
00001000
00000000
01000000
00000000
,
00010000
00000000
01000000
00000000
,
20020000
00000000
00000000
00000000
00000000
00000000
00000000
30030000
;

//--------------- dance-double - forcednature ----------------
#NOTEDATA:;
#STEPSTYPE:dance-double;
#DESCRIPTION:forcednature;
#DIFFICULTY:Medium;
#METER:10;
#RADARVALUES:0,0,0,0,0;
#CREDIT:forcednature;
#NOTES:
00000000
00000000
00000000
00000000
,
00000000
00000000
00000000
00000000
,
00000000
00000000
00000000
00000000
,
00000000
00000000
00000000
00000000
,
00000000
00000000
00000000
00000000
,
00000000
00000000
00000000
00000000
,
00001000
00010000
00000100
00010000
,
00000000
00001000
01000000
00010000
,
01000000
00000000
00100000
10000000
,
02000000
00000000
00000000
03000000
,
01100000
00000000
00000000
00000000
00100000
00000000
00001000
00100000
,
00000000
00001000
00010000
00000000
00000010
00000000
00001000
00000000
,
00000000
00000000
00000100
00000000
00001000
00000000
00000100
00000010
,
00000000
00000001
00000010
00000000
00000100
00000000
00000100
00000000
,
00001001
00001000
00000100
00001000
,
00000010
00010000
00001000
00010000
,
00001000
00100000
00001000
00000000
00100000
00010000
00100000
00000000
,
02000000
00000000
00000000
03000000
,
10010000
00000000
00000000
00010000
01000000
00000000
01000000
00000000
,
00001000
00000000
00000000
00001000
00010000
00000000
00010000
00000000
,
00000100
00000000
00000000
00000100
00001000
00000000
00001000
00000000
,
00000020
00000000
00000000
00000030
,
00001001
00000000
00001000
00000100
00001000
00000000
00000100
00000000
,
00010000
00000000
00001000
00010000
00001000
00000000
00010000
00000000
,
00100000
00100000
01000000
01000000
,
00020000
10000000
10030000
00100000
,
01010000
01010000
01010000
00001000
,
00011000
00000000
00011000
00000000
00011000
00000000
00010000
00000100
,
00010000
00000000
00000100
00001000
00000100
00000000
00000010
00000001
,
00000010
00000100
00001001
00001000
,
00010100
00010100
00010100
00010000
,
01001000
01001000
01001000
01000000
,
00010000
00100000
00010000
00000000
10000000
00100000
10000000
00000000
,
02000000
00010000
13000000
01000000
,
01100000
00110000
01100000
01000000
,
11000000
00000000
10100000
00000000
11000000
00000000
10000000
01000000
,
10000000
01000000
00010000
00001000
,
00000100
00000001
00000010
00000100
,
00010100
00010100
00010100
00010000
,
00101000
00101000
00101000
00001000
,
00020000
00000010
00001000
00030100
,
00010000
00000000
00001000
01000000
00001000
00000000
01000000
00000000
,
02200000
00000000
00000000
00000000
00000000
03300000
00000000
00100000
,
00000000
10000000
00000000
00010000
10000000
00000000
01000000
00000000
,
00010000
00000000
00001000
00010000
00000000
00001000
00000000
00000010
,
00000000
00000100
00000000
00000010
00000001
00000000
00001000
00000000
,
00000010
00001000
00000000
00000010
00000000
00010000
00001000
00010000
,
00001000
00000000
00100000
00010000
00100000
00000000
01000000
00000000
,
10000000
00000000
00010000
00000000
01000000
00001000
00000000
00001000
,
00020000
00000100
00001000
00030010
,
00011000
00000000
00000000
00001000
01000000
00000000
01000000
00000000
,
00010000
00000000
00000000
00010000
10000000
00000000
10000000
00000000
,
01000000
00000000
00000000
01000000
00100000
00000000
00100000
00000000
,
20020000
00000000
00000000
30030000
,
00010000
00000000
01000000
00010000
01000000
00000000
00001000
00000000
,
00010000
00000000
00001000
00010000
00001000
00000000
00010000
00000000
,
00000100
00001000
00000100
00000000
00000010
00000001
00000010
00000000
,
00000100
00000100
00000200
00000300
,
00001000
00000000
00001000
00000000
00000100
00010000
00000000
00010000
,
00001000
00010000
00000000
00001000
00010000
00001000
00000000
00001000
,
01000000
00000000
01000000
00000000
00010000
00100000
00000000
00100000
,
01000000
00100000
00000000
01000000
00100000
00000000
00100000
00000000
,
00010000
00000000
00010000
00000000
01000000
00001000
00000000
00001000
,
00010000
00001000
00000000
00010000
00001000
00010000
00000000
00001000
,
00010000
00000000
00010000
00000000
00000100
00001000
00000000
00001000
,
00000002
00000000
00000000
00000103
,
00000101
00001010
00000101
00001000
,
00010100
00000000
00001010
00000000
00010100
00000000
00010000
00001000
,
00010000
00000000
00001000
01000000
00001000
00000000
01000000
00000000
,
00100000
00100000
01000000
00010000
,
11000000
00110000
11000000
00010000
,
00101000
01010000
00101000
00001000
,
00010000
00000010
00010000
00000000
00000010
00001000
00000010
00000000
,
00000100
00000100
00000010
00010000
,
00011000
01001000
00011000
00001000
,
00011000
00010100
00011000
00001000
,
00010000
00000000
00001000
00000000
01000000
00010000
01000000
00000000
,
00100000
10000000
00010000
00100000
,
00101000
01010000
00101000
00001000
,
00010010
00001100
00010010
00000010
,
00002000
00000100
00000001
00003010
,
00001000
00000000
00000100
00001000
00000100
00000000
00010000
00000000
,
00022000
00000000
00000000
00000000
00000000
00000000
00000000
00033000
;

//--------------- dance-double - forcednature ----------------
#NOTEDATA:;
#STEPSTYPE:dance-double;
#DESCRIPTION:forcednature;
#DIFFICULTY:Hard;
#METER:14;
#RADARVALUES:0,0,0,0,0;
#CREDIT:forcednature;
#NOTES:
00000000
00000000
00000000
00000000
,
00000000
00000000
00000000
00000000
,
00000000
00000000
00000000
00000000
,
00000000
00000000
00000000
00000000
,
00000000
00000000
00000000
00000000
,
00000000
00000000
00000000
00000000
,
00001000
00000000
00010000
00001000
00010000
00000000
00100000
01000000
,
00000000
00100000
10000000
00010000
10000000
00000000
01000000
00000000
,
00010000
00000000
00001000
00010000
00000000
00001000
00000000
00000010
,
00000100
00000000
00000000
00000100
00001000
00000000
00000001
00000000
00001000
00000000
00000010
00000000
00010000
00000000
00000000
00000000
,
00011000
00000000
00001000
00100000
00001000
00000000
01000000
00010000
,
00000000
10000000
01000000
00100000
00010000
00000000
10020000
00000000
,
01030000
00000000
00001000
00010000
00000100
00000000
00001000
00000010
,
00000000
00000100
00000001
00001000
00000100
00000000
00000010
00000010
,
00000110
00000000
00000100
00010000
00001000
00000000
00100000
00001000
,
00010000
00001000
01000000
00010000
10000000
00010000
00100000
00000000
,
01000000
01000000
10000000
10000000
00010000
01000000
00001000
00010000
,
00000020
00001000
00000031
00000000
,
00000110
00000000
00000100
00001000
00010000
00000000
01000000
00000000
,
01100000
00000000
01000000
00010000
00001000
00000000
00000100
00000000
,
00000110
00000000
00000100
00001000
00010000
00000000
01000000
00000000
,
00100000
00000000
00100000
00001000
00000000
00001000
00010000
00000000
00010000
00000100
00000000
00000000
,
00000110
00000000
00000000
00000000
00000010
00000000
00001000
00000000
00010000
00000000
00000000
00010000
00001000
00000000
01000000
00000000
,
00010000
00000000
00000000
00000000
10000000
00000000
01000000
00000000
00100000
00000000
00000000
00100000
00001000
00000000
00010000
00000000
,
00000010
00001000
00000010
00000100
00001000
00001000
00000100
00000100
,
00000002
00000000
00000010
00000000
00000103
00000000
00000001
00000010
,
00000100
00001000
00000000
00000000
00000100
00001000
00000000
00000000
00000100
00001000
00000000
00000000
00000010
00000000
00010000
00000000
,
00001000
00100000
00000000
00000000
00001000
00100000
00000000
00000000
00001000
00100000
00000000
00000000
00010000
00000000
10000000
00000000
,
00010000
00000000
01000000
00001000
00010000
00000000
00000100
00001000
,
00000001
00000000
00000101
00000000
00001010
00000000
00000010
00010000
,
00001000
01000000
00000000
00000000
00001000
01000000
00000000
00000000
00001000
01000000
00000000
00000000
00010000
00000000
10000000
00000000
,
01000000
00100000
00000000
00000000
01000000
00100000
00000000
00000000
01000000
00100000
00000000
00000000
00001000
00000000
00010000
00000000
,
00000100
00000100
00001000
00001000
00000001
00000001
00000100
00000100
,
00001000
00010000
00001000
00000000
00011000
00000000
00010000
00001000
,
01000000
00010000
00000000
00000000
10000000
00100000
00000000
00000000
01000000
00010000
00000000
00000000
01000000
00000000
00001000
00000000
,
00010000
00000100
00000000
00000000
00001000
00000010
00000000
00000000
00010000
00000100
00000000
00000000
00001000
00000000
00000001
00000000
,
00000100
00001010
00010000
00011000
,
00002000
00000000
00100000
00000000
01003000
00000000
00001000
01000000
,
00010000
00100000
00000000
00000000
01000000
10000000
00000000
00000000
00010000
00100000
00000000
00000000
01000000
00000000
00010000
00000000
,
00001000
01000000
00000000
00000000
00001000
00100000
00000000
00000000
00001000
01000000
00000000
00000000
00001000
00000000
00010000
00000000
,
00000100
00000000
00000000
00000100
00000000
00000000
00001000
00000000
00001001
00000000
00000000
00000000
00000001
00000000
00000100
00000000
,
00001000
00000000
00000100
00000000
00000010
00000000
00001000
00000000
00010000
00000000
00000000
00010000
01000000
00000000
00100000
00000000
,
20000000
00000000
01000000
00000000
30100000
10000000
01000000
00100000
,
00000000
00000000
00001000
00000000
00000000
00000000
00010000
00000000
00000100
00000000
00001000
00000100
00001000
00000000
00000001
00000000
,
00000100
00001000
00000100
00000001
00000000
00000011
00000000
00001100
,
00000000
00000000
00000100
00000000
00010000
00000000
00001000
00000000
01000000
00000000
00010000
01000000
00010000
00000000
00000000
00000000
,
00100000
00001000
00010000
00001000
00000100
00001000
00010000
00000010
,
00001000
00000000
00000010
00001000
00000010
00000000
00000100
00000000
00000000
00000000
00000001
00000010
00000001
00000000
00000010
00000000
,
00000100
00000000
00001000
00000100
00001000
00000000
00000010
00000000
00000000
00000000
00010000
00000000
00001000
00000000
00100000
00000000
,
02000000
00010000
00100000
13000000
,
01100000
00000000
01000000
00010000
00001000
00000000
00000100
00000000
,
00000110
00000000
00000100
00001000
00010000
00000000
01000000
00000000
,
01100000
00000000
01000000
00010000
00001000
00000000
00000100
00000000
,
00000010
00000000
00000010
00000000
00001000
00000000
00000000
00010000
00000000
00000000
01000000
00000000
00001000
00000000
00000000
00000000
,
00011000
00000000
00000000
00000000
00010000
00000000
00100000
00000000
10000000
00000000
00000000
10000000
01000000
00000000
01000000
00000000
,
00010000
00000000
00000000
00000000
00001000
00000000
00000010
00000000
00000001
00000000
00000000
00000001
00000100
00000000
00000100
00000000
,
00001000
00010000
00001000
01000000
00010000
00010000
10000000
10000000
,
02000000
00000000
00010000
00000000
13000000
01000000
00010000
00000000
,
00011000
00000000
00000000
00001000
00100000
00000000
00001000
00000000
00010000
00000000
00000010
00000000
00000010
00000000
00001000
00000000
,
00001000
00000100
00001000
00000000
00000100
00000010
00000100
00000000
00000020
00000000
00000032
00000000
00000203
00000000
00000302
00000000
,
00001003
00000000
00000000
00001000
00000100
00000000
00010000
00000000
00001000
00000000
01000000
00000000
00010000
01000000
00010000
01000000
,
00100000
00000000
10000000
00000000
00100000
10000000
00100000
00000000
01000000
00000000
00100000
00010000
01000000
00000000
01000000
00000000
,
00001000
00000000
00000000
00001000
00010000
00000000
00000100
00000000
00001000
00000000
00000010
00000000
00000010
00000000
00010000
00000000
,
00001000
00010000
00001000
00000000
01000000
00001000
01000000
00000000
00002000
00000000
00023000
00000000
00230000
00000000
02300000
00000000
,
03010000
00000000
00000000
00010000
10000000
00000000
01000000
00000000
00100000
00000000
00001000
00000000
00010000
00001000
00010000
00001000
,
00020000
00000000
00000010
00000010
00000010
00000000
00031000
00010000
,
00000100
00010000
00000000
00000000
00001000
00100000
00000000
00000000
00000100
00010000
00000000
00000000
00001000
00000000
00010000
00000000
,
00000010
00010000
00000000
00000000
00001000
01000000
00000000
00000000
00000010
00010000
00000000
00000000
00001000
00000000
01000000
00000000
,
00020000
00000000
00130000
01000000
10000000
00000000
00100000
00000000
,
01001000
00000000
00011000
00000000
00010010
00000000
00000010
00000100
,
00001000
00010000
00000000
00000000
01000000
00100000
00000000
00000000
00001000
00010000
00000000
00000000
00000100
00000000
00001000
00000000
,
00000010
00000100
00000000
00000000
00001000
00010000
00000000
00000000
00000010
00000100
00000000
00000000
00001000
00000000
00000000
00000000
,
00010000
00010000
01000000
01000000
10000000
10000000
00100000
00100000
,
01000000
00001000
00010000
00000000
00011000
00000000
00001000
00000010
,
00000100
00010000
00000000
00000000
00001000
00100000
00000000
00000000
00000100
00010000
00000000
00000000
00001000
00000000
01000000
00000000
,
00010000
00100000
00000000
00000000
01000000
10000000
00000000
00000000
00010000
00100000
00000000
00000000
01000000
00000000
00010000
00000000
,
00002000
00000000
00003100
00001000
00010000
00000010
00001000
00000010
,
00000100
00000000
00001000
00000000
00011000
00000000
00010000
00100000
,
10000000
01000000
00000000
00000000
00010000
01000000
00000000
00000000
10000000
01000000
00000000
00000000
00100000
00000000
00001000
00000000
,
00010000
00000100
00000000
00000000
00000010
00000100
00000000
00000000
00010000
00000100
00000000
00000000
00000010
00000000
00000001
00000000
,
00000100
00001000
00010000
01000000
,
10000000
00100000
10000000
00000000
00100000
01000000
00100000
00000000
01000000
00000000
00000000
01000000
00001000
00000000
00000000
00000000
,
00022000
00000000
00000000
00000000
00000000
00000000
00000000
00033000
;
