#VERSION:0.83;
#TITLE:Believe In Yourself;
#SUBTITLE:;
#ARTIST:kors k;
#TITLETRANSLIT:;
#SUBTITLETRANSLIT:;
#ARTISTTRANSLIT:;
#GENRE:;
#CREDIT:;
#MUSIC:Believe In Yourself.ogg;
#BANNER:Believe In Yourself.png;
#BACKGROUND:Believe In Yourself-bg.png;
#CDTITLE:./CDTitles/SDVX II -infinite -infection-.png;
#SAMPLESTART:65.502;
#SAMPLELENGTH:15.000;
#SELECTABLE:YES;
#OFFSET:-0.051;
#BPMS:0.000=165.000;
#STOPS:;
#TIMESIGNATURES:0.000=4=4;
#BGCHANGES:0.000=../BGAs/24vi.mp4=1.000=0=0=0=StretchNoLoop====,
99999.000=-nosongbg-=1.000=0=0=0=StretchNoLoop====
;
#FGCHANGES:;

//--------------- dance-single - forcednature ----------------
#NOTEDATA:;
#STEPSTYPE:dance-single;
#DESCRIPTION:forcednature;
#CREDIT:forcednature;
#DIFFICULTY:Beginner;
#METER:1;
#RADARVALUES:0,0,0,0,0;
#NOTES:
0000
0000
0000
0000
,
0000
0000
0000
0000
,
0000
0000
0000
0000
,
0000
0000
0000
0000
,
0000
0000
0000
0000
,
0000
0000
0000
0000
,
1000
0000
0000
0000
,
0000
0000
0000
0000
,
0000
0000
0000
0000
,
0000
0000
0000
0000
,
0001
0000
0000
0000
,
0000
0000
0000
0000
,
0000
0000
0000
0000
,
0000
0000
0000
0000
,
0100
0000
0000
0000
,
0000
0000
0000
0000
,
0010
0000
0000
0000
,
0000
0000
0000
0000
,
1000
0000
0000
0000
,
0000
0000
0000
0000
,
0001
0000
0000
0000
,
0000
0000
0000
0000
,
0010
0000
0000
0000
,
0000
0000
0000
0000
,
0100
0000
0000
0000
,
0000
0000
0000
0000
,
1000
0000
0000
0000
,
0000
0000
0000
0000
,
0001
0000
0000
0000
,
0000
0000
0000
0000
,
0100
0000
0000
0000
,
0010
0000
0000
0000
,
1000
0000
0000
0000
,
0000
0000
0000
0000
,
0100
0000
0000
0000
,
0010
0000
0000
0000
,
0001
0000
0000
0000
,
0000
0000
0000
0000
,
1000
0000
0000
0000
,
0001
0000
0000
0000
,
0100
0000
0000
0000
,
0000
0000
0000
0000
,
0001
0000
0000
0000
,
1000
0000
0000
0000
,
0100
0000
0000
0000
,
0010
0000
0000
0000
,
1001
0000
0000
0000
,
0000
0000
0000
0000
,
0001
0000
0000
0000
,
0100
0000
0000
0000
,
0001
0000
0000
0000
,
0000
0000
0000
0000
,
1000
0000
0000
0000
,
0100
0000
0000
0000
,
1000
0000
0000
0000
,
0000
0000
0000
0000
,
0001
0000
0000
0000
,
0010
0000
0000
0000
,
0001
0000
0000
0000
,
0000
0000
0000
0000
,
1000
0000
0000
0000
,
0010
0000
0000
0000
,
1001
0000
0000
0000
,
0000
0000
0000
0000
,
0100
0000
0000
0000
,
0000
0000
0000
0000
,
0010
0000
0000
0000
,
0000
0000
0000
0000
,
1001
0000
0000
0000
,
0000
0000
0000
0000
,
1000
0000
0000
0000
,
0100
0000
0000
0000
,
0010
0000
0000
0000
,
0001
0000
0000
0000
,
0100
0000
0000
0000
,
0010
0000
0000
0000
,
1000
0000
0000
0000
,
0001
0000
0000
0000
,
0010
0000
0000
0000
;

//--------------- dance-single - forcednature ----------------
#NOTEDATA:;
#STEPSTYPE:dance-single;
#DESCRIPTION:forcednature;
#CREDIT:forcednature;
#DIFFICULTY:Easy;
#METER:6;
#RADARVALUES:0,0,0,0,0;
#NOTES:
0000
0000
0000
0000
,
0000
0000
0000
0000
,
0000
0000
0000
0000
,
0000
0000
0000
0000
,
0000
0000
0000
0000
,
0000
0000
0000
0000
,
1001
0000
0001
0000
,
0100
0000
0000
0000
,
0010
0000
0000
0000
,
1000
0000
0000
0000
,
0100
0000
1000
0000
,
0010
0000
0000
0000
,
1000
0000
0000
0000
,
0001
0000
0000
0000
,
1001
0000
1000
0000
,
0100
0000
0000
0000
,
1000
0000
0001
0000
,
0100
0000
0000
0000
,
0010
0000
1000
0000
,
0001
0000
0000
0000
,
0000
0000
0010
0000
,
0010
0000
0010
0000
,
0100
0000
0000
0000
,
1000
0000
0000
0000
,
0001
0000
0000
0000
,
0100
0000
0000
0000
,
0010
0000
0010
0000
,
1000
0000
1000
0000
,
0001
0000
0010
0000
,
0200
0000
0000
0300
,
0000
1000
0001
1000
,
0000
0001
0100
0001
,
0000
1000
0001
1000
,
0000
0001
0010
0001
,
0000
0010
0100
0010
,
0000
0100
1000
0100
,
0000
1000
0010
1000
,
0001
0000
0000
0010
,
0000
0100
1000
0001
,
0000
0100
0001
1000
,
0000
0010
1000
0001
,
0000
0010
0001
1000
,
0000
0100
0010
0001
,
0000
0100
0010
1000
,
0000
0001
0010
0100
,
2000
0000
0000
3000
,
0001
0000
0100
0010
,
1000
0001
0010
0000
,
0100
1000
0001
0000
,
0100
0001
1000
0000
,
0001
0000
0010
0100
,
1000
0010
0100
0000
,
0001
1000
0010
0000
,
1000
0001
0010
0000
,
1001
0000
1000
0100
,
1000
0001
0100
0000
,
0010
1000
0001
0000
,
0010
0100
1000
0000
,
1001
0000
0001
0010
,
0001
1000
0010
0000
,
0100
0001
1000
0000
,
0200
0000
0000
0300
,
1000
0000
0000
0000
,
0000
0001
0000
0001
0000
0000
0001
0000
,
0010
0000
0000
0000
,
0000
0100
0000
0100
0000
0000
0100
0000
,
1000
0000
0000
0000
,
0000
0010
0000
0010
0000
0000
0010
0000
,
0100
0000
0000
0000
,
0002
0000
0000
0003
,
0000
1000
0100
1000
,
0000
0001
0100
0001
,
0000
1000
0010
1000
,
0000
0001
0010
0001
,
0100
0000
0010
0000
,
1000
0000
0001
0000
,
0010
0000
0100
0000
,
1000
1000
0001
0100
,
0020
0000
0000
0000
,
0030
0000
0000
0000
;

//--------------- dance-single - forcednature ----------------
#NOTEDATA:;
#STEPSTYPE:dance-single;
#DESCRIPTION:forcednature;
#CREDIT:forcednature;
#DIFFICULTY:Medium;
#METER:10;
#RADARVALUES:0,0,0,0,0;
#NOTES:
0000
0000
0000
0000
,
0000
0000
0000
0000
,
0000
0000
0000
0000
,
0000
0000
0000
0000
,
0000
0000
0000
0000
,
0000
0000
0000
0000
,
0002
0000
1003
0200
0000
2300
0000
3002
,
0000
0103
0001
0200
0000
0300
0000
0000
,
0000
0000
0000
0000
,
0000
0000
0000
0000
,
2000
0000
3001
2000
0000
3200
0000
2300
,
0000
3001
0100
0002
0000
0003
0000
0000
,
0000
0000
0000
0000
,
0000
0000
0000
0000
,
2000
0000
3100
0020
0000
0032
0000
0203
,
0000
0310
1000
0020
0000
0130
0001
0200
,
0000
0301
0010
0002
0000
1003
0100
2000
,
0000
3010
0100
0010
1000
0001
1000
0100
,
0020
0000
0031
0200
0000
0302
0000
2003
,
0000
3010
1000
0001
0100
0001
1000
0010
,
1000
0000
0001
0000
1000
0100
0010
0000
,
0100
0000
0010
0000
0001
0100
0010
0000
,
1002
1000
1000
1003
,
2100
0100
0100
3100
,
0210
0010
0010
0310
,
0021
0001
0001
0031
,
0100
0000
0000
0100
0000
0000
0100
0000
0001
0000
0000
0001
0000
0000
0001
0000
,
1000
0000
0000
1000
0000
0000
1000
0000
0100
0000
0000
0100
0000
0000
0100
0000
,
0010
0001
0010
0001
1000
0010
1000
0010
,
0200
0000
0000
0300
,
0001
0020
2030
3020
,
0130
2000
3020
0032
,
0013
0200
0302
2003
,
3100
0020
2030
3020
,
0031
2000
3020
0032
,
0013
0200
2300
3200
,
0301
2000
3200
0320
,
2030
3002
0203
0310
,
1001
0002
0203
2300
,
3001
0020
2030
3002
,
1003
0200
0302
2003
,
3010
0002
2003
3020
,
0130
2000
3002
0023
,
0130
0002
2003
3200
,
0310
2000
3020
0032
,
0203
0000
0000
0300
,
2001
0000
3001
0200
0000
0320
0000
2030
,
0000
3100
1000
0200
0000
0310
0001
0020
,
0000
0130
1000
0200
0000
0310
0001
0020
,
0000
0130
1000
0010
0100
0001
0100
0010
,
2000
0000
3001
0020
0000
0032
0000
0203
,
0000
0310
1000
0020
0000
0130
0001
0200
,
0000
0310
1000
0020
0000
0130
0001
0200
,
0000
0301
0010
0100
1000
0010
0100
0000
,
1002
0000
1003
0200
0000
2300
0000
3002
,
0000
1003
0100
0020
0000
0031
0100
0020
,
0000
1030
0100
0020
0000
0031
0100
0020
,
0000
1030
0100
0010
0001
1000
0010
0100
,
0002
0000
1003
0020
0000
0230
0000
0302
,
0000
0013
0100
2000
0000
3010
0100
0002
,
0000
0013
0100
2000
0000
3010
0100
0001
,
0020
0000
0000
0030
,
0100
0100
0000
0000
0000
0000
0000
0000
,
0000
1001
0000
0001
0001
1000
0001
0000
,
0100
0100
0000
0000
0000
0000
0000
0000
,
0000
1001
0000
1000
1000
0001
1000
0000
,
0010
0010
0000
0000
0000
0000
0000
0000
,
0000
1001
0000
0001
0001
1000
0001
0000
,
0010
0010
0000
0000
0000
0000
0000
0000
,
0200
0000
0000
0300
,
1000
0020
0032
0023
,
0130
0002
0023
2030
,
3001
0200
2300
3020
,
1030
0002
0203
0310
,
1000
0000
0000
1000
0000
0000
1000
0000
0001
0000
0000
0001
0000
0000
0001
0000
,
0010
0000
0000
0010
0000
0000
0010
0000
0100
0000
0000
0100
0000
0000
0100
0000
,
1000
0001
1000
0001
0100
0010
0100
0010
,
1000
0001
0010
0110
,
2002
0000
0000
0000
,
3003
0000
0000
0000
;

//--------------- dance-single - forcednature ----------------
#NOTEDATA:;
#STEPSTYPE:dance-single;
#DESCRIPTION:forcednature;
#CREDIT:forcednature;
#DIFFICULTY:Hard;
#METER:13;
#RADARVALUES:0,0,0,0,0;
#NOTES:
0000
0000
0000
0000
,
0000
0000
0000
0000
,
0000
0000
0000
0000
,
0000
0000
0000
0000
,
0000
0000
0000
0000
,
0000
0000
0000
0000
0000
0000
0000
0000
0000
0000
0000
0000
0000
0000
0001
0100
,
0020
0000
1030
0002
0000
2003
0000
3200
,
0000
0310
0100
2000
0000
3000
0000
0000
,
0000
0010
0000
0010
0000
0100
0000
0100
,
0000
0001
0000
0001
0000
1000
0000
1000
,
0200
0000
0310
0002
0000
0203
0000
0320
,
0000
1030
0001
0200
0000
0300
0000
0000
,
0000
0010
0000
0010
0000
1000
0000
1000
,
0000
0000
0100
0000
0000
0000
0100
0000
0000
0000
0010
0000
0000
0000
0010
0001
,
2000
0000
3010
0200
0000
0302
0000
2003
,
0000
0000
3100
0000
1000
0000
0002
0000
0000
0000
0103
0001
1000
0000
0200
0000
,
0000
0000
0310
0000
0100
0000
2000
0000
0000
0000
3010
0100
0001
0000
0020
0000
,
0000
0031
1000
0010
0100
1000
0100
0001
,
0020
0000
0130
2000
0000
3020
0000
2030
,
0000
3100
0010
0001
0010
1000
0010
0001
,
0010
0100
1000
0001
1000
0010
0100
0001
,
0010
0100
0010
0100
1000
0010
0100
0000
,
1002
0100
1000
0013
,
2001
0100
0001
3010
,
1200
0001
0010
1300
,
0201
1000
0010
0301
,
0110
0000
0000
0001
1000
0000
0010
0000
0100
0000
0000
0001
1000
0000
0100
0000
,
0010
0000
0000
0100
1000
0000
0010
0000
0100
0000
0000
0001
0010
0000
0001
0000
,
0100
1000
0100
1000
0100
0001
0100
0001
,
0020
0100
0100
0100
0130
0000
1001
0000
,
0001
0000
0000
0001
0100
0000
0000
0100
0010
0000
0000
0010
1000
0000
0000
0000
,
0100
0000
0000
0100
0010
0000
0000
0010
0001
0000
0000
0001
1000
0000
0000
0000
,
0010
0000
0000
0010
1000
0000
0000
1000
0010
0000
0000
0010
0100
0000
0000
0000
,
0001
0000
0000
0001
1000
0000
0000
1000
0100
0000
0000
0100
0010
0000
0000
0000
,
0100
0000
0000
0100
1000
0000
0000
1000
0010
0000
0000
0010
0100
0000
0000
0000
,
0010
0000
0000
0010
0100
0000
0000
0100
0001
0000
0000
0001
0010
0000
0000
0000
,
0100
0000
0000
0100
1000
0000
0000
1000
0001
0000
0000
0001
0100
0000
0000
0100
,
0010
0000
0000
0010
1000
0000
0000
1000
0001
0000
0000
0001
0010
0000
0000
0000
,
1001
0000
0000
1000
0010
0000
0000
0100
0001
0000
0000
1000
0010
0000
0000
0000
,
1000
0000
0000
0001
0010
0000
0000
0100
1000
0000
0000
0001
0010
0000
0000
0000
,
0001
0000
0000
0100
0010
0000
0000
0100
1000
0000
0000
0100
0010
0000
0000
0000
,
1000
0000
0000
0010
0001
0000
0000
0010
1000
0000
0000
0010
0001
0000
0000
0000
,
0010
0000
0000
1000
0001
0000
0000
0100
0010
0000
0000
0001
0010
0000
0000
0000
,
1000
0000
0000
0100
0001
0000
0000
0100
1000
0000
0000
0100
0001
0000
0000
0000
,
0110
0000
1000
0001
0010
0100
1000
0001
,
0200
0000
0010
0000
0010
0000
0010
0000
0310
0000
0000
0000
0100
0000
0001
0010
,
0100
1000
0001
1000
0100
0001
0100
2000
,
0000
0000
3010
0000
1000
0000
0002
0000
0000
0000
0103
0001
0010
0000
0200
0000
,
0000
0000
1300
0000
0001
0000
0200
0000
0000
0000
0310
1000
0001
0000
0020
0000
,
0000
0130
0001
0100
1000
0010
0100
0010
,
0001
0010
1000
0001
0010
0100
1000
0020
,
0000
0000
0130
0000
0001
0000
0020
0000
0000
0000
0130
1000
0010
0000
0200
0000
,
0000
0000
1300
0000
0100
0000
0002
0000
0000
0000
1003
0100
0010
0000
0002
0000
,
0000
0103
0010
0001
0010
0100
1001
0000
,
0001
0100
0010
1000
0001
1000
0100
0002
,
0000
0000
0103
0000
0010
0000
0002
0000
0000
0000
1003
0010
0100
0000
0020
0000
,
0000
0000
1030
0000
0100
0000
0002
0000
0000
0000
0103
1000
0010
0000
0200
0000
,
0000
0301
1000
0010
0001
0010
0100
0001
,
1001
1000
0001
0100
1000
0100
0001
0020
,
0000
0000
0031
0000
0100
0000
2000
0000
0000
0000
3100
0010
1000
0000
0001
0000
,
0010
0001
0010
1000
0010
0100
1000
0001
,
0200
0010
0010
0010
0310
0000
1001
0000
,
0101
0101
0000
0000
0000
0000
0000
0000
,
0000
1010
0000
0001
0010
0100
1000
0000
,
1100
1100
0000
0000
0000
0000
0000
0000
,
0000
0011
0000
0001
0100
0010
1000
0000
,
1001
1001
0000
0000
0000
0000
0000
0000
,
0000
0110
0000
0001
0100
1000
0100
0000
,
1001
1001
0000
0000
0000
0000
0000
0000
,
0020
0100
0100
0100
0130
0000
1001
0000
,
1000
0000
0000
1000
0100
0000
0000
0100
0001
0000
0000
0001
0100
0000
0000
0000
,
0010
0000
0000
0010
0001
0000
0000
0001
0100
0000
0000
0100
0010
0000
0000
0000
,
1000
0000
0000
1000
0010
0000
0000
0010
0001
0000
0000
0001
0010
0000
0000
0000
,
0100
0000
0000
0100
1000
0000
0000
1000
0100
0000
0000
0100
0001
0000
0100
0000
,
0101
0000
0000
0001
1000
0000
0100
0000
1100
0000
0000
1000
0001
0000
0010
0000
,
0011
0000
0000
0001
1000
0000
0010
0000
1010
0000
0000
1000
0001
0000
0100
0000
,
0010
0001
0010
1000
0100
0010
1000
0010
,
0001
0010
0001
0000
1000
0000
0010
0000
0100
0001
0100
0000
0010
0000
0000
0000
,
2002
0000
0000
0000
,
3003
0000
0000
0000
;

//--------------- dance-double - forcednature ----------------
#NOTEDATA:;
#STEPSTYPE:dance-double;
#DESCRIPTION:forcednature;
#CREDIT:forcednature;
#DIFFICULTY:Easy;
#METER:6;
#RADARVALUES:0,0,0,0,0;
#NOTES:
00000000
00000000
00000000
00000000
,
00000000
00000000
00000000
00000000
,
00000000
00000000
00000000
00000000
,
00000000
00000000
00000000
00000000
,
00000000
00000000
00000000
00000000
,
00000000
00000000
00000000
00000000
,
00011000
00000000
00010000
00000000
,
00001000
00000000
00000000
00000000
,
01000000
00000000
00000000
00000000
,
00010000
00000000
00000000
00000000
,
10000000
00000000
01000000
00000000
,
10000000
00000000
00000000
00000000
,
00010000
00000000
00000000
00000000
,
01000000
00000000
00000000
00000000
,
10010000
00000000
00010000
00000000
,
01000000
00000000
00000000
00000000
,
00001000
00000000
00010000
00000000
,
00001000
00000000
00000000
00000000
,
00010000
00000000
00000100
00000000
,
00010000
00000000
00000000
00000000
,
00000000
00000000
00000100
00000000
,
00000100
00000000
00000100
00000000
,
00000010
00000000
00000000
00000000
,
00000001
00000000
00000000
00000000
,
00000100
00000000
00000000
00000000
,
00000001
00000000
00000000
00000000
,
00001000
00000000
00001000
00000000
,
00000100
00000000
00000100
00000000
,
00010000
00000000
00001000
00000000
,
00020000
00000000
00000000
00030000
,
00000000
00001000
01000000
00001000
,
00000000
01000000
00010000
01000000
,
00000000
00010000
10000000
00010000
,
00000000
00100000
00010000
00100000
,
00000000
00001000
00010000
00001000
,
00000000
00010000
00000010
00010000
,
00000000
00000010
00001000
00000010
,
00000100
00000000
00000000
00000001
,
00000000
00000010
00000100
00001000
,
00000000
00000100
00010000
00001000
,
00000000
00010000
00001000
01000000
,
00000000
00010000
01000000
00100000
,
00000000
01000000
00100000
10000000
,
00000000
00100000
10000000
00010000
,
00000000
00100000
00010000
00100000
,
00002000
00000000
00003000
00000000
,
00010000
00000000
00000010
00001000
,
00000010
00000100
00000001
00000000
,
00000010
00000100
00001000
00000000
,
00000100
00010000
00001000
00000000
,
01000000
00000000
00010000
10000000
,
00010000
00100000
01000000
00000000
,
00100000
00010000
00100000
00000000
,
00001000
00010000
00000010
00000000
,
00011000
00000000
00001000
00010000
,
00000100
00001000
00000100
00000000
,
00000010
00000001
00001000
00000000
,
00000010
00001000
00000010
00000000
,
00001001
00000000
00001000
00000100
,
00010000
00001000
01000000
00000000
,
00010000
01000000
00100000
00000000
,
20000000
00000000
00000000
30000000
,
01000000
00000000
00000000
00000000
,
00000000
00100000
00000000
00100000
00000000
00000000
00100000
00000000
,
00001000
00000000
00000000
00000000
,
00000000
00001000
00000000
00001000
00000000
00000000
00001000
00000000
,
00010000
00000000
00000000
00000000
,
00000000
00010000
00000000
00010000
00000000
00000000
00010000
00000000
,
00000010
00000000
00000000
00000000
,
00000200
00000000
00000000
00000300
,
00000000
00000001
00000100
00000001
,
00000000
00000100
00000010
00000100
,
00000000
00000010
00001000
00000010
,
00000000
00010000
00001000
00010000
,
00001000
00000000
00001000
00000000
,
00100000
00000000
00100000
00000000
,
01000000
00000000
01000000
00000000
,
10000000
10000000
00010000
01000000
,
00200000
00000000
00000000
00000000
,
00300000
00000000
00000000
00000000
;

//--------------- dance-double - forcednature ----------------
#NOTEDATA:;
#STEPSTYPE:dance-double;
#DESCRIPTION:forcednature;
#CREDIT:forcednature;
#DIFFICULTY:Medium;
#METER:10;
#RADARVALUES:0,0,0,0,0;
#NOTES:
00000000
00000000
00000000
00000000
,
00000000
00000000
00000000
00000000
,
00000000
00000000
00000000
00000000
,
00000000
00000000
00000000
00000000
,
00000000
00000000
00000000
00000000
,
00000000
00000000
00000000
00000000
00000000
00000000
00000000
00010000
,
00002000
00000000
00003010
00000002
00000000
00000203
00000000
00000320
,
00000000
00010030
00001000
00020000
00000000
00030000
00000000
00000000
,
00000000
00000000
00000000
00000000
,
00000000
00000000
00000000
00000000
,
00200000
00000000
01300000
00020000
00000000
20030000
00000000
32000000
,
00000000
03100000
00001000
00020000
00000000
00030000
00000000
00000000
,
00000000
00000000
00000000
00000000
,
00000000
00000000
00000000
00000000
00000000
00000000
00000000
00000010
,
00002000
00000000
00003001
00000200
00000000
00002300
00000000
00023000
,
00000000
01030000
10000000
02000000
00000000
03100000
00010000
02000000
,
00000000
03100000
10000000
00020000
00000000
00130000
00001000
00020000
,
00000000
00030010
00001000
00000001
00000100
00000010
00001000
00000100
,
00000020
00000000
00000130
00002000
00000000
00003002
00000000
00000203
,
00000000
00001300
00010000
00100000
00010000
00001000
00010000
00100000
,
01000000
00000000
00100000
10000000
01000000
00000000
00100000
00000000
,
00001000
00000000
00000010
00000100
00001000
00000000
00000001
00000000
,
00001001
00000002
00000203
00002300
,
00003000
00020000
00230000
02300000
,
03000000
00020000
20030000
32000000
,
03000000
00200000
00302000
00023000
,
00030010
00000000
00000000
00001000
00000000
00000000
00000010
00000000
00000100
00000000
00000000
00000001
00000000
00000000
00000100
00000000
,
00000001
00000000
00000000
00000010
00000000
00000000
00000001
00000000
00001000
00000000
00000000
00000100
00000000
00000000
00001000
00000000
,
00000010
00010000
00001000
00100000
,
10010000
01100000
20020000
30030000
,
10000000
02000000
03200000
00302000
,
00003010
00000200
00002300
00003002
,
00000103
00002000
02003000
03020000
,
00130000
00002000
00023000
00230000
,
01300000
00020000
20030000
32000000
,
03100000
00002000
00003020
00000032
,
00000103
00000020
00002030
00003002
,
00000203
00002300
00023000
02030000
,
03100000
00002000
00023000
00230000
,
10300000
02000000
03020000
00032000
,
00003100
00000002
00000023
00000230
,
00001300
00000002
00000203
00000320
,
00010030
00200000
02300000
03002000
,
00013000
02000000
23000000
30020000
,
01030000
00002000
00003020
00000032
,
00000103
00000000
00000110
00000000
00002002
00000000
00003003
00000001
,
00000200
00000000
00000310
00002000
00000000
00003200
00000000
00000320
,
00000000
00001030
00010000
00200000
00000000
01300000
00010000
20000000
,
00000000
31000000
00010000
00002000
00000000
01003000
00010000
00200000
,
00000000
00301000
00010000
00000010
00010000
00001000
00000010
00000100
,
00002000
00000000
00003001
00000200
00000000
00000320
00000000
00002030
,
00000000
00003001
00000100
00002000
00000000
00013000
01000000
20000000
,
00000000
30010000
01000000
00200000
00000000
10300000
01000000
00200000
,
00000000
01300000
10000000
00010000
01000000
00001000
00010000
00000100
,
00002000
00000000
00003001
00000200
00000000
00000320
00000000
00002030
,
00000000
00003100
00000010
00002000
00000000
00003010
00000001
00000200
,
00000000
00000310
00010000
00002000
00000000
00003010
00000100
00002000
,
00000000
00003010
00010000
00001000
01000000
00100000
00010000
00100000
,
20000000
00000000
30010000
20000000
00000000
32000000
00000000
03200000
,
00000000
00301000
00000010
00000200
00000000
00001300
00000001
00000200
,
00000000
00000310
00001000
00020000
00000000
01030000
00010000
00100000
,
01000000
10000000
00010000
10000000
01000000
00000000
01100000
00000000
,
10000000
00010000
00000000
00000000
00000000
00000000
00000000
00000000
,
00000000
01001000
00000000
00001000
00010000
00000100
00001000
00000000
,
00000001
00000100
00000000
00000000
00000000
00000000
00000000
00000000
,
00000000
00000110
00000000
00000010
00010000
00001000
00100000
00000000
,
00010000
10000000
00000000
00000000
00000000
00000000
00000000
00000000
,
00000000
01100000
00000000
10000000
01000000
00100000
00010000
00000000
,
01000000
00001000
00000000
00000000
00000000
00000000
00000000
00000000
,
00022000
00000000
00000000
00033000
,
00010000
00000200
00000320
00000032
,
00000103
00002000
00023000
02030000
,
03100000
00002000
00023000
00230000
,
10300000
02000000
03020000
00032000
,
00003010
00000000
00000000
00000001
00000000
00000000
00000010
00000000
00000100
00000000
00000000
00001000
00000000
00000000
00000100
00000000
,
00010000
00000000
00000000
00001000
00000000
00000000
00010000
00000000
00100000
00000000
00000000
01000000
00000000
00000000
00100000
00000000
,
10000000
00000000
01000000
00000000
00010000
00001000
00010000
00000000
,
00100000
01000000
00010000
10000000
01000000
00010000
00001000
00000000
,
00022000
00000000
00000000
00000000
,
00033000
00000000
00000000
00000000
;

//--------------- dance-double - forcednature ----------------
#NOTEDATA:;
#STEPSTYPE:dance-double;
#DESCRIPTION:forcednature;
#CREDIT:forcednature;
#DIFFICULTY:Hard;
#METER:13;
#RADARVALUES:0,0,0,0,0;
#NOTES:
00000000
00000000
00000000
00000000
,
00000000
00000000
00000000
00000000
,
00000000
00000000
00000000
00000000
,
00000000
00000000
00000000
00000000
,
00000000
00000000
00000000
00000000
,
00001000
00000000
00001000
00000000
00001000
00000000
00001000
00000000
00001000
00000000
00000000
00000000
00000000
00000000
01000000
00010000
,
02000000
00000000
03100000
20000000
00000000
32000000
00000000
03020000
,
00000000
00031000
00000010
00000002
00000000
00000003
00000000
00000000
,
00000000
00000100
00000000
00000010
00000000
00000100
00000000
00001000
,
00000000
00010000
00000000
01000000
00000000
00100000
00000000
00000000
,
00020000
00000000
10030000
00200000
00000000
20300000
00000000
32000000
,
00000000
03010000
00001000
00000020
00000000
00000030
00000000
00000000
,
00000000
00000100
00000000
00001000
00000000
00000001
00000000
00000100
,
00000000
00000000
00000010
00000000
00000000
00000000
00010000
00000000
00000000
00000000
00001000
00000000
00000000
00000000
00000010
00000100
,
00000020
00000000
00000031
00000200
00000000
00002300
00000000
00023000
,
00000000
00000000
00130000
00000000
10000000
00000000
02000000
00000000
00000000
00000000
03100000
00010000
00100000
00000000
02000000
00000000
,
00000000
00000000
13000000
00000000
00010000
00000000
02000000
00000000
00000000
00000000
03001000
00010000
00001000
00000000
00000020
00000000
,
00000000
00000130
00001000
00000001
00000100
00001000
00000100
00000010
,
00020000
00000000
00031000
00000020
00000000
00000230
00000000
00020300
,
00000000
00031000
00000100
00001000
00010000
01000000
00100000
00010000
,
10000000
00100000
00010000
00100000
01000000
00001000
00010000
00000100
,
00000010
00001000
00000010
00000001
00001000
00000010
00000100
00000000
,
00000101
00000000
00000100
00000000
00001000
00000000
00010000
01000000
,
00100000
00000000
00010000
00000000
10000000
00000000
00100000
10000000
,
01000000
00000000
00010000
00000000
00001000
00000000
00000010
00000001
,
00000100
00000000
00000010
00000000
00001000
00000000
00000001
00000100
,
00001000
00000000
00000000
01000000
00000000
00000000
00100000
00000000
10000000
00000000
00000000
00010000
00000000
00000000
10000000
00000000
,
01000000
00000000
00000000
00010000
00000000
00000000
00001000
00000000
00000010
00000000
00000000
00000001
00000000
00000000
00001000
00000000
,
00000001
00000100
00001000
00000100
00001000
00010000
01000000
00100000
,
00010000
00010000
00010000
00010000
00010000
00000000
01100000
00000000
,
00010000
00000000
00000000
00010000
01000000
00000000
00000000
01000000
00001000
00000000
00000000
00001000
00010000
00000000
00000000
00000000
,
00000100
00000000
00000000
00000100
00000010
00000000
00000000
00000010
00000001
00000000
00000000
00000001
00000100
00000000
00000000
00000000
,
00000010
00000000
00000000
00000010
00001000
00000000
00000000
00001000
00010000
00000000
00000000
00010000
01000000
00000000
00000000
00000000
,
00100000
00000000
00000000
00100000
10000000
00000000
00000000
10000000
01000000
00000000
00000000
01000000
00010000
00000000
00000000
00000000
,
00001000
00000000
00000000
00001000
00000100
00000000
00000000
00000100
00000001
00000000
00000000
00000001
00000010
00000000
00000000
00000000
,
00000100
00000000
00000000
00000100
00010000
00000000
00000000
00010000
00100000
00000000
00000000
00100000
01000000
00000000
00000000
00000000
,
00010000
00000000
00000000
00010000
00100000
00000000
00000000
00100000
01000000
00000000
00000000
01000000
00010000
00000000
00000000
00010000
,
00001000
00000000
00000000
00001000
00000010
00000000
00000000
00000010
00000100
00000000
00000000
00000100
00001000
00000000
00000000
00000000
,
00000001
00000000
00000000
00000001
00000100
00000000
00000000
00000100
00001000
00000000
00000000
00001000
00010000
00000000
00000000
00000000
,
00000100
00000000
00000000
00000100
00000010
00000000
00000000
00000010
00000001
00000000
00000000
00000001
00001000
00000000
00000000
00000000
,
00000010
00000000
00000000
00000010
00000100
00000000
00000000
00000100
00001000
00000000
00000000
00001000
00010000
00000000
00000000
00000000
,
01000000
00000000
00000000
01000000
00100000
00000000
00000000
00100000
00010000
00000000
00000000
00010000
10000000
00000000
00000000
00000000
,
01000000
00000000
00000000
01000000
10000000
00000000
00000000
10000000
00100000
00000000
00000000
00100000
00010000
00000000
00000000
00000000
,
00001000
00000000
00000000
00001000
00000100
00000000
00000000
00000100
00000001
00000000
00000000
00000001
00001000
00000000
00000000
00000000
,
00000010
00010000
00001000
00000010
00001000
00010000
00100000
10000000
,
00010000
00000000
00010000
00000000
00010000
00000000
00010000
00000000
00010000
00000000
00000000
00000000
00000000
00000000
01000000
00100000
,
20000000
00000000
31000000
00020000
00000000
00032000
00000000
00003020
,
00000000
00000000
00000031
00000000
00001000
00000000
00000200
00000000
00000000
00000000
00010300
00001000
01000000
00000000
00020000
00000000
,
00000000
00000000
10030000
00000000
01000000
00000000
00020000
00000000
00000000
00000000
00031000
00000010
00000100
00000000
00002000
00000000
,
00000000
00003001
00000100
00000010
00001000
00000100
00000010
00001000
,
00020000
00000000
00130000
02000000
00000000
03020000
00000000
20030000
,
00000000
00000000
31000000
00000000
00100000
00000000
00020000
00000000
00000000
00000000
01030000
00001000
00010000
00000000
00000200
00000000
,
00000000
00000000
00001300
00000000
00000001
00000000
00000200
00000000
00000000
00000000
00000310
00001000
00000100
00000000
00000020
00000000
,
00000000
00000130
00001000
00000001
00000100
00001000
00010000
00000000
,
00200000
00000000
01300000
00020000
00000000
20030000
00000000
32000000
,
00000000
00000000
03100000
00000000
00001000
00000000
00020000
00000000
00000000
00000000
00030100
00001000
00000010
00000000
00000200
00000000
,
00000000
00000000
00000301
00000000
00000010
00000000
00000200
00000000
00000000
00000000
00010300
00001000
01000000
00000000
00200000
00000000
,
00000000
00310000
00100000
10000000
01000000
00010000
00001000
00000010
,
00000002
00000000
00001003
00000020
00000000
00000230
00000000
00002300
,
00000000
00000000
00013000
00000000
01000000
00000000
00200000
00000000
00000000
00000000
00310000
10000000
00100000
00000000
02000000
00000000
,
00000000
00000000
03100000
00000000
10000000
00000000
02000000
00000000
00000000
00000000
03010000
00001000
00000010
00000000
00000100
00000000
,
00001000
00001000
00001000
00001000
00001000
00000000
00000110
00000000
,
00001001
00001001
00000000
00000000
00000000
00000000
00000000
00000000
,
00000000
00001100
00000000
00010000
00001000
01000000
00010000
00000000
,
10010000
10010000
00000000
00000000
00000000
00000000
00000000
00000000
,
00000000
01100000
00000000
00010000
01000000
00001000
00010000
00000000
,
00011000
00011000
00000000
00000000
00000000
00000000
00000000
00000000
,
00000000
00000110
00000000
00001000
00000001
00000100
00000010
00000000
,
00010100
00010100
00000000
00000000
00000000
00000000
00000000
00000000
,
00100000
00100000
00100000
00100000
00100000
00000000
01100000
00000000
,
10000000
00000000
00000000
10000000
00100000
00000000
00000000
00100000
01000000
00000000
00000000
01000000
00001000
00000000
00000000
00000000
,
00010000
00000000
00000000
00010000
00000100
00000000
00000000
00000100
00000010
00000000
00000000
00000010
00001000
00000000
00000000
00000000
,
00000010
00000000
00000000
00000010
00000001
00000000
00000000
00000001
00000100
00000000
00000000
00000100
00000010
00000000
00000000
00000000
,
00000100
00000000
00000000
00000100
00001000
00000000
00000000
00001000
00010000
00000000
00000000
00010000
00100000
00000000
00000000
00000000
,
10000000
00000000
00000000
00010000
10000000
00000000
01000000
00000000
00100000
00000000
00000000
00001000
00010000
00000000
00000010
00000000
,
00001000
00000000
00000000
00000100
00000010
00000000
00000100
00000000
00001000
00000000
00000000
00000001
00000100
00000000
00000010
00000000
,
00001000
00000100
00000001
00000100
00001000
00010000
01000000
10000000
,
01000000
00100000
10000000
01000000
00010000
00001000
01000000
00000000
,
00022000
00000000
00000000
00000000
,
00033000
00000000
00000000
00000000
;
