#VERSION:0.83;
#TITLE:Before Daybreak;
#SUBTITLE:;
#ARTIST:TAG;
#TITLETRANSLIT:;
#SUBTITLETRANSLIT:;
#ARTISTTRANSLIT:;
#GENRE:;
#CREDIT:;
#MUSIC:Before Daybreak.ogg;
#BANNER:Before Daybreak.png;
#BACKGROUND:Before Daybreak-bg.png;
#CDTITLE:./CDTitles/GuitarFreaks & DrumMania XG.png;
#SAMPLESTART:75.156;
#SAMPLELENGTH:15.000;
#SELECTABLE:YES;
#OFFSET:2.628;
#BPMS:0.000=144.000;
#STOPS:;
#TIMESIGNATURES:0.000=4=4;
#BGCHANGES:4.000=Before Daybreak.mp4=1.000=0=0=0=StretchNoLoop====,
99999.000=-nosongbg-=1.000=0=0=0=StretchNoLoop====
;
#FGCHANGES:;

//--------------- dance-single - forcednature ----------------
#NOTEDATA:;
#STEPSTYPE:dance-single;
#DESCRIPTION:forcednature;
#DIFFICULTY:Beginner;
#METER:2;
#RADARVALUES:0,0,0,0,0;
#CREDIT:forcednature;
#NOTES:
0000
0000
0000
0000
,
0000
0000
0000
0000
,
0000
0000
0000
0000
,
0000
0000
0000
0000
,
0000
0000
0000
0000
,
0000
0000
0000
0000
,
1000
0000
0000
0000
,
0001
0000
0000
0000
,
0100
0000
0000
0000
,
0010
0000
0010
0000
,
1000
0000
0000
0000
,
0001
0000
0010
0000
,
0001
0000
0000
0000
,
0100
0000
0001
0000
,
0100
0000
0000
0000
,
0010
0000
1000
0000
,
0010
0000
0000
0000
,
1000
0000
1000
0000
,
0001
0000
0000
0000
,
0010
0000
0000
0000
,
0100
0000
0000
0000
,
1000
0000
0001
0000
,
1000
0000
0000
0000
,
0010
0000
0000
0000
,
0100
0000
0000
0000
,
0001
0000
0001
0000
,
0010
0000
0000
0000
,
0100
0000
0000
0000
,
0100
0000
0000
0000
,
1000
0000
0000
0000
,
0001
0000
0000
0000
,
0100
0000
0000
0000
,
0010
0000
0000
0000
,
1000
0000
1000
0000
,
0001
0000
0000
0000
,
0010
0000
0000
0000
,
0100
0000
0000
0000
,
1000
0000
0001
0000
,
1000
0000
0000
0000
,
0010
0000
0000
0000
,
0100
0000
0100
0000
,
0001
0000
0001
0000
,
0010
0000
0000
0000
,
0100
0000
0000
0000
,
0100
0000
0000
0000
,
1000
0000
0000
0000
,
0001
0000
0001
0000
,
0100
0000
0000
0000
,
0010
0000
1000
0000
,
0010
0000
0000
0000
,
1000
0000
0100
0000
,
1000
0000
0000
0000
,
0100
0000
0010
0000
,
0100
0000
0000
0000
,
0010
0000
0001
0000
,
0001
0000
0000
0000
,
0100
0000
0000
0000
,
0010
0000
0000
0000
,
1000
0000
0001
0000
,
1000
0000
0000
0000
,
0100
0000
0010
0000
,
0001
0000
0000
0000
,
0100
0000
0100
0000
,
0010
0000
0000
0000
,
0000
0000
0000
1001
;

//--------------- dance-single - forcednature ----------------
#NOTEDATA:;
#STEPSTYPE:dance-single;
#DESCRIPTION:forcednature;
#DIFFICULTY:Easy;
#METER:7;
#RADARVALUES:0,0,0,0,0;
#CREDIT:forcednature;
#NOTES:
0000
0000
0000
0000
,
0000
0000
0000
0000
,
0000
0000
0000
0000
,
0000
0000
0000
0000
,
0000
0000
0000
0000
,
0000
0000
0000
0000
,
1000
0100
1000
0000
,
0001
0100
0001
0000
,
0010
0100
0010
0000
,
0001
1000
0010
0100
,
1001
0000
1000
0100
,
0010
0001
1000
0000
,
0001
0100
0010
0000
,
1000
0100
0010
0010
,
0001
0100
0010
0000
,
1000
0001
0010
0000
,
0100
0000
1000
0001
,
0100
0100
0010
0010
,
1001
0000
1000
0100
,
1000
0000
0001
0100
,
0001
0000
1000
0010
,
1000
0000
0001
0010
,
0001
0000
0100
0010
,
1000
0000
0100
0010
,
0001
0000
1000
0001
,
0100
0000
0000
0100
0000
0000
0010
0000
,
1000
1000
0100
1000
,
0001
0001
0100
0001
,
0010
0010
0100
0010
,
0001
0100
0010
1000
,
0100
1000
0001
0100
,
0010
1000
0001
0010
,
0100
1000
0001
0100
,
0000
0001
0010
0100
,
1001
0000
1000
0010
,
1000
0100
0010
0001
,
0100
0000
0010
1000
,
0001
0010
0001
0000
,
0100
0000
0110
0000
,
0010
0000
0110
0000
,
1000
1000
0001
0001
,
0010
0000
0000
0010
0000
0000
0010
0000
,
0001
0000
1000
0000
0001
1000
0001
0000
,
0000
0100
0000
0100
,
0000
0100
0001
1000
,
0000
0100
0000
0100
,
0010
0010
0001
0000
,
0100
0001
0100
0010
,
1000
0000
0001
0000
0010
0100
0010
0000
,
0001
1000
0001
0100
,
0010
0000
1000
0000
0100
0010
0100
0000
,
1000
0001
0100
0001
,
0010
0000
0100
0000
1000
0001
1000
0000
,
0010
0100
0001
0100
,
0001
0001
1000
0100
,
1001
0000
0001
0010
,
0200
0000
2300
0000
,
3002
0000
0103
0100
,
0001
0010
0001
0000
0010
0000
0100
0000
,
1000
0100
1000
0000
0100
0000
0010
0000
,
0001
0010
0001
0000
0020
0000
0000
0000
,
0031
0100
0001
0000
0100
0000
0010
0000
,
1000
0000
0000
1000
0000
0000
0100
0000
,
2002
0000
0000
0000
,
0000
0000
3003
0000
0000
0000
0010
0100
;

//--------------- dance-single - forcednature ----------------
#NOTEDATA:;
#STEPSTYPE:dance-single;
#DESCRIPTION:forcednature;
#DIFFICULTY:Medium;
#METER:13;
#RADARVALUES:0,0,0,0,0;
#CREDIT:forcednature;
#NOTES:
0000
0000
0000
0000
,
0000
0000
0000
0000
,
0000
0000
0000
0000
,
0000
0000
0000
0000
,
0000
0000
0000
0000
,
0000
0000
0000
0000
0000
0000
0000
0000
0000
0000
0000
0001
0100
0001
0100
0000
,
0010
0000
0000
1000
0000
0000
0001
0000
0010
0000
0000
0000
1001
0000
0000
0000
,
1000
0000
0000
0100
0000
0000
1000
0000
0010
0000
0100
0000
0001
0000
0010
0000
,
0100
0000
0000
0010
0000
0000
0001
0000
0100
0000
0000
0000
1001
0000
0000
0000
,
0001
0100
2000
0000
3100
0010
1000
0001
,
0020
0000
0000
0000
0000
0000
0130
1000
0100
0000
0000
0010
0000
0000
0001
0000
,
1000
0000
0001
0000
0100
0010
0000
1000
0000
0001
0020
0000
0000
0000
0130
0000
,
0200
0000
0000
0000
0000
0000
0000
0000
0000
0000
0000
0000
0000
0000
0000
0000
0000
0000
1300
0000
0000
0001
0000
0000
1000
0000
0000
0000
0010
0000
0000
0000
1000
0000
0000
0000
0001
0000
0000
0000
0010
0000
0000
0000
0001
0000
0000
0000
,
0200
0000
0000
0000
0320
0000
0000
0000
1030
0001
0000
0010
0000
0200
0000
0000
,
0300
0000
1000
0001
1000
0000
0010
0000
0100
0000
0000
0001
0000
0000
0010
0001
,
0020
0000
0000
0000
0230
0000
0000
0000
1300
0000
0001
0100
0000
0010
0000
1000
,
0200
0000
0000
0000
0000
0000
0000
0000
0000
0300
0000
0000
0010
0000
0001
0000
1000
0000
0010
0000
1000
0000
0001
0000
,
0000
1001
0000
0000
0010
0000
0010
0000
0100
0000
0000
2002
0000
0000
3003
0000
,
0001
0000
0000
0100
0000
0000
1000
0000
0100
0000
0000
0000
1010
0000
0000
0000
,
0001
0000
0000
1000
0000
0000
0100
0010
0100
0000
1000
0000
0001
0000
0100
0000
,
0010
0000
0000
1000
0000
0000
0001
0000
0010
0000
0000
0000
0110
0000
0000
0000
,
0010
0000
0000
0001
0000
0000
1000
0000
0010
0000
0100
0000
0001
0000
0010
0000
,
0100
0000
0000
1000
0000
0000
0001
0000
0100
0000
0000
0000
1010
0000
0000
0000
,
1000
0000
0000
0001
0010
0001
0010
0000
0100
0000
1000
0000
0001
0000
0100
0000
,
0010
0000
0010
1000
0000
1000
0001
0000
0010
0000
0000
0010
0000
0000
0010
0000
,
0100
1000
0000
0001
0000
0000
0100
0001
0000
1000
0000
0000
0100
0000
0000
0000
,
0010
0000
0001
0000
0000
0000
0001
0000
0010
0000
0000
0000
0100
0000
1000
0001
,
1000
0000
0000
0010
0000
0000
0100
0000
0001
0000
0000
0010
0000
0000
0100
0000
,
1000
0000
0000
0001
0000
0000
0100
0000
0010
0000
0000
1000
0000
0000
0002
0000
,
0000
0000
0023
0000
0000
0000
0130
1000
0100
0000
0000
0001
0000
0000
0100
0000
,
0000
0000
1000
0000
0001
0100
0001
0000
1000
0010
1000
0010
0000
0000
1000
0000
,
0100
0000
0000
0010
0000
0000
0001
0000
0100
0000
0000
0010
0000
0000
1000
0000
,
0001
0000
0000
0010
0000
0000
0100
0000
2000
0000
0000
0000
3001
0000
0100
0000
,
0000
1010
0000
0000
0101
0000
0000
1001
0000
0000
0001
0000
0010
0000
0100
1000
,
0100
0000
0000
0010
0000
0010
0000
0001
1000
0000
0000
0000
0001
0100
0000
0000
,
0010
0000
0000
1000
0000
1000
0000
0100
0010
0000
0000
0000
0001
1000
0000
0000
,
0010
0000
0000
0100
0000
0100
0000
0001
0010
0000
0000
0000
0100
1000
0100
0000
,
0010
0000
0000
0010
0000
0010
0000
0000
0001
0100
0001
0000
1000
0100
1000
0000
,
0010
0000
0100
0001
0000
0001
0000
2002
0000
0000
0000
0000
3003
0000
0000
0000
,
0010
0000
0100
1000
0000
1000
0000
2002
0000
0000
0000
0000
3003
0000
0000
0000
,
0100
0001
0100
0010
1000
0010
1000
0100
1000
0001
0010
0001
,
0100
0000
0000
1000
0000
0000
0100
0000
0000
0001
0000
0000
0100
0000
0010
1000
,
0010
0000
0100
0001
0000
0001
0000
0000
1001
0000
0000
0000
0110
0000
0000
0000
,
1000
1000
0100
0100
,
0001
0000
0001
0000
0100
1000
1000
0000
,
0001
0001
0100
0100
,
1000
0000
1000
0000
0000
1000
0000
0000
0100
0000
0000
0001
1000
0001
1000
0000
,
0100
0000
1000
0100
0000
0000
0010
0000
0001
0000
0100
0010
0000
0000
1000
0000
,
0001
0000
0010
0100
0000
0000
1000
0000
0001
0000
0100
0000
1000
0000
0100
0000
,
0010
0000
1000
0001
0000
0000
0010
0000
0001
0000
0100
0010
0000
0000
1000
0000
,
0100
0000
0010
0100
0000
0000
1000
0000
0001
0000
0010
0000
0001
0000
0100
0000
,
0010
0000
1000
0001
0000
0000
0100
0000
0010
0000
1000
0001
0000
0000
0010
0000
,
0001
0000
1000
0100
0000
0000
0010
0000
0100
0000
1000
0000
0001
0000
1000
0000
,
0010
0000
0100
0001
0000
0100
0001
0000
0010
0000
0000
0010
0000
0000
0010
0100
,
0000
1001
0000
0000
0110
0000
0000
0000
1000
0010
1000
0000
0001
0010
0001
0000
,
0200
0000
0010
0000
0000
0000
0310
0000
1000
0000
0000
0001
0000
0000
0010
0000
,
0200
0000
1300
1000
0001
0100
0001
1000
,
0010
0000
1000
0100
0020
0000
0230
0000
,
0310
0001
0010
0000
0100
1000
0100
0000
1000
0000
0001
0000
0100
0000
0010
0000
,
1000
0000
0001
0000
0100
0000
1000
0000
0100
0000
0010
1000
0010
0000
0100
0001
,
0100
0000
0100
0000
0001
0010
0000
0200
0000
0000
0000
0000
0000
0000
0300
0000
,
1000
0000
0010
0000
1000
0001
0000
0100
0001
0000
1000
0100
0000
0010
0001
0000
,
1000
0010
0000
1010
0000
0000
0001
0010
0000
0011
0000
0000
1000
0001
0000
0000
,
0220
0000
0000
0000
,
0000
0000
0000
0000
0000
0000
0000
0000
0330
0000
0000
0000
0001
1000
0001
2000
,
0000
3000
0000
0000
;

//--------------- dance-single - forcednature ----------------
#NOTEDATA:;
#STEPSTYPE:dance-single;
#DESCRIPTION:forcednature;
#DIFFICULTY:Hard;
#METER:16;
#RADARVALUES:0,0,0,0,0;
#CREDIT:forcednature;
#NOTES:
0000
0000
0000
0000
,
0000
0000
0000
0000
,
0000
0000
0000
0000
,
0000
0000
0000
0000
,
0000
0000
0000
0000
,
0000
0000
0000
0000
0000
0000
0000
0000
0000
0000
0000
0010
1000
0010
1000
0100
,
0010
0000
0000
0001
0000
0001
0000
0001
0100
0000
0000
0000
2001
0000
0000
0000
,
3010
0000
0000
1000
0000
1000
0100
0010
0001
0000
0100
0000
0010
0000
1000
0000
,
0100
0000
0000
0010
0000
0001
0100
0010
1000
0000
0000
0000
1002
0000
0000
0000
,
1003
0000
0100
0010
0000
0010
0100
0000
1000
0010
1000
0000
0001
0100
0001
0000
,
1001
0000
0000
0001
0010
0000
0100
1000
0002
0000
0000
0023
0000
0000
2030
0000
,
3010
0000
0001
0000
1000
0010
0000
0100
0000
0100
0002
0000
0000
0000
0013
0100
,
2000
0000
0000
0000
0000
0000
0000
0000
0000
0000
0000
0000
0000
0000
0000
0000
0000
0000
3001
0000
0000
0010
0000
0000
0100
0000
0000
0000
1000
0000
0000
0000
0001
0000
0000
0000
0100
0000
0000
0000
0001
0000
0000
0000
1000
0000
0000
0000
,
0020
0000
0000
0000
0230
0000
0000
0000
0301
1000
0000
1100
0000
0011
0000
0001
,
1000
0000
0000
0000
0000
0000
0001
0000
0000
0100
0000
0000
0010
0000
0000
0000
0000
0000
1000
0000
0000
0000
0000
0000
0002
0000
0000
0000
0000
0000
0000
0000
0000
0023
0000
0000
0000
0000
0000
0000
0000
0000
0130
0000
1000
0000
0100
0000
,
2000
0000
0000
0000
3020
0000
0000
0000
0130
0000
0001
1000
0000
0100
0000
0010
,
0002
0000
0000
0000
0000
0000
0000
0000
0000
0003
0000
0000
0100
0000
0010
0000
1000
0000
0001
0000
0010
0000
0100
0000
,
0000
1001
0000
0000
0100
0010
0100
0010
0100
0000
0000
2002
0000
0000
3003
0000
,
0001
0000
0000
0100
0000
0010
0000
1000
0100
0000
0000
0000
1001
0000
0000
0000
,
1000
0000
0000
0100
0000
0010
0001
1000
0001
0000
0100
0000
0010
0000
1000
0000
,
0001
0000
0000
1000
0000
0010
0000
1000
0100
0000
0000
0100
0010
0000
0000
0000
,
0001
0000
0000
0100
0000
0100
0001
0100
0010
0000
1000
0000
0001
0000
0010
0000
,
0100
0000
0000
0010
0000
0001
0000
1000
0010
0000
0000
0000
1002
0000
0000
0000
,
0103
0000
0000
0100
0010
1000
0000
1000
0001
0000
0010
0000
0100
0000
1000
0000
,
0010
0000
1000
0100
0000
1000
0010
0000
0100
0000
0000
0100
0001
0000
0010
0000
,
0100
1000
0000
1010
0000
0000
0100
0001
0000
0011
0000
0000
0001
1000
0001
1000
,
0001
0000
0100
0010
0000
0100
1000
0000
0100
0010
0000
0100
0001
0100
0001
0010
,
0200
0000
0000
0000
0000
0000
0000
0000
0000
2300
0000
0000
0000
0000
0000
0000
0000
0000
3001
0000
0100
0000
0001
0000
0200
0000
0000
0000
0000
0000
0000
0000
0000
0320
0000
0000
0000
0000
0000
0000
0000
0000
1030
0000
0000
0000
0000
0000
,
1001
0000
1000
0100
0000
0100
1000
0000
0001
0100
0000
0100
0001
1000
0001
0000
,
1000
0000
0010
0100
0000
0100
0001
0000
0010
0100
0000
0010
0001
0010
0001
0000
,
1001
0000
0001
0100
0010
1000
0001
0000
1000
0100
1000
0100
0000
0000
0010
0000
,
0001
0000
0000
0100
0000
0000
1000
0000
0100
0000
0000
0010
0000
0000
1000
0000
,
1001
0000
0001
0100
0000
0010
1000
0000
0001
1000
0000
0100
0010
0100
0010
0000
,
0000
1100
0000
0000
1010
0000
0000
0101
0000
0000
0011
0000
0001
1000
0001
1000
,
0010
0000
0000
0100
0000
0100
0001
0000
0010
0100
0000
1000
0001
1000
0001
0000
,
0100
0000
0000
1000
0000
1000
0100
0000
0010
1000
0000
0001
0010
0001
0010
0000
,
0110
0000
0000
0100
0000
0100
1000
0000
0001
0100
0000
0010
1000
0010
1000
0000
,
0001
0000
0000
0010
0000
0010
0100
0000
1000
0010
1000
0010
0100
0001
0100
0001
,
0010
0000
0000
0011
0000
0011
0000
0202
0000
0300
0000
0000
1000
0000
0003
0000
,
0010
0000
0000
1010
0000
1010
0000
2200
0000
0300
0000
0000
0001
0000
3000
0000
,
1000
0010
1000
0001
0100
0001
1000
0100
0010
0001
0100
0010
,
1000
0000
0100
1000
0000
0001
0100
0000
0010
1000
0000
0001
0010
0000
0001
1000
,
0001
0000
0100
1000
0000
0100
0010
0000
1000
0100
0010
0001
0100
0000
0000
0000
,
0010
0000
1000
0000
0000
1000
0000
1000
0000
0000
1000
0000
0000
1000
0000
1000
,
0000
0000
1000
0000
0000
1000
0000
0000
0001
0000
0000
0010
0000
0000
0100
0000
,
0000
0000
0010
0000
0000
0001
0000
0001
0000
0000
0001
0000
0000
0001
0000
0001
,
0100
0000
0010
1000
0000
0001
0000
1000
0100
0000
0000
0010
0001
1000
0010
0100
,
0001
0000
0010
0001
0000
1000
0010
0000
0100
0000
0001
1000
0000
0100
1000
0000
,
0010
0000
0100
0001
0000
0010
0001
0000
0200
0000
0320
0000
2030
0000
3002
0000
,
0013
0000
0100
1000
0000
0001
0100
0000
0010
0000
1000
0001
0000
0010
0001
0000
,
0100
0000
0010
1000
0000
0100
0010
0000
0200
0000
2300
0000
3002
0000
0203
0000
,
0310
0000
1000
0001
0000
0010
0001
0000
0100
0000
0010
1000
0000
0100
1000
0000
,
0001
0000
0100
0010
0000
1000
0100
0000
0020
0000
0230
0000
2300
0000
3002
0000
,
0013
0000
0001
0100
0000
0010
1000
0000
0001
0010
0001
0010
0000
0100
1000
0010
,
0000
0110
0000
0000
1001
0000
0000
1000
0010
0100
0001
1000
0100
0010
0001
0100
,
0020
0000
0000
0000
0000
0000
0000
0000
0000
0000
0000
0000
0000
0000
0000
0000
0000
0000
1030
0000
0001
0000
1000
0000
0002
0000
0000
0000
0000
0000
0000
0000
0000
0023
0000
0000
0000
0000
0000
0000
0000
0000
0230
0000
0000
0000
0000
0000
,
2300
0010
0000
0010
3002
0010
0000
0013
,
2001
0100
0000
0100
3002
0000
0023
0000
,
0130
1000
0100
0000
0010
0001
0010
0000
0001
0100
0001
0100
0010
1000
0010
0000
,
1000
0100
1000
0100
0010
0001
0010
0001
1000
0000
0001
0100
0001
0000
1000
0100
,
1000
0000
1000
0000
0010
1000
0001
1000
0200
0000
0000
0000
0000
0000
0000
0000
,
0310
0001
0010
0001
1000
0010
1000
0010
0100
0001
0100
0001
1000
0100
1000
0100
,
0010
0001
0000
0101
0000
0000
0010
1000
0000
1100
0000
0000
1000
0001
1000
0001
,
0200
0000
0000
0000
,
0000
0000
0000
0000
0000
0000
0000
0000
0300
0000
0000
0000
0001
1000
0100
0002
,
0000
0003
0000
0000
;

//--------------- dance-double - forcednature ----------------
#NOTEDATA:;
#STEPSTYPE:dance-double;
#DESCRIPTION:forcednature;
#DIFFICULTY:Easy;
#METER:7;
#RADARVALUES:0,0,0,0,0;
#CREDIT:forcednature;
#NOTES:
00000000
00000000
00000000
00000000
,
00000000
00000000
00000000
00000000
,
00000000
00000000
00000000
00000000
,
00000000
00000000
00000000
00000000
,
00000000
00000000
00000000
00000000
,
00000000
00000000
00000000
00000000
,
00001000
01000000
00001000
00000000
,
00010000
00000100
00010000
00000000
,
00001000
00100000
00001000
00000000
,
00010000
00000010
00001000
00000010
,
00000100
00000000
00000100
00000001
,
00001000
00000001
00000010
00000000
,
00000100
00001000
00000100
00000000
,
00010000
00001000
01000000
01000000
,
00010000
01000000
00100000
00000000
,
10000000
00010000
10000000
00000000
,
01000000
00000000
00100000
00010000
,
00100000
00100000
00001000
00001000
,
00010000
00000000
00000010
00001000
,
00000010
00000000
00000100
00000001
,
00000100
00000000
00000001
00000010
,
00000100
00000000
00000010
00000100
,
00001000
00000000
00000100
00010000
,
00001000
00000000
00010000
00001000
,
01000000
00000000
00001000
01000000
,
00010000
00000000
00000000
00010000
00000000
00000000
10000000
00000000
,
01000000
01000000
00100000
01000000
,
00100000
00100000
00010000
00100000
,
00001000
00001000
00010000
00001000
,
00010000
00000010
00001000
00000010
,
00000100
00000001
00001000
00000001
,
00000010
00000100
00001000
00000100
,
00010000
00001000
01000000
00001000
,
00000000
00100000
00010000
00100000
,
01000000
00000000
01000000
10000000
,
00010000
10000000
00100000
01000000
,
00010000
00000000
00010000
01000000
,
00001000
00010000
00000100
00000000
,
00001000
00000000
00001001
00000000
,
00000001
00000000
00001001
00000000
,
00001000
00001000
00000100
00000100
,
00010000
00000000
00000000
00010000
00000000
00000000
00010000
00000000
,
00001000
01000000
00010000
00100000
,
00000000
01000000
00000000
01000000
,
00000000
01000000
00010000
00001000
,
00000000
00000100
00000000
00000100
,
00000001
00000001
00000010
00000000
,
00000100
00001000
00000100
00010000
,
00001000
00000000
01000000
00000000
00010000
10000000
00010000
00000000
,
00100000
00001000
00010000
00000100
,
00001000
00000000
00000001
00000000
00001000
00000010
00001000
00000000
,
00000010
00010000
00001000
00100000
,
00010000
00000000
00100000
00000000
01000000
10000000
01000000
00000000
,
00100000
00010000
00100000
00001000
,
00010000
00010000
00000010
00001000
,
00001001
00000000
00000001
00000010
,
00000200
00000000
00020300
00000000
,
00032000
00000000
01003000
01000000
,
00010000
00100000
00010000
00000000
00100000
00000000
01000000
00000000
,
10000000
00100000
10000000
00000000
00010000
00000000
01000000
00000000
,
00001000
00010000
00001000
00000000
00020000
00000000
00000000
00000000
,
00031000
00010000
00001000
00000000
00010000
00000000
00000100
00000000
,
00001000
00000000
00000000
00001000
00000000
00000000
00000001
00000000
,
00002002
00000000
00000000
00000000
,
00000000
00000000
00003003
00000000
00000000
00000000
00000010
00000100
;

//--------------- dance-double - forcednature ----------------
#NOTEDATA:;
#STEPSTYPE:dance-double;
#DESCRIPTION:forcednature;
#DIFFICULTY:Medium;
#METER:13;
#RADARVALUES:0,0,0,0,0;
#CREDIT:forcednature;
#NOTES:
00000000
00000000
00000000
00000000
,
00000000
00000000
00000000
00000000
,
00000000
00000000
00000000
00000000
,
00000000
00000000
00000000
00000000
,
00000000
00000000
00000000
00000000
,
00000000
00000000
00000000
00000000
00000000
00000000
00000000
00000000
00000000
00000000
00000000
00001000
00010000
00001000
00010000
00000000
,
01000000
00000000
00000000
10000000
00000000
00000000
00100000
00000000
00010000
00000000
00000000
00000000
00011000
00000000
00000000
00000000
,
00001000
00000000
00000000
00000010
00000000
00000000
00000001
00000000
00000100
00000000
00001000
00000000
00010000
00000000
01000000
00000000
,
10000000
00000000
00000000
00100000
00000000
00000000
00010000
00000000
00001000
00000000
00000000
00000000
01010000
00000000
00000000
00000000
,
01000000
00001000
00000020
00000000
00000130
00010000
00001000
01000000
,
00200000
00000000
00000000
00000000
00000000
00000000
10300000
01000000
00100000
00000000
00000000
00001000
00000000
00000000
00010000
00000000
,
00000100
00000000
00001000
00000000
00000001
00000100
00000000
00000010
00000000
00001000
00000002
00000000
00000000
00000000
00000103
00000000
,
00000200
00000000
00000000
00000000
00000000
00000000
00000000
00000000
00000000
00000000
00000000
00000000
00000000
00000000
00000000
00000000
00000000
00000000
00001300
00000000
00000000
00010000
00000000
00000000
00001000
00000000
00000000
00000000
00100000
00000000
00000000
00000000
00010000
00000000
00000000
00000000
10000000
00000000
00000000
00000000
00100000
00000000
00000000
00000000
01000000
00000000
00000000
00000000
,
00020000
00000000
00000000
00000000
00230000
00000000
00000000
00000000
00301000
00010000
00000000
00000010
00000000
00002000
00000000
00000000
,
00003000
00000000
00000001
00000010
00000001
00000000
00000100
00000000
00001000
00000000
00000000
00010000
00000000
00000000
00100000
01000000
,
00200000
00000000
00000000
00000000
20300000
00000000
00000000
00000000
30010000
00000000
01000000
00001000
00000000
00010000
00000000
00000100
,
00002000
00000000
00000000
00000000
00000000
00000000
00000000
00000000
00000000
00003000
00000000
00000000
00000001
00000000
00000100
00000000
00001000
00000000
00010000
00000000
01000000
00000000
10000000
00000000
,
00000000
10010000
00000000
00000000
00001000
00000000
00010000
00000000
00001000
00000000
00000000
00020200
00000000
00000000
00030300
00000000
,
00000010
00000000
00000000
00010000
00000000
00000000
00001000
00000000
00000010
00000000
00000000
00000000
00000110
00000000
00000000
00000000
,
00000001
00000000
00000000
00000100
00000000
00000000
00001000
00010000
00001000
00000000
00100000
00000000
00010000
00000000
01000000
00000000
,
10000000
00000000
00000000
01000000
00000000
00000000
00010000
00000000
00100000
00000000
00000000
00000000
00011000
00000000
00000000
00000000
,
00000100
00000000
00000000
00010000
00000000
00000000
00001000
00000000
00000010
00000000
00000100
00000000
00001000
00000000
00000001
00000000
,
00000100
00000000
00000000
00001000
00000000
00000000
00010000
00000000
00000010
00000000
00000000
00000000
01001000
00000000
00000000
00000000
,
10000000
00000000
00000000
01000000
00100000
01000000
00100000
00000000
00010000
00000000
01000000
00000000
00001000
00000000
00010000
00000000
,
00000100
00000000
00000100
00001000
00000000
00001000
00000001
00000000
00000100
00000000
00000000
00000100
00000000
00000000
00000100
00000000
,
00001000
00010000
00000000
00100000
00000000
00000000
00010000
00001000
00000000
00000010
00000000
00000000
00001000
00010000
00001000
00000000
,
01000000
00000000
00010000
00000000
00000000
00000000
00010000
00000000
00100000
00000000
00000000
00000000
01000000
00000000
10000000
00010000
,
10000000
00000000
00000000
00100000
00000000
00000000
00010000
00000000
00001000
00000000
00000000
00000010
00000000
00000000
00000001
00000000
,
00000100
00000000
00000000
00000010
00000000
00000000
00010000
00000000
00001000
00000000
00000000
00000010
00000000
00000000
00000200
00000000
,
00000000
00000000
00020300
00000000
00000000
00000000
00031000
01000000
00001000
00000000
00000000
00010000
00000000
00000000
00100000
00000000
,
00000000
00000000
10000000
00000000
01000000
00100000
01000000
00000000
10000000
00010000
10000000
00010000
00000000
00000000
01000000
00000000
,
00001000
00000000
00000000
00010000
00000000
00000000
00000100
00000000
00001000
00000000
00000000
00000010
00000000
00000000
00000001
00000000
,
00000010
00000000
00000000
00001000
00000000
00000000
00000100
00000000
00000020
00000000
00000000
00000000
00000031
00000000
00000100
00000000
,
00000000
00010010
00000000
00000000
01001000
00000000
00000000
00110000
00000000
00000000
00001000
00000000
00010000
00000000
00000100
00001000
,
00000100
00000000
00000000
00000010
00000000
00000010
00000000
00000001
00000100
00000000
00000000
00000000
00001000
00010000
00000000
00000000
,
00100000
00000000
00000000
10000000
00000000
10000000
00000000
01000000
00010000
00000000
00000000
00000000
00001000
00010000
00000000
00000000
,
00100000
00000000
00000000
01000000
00000000
01000000
00000000
00001000
00010000
00000000
00000000
00000000
00000100
00001000
00000100
00000000
,
00000010
00000000
00000000
00000010
00000000
00000010
00000000
00000000
00000001
00000100
00000010
00000000
00010000
00001000
00010000
00000000
,
00001000
01000000
00001000
01000000
00000000
00100000
00000000
20020000
00000000
00000000
00000000
00000000
30030000
00000000
00000000
00000000
,
00010000
00000100
00010000
00000100
00000000
00000010
00000000
00002002
00000000
00000000
00000000
00000000
00003003
00000000
00000000
00000000
,
00000001
00000100
00001000
00010000
00100000
10000000
01000000
00010000
00001000
00000010
00000001
00001000
,
00000001
00000000
00000000
00000100
00000000
00000000
00010000
00000000
00000000
01000000
00000000
00000000
00100000
00000000
10000000
00010000
,
10000000
00000000
01000000
00010000
00000000
00010000
00000000
00000000
00011000
00000000
00000000
00000000
00000110
00000000
00000000
00000000
,
00000001
00000000
00000100
00000000
00001000
00000000
00010000
00100000
,
10000000
00000000
01000000
00000000
00010000
00000000
00001000
00000010
,
00000001
00000000
00000100
00000000
00001000
00000000
00010000
00100000
,
10000000
00000000
01000000
00000000
00000000
00010000
00000000
00000000
00001000
00000000
00000000
00010000
00000100
00010000
00000100
00000000
,
00001000
00000000
00000001
00000100
00000000
00000000
00000010
00000000
00010000
00000000
00001000
01000000
00000000
00000000
00100000
00000000
,
10000000
00000000
00010000
00100000
00000000
00000000
00001000
00000000
00010000
00000000
00001000
00000000
00000100
00000000
00000010
00000000
,
00010000
00000000
00001000
00000010
00000000
00000000
00000100
00000000
00001000
00000000
00000001
00000100
00000000
00000000
00000010
00000000
,
00001000
00000000
00010000
01000000
00000000
00000000
00100000
00000000
10000000
00000000
00010000
00000000
00100000
00000000
01000000
00000000
,
00010000
00000000
00001000
00010000
00000000
00000000
00000100
00000000
00001000
00000000
00000001
00000100
00000000
00000000
00000010
00000000
,
00010000
00000000
00001000
00100000
00000000
00000000
00010000
00000000
10000000
00000000
00100000
00000000
00010000
00000000
00001000
00000000
,
01000000
00000000
00001000
00010000
00000000
00001000
00010000
00000000
00000100
00000000
00000000
00000100
00000000
00000000
00000100
00000010
,
00000000
00001001
00000000
00000000
00000110
00000000
00000000
00000000
00000001
00000000
00000100
00000000
00010000
00000000
01000000
00000000
,
00200000
00000000
10000000
00000000
00000000
00000000
10300000
00000000
00100000
00000000
00000000
00010000
00000000
00000000
00001000
00000000
,
00000020
00000000
00000031
00000001
00000100
00001000
00010000
01000000
,
00100000
00000000
00001000
00010000
00200000
00000000
20300000
00000000
,
30010000
01000000
00010000
00000000
00100000
00001000
00100000
00000000
01000000
00000000
00010000
00000000
00001000
00000000
00000100
00000000
,
00000010
00000000
00010000
00000000
00001000
00000000
00000010
00000000
00000001
00000000
00001000
00000100
00001000
00000000
00000010
00010000
,
00000010
00000000
00000010
00000000
00000100
00001000
00000000
00020000
00000000
00000000
00000000
00000000
00000000
00000000
00030000
00000000
,
01000000
00000000
10000000
00000000
00010000
01000000
00000000
00001000
01000000
00000000
00100000
00010000
00000000
00001000
00010000
00000000
,
00000100
00010000
00000000
00011000
00000000
00000000
01000000
00001000
00000000
00011000
00000000
00000000
00000100
00001000
00000100
00000010
,
00000002
00000000
00000000
00000000
,
00000000
00000000
00000000
00000000
00000000
00000000
00000000
00000000
00000003
00000000
00000000
00000000
00010000
00001000
00010000
00002000
,
00000000
00003000
00000000
00000000
;

//--------------- dance-double - forcednature ----------------
#NOTEDATA:;
#STEPSTYPE:dance-double;
#DESCRIPTION:forcednature;
#DIFFICULTY:Hard;
#METER:16;
#RADARVALUES:0,0,0,0,0;
#CREDIT:forcednature;
#NOTES:
00000000
00000000
00000000
00000000
,
00000000
00000000
00000000
00000000
,
00000000
00000000
00000000
00000000
,
00000000
00000000
00000000
00000000
,
00000000
00000000
00000000
00000000
,
00000000
00000000
00000000
00000000
00000000
00000000
00000000
00000000
00000000
00000000
00000000
00001000
00010000
00001000
01000000
00010000
,
01000000
00000000
00000000
00100000
00000000
00100000
00000000
00100000
10000000
00000000
00000000
00000000
21000000
00000000
00000000
00000000
,
30010000
00000000
00000000
00100000
00000000
00100000
00001000
00010000
00000100
00000000
00001000
00000000
00000001
00000000
00000100
00000000
,
00001000
00000000
00000000
00010000
00000000
00001000
01000000
00010000
10000000
00000000
00000000
00000000
10200000
00000000
00000000
00000000
,
01300000
00000000
00001000
00010000
00000000
00010000
00001000
00000000
00000100
00000001
00000100
00000000
00000010
00001000
00000010
00000000
,
00001001
00000000
00000000
00000001
00000010
00000000
00000100
00001000
00000002
00000000
00000000
00000203
00000000
00000000
00002300
00000000
,
00013000
00000000
00001000
00000000
01000000
00010000
00000000
10000000
00000000
10000000
02000000
00000000
00000000
00000000
03100000
00001000
,
00020000
00000000
00000000
00000000
00000000
00000000
00000000
00000000
00000000
00000000
00000000
00000000
00000000
00000000
00000000
00000000
00000000
00000000
00030010
00000000
00000000
00010000
00000000
00000000
00001000
00000000
00000000
00000000
00000010
00000000
00000000
00000000
00000001
00000000
00000000
00000000
00000010
00000000
00000000
00000000
00000100
00000000
00000000
00000000
00010000
00000000
00000000
00000000
,
00002000
00000000
00000000
00000000
02003000
00000000
00000000
00000000
03100000
10000000
00000000
11000000
00000000
00110000
00000000
00010000
,
01000000
00000000
00000000
00000000
00000000
00000000
00001000
00000000
00000000
00010000
00000000
00000000
00001000
00000000
00000000
00000000
00000000
00000000
00000010
00000000
00000000
00000000
00000000
00000000
00000002
00000000
00000000
00000000
00000000
00000000
00000000
00000000
00000000
00000203
00000000
00000000
00000000
00000000
00000000
00000000
00000000
00000000
00000310
00000000
00001000
00000000
00000010
00000000
,
00002000
00000000
00000000
00000000
00023000
00000000
00000000
00000000
01030000
00000000
00100000
10000000
00000000
01000000
00000000
00100000
,
00002000
00000000
00000000
00000000
00000000
00000000
00000000
00000000
00000000
00003000
00000000
00000000
00000100
00000000
00000001
00000000
00001000
00000000
00000100
00000000
00001000
00000000
00000001
00000000
,
00000000
00000101
00000000
00000000
00001000
00010000
00001000
00010000
01000000
00000000
00000000
20020000
00000000
00000000
30030000
00000000
,
10000000
00000000
00000000
01000000
00000000
00010000
00000000
00001000
00010000
00000000
00000000
00000000
00010100
00000000
00000000
00000000
,
00000010
00000000
00000000
00001000
00000000
00000100
00000010
00000001
00001000
00000000
00000100
00000000
00010000
00000000
00001000
00000000
,
00100000
00000000
00000000
01000000
00000000
10000000
00000000
00010000
01000000
00000000
00000000
01000000
00001000
00000000
00000000
00000000
,
00000010
00000000
00000000
00000001
00000000
00000001
00000100
00000010
00001000
00000000
00000100
00000000
00010000
00000000
00001000
00000000
,
01000000
00000000
00000000
00100000
00000000
10000000
00000000
01000000
00010000
00000000
00000000
00000000
00012000
00000000
00000000
00000000
,
00003010
00000000
00000000
00000100
00001000
00000001
00000000
00000001
00000100
00000000
00000010
00000000
00001000
00000000
00010000
00000000
,
00100000
00000000
01000000
10000000
00000000
00010000
01000000
00000000
00100000
00000000
00000000
00010000
00001000
00000000
00000010
00000000
,
00000100
00001000
00000000
00001001
00000000
00000000
00000001
00000100
00000000
00000110
00000000
00000000
00000010
00010000
00001000
00010000
,
00000100
00000000
00010000
00001000
00000000
01000000
00010000
00000000
10000000
01000000
00000000
00100000
00010000
00100000
00010000
01000000
,
00002000
00000000
00000000
00000000
00000000
00000000
00000000
00000000
00000000
00023000
00000000
00000000
00000000
00000000
00000000
00000000
00000000
00000000
00030100
00000000
00001000
00000000
00000100
00000000
00002000
00000000
00000000
00000000
00000000
00000000
00000000
00000000
00000000
00003002
00000000
00000000
00000000
00000000
00000000
00000000
00000000
00000000
00000103
00000000
00000000
00000000
00000000
00000000
,
00000110
00000000
00000010
00001000
00000000
00001000
00000100
00000000
00010000
00001000
00000000
00001000
01000000
00010000
01000000
00000000
,
00100000
00000000
10000000
01000000
00000000
01000000
00100000
00000000
00001000
00010000
00000000
00010000
00000100
00001000
00000100
00000000
,
00000110
00000000
00000010
00000001
00001000
00000010
00000100
00000000
00001000
00010000
00001000
00010000
00000000
00000000
00100000
00000000
,
10000000
00000000
00000000
01000000
00000000
00000000
00010000
00000000
00001000
00000000
00000000
00000100
00000000
00000000
00000001
00000000
,
00001001
00000000
00001000
00000100
00000000
00010000
00001000
00000000
01000000
00010000
00000000
10000000
01000000
10000000
01000000
00000000
,
00000000
01100000
00000000
00000000
00101000
00000000
00000000
00010010
00000000
00000000
00000110
00000000
00000001
00000100
00001000
00010000
,
00001000
00000000
00000000
01000000
00000000
01000000
00100000
00000000
10000000
01000000
00000000
00010000
00001000
00010000
00001000
00000000
,
00000010
00000000
00000000
00000001
00000000
00000001
00000100
00000000
00001000
00010000
00000000
01000000
10000000
01000000
10000000
00000000
,
10010000
00000000
00000000
00001000
00000000
00001000
01000000
00000000
00100000
10000000
00000000
01000000
00010000
00001000
00010000
00000000
,
00000010
00000000
00000000
00000100
00000000
00000100
00001000
00000000
00100000
00010000
00100000
00010000
10000000
00100000
10000000
01000000
,
00010000
00000000
00000000
00011000
00000000
00011000
00000000
00020200
00000000
00030000
00000000
00000000
00000001
00000000
00000300
00000000
,
00001000
00000000
00000000
00011000
00000000
00011000
00000000
02002000
00000000
00003000
00000000
00000000
10000000
00000000
03000000
00000000
,
01000000
00001000
00010000
00100000
10000000
01000000
00010000
00001000
00000100
00000001
00000010
00000100
,
00001000
00000000
00000001
00000100
00000000
00000010
00001000
00000000
00010000
00100000
00000000
01000000
10000000
00000000
00100000
01000000
,
00100000
00000000
10000000
01000000
00000000
00010000
00001000
00000000
00000100
00000001
00001000
00000100
00000010
00000000
00000000
00000000
,
00000001
00000001
00001000
00001000
,
00010000
00010000
10000000
10000000
,
00010000
00010000
00001000
00001000
,
00000001
00000000
00000100
00000010
00000000
00001000
00000000
00000100
00000010
00000000
00000000
00000100
00010000
00001000
01000000
00010000
,
10000000
00000000
01000000
00010000
00000000
00001000
00010000
00000000
00100000
00000000
10000000
00010000
00000000
10000000
01000000
00000000
,
00100000
00000000
00001000
00010000
00000000
00000100
00001000
00000000
00000020
00000000
00020030
00000000
00032000
00000000
00003020
00000000
,
00000031
00000000
00001000
00000010
00000000
00010000
00001000
00000000
00100000
00000000
00010000
10000000
00000000
00100000
10000000
00000000
,
01000000
00000000
00100000
00010000
00000000
00100000
00001000
00000000
00020000
00000000
00230000
00000000
02300000
00000000
03002000
00000000
,
00013000
00000000
00000100
00001000
00000000
00000001
00000100
00000000
00000010
00000000
00010000
00001000
00000000
00100000
00010000
00000000
,
10000000
00000000
00100000
01000000
00000000
00010000
01000000
00000000
00200000
00000000
20300000
00000000
32000000
00000000
03020000
00000000
,
00031000
00000000
00100000
00001000
00000000
00010000
00000100
00000000
00010000
00001000
00010000
00001000
00000000
00000100
00000001
00000010
,
00000000
00000110
00000000
00000000
00011000
00000000
00000000
01000000
00010000
00100000
01000000
10000000
00100000
01000000
00001000
00010000
,
00000200
00000000
00000000
00000000
00000000
00000000
00000000
00000000
00000000
00000000
00000000
00000000
00000000
00000000
00000000
00000000
00000000
00000000
00001300
00000000
00000010
00000000
00001000
00000000
00000020
00000000
00000000
00000000
00000000
00000000
00000000
00000000
00000000
00000230
00000000
00000000
00000000
00000000
00000000
00000000
00000000
00000000
00002300
00000000
00000000
00000000
00000000
00000000
,
00023000
00100000
00000000
00100000
00032000
00000010
00000000
00000010
,
00023000
01000000
00000000
01000000
00032000
00000000
00003200
00000000
,
00000301
00000010
00000001
00000000
00001000
00000010
00001000
00000000
00000100
00010000
00000100
00010000
00001000
01000000
00001000
00000000
,
10000000
01000000
00100000
00010000
00100000
00001000
00010000
00000100
00001000
00000000
00000001
00000100
00000001
00000000
00001000
00000010
,
00001000
00000000
00001000
00000000
00010000
01000000
00100000
10000000
00020000
00000000
00000000
00000000
00000000
00000000
00000000
00000000
,
00130000
00010000
00100000
00010000
00001000
00000100
00001000
00000100
00000010
00000001
00001000
00000001
00000100
00001000
00010000
00001000
,
00010000
01000000
00000000
01100000
00000000
00000000
10000000
00010000
00000000
01010000
00000000
00000000
01000000
00001000
00010000
00001000
,
00000020
00000000
00000000
00000000
,
00000000
00000000
00000000
00000000
00000000
00000000
00000000
00000000
00000030
00000000
00000000
00000000
00000001
00000100
00001000
00020000
,
00000000
00030000
00000000
00000000
;
