#VERSION:0.83;
#TITLE:Beat Radiance;
#SUBTITLE:;
#ARTIST:iNO;
#TITLETRANSLIT:;
#SUBTITLETRANSLIT:;
#ARTISTTRANSLIT:;
#GENRE:NEO CLASSICAL DANCE;
#CREDIT:;
#MUSIC:Beat Radiance.ogg;
#BANNER:Beat Radiance.png;
#BACKGROUND:Beat Radiance-bg.png;
#CDTITLE:;
#SAMPLESTART:45.745;
#SAMPLELENGTH:15.000;
#SELECTABLE:YES;
#OFFSET:1.078;
#BPMS:0.000=192.000;
#STOPS:148.000=0.625
,242.000=0.625
;
#TIMESIGNATURES:0.000=4=4,
148.000=2=4,
150.000=4=4,
242.000=2=4,
244.000=4=4
;
#BGCHANGES:0.000=Beat Radiance.mp4=1.000=0=0=0=StretchNoLoop====,
99999.000=-nosongbg-=1.000=0=0=0=StretchNoLoop====
;
#FGCHANGES:;

//--------------- dance-single - forcednature ----------------
#NOTEDATA:;
#STEPSTYPE:dance-single;
#DESCRIPTION:forcednature;
#DIFFICULTY:Beginner;
#METER:3;
#RADARVALUES:0,0,0,0,0;
#CREDIT:forcednature;
#NOTES:
0000
0000
0000
0000
,
0000
0000
0000
0000
,
0000
0000
0000
0000
,
0000
0000
0000
0000
,
0000
0000
0000
0000
,
0000
0000
0000
0000
,
1000
0000
0000
0000
,
0001
0000
0000
0000
,
0100
0000
0000
0000
,
0010
0000
0000
0000
,
1001
0000
0000
0000
,
0000
0000
0000
0000
,
0001
0000
0000
0000
,
0010
0000
0000
0000
,
0001
0000
0000
0000
,
0000
0000
0000
0000
,
1000
0000
0000
0000
,
0010
0000
0000
0000
,
0100
0000
0000
0000
,
0000
0000
0000
0000
,
0001
0000
0000
0000
,
1000
0000
0000
0000
,
0100
0000
0000
0000
,
0010
0000
0000
0000
,
0001
0000
0000
0000
,
0100
0000
0000
0000
,
0010
0000
0000
0000
,
0000
0000
0000
0000
,
1000
0000
0000
0000
,
0001
0000
0000
0000
,
1001
0000
0000
0000
,
0110
0000
0000
0000
,
0001
0000
1000
0000
,
0001
0000
1000
0000
,
0100
0000
0010
0000
,
0100
0000
0010
0000
,
0001
0000
1000
0001
,
1000
0000
1001
0000
,
0000
0000
0001
0000
,
0000
0000
0100
0000
,
0010
0000
1000
0000
,
0000
0000
0110
0000
,
0000
0000
1000
0000
,
0000
0000
0001
0000
,
0001
0000
0010
0000
,
0010
0000
0100
0000
,
0000
0000
1000
0000
,
0000
0000
0110
0000
,
0000
0000
1001
0000
,
0000
0000
0001
0000
,
0100
0000
0001
0000
,
0000
0000
1000
0000
,
0100
0000
1000
0000
,
0000
0000
0010
0000
,
0000
0000
0100
0000
,
0000
0000
0001
0000
,
0000
0000
1000
0000
,
0000
0000
0110
0000
,
0000
0000
0001
0000
,
0000
0000
0100
0000
,
0100
0000
0010
0000
,
1001
0000
0000
0000
,
0000
0000
0000
0000
,
1000
0000
0000
0000
,
0001
0000
0000
0000
,
0100
0000
0000
0000
,
0010
0000
0000
0000
,
1000
0000
1000
0000
,
0001
0000
0001
0000
,
1001
0000
0000
0000
,
1000
0000
0100
0000
,
0110
0000
0000
0000
,
0001
0000
0100
0000
,
0010
0000
1000
0000
,
0001
0000
0000
0000
,
0010
0000
0010
0000
,
0100
0000
0100
0000
,
0000
0000
1000
0000
,
0001
0000
0100
0000
,
0000
0000
0001
0000
,
1000
0000
0100
0000
,
0000
0000
0010
0000
,
0001
0000
1000
0000
,
0000
0000
0010
0000
,
0100
0000
0000
1001
;

//--------------- dance-single - forcednature ----------------
#NOTEDATA:;
#STEPSTYPE:dance-single;
#DESCRIPTION:forcednature;
#DIFFICULTY:Easy;
#METER:8;
#RADARVALUES:0,0,0,0,0;
#CREDIT:forcednature;
#NOTES:
0000
0000
0000
0000
,
0000
0000
0000
0000
,
0000
0000
0000
0000
,
0000
0000
0000
0000
,
0000
0000
0000
0000
,
0000
0000
0000
0000
0000
0000
0000
1001
,
0000
0001
0100
0010
,
1000
0001
0010
0100
,
0000
0010
0010
0001
,
1000
1000
0010
0010
,
0110
0000
0100
0001
,
0100
0000
0010
1000
,
0010
0000
1000
0100
,
0010
0001
1000
0001
,
0100
0000
0001
0010
,
0001
0000
1000
0010
,
1000
0000
0100
0010
,
0200
0000
1300
1000
,
1001
0001
0100
0001
,
0010
0001
1000
0010
,
1000
0100
0010
0100
,
1000
0001
0100
0000
,
0010
1000
0100
1000
,
0001
0100
0001
0010
,
0100
1000
0100
0010
,
0001
1000
0010
0000
,
0110
0000
0100
0001
,
1000
0100
0010
0001
,
0100
0000
0010
1000
,
0001
0000
0010
0100
,
0110
0000
1000
0001
,
0100
0010
1000
0001
,
0010
0000
0110
0000
,
0100
1000
0001
0000
,
0100
0100
0010
0010
,
1000
1000
0001
0001
,
1001
0000
0010
0100
,
0110
0000
1001
0000
,
1000
0100
0010
0001
,
0100
0010
1000
0001
,
0010
0100
0010
0000
0001
0000
1000
0000
,
0010
0000
0110
0000
,
0100
0001
1000
0100
,
0010
0000
0001
0000
0100
0000
0000
0110
,
0000
0000
0000
0000
0001
0000
0000
1001
,
0000
0000
0110
0000
,
1000
0100
1000
0001
,
0100
0010
1000
0000
,
0001
0001
0101
0000
,
1000
0100
0010
0001
,
0010
0100
0220
0330
,
2002
3003
0001
0100
,
0001
0010
0100
0100
,
1000
0001
1000
0000
0020
0000
0000
0000
,
0100
0130
0001
1000
,
0001
0000
0010
0100
,
1000
0001
0100
0020
,
0000
0030
2002
0000
,
3003
2000
3200
0320
,
0032
0000
0103
0100
,
0010
0010
1001
0000
,
1000
1000
0001
0001
,
0100
0010
1000
0001
,
0010
0000
0100
1000
,
0100
0000
0010
0001
,
1001
0000
1000
0010
,
0100
0001
0010
0000
,
0100
0000
0000
0110
0000
0000
0000
0000
,
0001
0000
0000
1001
0000
0000
0000
0000
,
0110
0000
0001
0000
1000
0000
0100
0010
,
0100
1000
0001
0100
,
0110
0000
0010
0010
,
1001
0000
0001
0010
,
0110
0100
1000
0010
,
0100
0001
0010
0001
,
1000
0010
1000
0000
0001
0000
0010
0000
,
0001
0100
0001
0000
1000
0000
0000
0110
,
0000
0000
0001
0000
0100
0000
0010
1000
,
0010
0100
0001
0010
,
0000
0000
0100
0000
1000
0000
0001
0100
,
0001
0000
1000
0000
0100
0000
0000
0110
,
0000
0000
0010
0000
0001
0100
0001
0000
,
1000
0000
0100
0000
0010
0000
0000
1001
,
0000
1000
0000
1000
0000
0001
0000
0001
,
0000
0100
0000
0010
0000
0000
2002
0000
,
0000
3003
0000
0000
;

//--------------- dance-single - forcednature ----------------
#NOTEDATA:;
#STEPSTYPE:dance-single;
#DESCRIPTION:forcednature;
#DIFFICULTY:Medium;
#METER:11;
#RADARVALUES:0,0,0,0,0;
#CREDIT:forcednature;
#NOTES:
0000
0000
0000
0000
,
0000
0000
0000
0000
,
0000
0000
0000
0000
,
0000
0000
0000
0000
,
0000
0000
0000
0000
,
0000
0000
0000
0000
0000
0001
1000
0002
,
0000
0000
0103
0000
0010
1000
0000
0001
,
0000
0010
0100
0000
0010
0001
0000
0200
,
0000
0000
0310
0000
1000
0001
1000
0000
,
0001
0100
0001
0100
0010
1000
0010
0000
,
1001
1000
0100
0100
,
0010
0001
0100
0001
,
1000
0000
0100
1000
,
0010
0200
0001
0301
,
0000
1000
0010
1000
,
0001
0010
0100
1000
,
1010
0000
0001
0100
,
0010
0000
0000
0000
1000
0001
0100
0010
,
1000
0000
0100
0010
0001
0000
0010
0001
,
0010
0000
0100
0000
1000
0000
0001
0100
,
0001
0000
1000
0000
0010
0000
1000
0100
,
1000
0010
0100
0001
,
1000
0000
0100
0010
0100
0000
1000
0001
,
1000
0000
0010
0000
0100
0000
0001
0010
,
0100
0000
0010
0000
0001
0000
1000
0010
,
0100
0001
1000
0100
,
0110
0000
0010
0001
1000
0000
0010
0000
,
0100
0001
0010
0100
,
1000
0000
0010
0000
1000
0100
1000
0000
,
0001
0010
0001
0100
,
0110
0000
0010
0000
1000
0001
0010
0000
,
0110
0000
0010
0000
0001
1000
0010
0000
,
0101
1000
1100
0001
,
0011
1000
1010
0001
,
1100
1001
1010
1000
,
0101
1001
0011
0001
,
2100
0000
0000
0000
0001
0000
0000
0000
3010
0000
0000
0010
0000
0000
0100
0000
,
0010
0000
0000
0000
1001
0000
0001
0100
,
0000
0010
0000
1000
0000
0001
0010
0000
,
0100
0010
0110
0100
,
1000
0010
1000
0010
0200
0000
0301
0000
,
1000
0100
0010
0000
0110
0000
0100
0000
,
1000
0001
1000
0020
0000
0030
0100
0000
,
0001
0000
0010
0000
0110
0000
0000
1001
,
0000
1000
0000
0010
0100
0000
0000
1001
,
0000
0001
0010
0000
0110
0000
0100
1000
,
0000
0001
0000
0100
0000
0010
1000
0000
,
0001
0010
0220
0330
,
1000
0000
0000
1000
0000
0000
0001
0000
0100
0000
0000
0000
0010
0000
0000
0000
,
1000
0000
0000
0000
0001
0000
0010
0000
0100
0000
0000
1000
0000
0000
0100
0000
,
0010
0000
0000
0001
0000
0000
0010
0000
0002
0000
0000
0000
0103
0000
0000
0000
,
2000
3010
1100
0010
,
0101
0010
1001
0110
,
1000
0100
0010
0001
0200
0000
0000
0000
,
0000
0000
0000
0000
0300
0010
1000
0000
,
0001
0010
0001
0000
0200
0000
0320
0000
,
2030
3002
0023
0230
,
1000
1300
2001
0001
,
0001
3020
0230
0302
,
0023
0000
0000
0000
0100
0000
0000
0000
0031
0000
0000
1000
0000
0000
0001
0000
,
1000
0000
0000
0001
0000
0000
1000
0000
0010
0000
0000
0000
0000
0000
0000
0000
,
0110
0100
0001
0001
,
1000
0100
0010
0001
,
1000
0010
0100
0100
,
0001
0010
0100
0100
,
1001
0001
0100
0010
,
1000
0001
0010
0100
,
1100
0000
0000
1010
0000
0001
0000
0100
,
0001
0000
0000
0011
0000
0010
0100
0000
,
1001
0000
1000
0010
0000
0100
0001
0100
,
0000
0010
1000
0000
0001
0000
0010
0000
,
0220
0000
0000
0000
0330
0000
0000
0000
1000
0000
0000
0001
0000
0000
1000
0000
,
0001
0000
0100
0000
0010
0000
1000
0001
,
0010
0000
0000
0100
0000
0000
0010
0000
0001
0000
0000
0100
0000
0000
0001
0000
,
0200
0310
2000
3001
,
0011
1000
1010
0001
,
0101
0000
1100
0000
0010
0100
0010
0100
,
0000
0000
1001
0000
0001
0010
0000
0100
,
0000
1000
0001
0000
0100
0010
0000
2000
,
0000
0000
3100
0000
0010
0001
0000
1000
,
0000
0010
0000
0100
0000
0001
0001
0001
,
0000
0010
0100
0000
1000
0001
0000
0100
,
0000
0010
1000
0000
0001
0010
0000
0110
,
0000
0100
1000
0000
0001
0100
0000
1010
,
0000
0011
0000
0110
0000
1000
0002
0000
,
0000
0003
0000
0000
;

//--------------- dance-single - forcednature ----------------
#NOTEDATA:;
#STEPSTYPE:dance-single;
#DESCRIPTION:forcednature;
#DIFFICULTY:Hard;
#METER:14;
#RADARVALUES:0,0,0,0,0;
#CREDIT:forcednature;
#NOTES:
0000
0000
0000
0000
,
0000
0000
0000
0000
,
0000
0000
0000
0000
,
0000
0000
0000
0000
,
0000
0000
0000
0000
,
0000
0000
0000
0000
0000
1000
0001
2001
,
0000
3010
1000
0100
0001
0100
0010
0001
,
1000
0010
0100
0001
1000
0100
1000
0002
,
0000
0013
0010
0100
0100
1000
1000
0001
,
0001
0000
0100
0000
0010
0000
1000
0000
0100
1000
0100
0000
0010
0001
0010
0000
,
0100
0000
0100
1000
0001
0000
0001
0100
,
0010
0000
1000
0000
0001
0000
0010
0100
,
2000
0000
3010
0000
1000
0000
0001
0100
,
0010
0000
0120
0000
1030
0010
1000
0002
,
0000
0000
0013
0100
1000
0000
0001
0100
,
0000
0100
0010
0000
1000
0000
0001
0000
,
0012
0000
0103
0000
0001
0000
1000
0200
,
0010
0000
0000
0000
1000
0000
0000
0000
0310
0000
0001
0000
0100
0001
0100
0001
,
2000
0000
3100
0010
0100
1000
0100
0010
,
0001
0100
0010
1000
0001
0010
0001
0100
,
0020
0000
1000
0000
0130
0010
1000
0001
,
0010
0000
0110
0000
0100
1000
0001
0100
,
0010
1000
0001
0010
0001
0100
0010
1000
,
0001
0010
0100
1000
0010
0100
0001
1000
,
0200
0000
0010
0000
1300
0100
0010
0002
,
0100
0000
1003
0000
0001
0010
0100
1000
,
1010
0000
0010
0100
0001
1000
0001
0000
,
0010
0100
1000
0100
0010
0001
1000
0000
,
0020
0000
0100
0000
1030
0001
0000
0010
,
0200
0000
0310
0001
1000
0001
0100
0010
,
0110
0000
0100
0001
1000
0001
0010
0100
,
0110
0000
0100
1000
0001
1000
0010
0100
,
0210
1300
0210
0301
,
0021
1030
1020
0031
,
0101
0011
1100
1010
,
1000
0001
0100
0001
0010
0100
1000
0010
,
0100
0001
0100
0000
0010
1000
0010
0000
0100
0000
0000
0110
0000
0000
0010
0000
,
1001
0000
0000
0000
0001
0100
0010
0100
,
0001
0000
1000
0000
0100
0000
0010
0000
0001
0000
0000
0001
0100
0000
0000
0100
,
0010
0000
0000
0010
1000
0000
0000
1000
0001
0000
0010
0000
0001
0000
0100
0000
,
0010
1000
0100
0010
0001
1000
0010
1000
,
0001
0010
0100
0010
0110
0000
0100
1000
,
0001
0000
0100
0000
0010
0000
1000
0000
0001
0000
0000
0001
0010
0000
0000
0010
,
0001
0000
0000
0001
0100
0000
0000
0000
0110
0000
0000
0000
1000
0000
1001
0000
,
0000
1000
0100
0000
0110
0000
0001
1001
,
0000
0001
0100
0000
0110
0000
0100
0001
,
1000
0000
0001
0000
0010
0000
0100
0000
1000
0000
0000
1000
0010
0000
0000
0010
,
0100
0000
0000
0100
0001
0000
0000
0000
0022
0000
0000
0000
0033
0000
0000
0000
,
1100
0000
0000
1001
0000
0000
0010
0000
1010
0000
0000
0000
0001
0000
0100
0000
,
0001
0000
0010
0000
0100
0000
1000
0000
0010
0000
0000
0010
0100
0000
0001
0000
,
0010
0000
0000
0010
0100
0000
1000
0000
1001
0000
0000
0000
0001
0000
0100
0000
,
1000
0100
0010
0000
1010
0000
1000
0100
,
0010
0001
0100
0000
0010
1000
0100
1000
,
0001
0000
0010
0000
0001
0100
0001
0000
2000
0000
0000
0000
0100
0000
0000
0000
,
0001
0000
0000
0000
0010
0000
0000
0000
3001
0000
1000
0100
1000
0000
0010
0000
,
0100
0100
0001
0000
0010
0100
1000
0001
,
1000
0010
0100
0001
0020
0000
0230
0000
,
0001
1300
2100
0001
,
0010
0000
3001
1000
0020
0100
0230
0000
,
0302
0000
0000
0000
1003
0000
0000
0000
1100
0000
0000
1010
0000
0000
0001
0000
,
0101
0000
0000
0011
0000
0000
1000
0000
1001
0000
0000
0000
0000
0000
0000
0000
,
0101
0001
1000
1000
,
0100
0100
0010
0010
,
1001
0000
1000
0000
0010
0100
0001
2000
,
0010
0000
3010
0000
1000
0001
1000
0001
,
0010
0000
0100
0000
1000
0010
1000
0200
,
0000
0300
0010
0000
0001
0000
0100
0000
,
0110
0000
0010
1001
0000
0110
0000
1000
,
0110
0000
0000
0000
0001
0000
0110
0000
0000
0000
1000
0000
0001
0000
0010
0001
,
0020
0000
0130
1000
0001
0100
0010
1000
,
0100
0000
0000
0100
0010
0000
0000
0010
0001
0000
0000
0001
0100
0000
0000
0000
,
0220
0000
0000
0000
0330
0000
0000
0000
1010
0000
0000
1100
0000
0000
0001
0000
,
0011
0000
1000
0100
1000
0010
0100
0001
,
1000
0000
0000
1000
0100
0000
0010
0000
0001
0000
0000
0001
0100
0000
0010
0000
,
2000
0000
3100
0010
0002
0000
1003
0000
,
0101
0000
1000
0010
1010
0000
0001
0010
,
0001
0100
0001
0000
1000
0100
1000
0000
0010
0000
0100
0000
0010
0000
0210
0000
,
0000
0301
0010
0001
1000
0010
0001
0010
,
0100
0001
1000
0100
0010
1000
0010
0002
,
0000
1003
0010
0100
1000
0100
0001
1000
,
0001
0010
0100
0001
0100
1000
0010
1020
,
0000
0130
1000
0100
0001
0010
0100
0001
,
1000
0010
0001
1000
0001
0100
0010
0210
,
0000
0301
1000
0100
0001
0101
0000
1100
,
0000
1001
0000
0110
0000
0010
2002
0000
,
0000
3003
0000
0000
;

//--------------- dance-double - forcednature ----------------
#NOTEDATA:;
#STEPSTYPE:dance-double;
#DESCRIPTION:forcednature;
#DIFFICULTY:Easy;
#METER:6;
#RADARVALUES:0,0,0,0,0;
#CREDIT:forcednature;
#NOTES:
00000000
00000000
00000000
00000000
,
00000000
00000000
00000000
00000000
,
00000000
00000000
00000000
00000000
,
00000000
00000000
00000000
00000000
,
00000000
00000000
00000000
00000000
,
00000000
00000000
00000000
00000000
00000000
00000000
00000000
00011000
,
00000000
00000000
00100000
00010000
,
00100000
00001000
00010000
00000010
,
00000000
00001000
00001000
00000100
,
00000010
00000010
00000001
00000001
,
00000100
00000000
00000010
00001000
,
00000010
00000000
00010000
00000000
,
00001000
00000000
00100000
00010000
,
00100000
00000000
01000000
00000000
,
10000000
00000000
00010000
01000000
,
00010000
00000000
00100000
00000000
,
00001000
00000000
00010000
00000010
,
00020000
00000000
00030100
00000100
,
00001000
00000000
00000001
00000100
,
00000001
00001000
00000010
00001000
,
00000100
00000000
00010000
00001000
,
01000000
00010000
01000000
00100000
,
10000000
00000000
01000000
10000000
,
01000000
00100000
00010000
00100000
,
00001000
00000000
00010000
00000010
,
00001000
00000010
00000100
00000000
,
00000110
00000000
00000010
00010000
,
00001000
01000000
00010000
10000000
,
00010000
00000000
00100000
01000000
,
10000000
00000000
00010000
00000000
,
01010000
00000000
01000000
00001000
,
00010000
00000100
00001000
00000000
,
00000001
00000000
00000100
00000001
,
00001000
00000000
00000100
00000000
,
00010000
00001000
00010000
00001000
,
01000000
00010000
01000000
00010000
,
00100000
00000000
01000000
00000000
,
10010000
00000000
00010000
00000000
,
01000000
00001000
00010000
00000100
,
00001000
00000100
00000010
00000000
,
00000001
00000100
00000001
00000000
,
00001000
00000100
00010000
00000000
,
00001000
01000000
00010000
01000000
,
00100000
00000000
00000000
00000000
10000000
00000000
00000000
10000000
,
00000000
00000000
00000000
00000000
00010000
00000000
00000000
00010000
,
00000000
00000000
01000000
00000000
,
00010000
01000000
00001000
00010000
,
00000100
00001000
00000100
00000000
,
00000010
00000010
00000010
00000000
,
00000001
00000100
00000001
00000000
,
00001000
00000100
00002000
00003000
,
00000020
00000030
00010000
00001000
,
00100000
00001000
01000000
01000000
,
00010000
00010000
20000000
00000000
,
00000000
00000000
31000000
10000000
,
01000000
00000000
00100000
00010000
,
00100000
00001000
00010000
00000020
,
00000000
00000030
00002002
00000000
,
00000000
00003003
00002000
00003200
,
00020300
00030000
00001000
00001000
,
01000000
01000000
00010000
00000000
,
10000000
00000000
01000000
00000000
,
00100000
00010000
00100000
00000000
,
00001000
00000000
00010000
00000010
,
00010000
00000000
00000100
00000000
,
00001000
00000000
00000001
00000100
,
00000001
00000000
00000010
00000000
,
00000100
00000000
00000000
00000100
00000000
00000000
00000000
00000000
,
00010000
00000000
00000000
00010000
00000000
00000000
00000000
00000000
,
00011000
00000000
00001000
01000000
,
00010000
01000000
00100000
10000000
,
00010000
00000000
00100000
00100000
,
00100000
00000000
00001000
00010000
,
00000010
00001000
00000010
00000100
,
00000001
00000000
00001000
00000000
,
00000100
00010000
00001000
00100000
,
00010000
00000000
00010000
00000000
10000000
00000000
00000000
10010000
,
00000000
00000000
00010000
01000000
,
00001000
00010000
00000100
00001000
,
00000000
00000010
00000100
00000001
,
00000010
00000000
00000100
00000000
00001000
00000000
00000000
00001001
,
00000000
00000000
00001000
00000100
,
00010000
00000000
00001000
00000000
01000000
00000000
00000000
10010000
,
00000000
00000000
00000000
10000000
00000000
00010000
00000000
00010000
,
00000000
01000000
00000000
00001000
00000000
00000000
00022000
00000000
,
00000000
00033000
00000000
00000000
;

//--------------- dance-double - forcednature ----------------
#NOTEDATA:;
#STEPSTYPE:dance-double;
#DESCRIPTION:forcednature;
#DIFFICULTY:Medium;
#METER:11;
#RADARVALUES:0,0,0,0,0;
#CREDIT:forcednature;
#NOTES:
00000000
00000000
00000000
00000000
,
00000000
00000000
00000000
00000000
,
00000000
00000000
00000000
00000000
,
00000000
00000000
00000000
00000000
,
00000000
00000000
00000000
00000000
,
00000000
00000000
00000000
00000000
00000000
00010000
00001000
00020000
,
00000000
00000000
00130000
00000000
01000000
00010000
00000000
10000000
,
00000000
01000000
00100000
00000000
00001000
00010000
00000000
00000020
,
00000000
00000000
00010030
00000000
00000100
00001000
00000100
00000000
,
00000010
00000001
00000010
00000000
00000100
00001000
00000100
00000000
,
00011000
00010000
00001000
00001000
,
01000000
00010000
00100000
00010000
,
10000000
00000000
01000000
10000000
,
00010000
02000000
00001000
03001000
,
00000000
00001000
00010000
00001000
,
00010000
00000100
00001000
00000100
,
00000110
00000000
00000010
00000001
,
00000020
00000000
00000000
00000000
00000130
00001000
00000100
00000000
,
00011000
00001000
01000000
00010000
,
00100000
00000000
01000000
00000000
10000000
00000000
00010000
01000000
,
00010000
00000000
00100000
00000000
00001000
00000000
00010000
00000010
,
00010000
00000100
00001000
00000100
,
00000010
00000000
00000001
00000000
00000100
00000000
00000010
00001000
,
00000010
00000000
00010000
00000000
00001000
00000000
00100000
00010000
,
00100000
00000000
01000000
00000000
10000000
00000000
00010000
01000000
,
00001000
00010000
00000100
00001000
,
00001001
00000001
00000100
00000010
,
00010000
00001000
00100000
00010000
,
01000000
00000000
00010000
00000000
10000000
01000000
10000000
00000000
,
00010000
01000000
00001000
00010000
,
00011000
00000000
00001000
00000000
00010000
00000100
00010000
00000000
,
00101000
00000000
00100000
00000000
00010000
10000000
00010000
00000000
,
01010000
00001000
00011000
00010000
,
00001100
00000100
00000011
00000010
,
00000110
00000110
00001100
00010000
,
00011000
00011000
01001000
01000000
,
00020000
00000000
00000000
00000000
10000000
00000000
00000000
00000000
00130000
00000000
00000000
00100000
00000000
00000000
01000000
00000000
,
00100000
00000000
00000000
00000000
10010000
00000000
00010000
01000000
,
00000000
00001000
00000000
00020000
00000000
00000000
00030100
00000000
,
00001000
00000001
00000100
00000010
,
00010000
00001000
00010000
00002000
00000000
00000000
00103000
00000000
,
00010000
10000000
00010000
00000000
01000000
00000000
00100000
00000000
,
10000000
00010000
10000000
00010000
00000000
00000000
00100000
00000000
,
00001000
00000000
00010000
00000000
00011000
00000000
00000000
00010010
,
00000000
00000010
00000000
00001000
00000001
00000000
00000000
00000011
,
00000000
00000010
00000100
00000000
00001100
00000000
00001000
00000010
,
00000000
00010000
00000000
00002000
00000000
00000000
00103000
00000000
,
00010000
01000000
02200000
03300000
,
00100000
00000000
00000000
00100000
00000000
00000000
10000000
00000000
00010000
00000000
00000000
00000000
00100000
00000000
00000000
00000000
,
00001000
00000000
00000000
00000000
00010000
00000000
00000000
00000000
00000010
00000000
00000000
00001000
00000000
00000000
00000010
00000000
,
00000100
00000000
00000000
00000001
00000000
00000000
00000100
00000000
00000020
00000000
00000000
00000000
00000030
00000000
00000000
00000000
,
00020000
00030000
00011000
00100000
,
00011000
01000000
00011000
00010100
,
00000100
00001000
00000100
00001000
00000002
00000000
00000000
00000000
,
00000000
00000000
00000003
00000100
,
00000010
00010000
00002000
00203000
,
00320000
20030000
30200000
02300000
,
00001000
03001000
00012000
00010000
,
00010000
00023000
00030020
00002030
,
00003200
00000000
00000000
00000000
00000010
00000000
00000000
00000000
00001300
00000000
00000000
00000100
00000000
00000000
00010000
00000000
,
00001000
00000000
00000000
01000000
00000000
00000000
00010000
00000000
00100000
00000000
00000000
00000000
00000000
00000000
00000000
00000000
,
01100000
01000000
10000000
10000000
,
00010000
01000000
00001000
00010000
,
00000100
00001000
00000010
00000010
,
00000100
00000001
00000010
00000010
,
00000100
00010000
00001000
01000000
,
00010000
10000000
00010000
00100000
,
01100000
00000000
00000000
11000000
00000000
10000000
00000000
00010000
,
01000000
00000000
00000000
01001000
00000000
00001000
00010000
00000000
,
00010100
00000000
00000100
00001000
00000000
00000010
00000000
00000200
,
00000000
00000301
00000010
00000100
,
00000220
00000000
00000000
00000000
00000330
00000000
00000000
00000000
00000100
00000000
00000000
00010000
00000000
00000000
00001000
00000000
,
00100000
00010000
10000000
00010000
,
01000000
00000000
00000000
00001000
00000000
00000000
00010000
00000000
00000100
00000000
00000000
00001000
00000000
00000000
00000100
00000000
,
00000020
00000031
00000200
00010300
,
00011000
00001000
01010000
01000000
,
10100000
00000000
11000000
00000000
00010000
00100000
00010000
00100000
,
00000000
00000000
00001000
00000000
00010000
00000010
00000000
00001000
,
00000000
00000001
00000010
00000000
00000100
00010000
00000000
00002000
,
00000000
00000000
01003000
00000000
00010000
10000000
00000000
00010000
,
00000000
00100000
00000000
01000000
00000000
10000000
10000000
10000000
,
00000000
00010000
01000000
00000000
00001000
00010000
00000000
00000100
,
00000000
00001000
00000001
00000000
00000100
00000010
00000000
00001010
,
00000000
00001000
00000100
00000000
00010000
00001000
00000000
01001000
,
00000000
01010000
00000000
00110000
00000000
00100000
02000000
00000000
,
00000000
03000000
00000000
00000000
;

//--------------- dance-double - forcednature ----------------
#NOTEDATA:;
#STEPSTYPE:dance-double;
#DESCRIPTION:forcednature;
#DIFFICULTY:Hard;
#METER:15;
#RADARVALUES:0,0,0,0,0;
#CREDIT:forcednature;
#NOTES:
00000000
00000000
00000000
00000000
,
00000000
00000000
00000000
00000000
,
00000000
00000000
00000000
00000000
,
00000000
00000000
00000000
00000000
,
00000000
00000000
00000000
00000000
,
00000000
00000000
00000000
00000000
00000000
00001000
00010000
00012000
,
00000000
00103000
00010000
01000000
00100000
00010000
00100000
10000000
,
00010000
10000000
01000000
00010000
00001000
00000100
00000001
00000020
,
00000000
00000130
00000100
00010000
00010000
00001000
00001000
01000000
,
01000000
00000000
00010000
00000000
00100000
00000000
00010000
00000000
01000000
00001000
01000000
00000000
00001000
00010000
00001000
00000000
,
00000010
00000000
00000010
00000100
00001000
00000000
00001000
00000001
,
00000100
00000000
00001000
00000000
00010000
00000000
01000000
10000000
,
00200000
00000000
01300000
00000000
00001000
00000000
00010000
00000100
,
00001000
00000000
00001020
00000000
00000130
00000001
00001000
00000002
,
00000000
00000000
00000013
00000100
00010000
00000000
00001000
01000000
,
00000000
01000000
00010000
00000000
10000000
00000000
01000000
00000000
,
01200000
00000000
00301000
00000000
00010000
00000000
00000010
00002000
,
00000100
00000000
00000000
00000000
00000001
00000000
00000000
00000000
00003010
00000000
00010000
00000000
00001000
01000000
00001000
01000000
,
00020000
00000000
00130000
01000000
00100000
00001000
00010000
00000010
,
00001000
00000010
00000100
00001000
00000100
00000001
00000010
00000001
,
00000200
00000000
00001000
00000000
00000301
00000100
00000010
00010000
,
00001000
00000000
00101000
00000000
00100000
01000000
00010000
01000000
,
10000000
00010000
00100000
00010000
01000000
00001000
00010000
00000100
,
00001000
00000010
00000001
00000010
00000100
00000001
00001000
00000001
,
00000020
00000000
00000100
00000000
00000031
00000010
00001000
00020000
,
00000100
00000000
00031000
00000000
00010000
00001000
01000000
00010000
,
00110000
00000000
00100000
01000000
10000000
01000000
00010000
00000000
,
00001000
00000100
00000001
00000100
00000010
00010000
00001000
00000000
,
00200000
00000000
00010000
00000000
01300000
00100000
00000000
00001000
,
00020000
00000000
00030010
00001000
00000010
00000100
00001000
00000100
,
00000101
00000000
00000001
00000010
00000100
00000010
00000100
00010000
,
00011000
00000000
00001000
01000000
00010000
01000000
00100000
10000000
,
12000000
03100000
00102000
00013000
,
00010020
00001030
00010200
00001300
,
00010010
00101000
00010100
01001000
,
00001000
00100000
00001000
00010000
00100000
10000000
00010000
10000000
,
01000000
10000000
01000000
00000000
00100000
01000000
00100000
00000000
00010000
00000000
00000000
01000000
00000000
00000000
00001000
00000000
,
00011000
00000000
00000000
00000000
00010000
00000100
00000010
00000100
,
00001000
00000000
00000001
00000000
00000010
00000000
00000001
00000000
00000100
00000000
00000000
00000100
00001000
00000000
00000000
00001000
,
00010000
00000000
00000000
00010000
00000010
00000000
00000000
00000010
00001000
00000000
00000100
00000000
00010000
00000000
00001000
00000000
,
01000000
00010000
00100000
01000000
00100000
00001000
00010000
00100000
,
10000000
00010000
10000000
01000000
01100000
00000000
00100000
00001000
,
00010000
00000000
00000100
00000000
00001000
00000000
00000001
00000000
00000100
00000000
00000000
00000100
00000010
00000000
00000000
00000010
,
00010000
00000000
00000000
00010000
00001000
00000000
00000000
00000000
00101000
00000000
00000000
00000000
00100000
00000000
01100000
00000000
,
00000000
01000000
10000000
00000000
10100000
00000000
00100000
01100000
,
00000000
01000000
00001000
00000000
00011000
00000000
00010000
00000100
,
00010000
00000000
00001000
00000000
00000100
00000000
00000001
00000000
00001000
00000000
00000000
00001000
00000100
00000000
00000000
00000100
,
00010000
00000000
00000000
00010000
00001000
00000000
00000000
00000000
02002000
00000000
00000000
00000000
03003000
00000000
00000000
00000000
,
01010000
00000000
00000000
10010000
00000000
00000000
10000000
00000000
11000000
00000000
00000000
00000000
01000000
00000000
00010000
00000000
,
00001000
00000000
00010000
00000000
00000100
00000000
00001000
00000000
00000010
00000000
00000000
00001000
00000000
00000000
00000100
00000000
,
00000010
00000000
00000000
00000001
00000000
00000000
00000100
00000000
00000110
00000000
00000000
00000000
00000010
00000000
00010000
00000000
,
00001000
00010000
01000000
00000000
01100000
00000000
00100000
00001000
,
00010000
00001000
01000000
00000000
00100000
10000000
01000000
00010000
,
00001000
00001000
00010000
00000100
00002000
00000000
00000010
00000000
,
00000001
00000000
00000100
00000000
00003001
00001000
00001000
00000100
,
00010000
00001000
01000000
00000000
00010000
00100000
01000000
00100000
,
00001000
00010000
00100000
10000000
02000000
00000000
03020000
00000000
,
00000100
00031000
00010020
00001000
,
00000100
00000000
00001030
00000010
00020000
00000000
00032000
00000000
,
00203000
00000000
00000000
00000000
00010000
00000000
00000000
00000000
01300000
00000000
00000000
01100000
00000000
00000000
00100000
00000000
,
00001000
00000000
00000000
00011000
00000000
00000000
00010000
00000000
00010010
00000000
00000000
00000000
00000000
00000000
00000000
00000000
,
00001010
00001000
00000100
00000100
,
00000010
00000010
00000001
00000001
,
00000100
00000000
00001000
00000000
00010000
00000000
00100000
20000000
,
00010000
00000000
30010000
00000000
10000000
01000000
10000000
01000000
,
00100000
00000000
00100000
00000000
00001000
00000000
00001000
00020000
,
00000000
00030000
00000010
00000000
00001000
00000000
00000100
00000000
,
00010100
00000000
00000000
00101000
00000000
10000000
00000000
00010000
,
01001000
00000000
00000000
00010010
00000000
00000001
00000010
00000100
,
00002000
00000000
00003010
00010000
00001000
00100000
00010000
00100000
,
01000000
00000000
00000000
01000000
10000000
00000000
00000000
10000000
00100000
00000000
00000000
00100000
01000000
00000000
00000000
00000000
,
02200000
00000000
00000000
00000000
03300000
00000000
00000000
00000000
01001000
00000000
00000000
00001000
00000000
00000000
00010000
00000000
,
00010100
00000000
00000100
00001000
00000010
00001000
00000001
00000010
,
00000100
00000000
00000000
00000100
00010000
00000000
00001000
00000000
01000000
00000000
00000000
01000000
00010000
00000000
00100000
00000000
,
02000000
00000000
13000000
00100000
00020000
00000000
00031000
00000000
,
00010100
00000000
00000100
00001000
00001010
00000000
00000010
00000100
,
00000001
00000100
00000001
00000000
00001000
00000001
00001000
00000000
00000100
00000000
00000100
00000000
00010000
00000000
00012000
00000000
,
00000000
01003000
00010000
01000000
00100000
00010000
00100000
10000000
,
00010000
10000000
01000000
00010000
00001000
00000010
00000001
00000020
,
00000000
00000130
00010000
00001000
00000100
00001000
00010000
00100000
,
01000000
00100000
00010000
00001000
00000010
00000100
00010000
00012000
,
00000000
01003000
00010000
00100000
10000000
00100000
00010000
01000000
,
00001000
00010000
00000100
00000010
00001000
00000010
00000001
00000201
,
00000000
00001300
00010000
01000000
10000000
10100000
00000000
01001000
,
00000000
00010100
00000000
00000011
00000000
00000100
00002002
00000000
,
00000000
00003003
00000000
00000000
;
