#VERSION:0.83;
#TITLE:Beat Juggling Mix;
#SUBTITLE:;
#ARTIST:Hommarju;
#TITLETRANSLIT:;
#SUBTITLETRANSLIT:;
#ARTISTTRANSLIT:;
#GENRE:DJ BATTLE;
#CREDIT:;
#MUSIC:Beat Juggling Mix.ogg;
#BANNER:Beat Juggling Mix.png;
#BACKGROUND:Beat Juggling Mix-bg.png;
#CDTITLE:./CDTitles/bm IIDX 24 SINOBUZ.png;
#SAMPLESTART:34.464;
#SAMPLELENGTH:15.279;
#SELECTABLE:YES;
#OFFSET:2.328;
#BPMS:0.000=105.000
,55.000=66.000
,56.000=94.000
,91.000=198.000
,92.000=192.000
,93.000=186.000
,94.000=170.000
,95.000=188.000
,277.000=176.000
,278.000=170.000
,279.000=164.000
,280.000=156.000
,281.000=142.000
,282.000=130.000
,283.000=120.000
;
#STOPS:;
#TIMESIGNATURES:56.000=7=4,
63.000=4=4
;
#BGCHANGES:5.300=Beat Juggling Mix.mp4=1.000=0=0=0=StretchNoLoop====,
99999.000=-nosongbg-=1.000=0=0=0=StretchNoLoop====
;
#FGCHANGES:;

//--------------- dance-single - forcednature ----------------
#NOTEDATA:;
#STEPSTYPE:dance-single;
#DESCRIPTION:forcednature;
#CREDIT:forcednature;
#DIFFICULTY:Beginner;
#METER:4;
#RADARVALUES:0,0,0,0,0;
#NOTES:
0000
0000
0000
0000
,
0000
0000
0000
0000
,
0000
0000
0000
0000
,
1000
0000
1000
0000
,
1000
1000
1000
0000
,
1001
0000
0001
0000
,
0100
0000
0001
0000
,
1001
0000
1000
0000
,
0010
0000
1000
0000
,
1001
0000
0001
0000
,
0010
0000
0001
0000
,
1001
0000
0110
0000
,
0001
0001
0001
0001
,
0200
0000
0000
0300
,
0000
0000
0000
0000
,
0000
0000
0000
1001
,
0000
1000
0000
0100
,
0000
1000
0000
0010
,
0000
1000
0000
0001
,
0001
0001
0000
1001
,
0000
0001
0000
0100
,
0000
0001
0000
0010
,
0010
0010
0000
0200
,
0000
0000
0300
0000
,
0000
0000
0000
1000
,
0000
0000
0000
0000
,
0000
0000
0000
0001
,
0000
0000
0000
0000
,
0000
0000
0000
0100
,
0000
0000
0000
0000
,
0000
0000
0000
0010
,
0000
0000
0000
0000
,
0000
0000
0000
1000
,
0000
0000
0000
0100
,
0000
0000
0000
0010
,
0000
0000
0000
0001
,
0000
0000
0000
1001
,
0000
0000
0000
1000
,
0000
0000
0000
0010
,
0000
0000
0000
1000
,
0000
0001
0000
1000
,
0000
0000
0000
0100
,
0000
0000
0000
0010
,
0000
0000
0000
0001
,
0000
1000
0000
0001
,
0000
0001
0000
0001
,
0000
0000
0000
0100
,
0000
0000
0000
0001
,
0000
1000
0000
0001
,
0000
0000
0000
0010
,
0000
0010
0000
0100
,
0000
0100
0000
1000
,
0000
0000
0000
1001
,
0000
0000
0000
0001
,
0000
0000
0000
0100
,
0000
0001
0000
0100
,
0000
0000
0000
0010
,
0000
0000
0000
1000
,
0000
0000
0000
0100
,
0000
1000
0000
0100
,
0000
0000
0000
0010
,
0000
0010
0000
0010
,
0000
0000
0000
1001
,
0000
0000
0000
0110
,
0000
0000
0000
0001
,
0000
0001
0000
0100
,
0000
0100
0000
0010
,
0000
1000
0000
0001
,
0000
0000
0000
1000
,
0000
1000
0000
0001
,
0000
0001
0000
1001
;

//--------------- dance-single - forcednature ----------------
#NOTEDATA:;
#STEPSTYPE:dance-single;
#DESCRIPTION:forcednature;
#CREDIT:forcednature;
#DIFFICULTY:Easy;
#METER:9;
#RADARVALUES:0,0,0,0,0;
#NOTES:
0000
0000
0000
0000
,
0000
0000
0000
0000
,
0000
0000
0000
0000
,
1001
0000
0110
0000
,
1001
0000
0000
0000
0110
0000
0000
0000
0001
1000
0001
0000
0000
0000
0000
0000
,
0100
0001
0000
1000
0000
0010
0000
1000
,
0000
0100
0100
0010
0100
1000
0001
0000
,
0100
0010
0000
1000
0000
0001
0000
0010
,
0000
0100
0010
0001
0100
1000
0100
0000
,
0010
1000
0000
1000
0000
0001
0000
0001
,
0010
0001
0100
0010
1000
0100
0010
0000
,
1100
0010
0101
0010
,
1100
0101
1100
0101
,
1001
0000
0000
0000
0010
0000
0000
0100
0000
0000
0000
0000
0000
0000
0000
0000
,
2002
0000
0000
0000
,
0000
0000
0000
0000
3003
0000
1001
0001
,
0100
0100
0000
0010
1000
0001
1001
1000
,
0100
0100
0000
0010
0001
0100
0110
1000
,
0001
0001
0000
0010
0100
1000
1100
0001
,
0101
1000
1001
1001
1001
0000
0101
1000
,
0010
0010
0000
1000
0001
0010
1100
0001
,
0010
0000
0010
0000
0000
0000
0001
0000
0100
0000
0000
0000
0101
0000
0000
1100
,
0000
0000
0011
0000
0000
1010
0000
0000
1001
0000
0000
0000
0000
0000
0000
0000
,
0000
0000
0000
0100
,
0100
0010
0010
1000
,
0000
1000
0000
0000
0000
0001
0000
0001
,
0000
0100
0000
0001
,
0000
0001
0000
0000
0000
1000
0000
1000
,
0000
0100
0000
0010
,
0000
0010
0000
0000
0000
0001
0000
0001
,
0000
0100
0000
0010
,
0000
0010
0000
0000
0000
1000
0000
1000
,
0000
0100
0000
0010
,
0001
0010
0001
1000
,
0010
0000
1000
0000
0010
0000
1000
0001
,
1000
0000
0001
1000
0001
0000
0200
0000
,
0300
0010
0100
1001
,
0000
0001
0100
0001
,
1000
0010
1000
0100
,
0000
0001
0100
1000
,
0001
0100
0010
1000
,
0000
0001
0100
1000
,
0100
0010
1000
0001
,
0000
1000
0100
0010
,
0001
0100
0000
1001
,
1001
1001
1001
0001
,
0100
0010
0000
1000
,
0100
1000
0010
0001
,
0010
1000
0000
0001
,
0001
1000
0100
1000
,
1000
0000
0001
0000
0100
0000
0001
1000
,
0001
0000
1000
0001
1000
0000
0200
0000
,
0300
0010
0100
1001
,
0001
0000
0100
0000
0001
0000
1000
0010
,
1000
0001
0010
0100
,
0100
0000
1000
0001
1000
0000
0010
0000
,
0010
0000
0100
0001
0100
0000
1000
0000
,
0100
0000
0010
1000
0010
0000
0100
0000
,
0100
0001
0001
0110
,
0001
0000
0000
0000
1000
0000
0001
0000
1000
0000
0000
0000
0100
0000
0000
0010
,
0000
0000
0100
0000
0000
0010
0000
0000
0001
0000
0000
0000
0110
0000
0000
0000
,
0110
0110
0110
0110
,
0000
0000
0001
1000
0001
0000
0100
0000
,
0010
0000
1000
0001
1000
0000
0100
0000
,
0010
0000
0001
1000
0001
0000
0100
0000
,
0100
0000
1000
0100
0001
0000
0100
0000
,
0100
0000
0001
0100
1000
0000
0100
0010
,
0100
0000
0010
0100
0010
0000
1000
0000
,
0100
0000
0000
0000
0000
0000
0000
0000
0000
0000
0000
0000
0000
0000
0000
0000
0000
0000
0000
0000
0000
0000
0000
0000
0001
0000
0000
0000
0000
0000
0000
0000
0000
0000
0000
0000
0000
0000
0000
0000
0000
0000
0000
0000
0000
0000
0000
0000
0000
0000
0000
0000
0000
0000
0000
0000
0000
0000
0000
0000
0000
0000
0000
0000
0000
0000
0000
0000
0000
0000
0000
0000
0100
0000
0000
0000
0000
0000
0000
0000
0000
0000
0000
0000
0000
0000
0000
0000
0000
0000
0000
0000
0000
0000
0000
0000
1000
0000
0000
0000
0000
0000
0000
0000
0000
0000
0000
0000
0000
0000
0000
0000
0000
0000
0000
0000
0000
0000
0000
0000
0000
0000
0000
0000
0000
0000
0000
0000
0000
0000
0000
0000
0000
0000
0000
0000
0000
0000
0000
0000
0000
0000
0000
0000
2200
0000
0000
0000
0000
0000
0000
0000
0000
0000
0000
0000
0000
0000
0000
0000
0000
0000
0000
0000
0000
0000
0000
0000
0000
0000
0000
0000
0000
3300
0000
0000
0000
0000
0000
0000
0000
0000
0000
0000
0000
0000
0000
0000
0000
0000
0000
0000
,
0000
0000
0000
0000
0000
0000
0000
0000
0000
0000
0000
0000
0000
0000
0000
0000
0000
0000
0000
0000
0000
0000
0000
0000
0000
0000
0000
0000
0000
0000
0000
0000
0000
0000
0000
0000
0000
0000
0000
0000
0000
0000
0000
0000
0000
0000
0000
0000
2020
0000
0000
0000
0000
0000
0000
0000
0000
0000
0000
0000
0000
0000
0000
0000
0000
0000
0000
0000
0000
0000
0000
0000
0000
0000
0000
0000
0000
3030
0000
0000
0000
0000
0000
0000
0000
0000
0000
0000
0000
0000
0000
0000
0000
0000
0000
0000
0000
0000
0000
0000
0000
0000
0000
0000
0000
0000
0000
0000
0000
0000
0000
0000
0000
0000
0000
0000
0000
0000
0000
0000
0000
0000
0000
0000
0000
0000
0000
0000
0000
0000
0000
0000
0000
0000
0000
0000
0000
0000
0000
0000
0000
0000
0000
0000
0202
0000
0000
0000
0000
0000
0000
0000
0000
0000
0000
0000
0000
0000
0000
0000
0000
0000
0000
0000
0000
0000
0000
0000
0000
0000
0000
0000
0000
0303
0000
0000
0000
0000
0000
0000
0000
0000
0000
0000
0000
0000
0000
0000
0000
0000
0000
0000
,
0000
0000
0000
0000
0000
0000
0000
0000
0000
0000
0000
0000
0000
0000
0000
0000
0000
0000
0000
0000
0000
0000
0000
0000
0000
0000
0000
0000
0000
0000
0000
0000
0000
0000
0000
0000
0000
0000
0000
0000
0000
0000
0000
0000
0000
0000
0000
0000
0022
0000
0000
0000
0000
0000
0000
0000
0000
0000
0000
0000
0000
0000
0000
0000
0000
0000
0000
0000
0000
0000
0000
0000
0000
0000
0000
0000
0000
0033
0000
0000
0000
0000
0000
0000
0000
0000
0000
0000
0000
0000
0000
0000
0000
0000
0000
0000
0000
0000
0000
0000
0000
0000
0000
0000
0000
0000
0000
0000
0000
0000
0000
0000
0000
0000
0000
0000
0000
0000
0000
0000
0000
0000
0000
0000
0000
0000
0000
0000
0000
0000
0000
0000
0000
0000
0000
0000
0000
0000
0000
0000
0000
0000
0000
0000
2002
0000
0000
0000
0000
0000
0000
0000
0000
0000
0000
0000
0000
0000
0000
0000
0000
0000
0000
0000
0000
0000
0000
0000
0000
0000
0000
0000
0000
3003
0000
0000
0000
0000
0000
0000
0000
0000
0000
0000
0000
0000
0000
0000
0000
0000
0000
0000
;

//--------------- dance-single - forcednature ----------------
#NOTEDATA:;
#STEPSTYPE:dance-single;
#DESCRIPTION:forcednature;
#CREDIT:forcednature;
#DIFFICULTY:Medium;
#METER:13;
#RADARVALUES:0,0,0,0,0;
#NOTES:
0000
0000
0000
0000
,
0000
0000
0000
0000
,
0000
0000
0000
0000
,
1001
0000
0110
0000
,
1000
0000
0000
0000
0001
0000
0000
0000
1000
0001
1000
0000
0000
0000
0000
0000
,
0101
0001
0000
0001
0000
1000
0000
1000
,
0000
0000
0100
1000
0100
0000
0010
0001
0000
0000
0001
0100
0001
0000
0001
0000
,
1100
1000
0000
1000
0000
0001
0000
0001
,
0000
0100
0001
0000
1000
0000
1000
0010
0000
1000
0100
0000
0010
0000
0001
0000
,
0101
0001
0000
0001
0000
1000
0000
1000
,
0000
0100
0010
0000
0001
0010
0001
0000
1000
0000
0010
1000
0010
0000
0100
0000
,
0101
0001
0000
1000
1100
0100
0000
0010
,
0011
0101
1100
1010
,
0100
0000
0000
0000
0100
0000
0000
0020
0000
0000
0000
0000
0030
0000
0000
0000
,
0000
0000
0000
1000
,
1000
0000
0000
0000
0000
0000
1000
0000
0000
0000
0000
0000
0001
0000
0000
0100
0000
0000
1001
0000
0000
0001
0000
0001
,
0100
0000
0000
0100
0000
0000
0000
0000
0010
1000
0000
0010
1000
0000
0010
1000
0000
0000
1001
0000
0000
1000
0000
1000
,
0100
0000
0000
0100
0000
0000
0000
0000
0010
0001
0000
0010
0001
0000
1000
0001
0000
0000
1001
0000
0000
0001
0000
0001
,
0100
0000
0000
0100
0000
0000
0000
0000
0010
1000
0000
0010
1000
0000
0001
0010
0000
0000
0110
0000
0000
0100
0000
0000
,
1001
0000
0000
0010
0000
0000
0110
0000
0000
0110
0000
0000
0110
0000
0000
0000
0000
0000
1001
0000
0000
0001
0100
0001
,
0100
0000
0000
0100
0000
0000
0000
0000
0010
1000
0000
0010
1000
0000
0010
1000
0000
0000
1001
0000
0000
1000
0100
1000
,
0100
0000
0000
0000
0000
0000
0100
0000
0000
0000
0000
0000
0000
0000
0000
0000
0010
0000
0001
0000
0000
0000
0010
0000
0001
0000
0000
0000
1000
0000
0010
0000
0000
0000
0000
0000
0101
0000
0000
0000
0000
0000
0000
0000
0000
0011
0000
0000
,
0000
0000
1010
0000
0000
1100
0000
0000
1001
0000
0000
0000
0200
0000
0000
0000
,
0000
0000
0300
1000
,
0001
0000
0010
0100
0010
0000
0001
0000
,
0000
0001
0000
0000
0000
0100
0000
0100
,
0000
0010
0000
1000
,
0000
1000
0000
0000
0000
0100
0000
0100
,
0000
0010
0000
0001
,
0000
0001
0000
0000
0000
1000
0000
1000
,
0000
0010
0000
1000
,
0000
1000
0000
0000
0000
0001
0000
0001
,
0000
0000
0010
0000
0000
0000
0100
1000
,
0100
0000
1000
0010
1000
0000
0001
0010
,
0001
0000
0100
0001
0100
0000
0010
1000
,
0010
1000
0001
0010
0001
0010
0100
0000
,
0100
2000
3001
1001
,
1000
0010
0000
0100
0001
0100
0000
0010
,
0000
1000
0001
0000
0010
0000
1001
0000
,
0001
0010
0000
0100
1000
0100
0000
0010
,
0000
0001
1000
0000
0010
0000
0110
0000
,
0010
0100
0000
0001
0010
0001
0000
0100
,
0000
0001
0010
0000
0100
0000
0110
0000
,
0100
1000
0000
0010
0100
0010
0000
1000
,
0000
0001
0010
0000
0100
0000
1001
0000
,
0110
1001
0110
1001
,
0001
0000
0100
0010
0100
0000
0001
0000
,
1000
0100
0000
0010
0001
0010
0000
0100
,
0000
1000
0001
0000
0100
0000
0010
1000
,
0010
0000
1000
0100
1000
0000
0001
0100
,
0001
0000
0010
0001
0010
0000
0200
0000
,
2300
3002
0203
0310
,
0010
0100
0020
0000
0030
0000
1001
0000
,
1000
0000
0100
0010
0100
0000
1000
0010
,
0000
0000
1000
0000
0010
0000
0000
0000
0100
0000
0000
0000
0001
0000
0000
1000
,
0000
0001
0010
0000
0100
0000
0010
0001
,
1000
0001
0100
0000
0010
0000
0110
0000
,
0100
0000
0001
1000
0001
0000
0010
0000
,
0100
0000
1000
0010
1000
0000
1001
0000
,
0001
0000
0010
0100
0000
0010
0001
0000
,
0001
0100
0000
0100
0010
0000
1001
0000
,
0110
1001
0110
1001
,
0001
0000
0000
0000
1000
0000
0100
0000
1000
0000
0000
0000
0010
0000
0000
0010
,
0000
0000
0000
0000
0100
0000
0000
0000
0001
0000
0000
0000
0010
0000
0000
0010
,
0000
0000
0001
1000
0001
0000
0100
0001
,
0100
0000
0100
0010
1000
0000
0100
1000
,
0100
0000
0100
0010
0001
0000
0100
0001
,
0100
0001
1000
0100
1000
0100
0010
0000
,
0010
0001
0000
0010
0100
0000
2002
3003
,
0001
0100
0202
0303
1000
0100
2200
3300
,
0010
0000
0000
0000
0000
0000
0000
0000
0000
0000
0000
0000
0000
0000
0000
0000
0000
0000
0000
0000
0000
0000
0000
0000
0100
0000
0000
0000
0000
0000
0000
0000
0000
0000
0000
0000
0000
0000
0000
0000
0000
0000
0000
0000
0000
0000
0000
0000
0220
0000
0000
0000
0000
0000
0000
0000
0000
0000
0000
0000
0000
0000
0000
0000
0000
0000
0000
0000
0000
0000
0000
0000
0330
0000
0000
0000
0000
0000
0000
0000
0000
0000
0000
0000
0000
0000
0000
0000
0000
0000
0000
0000
0000
0000
0000
0000
1000
0000
0000
0000
0000
0000
0000
0000
0000
0000
0000
0000
0000
0000
0000
0000
0000
0000
0000
0000
0000
0000
0000
0000
0001
0000
0000
0000
0000
0000
0000
0000
0000
0000
0000
0000
0000
0000
0000
0000
0000
0000
0000
0000
0000
0000
0000
0000
2002
0000
0000
0000
0000
0000
0000
0000
0000
0000
0000
0000
0000
0000
0000
0000
0000
0000
0000
0000
0000
0000
0000
0000
0000
0000
0000
0000
0000
3003
0000
0000
0000
0000
0000
0000
0000
0000
0000
0000
0000
0000
0000
0000
0000
0000
0000
0000
;

//--------------- dance-single - forcednature ----------------
#NOTEDATA:;
#STEPSTYPE:dance-single;
#DESCRIPTION:forcednature;
#CREDIT:forcednature;
#DIFFICULTY:Hard;
#METER:15;
#RADARVALUES:0,0,0,0,0;
#NOTES:
0000
0000
0000
0000
,
0000
0000
0000
0000
,
0000
0000
0000
0000
,
1001
0000
1001
0000
,
1001
0000
1001
0000
1001
1001
0000
0000
,
1001
0001
0100
0010
0000
1000
0100
0010
,
0000
0000
0001
1000
0001
0000
0010
0100
0000
0100
1000
0010
0100
0000
0100
0000
,
1001
1000
0010
1000
0000
0001
0010
0001
,
0100
0000
0001
0000
0100
0000
0000
0000
0010
1000
0010
0000
1000
0000
0001
0000
0010
0000
0001
0000
0010
0000
0100
0000
0010
0000
0000
0000
0001
0000
0100
0000
,
1000
0000
0000
0000
0100
0000
0000
0000
0010
0000
0000
0000
1000
0000
0000
0000
0001
0000
0100
0001
0100
0000
0001
0100
0001
0000
1000
0000
0010
0000
0000
0000
,
1000
0000
0001
0010
0001
0000
0000
0000
1000
0100
1000
0000
0001
0000
0100
0000
0010
0000
1000
0001
1000
0000
0100
0000
0010
0000
0000
0000
1000
0000
0010
0000
,
0001
0000
1000
0000
0010
0000
1000
0100
0001
0000
0100
0000
1000
0000
0001
0100
,
1000
0100
0101
1000
1100
0001
0110
0000
,
1001
0000
0000
0000
0001
0000
0000
0200
0000
0000
0000
0000
0300
0000
0000
0000
,
0020
0000
0000
0100
,
0100
0000
0000
0000
0000
0000
0100
0000
0000
0030
0000
0100
0010
0000
1000
0001
0000
0000
1001
0000
0000
1000
0100
1000
,
0200
0000
0300
0200
0000
0300
0000
0000
0010
0001
0000
1000
0001
0000
0100
0001
0000
1000
0010
0000
0000
0100
0001
0100
,
0002
0000
0003
0002
0000
0003
0000
0000
0010
0100
0000
1000
0001
0000
0100
0100
0000
0010
1000
0000
0000
0001
0010
0001
,
0020
0000
0030
0020
0000
0030
0000
0000
0100
1000
0000
0001
1000
0000
0010
1000
0000
0001
0200
0000
0300
0001
0010
0100
,
2000
0000
3000
0010
0000
0000
1000
0000
0100
0001
0000
0100
1000
0000
0010
0010
0000
0100
0001
0000
0000
0010
0100
1000
,
0020
0000
0030
0020
0000
0030
0000
0000
0100
0001
0000
0100
1000
0000
0100
0010
0000
1000
0001
0000
0000
0010
0001
0100
,
0020
0000
0000
0000
0030
0000
0020
0000
0000
0000
0030
0000
0000
0000
0000
0000
1000
0000
0001
0000
0000
0000
1000
0000
0100
0000
0000
0000
0001
0000
0001
0000
0000
0000
0100
0000
0020
0000
0000
0000
0030
0000
0001
0000
0000
0202
0000
0000
,
0000
0303
0000
1000
0000
0000
2200
0000
0000
0000
3300
0000
0001
0000
0000
0022
0000
0000
0000
0033
0000
1000
0000
0000
2020
0000
0000
0000
3030
0000
1000
0000
0000
0001
0000
0000
0200
0000
0000
0000
0000
0000
0000
0000
0000
0000
0000
0000
,
0000
0000
0000
0000
0300
0000
0010
1000
,
0001
1000
0001
0000
0010
0000
0100
0000
1000
0000
0000
0000
0010
0000
0000
0000
,
0100
0001
0000
0010
0000
0100
0000
1000
,
0001
0100
1000
0100
0000
0000
0010
0000
,
1000
0001
0000
0010
0000
0100
0000
0001
,
0100
0010
0001
0100
0000
0000
0010
0000
,
0001
0010
0000
1000
0000
0001
0000
1000
,
0100
0001
0100
1000
0000
0000
0010
0000
,
0100
0001
0000
0100
0000
1000
0000
0100
,
0010
1000
0001
0010
0000
0000
0100
1000
,
0100
1000
0100
0001
0100
0001
1000
0010
,
1000
0000
0010
0000
0001
0000
0010
0000
0001
0000
0010
0000
0100
1000
0100
1000
,
0100
0000
0010
0000
0001
1000
0001
1000
0001
0000
1000
0000
0010
0000
0100
0001
,
0100
0010
2000
0000
3100
0000
0010
0001
,
0010
1000
0010
0100
1000
0001
1000
0010
,
0100
1000
0100
0001
0010
0000
0100
0001
,
0100
1000
0001
0010
1000
0010
0100
1000
,
0001
1000
0010
0100
1000
0000
0001
0010
,
0100
0001
1000
0100
0001
0100
1000
0010
,
1000
0100
0001
0100
0010
0000
0001
0100
,
1000
0100
0010
1000
0001
0010
1000
0001
,
0100
1000
0010
0100
0001
0000
0011
0000
,
1010
0000
0011
0000
1010
0000
0001
0100
,
1000
0100
0010
1000
0001
0000
1000
0100
,
0001
0100
0010
0100
1000
0010
0001
0010
,
0100
0001
1000
0100
0010
0000
0001
0100
,
0001
0100
1000
0100
1000
0100
0010
0001
,
0010
0000
0001
0000
0010
0000
1000
0000
0010
0000
1000
0000
0001
0100
0001
0000
,
1000
0100
1000
0000
0001
0010
0001
0000
1000
0010
1000
0000
0001
0000
1000
0100
,
1000
0100
0010
0001
0200
0000
0000
0000
0310
0000
0000
0000
1000
0000
0001
0000
,
1000
0100
1000
0000
0010
0000
0100
0001
0100
0001
0100
0000
1000
0000
0100
0000
,
0001
0000
1000
0010
1000
0000
0001
0010
0001
0000
1000
0100
1000
0001
0000
1000
,
0001
0000
0100
0000
0010
1000
0010
0000
1000
0100
0000
0100
0010
0001
0010
0000
,
0001
0100
0000
0000
0020
0000
0030
0000
1000
0001
1000
0100
0010
0000
0000
0000
,
0100
0000
1000
0001
1000
0000
0010
0000
0100
0000
0001
0010
0001
0000
0100
0000
,
0010
0000
0010
0000
1000
0000
0100
0000
0001
0000
0100
0010
0002
0000
0003
0000
,
1000
0010
1000
0010
1000
0000
0002
0000
0103
0000
0010
0000
1000
0100
1000
0100
,
1000
0000
0001
0100
0001
0100
0001
0000
1000
0001
1000
0001
1000
0000
0100
0000
,
0001
0100
1000
0010
0001
0010
2002
3003
,
1000
0000
0100
0000
0010
0001
0010
0000
0001
1000
0001
0000
0100
0001
0000
1000
,
0010
0000
1000
0000
0001
0010
0001
0010
0100
1000
0100
0000
1000
0001
0000
0100
,
0001
0000
0010
0000
0100
1000
0001
1000
0020
0000
0030
0000
1000
0000
1000
0000
,
0001
0001
0100
0100
0010
0010
1000
0100
,
0001
0000
0100
0000
1000
0000
0100
0000
0001
0000
0100
0000
1000
0100
1000
0000
,
0001
0100
0001
0000
1000
0010
1000
0000
0001
0010
0001
0000
1000
0100
1000
0100
,
1000
0000
0000
0000
0000
0000
0000
0000
0000
0000
0000
0000
0000
0000
0000
0000
0000
0000
0000
0000
0000
0000
0000
0000
0001
0000
0000
0000
0000
0000
0000
0000
0000
0000
0000
0000
0100
0000
0000
0000
0000
0000
0000
0000
0000
0000
0000
0000
0001
0000
0000
0000
0000
0000
0000
0000
0000
0000
0000
0000
0100
0000
0000
0000
0000
0000
0000
0000
0000
0000
0000
0000
0001
0000
0000
0000
0000
0000
0000
0000
0000
0000
0000
0000
0000
0000
0000
0000
0000
0000
0000
0000
0000
0000
0000
0000
1000
0000
0000
0000
0000
0000
0000
0000
0000
0000
0000
0000
0001
0000
0000
0000
0000
0000
0000
0000
0000
0000
0000
0000
1000
0000
0000
0000
0000
0000
0000
0000
0000
0000
0000
0000
0001
0000
0000
0000
0000
0000
0000
0000
0000
0000
0000
0000
2000
0000
0000
0000
0000
0000
0000
0000
0000
0000
0000
0000
0000
0000
0000
0000
0000
0000
0000
0000
0000
0000
0000
0000
0000
0000
0000
0000
0000
3000
0000
0000
0000
0000
0000
0000
0000
0000
0000
0000
0000
0000
0000
0000
0000
0000
0000
0000
,
0001
0000
0000
0000
0000
0000
0000
0000
0000
0000
0000
0000
0100
0000
0000
0000
0000
0000
0000
0000
0000
0000
0000
0000
0001
0000
0000
0000
0000
0000
0000
0000
0000
0000
0000
0000
0100
0000
0000
0000
0000
0000
0000
0000
0000
0000
0000
0000
0020
0000
0000
0000
0000
0000
0000
0000
0000
0000
0000
0000
0000
0000
0000
0000
0000
0000
0000
0000
0000
0000
0000
0000
0000
0000
0000
0000
0000
0030
0000
0000
0000
0000
0000
0000
0000
0000
0000
0000
0000
0000
0000
0000
0000
0000
0000
0000
1000
0000
0000
0000
0000
0000
0000
0000
0000
0000
0000
0000
0100
0000
0000
0000
0000
0000
0000
0000
0000
0000
0000
0000
1000
0000
0000
0000
0000
0000
0000
0000
0000
0000
0000
0000
0100
0000
0000
0000
0000
0000
0000
0000
0000
0000
0000
0000
0020
0000
0000
0000
0000
0000
0000
0000
0000
0000
0000
0000
0000
0000
0000
0000
0000
0000
0000
0000
0000
0000
0000
0000
0000
0000
0000
0000
0000
0030
0000
0000
0000
0000
0000
0000
0000
0000
0000
0000
0000
0000
0000
0000
0000
0000
0000
0000
,
0001
0000
0000
0000
0000
0000
0000
0000
0000
0000
0000
0000
0100
0000
0000
0000
0000
0000
0000
0000
0000
0000
0000
0000
0010
0000
0000
0000
0000
0000
0000
0000
0000
0000
0000
0000
1000
0000
0000
0000
0000
0000
0000
0000
0000
0000
0000
0000
0002
0000
0000
0000
0000
0000
0000
0000
0000
0000
0000
0000
0000
0000
0000
0000
0000
0000
0000
0000
0000
0000
0000
0000
0000
0000
0000
0000
0000
0003
0000
0000
0000
0000
0000
0000
0000
0000
0000
0000
0000
0000
0000
0000
0000
0000
0000
0000
1000
0000
0000
0000
0000
0000
0000
0000
0000
0000
0000
0000
0100
0000
0000
0000
0000
0000
0000
0000
0000
0000
0000
0000
0010
0000
0000
0000
0000
0000
0000
0000
0000
0000
0000
0000
0001
0000
0000
0000
0000
0000
0000
0000
0000
0000
0000
0000
2000
0000
0000
0000
0000
0000
0000
0000
0000
0000
0000
0000
0000
0000
0000
0000
0000
0000
0000
0000
0000
0000
0000
0000
0000
0000
0000
0000
0000
3000
0000
0000
0000
0000
0000
0000
0000
0000
0000
0000
0000
0000
0000
0000
0000
0000
0000
0000
;

//--------------- dance-single - forcednature ----------------
#NOTEDATA:;
#STEPSTYPE:dance-single;
#DESCRIPTION:forcednature;
#CREDIT:forcednature;
#DIFFICULTY:Challenge;
#METER:17;
#RADARVALUES:0,0,0,0,0;
#NOTES:
0000
0000
0000
0000
,
0000
0000
0000
0000
,
0000
0000
0000
0000
,
0100
0000
0100
0000
,
0100
0000
0000
0000
0000
0000
0000
0000
0000
0000
0000
0000
0000
0000
0000
0000
0100
0000
0000
0000
0000
0000
0000
0000
0000
0000
0000
0000
0000
0000
0000
0000
0100
0000
0000
0000
0100
0000
0000
0000
0100
0000
0000
0000
0000
0000
0000
0000
0000
0000
0000
0000
0000
0000
0000
0000
0000
0010
0000
0000
0000
0000
0000
0000
,
1001
1000
0100
1000
0010
0100
0001
0010
,
0001
0000
0100
0001
0100
0000
0010
1000
0001
0100
1000
0100
0001
0000
0001
0000
,
1001
0000
0000
0000
0000
0000
1000
0000
0000
0000
0000
0000
0010
0000
0000
0000
0000
0000
0100
0000
0000
0000
0000
0000
0001
0000
1000
0000
0001
0000
1000
0000
0000
0001
0000
0000
0010
0000
0000
0000
0000
0000
0100
0000
0000
0000
0000
0000
,
0010
0000
0001
0000
0010
0000
0000
0000
0001
1000
0001
0000
0100
0000
0010
0000
1000
0000
0100
0000
1000
0000
0010
0000
0100
0000
0000
0000
0001
0000
0010
0000
,
1000
0000
0000
0000
0010
0000
0001
0000
0100
0000
0000
0000
0010
0000
1000
0000
0001
0000
1000
0100
1000
0000
0001
0100
0001
0000
0010
0000
0100
0000
0000
0000
,
1000
0000
0001
0100
0001
0000
1000
0000
0100
0010
0100
0000
1000
0000
0001
0000
0100
0000
0010
1000
0010
0000
0100
0000
0001
0000
0000
0000
0010
0000
0100
0000
,
1100
0000
1000
0000
0010
0000
0001
0010
1010
0000
0001
0000
0010
0000
1000
0010
,
0011
0000
0001
0100
0101
0000
1000
0100
1100
0000
0010
0000
0101
0000
0010
0000
,
1001
0000
0000
0000
0010
0000
0000
0200
0000
0000
0000
0000
0000
0000
0000
0000
,
0000
0000
0000
0010
,
0010
0000
0000
0000
0000
0000
0000
0000
0000
0000
0000
0000
0000
0000
0000
0000
0000
0000
0000
0000
0000
0000
0000
0000
0010
0000
0000
0000
0000
0000
0000
0000
0000
0000
0000
0000
0000
0000
0000
0000
0000
0000
0000
0000
0010
0000
0000
0000
0310
0000
0000
0000
0000
0000
0000
0000
0100
0000
0000
0000
0100
0000
0000
0000
0000
0000
0000
0000
0000
0000
0000
0000
2002
0000
0000
0000
0000
0000
0000
0000
0000
3003
0000
0000
0001
0000
0000
0000
0100
0000
0000
0000
0010
0000
0000
0000
,
1000
0000
0000
0000
0000
0000
0000
0000
0000
0000
0000
0000
1100
0000
0000
0000
0000
0000
0000
0000
1000
0000
0000
0000
0100
0000
0000
0000
0000
0000
0000
0000
0100
0000
0000
0000
0010
0000
0000
0000
0000
0000
0000
0000
0001
0000
0000
0000
0010
0000
0000
0000
0000
0000
0000
0000
1000
0000
0000
0000
0010
0000
0000
0000
0000
0000
0000
0000
0000
0000
0000
0000
2002
0000
0000
0000
0000
0000
0000
0000
0000
3003
0000
0000
1000
0000
0000
0000
0100
0000
0000
0000
0010
0000
0000
0000
,
0001
0000
0000
0000
0000
0000
0000
0000
0000
0000
0000
0000
0101
0000
0000
0000
0000
0000
0000
0000
0100
0000
0000
0000
1000
0000
0000
0000
0000
0000
0000
0000
1000
0000
0000
0000
0100
0000
0000
0000
0000
0000
0000
0000
0010
0000
0000
0000
1000
0000
0000
0000
0000
0000
0000
0000
0001
0000
0000
0000
0001
0000
0000
0000
0000
0000
0000
0000
0010
0000
0000
0000
0220
0000
0000
0000
0000
0000
0000
0000
0000
0330
0000
0000
0100
0000
0000
0000
1000
0000
0000
0000
0010
0000
0000
0000
,
0100
0000
0000
0000
0000
0000
0000
0000
0000
0000
0000
0000
0101
0000
0000
0000
0000
0000
0000
0000
0001
0000
0000
0000
0010
0000
0000
0000
0000
0000
0000
0000
0010
0000
0000
0000
1000
0000
0000
0000
0000
0000
0000
0000
0010
0000
0000
0000
0100
0000
0000
0000
0000
0000
0000
0000
1000
0000
0000
0000
0010
0000
0000
0000
0000
0000
0000
0000
0100
0000
0000
0000
0202
0000
0000
0000
0000
0000
0000
0000
0000
0303
0000
0000
0001
0000
0000
0000
0010
0000
0000
0000
0100
0000
0000
0000
,
2200
0000
0000
0000
0000
0000
0000
0000
0000
0000
0000
0000
0000
0000
0000
0000
0000
0000
3300
0000
0000
0000
0000
0000
1000
0000
0000
0000
0000
0000
0000
0000
0000
0000
0000
0000
0000
0000
0000
0000
0001
0000
0000
0000
0000
0000
0000
0000
0202
0000
0000
0000
0000
0000
0000
0000
0000
0303
0000
0000
0000
0000
0000
0000
1000
0000
0000
0000
0000
0000
0000
0000
2200
0000
0000
0000
0000
0000
0000
0000
0000
3300
0000
0000
0000
0000
0000
0000
0001
0000
0000
0000
0000
0000
0000
0000
0022
0000
0000
0000
0000
0000
0000
0000
0000
0033
0000
0000
0000
0000
0000
0000
1000
0000
0000
0000
0000
0000
0000
0000
1000
0000
0000
0000
0000
0000
0000
0000
0000
0000
0000
0000
0000
0000
0000
0000
0010
0000
0000
0000
0000
0000
0000
0000
0220
0000
0000
0000
0000
0000
0000
0000
0000
0000
0000
0000
0000
0000
0000
0000
0000
0000
0330
0000
0000
0000
0000
0000
0001
0000
0000
0000
0000
0000
0000
0000
0100
0000
0000
0000
0000
0000
0000
0000
1000
0000
0000
0000
0000
0000
0000
0000
,
0100
0000
0000
0000
0000
0000
0000
0000
0000
0000
0000
0000
1010
0000
0000
0000
0000
0000
0000
0000
0001
0000
0000
0000
0010
0000
0000
0000
0000
0000
0000
0000
1000
0000
0000
0000
0010
0000
0000
0000
0000
0000
0000
0000
0001
0000
0000
0000
0100
0000
0000
0000
0000
0000
0000
0000
1000
0000
0000
0000
0100
0000
0000
0000
0000
0000
0000
0000
0010
0000
0000
0000
2020
0000
0000
0000
0000
0000
0000
0000
0000
3030
0000
0000
1000
0000
0000
0000
0100
0000
0000
0000
0001
0000
0000
0000
,
0100
0000
0000
0000
0000
0000
0000
0000
0000
0000
0000
0000
0110
0000
0000
0000
0000
0000
0000
0000
0001
0000
0000
0000
0010
0000
0000
0000
0000
0000
0000
0000
0001
0000
0000
0000
0100
0000
0000
0000
0000
0000
0000
0000
1000
0000
0000
0000
0100
0000
0000
0000
0000
0000
0000
0000
0010
0000
0000
0000
0010
0000
0000
0000
0000
0000
0000
0000
1000
0000
0000
0000
2200
0000
0000
0000
0000
0000
0000
3300
0000
0000
0000
0000
0001
0000
0000
0000
0000
0000
0202
0000
0000
0000
0000
0000
,
0000
0303
0000
0000
0000
0000
1000
0000
0000
0000
0000
0000
2020
0000
0000
0000
0000
0000
0000
3030
0000
0000
0000
0000
0001
0000
0000
0000
0000
0000
0022
0000
0000
0000
0000
0000
0000
0033
0000
0000
0000
0000
0100
0000
0000
0000
0000
0000
0220
0000
0000
0000
0000
0000
0000
0330
0000
0000
0000
0000
0001
0000
0000
1000
0000
0000
0001
0000
0000
0000
0000
0000
0200
0000
0000
0000
0000
0000
0000
0000
0000
0000
0000
0000
0000
0000
0000
0000
0000
0000
0000
0000
0000
0000
0000
0000
,
0000
0000
0000
0000
0000
0000
0000
0000
0300
0000
0000
0000
0001
0010
0001
0010
,
0100
1000
0100
1000
0001
0100
0001
0100
0010
1000
0010
1000
0001
0000
0100
0000
,
0010
0100
0000
1000
0100
0010
0000
1000
,
0100
0001
0100
0010
0000
0000
0001
0010
,
1000
0010
0000
0100
1000
0001
0000
1000
,
0010
0001
0010
0100
0000
0000
0001
0100
,
1000
0100
0000
0010
1000
0001
0000
1000
,
0100
0010
1000
0010
0000
0000
0001
1000
,
0010
0100
0000
1000
0100
0001
0000
1000
,
0100
0010
0001
0100
0000
0000
0010
1000
,
0010
1000
0100
0001
0100
0001
1000
0010
,
1000
0000
0010
0000
0001
0000
0100
0000
0001
0000
0100
0000
0001
0010
0001
0010
,
0100
1000
0100
1000
0001
1000
0001
1000
0001
0100
0010
1000
0001
0000
1000
0100
,
1000
0010
0110
0000
1001
0000
0001
0100
,
1000
0100
0010
1000
0001
0010
1000
0010
,
0100
0000
1000
0000
0001
0000
1000
0010
1000
0000
0000
0000
0100
0000
0001
0000
,
0100
0010
0001
0100
0010
0001
1000
0100
,
0010
0000
1000
0000
0001
0000
0100
1000
0100
0000
0000
0000
0010
0000
0100
0000
,
0001
1000
0100
0001
1000
0010
0001
1000
,
0010
0000
0100
0000
1000
0000
0100
0001
0100
0000
0000
0000
0010
0000
0100
0000
,
1000
0100
0001
0010
0100
0001
0100
1000
,
0010
0000
0001
0000
0010
0000
1000
0001
1000
0000
0000
0000
1010
0000
0000
0000
,
1010
0000
0101
0000
0101
0000
1000
0100
,
0001
0000
0100
0000
0010
0000
0001
0100
0001
0000
0000
0000
0010
0000
1000
0000
,
0010
0100
0001
0100
1000
0001
0100
0010
,
1000
0000
0100
0000
0001
0000
0100
1000
0100
0000
0000
0000
0010
0000
0010
0000
,
0001
0001
1000
1000
0010
0010
1000
1000
,
0100
0000
0100
0000
0010
0000
0010
0000
0001
0000
0001
0000
0100
0001
0100
0001
,
1000
0100
1000
0100
0010
0001
1000
0001
0100
0010
1000
0001
1000
0000
0001
0010
,
0100
1000
0001
1000
0020
0000
0000
0000
0230
0000
0000
0000
0301
0000
1000
0000
,
0100
0010
0100
0000
1000
0000
0001
0100
0001
0100
0010
0000
0001
0000
0010
0000
,
1000
0000
0001
0010
0001
0000
1000
0010
1000
0000
0001
1000
0001
0100
0001
0100
,
0010
1000
0010
1000
0001
1000
0001
1000
0100
1000
0000
0001
0010
0100
0010
0100
,
1000
0001
0000
0000
0200
0000
0301
0000
1000
0100
0010
0001
1000
0000
0000
0000
,
0010
0000
0100
0001
0100
0000
1000
0000
0100
0000
0001
0010
0001
0000
1000
0000
,
0010
0000
0001
0000
0010
0000
0100
0000
1000
0000
0100
0010
0200
0000
0300
0000
,
0001
0010
0001
0100
0010
0000
2000
0000
3100
0000
0010
0001
1000
0100
1000
0001
,
0010
0000
0001
0100
0001
1000
0010
0000
0100
0001
1000
0000
1010
0000
1000
0000
,
0011
0001
1100
1000
0101
0001
2002
3003
,
0001
0000
0100
0000
0010
1000
0001
1000
0100
0010
0001
0000
0100
0001
0000
1000
,
0100
0000
0010
0001
0100
0010
0100
0001
1000
0100
0010
0001
0010
0001
0000
1000
,
0010
0100
0001
0010
0100
1000
0010
0100
0002
0000
0003
0000
1000
0000
0100
0000
,
0001
0100
1000
0010
0001
0010
1000
1000
,
0001
0000
0001
0000
0100
0000
0100
0000
0010
0000
0010
0000
1000
0100
0010
0001
,
0100
0010
1000
0100
0010
0001
0100
0010
1000
0001
1000
0001
1000
0100
1000
0100
,
0010
0000
0000
0000
0000
0000
0000
0000
0000
0000
0000
0000
0000
0000
0000
0000
0000
0000
0000
0000
0000
0000
0000
0000
0001
0000
0000
0000
0000
0000
0000
0000
0000
0000
0000
0000
0100
0000
0000
0000
0000
0000
0000
0000
0000
0000
0000
0000
0001
0000
0000
0000
0000
0000
0000
0000
0000
0000
0000
0000
0100
0000
0000
0000
0000
0000
0000
0000
0000
0000
0000
0000
0010
0000
0000
0000
0000
0000
0000
0000
0000
0000
0000
0000
0000
0000
0000
0000
0000
0000
0000
0000
0000
0000
0000
0000
1000
0000
0000
0000
0000
0000
0000
0000
0000
0000
0000
0000
0001
0000
0000
0000
0000
0000
0000
0000
0000
0000
0000
0000
1000
0000
0000
0000
0000
0000
0000
0000
0000
0000
0000
0000
0001
0000
0000
0000
0000
0000
0000
0000
0000
0000
0000
0000
0020
0000
0000
0000
0000
0000
0000
0000
0000
0000
0000
0000
0000
0000
0000
0000
0000
0000
0000
0000
0000
0000
0000
0000
0000
0000
0000
0000
0000
0030
0000
0000
0000
0000
0000
0000
0000
0000
0000
0000
0000
0000
0000
0000
0000
0000
0000
0000
,
0001
0000
0000
0000
0000
0000
0000
0000
0000
0000
0000
0000
0010
0000
0000
0000
0000
0000
0000
0000
0000
0000
0000
0000
0100
0000
0000
0000
0000
0000
0000
0000
0000
0000
0000
0000
1000
0000
0000
0000
0000
0000
0000
0000
0000
0000
0000
0000
0020
0000
0000
0000
0000
0000
0000
0000
0000
0000
0000
0000
0000
0000
0000
0000
0000
0000
0000
0000
0000
0000
0000
0000
0000
0000
0000
0000
0000
0030
0000
0000
0000
0000
0000
0000
0000
0000
0000
0000
0000
0000
0000
0000
0000
0000
0000
0000
1000
0000
0000
0000
0000
0000
0000
0000
0000
0000
0000
0000
0010
0000
0000
0000
0000
0000
0000
0000
0000
0000
0000
0000
0100
0000
0000
0000
0000
0000
0000
0000
0000
0000
0000
0000
0001
0000
0000
0000
0000
0000
0000
0000
0000
0000
0000
0000
0020
0000
0000
0000
0000
0000
0000
0000
0000
0000
0000
0000
0000
0000
0000
0000
0000
0000
0000
0000
0000
0000
0000
0000
0000
0000
0000
0000
0000
0030
0000
0000
0000
0000
0000
0000
0000
0000
0000
0000
0000
0000
0000
0000
0000
0000
0000
0000
,
0001
0000
0000
0000
0000
0000
0000
0000
0000
0000
0000
0000
0100
0000
0000
0000
0000
0000
0000
0000
0000
0000
0000
0000
1000
0000
0000
0000
0000
0000
0000
0000
0000
0000
0000
0000
0100
0000
0000
0000
0000
0000
0000
0000
0000
0000
0000
0000
0002
0000
0000
0000
0000
0000
0000
0000
0000
0000
0000
0000
0000
0000
0000
0000
0000
0000
0000
0000
0000
0000
0000
0000
0000
0000
0000
0000
0000
0003
0000
0000
0000
0000
0000
0000
0000
0000
0000
0000
0000
0000
0000
0000
0000
0000
0000
0000
1000
0000
0000
0000
0000
0000
0000
0000
0000
0000
0000
0000
0100
0000
0000
0000
0000
0000
0000
0000
0000
0000
0000
0000
0001
0000
0000
0000
0000
0000
0000
0000
0000
0000
0000
0000
0100
0000
0000
0000
0000
0000
0000
0000
0000
0000
0000
0000
2000
0000
0000
0000
0000
0000
0000
0000
0000
0000
0000
0000
0000
0000
0000
0000
0000
0000
0000
0000
0000
0000
0000
0000
0000
0000
0000
0000
0000
3000
0000
0000
0000
0000
0000
0000
0000
0000
0000
0000
0000
0000
0000
0000
0000
0000
0000
0000
;

//--------------- dance-double - forcednature ----------------
#NOTEDATA:;
#STEPSTYPE:dance-double;
#DESCRIPTION:forcednature;
#CREDIT:forcednature;
#DIFFICULTY:Easy;
#METER:9;
#RADARVALUES:0,0,0,0,0;
#NOTES:
00000000
00000000
00000000
00000000
,
00000000
00000000
00000000
00000000
,
00000000
00000000
00000000
00000000
,
00011000
00000000
00011000
00000000
,
00011000
00011000
00011000
00000000
,
00011000
00001000
00000000
01000000
00000000
00010000
00000000
10000000
,
00000000
01000000
01000000
00100000
00100000
00010000
00010000
00000000
,
01000000
00001000
00000000
00010000
00000000
00000100
00000000
00001000
,
00000000
00000010
00000010
00000100
00000100
00000001
00000001
00000000
,
00001001
00001000
00000000
00000010
00000000
00010000
00000000
00001000
,
00000000
00100000
00100000
00010000
00010000
10000000
10000000
00000000
,
10010000
01000000
00011000
00000100
,
00001001
00010100
01001000
10010000
,
11000000
00000000
00000000
00000000
00010000
00000000
00000000
00001000
00000000
00000000
00000000
00000000
00000000
00000000
00000000
00000000
,
00022000
00000000
00000000
00000000
,
00000000
00000000
00000000
00000000
00033000
00000000
00000100
00001000
,
00000010
00000010
00000000
00000100
00001000
00010000
01000000
00100000
,
00010000
00010000
00000000
10000000
00100000
00010000
00100000
01000000
,
00001000
00001000
00000000
00010000
00000100
00001000
00000010
00000001
,
00000010
00001000
00000100
00000100
00000100
00000000
00010000
00001000
,
00100000
00100000
00000000
01000000
00010000
01000000
10000000
00010000
,
01000000
00000000
01000000
00000000
00000000
00000000
00001000
00000000
00010000
00000000
00001000
00000000
00000010
00000000
00000000
00000001
,
00000000
00000000
00000100
00000000
00000000
00001000
00000000
00000000
00010000
00000000
00100000
00000000
20000000
00000000
00000000
00000000
,
00000000
00000000
30000000
01000000
,
00010000
00000000
00001000
00000010
00000001
00000000
00000100
00000000
,
00000000
00000100
00000000
00000000
00000000
00001000
00000000
00001000
,
00000000
00010000
00000000
01000000
,
00000000
01000000
00000000
00000000
00000000
00010000
00000000
00010000
,
00000000
00001000
00000000
00000010
,
00000000
00000010
00000000
00000000
00000000
00001000
00000000
00001000
,
00000000
00010000
00000000
00100000
,
00000000
00100000
00000000
00000000
00000000
00010000
00000000
00010000
,
00000000
00001000
00000000
00010000
,
00010000
01000000
01000000
00100000
,
00100000
00000000
00010000
00000000
00010000
00000000
10000000
00100000
,
10000000
00000000
00010000
00100000
00010000
00000000
01000000
01000000
,
00001000
00010000
00001000
00000100
,
00000001
00001000
00000010
00010000
,
00001000
00100000
00000000
00001000
,
00010000
00100000
01000000
00010000
,
10000000
01000000
00000000
00100000
,
00001000
00010000
00000100
00001000
,
00000001
00000100
00000000
00000010
,
00010000
00001000
00000010
00001000
,
00010000
00100000
00000000
01100000
,
01100000
01100000
01100000
10000000
,
00010000
00100000
00000000
01000000
,
10000000
00010000
01000000
00010000
,
10000000
01000000
00000000
00100000
,
00010000
00100000
00010000
00100000
,
00001000
00100000
00001000
00010000
,
00010000
00000100
00000100
00001000
,
00000000
00000002
00000203
00000310
,
00001000
00000000
00000001
00000010
00000001
00000000
00000100
00000000
,
00001000
00010000
00100000
00011000
,
00001000
00000000
01000000
00010000
01000000
00000000
10010000
00000000
,
10000000
00000000
01000000
00100000
01000000
00000000
10010000
00000000
,
00010000
00000000
01000000
00000000
00001000
00000000
00010000
00010000
,
00010000
00000000
00001000
00001000
00001000
00000000
00011000
00000000
,
00000100
00000000
00001000
00000001
00001000
00000000
00000010
00000000
,
00000000
00010000
00000000
00000000
00100000
00000000
00011000
00000000
,
00011000
00011000
00011000
00001000
,
01000000
00000000
00010000
10000000
00010000
00000000
00100000
00000000
,
00001000
00000000
00010000
00000100
00010000
00000000
00000010
00000000
,
00001000
00000000
00000001
00000010
00000001
00000000
00000100
00000000
,
00000100
00001000
00001000
00010000
,
00010000
00000000
01000000
00000000
01000000
00000000
00100000
00010000
,
00100000
00010000
10000000
00100000
10000000
00100000
10000000
00000000
,
01000000
00000000
00000000
00000000
00000000
00000000
00000000
00000000
00000000
00000000
00000000
00000000
00000000
00000000
00000000
00000000
00000000
00000000
00000000
00000000
00000000
00000000
00000000
00000000
00010000
00000000
00000000
00000000
00000000
00000000
00000000
00000000
00000000
00000000
00000000
00000000
00000000
00000000
00000000
00000000
00000000
00000000
00000000
00000000
00000000
00000000
00000000
00000000
00000000
00000000
00000000
00000000
00000000
00000000
00000000
00000000
00000000
00000000
00000000
00000000
00000000
00000000
00000000
00000000
00000000
00000000
00000000
00000000
00000000
00000000
00000000
00000000
00001000
00000000
00000000
00000000
00000000
00000000
00000000
00000000
00000000
00000000
00000000
00000000
00000000
00000000
00000000
00000000
00000000
00000000
00000000
00000000
00000000
00000000
00000000
00000000
00000010
00000000
00000000
00000000
00000000
00000000
00000000
00000000
00000000
00000000
00000000
00000000
00000000
00000000
00000000
00000000
00000000
00000000
00000000
00000000
00000000
00000000
00000000
00000000
00000000
00000000
00000000
00000000
00000000
00000000
00000000
00000000
00000000
00000000
00000000
00000000
00000000
00000000
00000000
00000000
00000000
00000000
00000000
00000000
00000000
00000000
00000000
00000000
00000022
00000000
00000000
00000000
00000000
00000000
00000000
00000000
00000000
00000000
00000000
00000000
00000000
00000000
00000000
00000000
00000000
00000000
00000000
00000000
00000000
00000000
00000000
00000000
00000000
00000000
00000000
00000000
00000000
00000033
00000000
00000000
00000000
00000000
00000000
00000000
00000000
00000000
00000000
00000000
00000000
00000000
00000000
00000000
00000000
00000000
00000000
00000000
,
00000000
00000000
00000000
00000000
00000000
00000000
00000000
00000000
00000000
00000000
00000000
00000000
00000000
00000000
00000000
00000000
00000000
00000000
00000000
00000000
00000000
00000000
00000000
00000000
00000000
00000000
00000000
00000000
00000000
00000000
00000000
00000000
00000000
00000000
00000000
00000000
00000000
00000000
00000000
00000000
00000000
00000000
00000000
00000000
00000000
00000000
00000000
00000000
00002200
00000000
00000000
00000000
00000000
00000000
00000000
00000000
00000000
00000000
00000000
00000000
00000000
00000000
00000000
00000000
00000000
00000000
00000000
00000000
00000000
00000000
00000000
00000000
00000000
00000000
00000000
00000000
00000000
00003300
00000000
00000000
00000000
00000000
00000000
00000000
00000000
00000000
00000000
00000000
00000000
00000000
00000000
00000000
00000000
00000000
00000000
00000000
00000000
00000000
00000000
00000000
00000000
00000000
00000000
00000000
00000000
00000000
00000000
00000000
00000000
00000000
00000000
00000000
00000000
00000000
00000000
00000000
00000000
00000000
00000000
00000000
00000000
00000000
00000000
00000000
00000000
00000000
00000000
00000000
00000000
00000000
00000000
00000000
00000000
00000000
00000000
00000000
00000000
00000000
00000000
00000000
00000000
00000000
00000000
00000000
02020000
00000000
00000000
00000000
00000000
00000000
00000000
00000000
00000000
00000000
00000000
00000000
00000000
00000000
00000000
00000000
00000000
00000000
00000000
00000000
00000000
00000000
00000000
00000000
00000000
00000000
00000000
00000000
00000000
03030000
00000000
00000000
00000000
00000000
00000000
00000000
00000000
00000000
00000000
00000000
00000000
00000000
00000000
00000000
00000000
00000000
00000000
00000000
,
00000000
00000000
00000000
00000000
00000000
00000000
00000000
00000000
00000000
00000000
00000000
00000000
00000000
00000000
00000000
00000000
00000000
00000000
00000000
00000000
00000000
00000000
00000000
00000000
00000000
00000000
00000000
00000000
00000000
00000000
00000000
00000000
00000000
00000000
00000000
00000000
00000000
00000000
00000000
00000000
00000000
00000000
00000000
00000000
00000000
00000000
00000000
00000000
20200000
00000000
00000000
00000000
00000000
00000000
00000000
00000000
00000000
00000000
00000000
00000000
00000000
00000000
00000000
00000000
00000000
00000000
00000000
00000000
00000000
00000000
00000000
00000000
00000000
00000000
00000000
00000000
00000000
30300000
00000000
00000000
00000000
00000000
00000000
00000000
00000000
00000000
00000000
00000000
00000000
00000000
00000000
00000000
00000000
00000000
00000000
00000000
00000000
00000000
00000000
00000000
00000000
00000000
00000000
00000000
00000000
00000000
00000000
00000000
00000000
00000000
00000000
00000000
00000000
00000000
00000000
00000000
00000000
00000000
00000000
00000000
00000000
00000000
00000000
00000000
00000000
00000000
00000000
00000000
00000000
00000000
00000000
00000000
00000000
00000000
00000000
00000000
00000000
00000000
00000000
00000000
00000000
00000000
00000000
00000000
00022000
00000000
00000000
00000000
00000000
00000000
00000000
00000000
00000000
00000000
00000000
00000000
00000000
00000000
00000000
00000000
00000000
00000000
00000000
00000000
00000000
00000000
00000000
00000000
00000000
00000000
00000000
00000000
00000000
00033000
00000000
00000000
00000000
00000000
00000000
00000000
00000000
00000000
00000000
00000000
00000000
00000000
00000000
00000000
00000000
00000000
00000000
00000000
;

//--------------- dance-double - forcednature ----------------
#NOTEDATA:;
#STEPSTYPE:dance-double;
#DESCRIPTION:forcednature;
#CREDIT:forcednature;
#DIFFICULTY:Medium;
#METER:14;
#RADARVALUES:0,0,0,0,0;
#NOTES:
00000000
00000000
00000000
00000000
,
00000000
00000000
00000000
00000000
,
00000000
00000000
00000000
00000000
,
00011000
00000000
00011000
00000000
,
00001000
00000000
00000000
00000000
00010000
00000000
00000000
00000000
00001000
00010000
00001000
00000000
00000000
00000000
00000000
00000000
,
00010100
00000100
00000000
00000100
00000000
00000010
00000000
00000010
,
00000000
00000000
00000001
00000100
00000001
00000000
00010000
00001000
00000000
00001000
01000000
00100000
10000000
00000000
10000000
00000000
,
11000000
00010000
00000000
00010000
00000000
01000000
00000000
01000000
,
00000000
00001000
00010000
00000000
00010000
00000100
00001000
00000100
00000000
00000010
00000001
00001000
00000001
00000000
00000100
00000000
,
00011000
00100000
00000000
00100000
00000000
00001000
00000000
00001000
,
00000000
00010000
00100000
00000000
10000000
01000000
00100000
00000000
00001000
00010000
00100000
01000000
00001000
00000000
00001000
00000000
,
00010100
00001000
00000000
00010000
01001000
00010000
00000000
00001000
,
00001010
01010000
00001100
00110000
,
00011000
00000000
00000000
00000000
00001000
00000000
00000000
00010000
00000000
00000000
00000000
00000000
00000000
00000000
00000000
00000000
,
00000000
00000000
00000000
01000000
,
10000000
00000000
00000000
00000000
00000000
00000000
00010000
00000000
00000000
00000000
00000000
01000000
00010000
00000000
01000000
00001000
00000000
00000000
00011000
00000000
00000000
00010000
00000100
00001000
,
00000100
00000000
00000000
00000100
00000000
00000000
00000000
00000000
00000010
00000001
00000000
00000010
00000001
00000000
00000010
00000001
00000000
00000000
00001001
00000000
00000000
00001000
00000100
00010000
,
00001000
00000000
00000000
00001000
00000000
00000000
00000000
00000000
01000000
00010000
00000000
01000000
00010000
00000000
10000000
00010000
00000000
00000000
11000000
00000000
00000000
00100000
00010000
00100000
,
00001000
00000000
00000000
00001000
00000000
00000000
00000000
00000000
00010000
00000100
00000000
00010000
00000100
00000000
00001000
00000100
00000000
00000010
00000001
00000000
00000000
00000001
00000100
00000010
,
00001000
00000000
00000000
00010000
00000000
00000000
01000000
00000000
00100000
10000000
00000000
00100000
00010000
00000000
00100000
01000000
00000000
00010000
00100000
00000000
00000000
00001000
00010000
00001000
,
00000100
00000000
00000000
00000100
00000000
00000000
00000000
00000000
00000001
00000010
00000000
00000100
00001000
00000000
00000001
00000010
00000000
00000100
00001000
00000000
00000000
00000010
00010000
00001000
,
00010000
00000000
00000000
00000000
00000000
00000000
00100000
00000000
00000000
00000000
00000000
00000000
00000000
00000000
00000000
00000000
01000000
00000000
00010000
00000000
00000000
00000000
10000000
00000000
00100000
00000000
00000000
00000000
00010000
00000000
00001000
00000000
00000000
00000000
00100000
00000000
00001000
00000000
00000000
00000000
00000000
00000000
00000100
00000000
00000000
00001000
00000000
00000000
,
00000000
01000000
00001000
00000000
00000010
00001000
00000000
00100000
00001000
00000000
00000200
00000000
00000002
00000000
00000000
00000000
,
00000000
00000000
00000000
00000000
00000303
00000000
00000001
00000010
,
00001000
00010000
00100000
01000000
00010000
00000000
10000000
00000000
,
00000000
01000000
00000000
00000000
00000000
00100000
00000000
00100000
,
00000000
00001000
00000000
00010000
,
00000000
00000100
00000000
00000000
00000000
00001000
00000000
00001000
,
00000000
00000001
00000000
00000100
,
00000000
00000010
00000000
00000000
00000000
00010000
00000000
00010000
,
00000000
00001000
00000000
00100000
,
00000000
00010000
00000000
00000000
00000000
10000000
00000000
10000000
,
00000000
00100000
00000000
01000000
,
00010000
01000000
00001000
00010000
,
00000100
00000000
00001000
00000000
00000100
00000000
00000010
00000001
,
00000010
00000001
00001000
00000010
00001000
00000010
00010000
00010000
,
00010000
00010000
00001000
00000000
01000000
00000000
00100000
10000000
,
00010000
10000000
00000000
01000000
00100000
00010000
00000000
01000000
,
00001000
00010000
00000100
00000000
00001100
00000000
00001000
00000001
,
00000100
00000010
00000000
00010000
00001000
00100000
00000000
00001000
,
00010000
00100000
01000000
00000000
01010000
00000000
00010000
10000000
,
01000000
00100000
00000000
01000000
10000000
00010000
00000000
01000000
,
00001000
00010000
00000100
00000000
00001100
00000000
00001000
00000001
,
00000100
00000010
00000000
00010000
00001000
00000010
00000000
00000100
,
00001000
00000001
00000100
00000000
00000110
00000000
00010010
00000000
,
01001000
00000000
00010010
00000000
01001000
00000000
01000000
00010000
,
10000000
01000000
00100000
00010000
01000000
00000000
00001000
00010000
,
00000100
00001000
00000000
00000010
00010000
00001000
00000000
00000010
,
00000001
00000100
00000010
00001000
00000100
00000000
00010000
00001000
,
00010000
00001000
00010000
00100000
00010000
00100000
10000000
00100000
,
10000000
00100000
10000000
01000000
10000000
01000000
00100000
00010000
,
01000000
00001000
00010000
00000100
00001000
00000010
00010000
00000000
,
00001000
00000010
00000002
00000000
00002003
00000000
00003010
00000000
,
00010000
00001000
00100000
00001000
00010000
00100000
10000000
00010000
,
10000000
00000000
01000000
00000000
00100000
00000000
00000000
00100000
00010000
00000000
01000000
00000000
00001000
00010000
00000000
00010000
,
00000000
00000100
00001000
00000100
00000010
00000000
00000001
00000100
,
00000010
00001000
00010000
01000000
00100000
00000000
10010000
00000000
,
10000000
01000000
00010000
00001000
00010000
00000000
00000100
00000100
,
00001000
00001000
00000010
00000100
00000001
00000000
00001001
00000000
,
00000001
00000100
00001000
00010000
00000000
00100000
10000000
10000000
,
10000000
01000000
01000000
01000000
00010000
00000000
00011000
00000000
,
00011000
00000000
00011000
00000000
00011000
00000000
00000100
00001000
,
00000100
00000000
00000010
00000000
00000001
00000000
00000100
00000000
00000010
00000000
00000000
00000000
00010000
00001000
00000000
00001000
,
00000000
00000000
00100000
00000000
00010000
00000000
01000000
00000000
00010000
00000000
00000000
00000000
10000000
01000000
00000000
01000000
,
00000000
00100000
00001000
00010000
00001000
00000000
00000100
00000001
,
00000100
00000001
00000100
00001000
00010000
00000000
01000000
10000000
,
01000000
10000000
01000000
00010000
00001000
00000000
00000010
00001000
,
00010000
00001000
00100000
00001000
00010000
00001000
01000000
00000000
,
00100000
00000000
00000000
00000000
00000000
00000000
00000000
00000000
00000000
00000000
00000000
00000000
00000000
00000000
00000000
00000000
00000000
00000000
00000000
00000000
00000000
00000000
00000000
00000000
00010000
00000000
00000000
00000000
00000000
00000000
00000000
00000000
00000000
00000000
00000000
00000000
00000000
00000000
00000000
00000000
00000000
00000000
00000000
00000000
00000000
00000000
00000000
00000000
00000000
00000000
00000000
00000000
00000000
00000000
00000000
00000000
00000000
00000000
00000000
00000000
00000000
00000000
00000000
00000000
00000000
00000000
00000000
00000000
00000000
00000000
00000000
00000000
00000010
00000000
00000000
00000000
00000000
00000000
00000000
00000000
00000000
00000000
00000000
00000000
00000000
00000000
00000000
00000000
00000000
00000000
00000000
00000000
00000000
00000000
00000000
00000000
00010000
00000000
00000000
00000000
00000000
00000000
00000000
00000000
00000000
00000000
00000000
00000000
00000000
00000000
00000000
00000000
00000000
00000000
00000000
00000000
00000000
00000000
00000000
00000000
00000000
00000000
00000000
00000000
00000000
00000000
00000000
00000000
00000000
00000000
00000000
00000000
00000000
00000000
00000000
00000000
00000000
00000000
00000000
00000000
00000000
00000000
00000000
00000000
00022000
00000000
00000000
00000000
00000000
00000000
00000000
00000000
00000000
00000000
00000000
00000000
00000000
00000000
00000000
00000000
00000000
00000000
00000000
00000000
00000000
00000000
00000000
00000000
00000000
00000000
00000000
00000000
00000000
00033000
00000000
00000000
00000000
00000000
00000000
00000000
00000000
00000000
00000000
00000000
00000000
00000000
00000000
00000000
00000000
00000000
00000000
00000000
,
00010000
00000000
00000000
00000000
00000000
00000000
00000000
00000000
00000000
00000000
00000000
00000000
00000100
00000000
00000000
00000000
00000000
00000000
00000000
00000000
00000000
00000000
00000000
00000000
00010000
00000000
00000000
00000000
00000000
00000000
00000000
00000000
00000000
00000000
00000000
00000000
00000100
00000000
00000000
00000000
00000000
00000000
00000000
00000000
00000000
00000000
00000000
00000000
00020000
00000000
00000000
00000000
00000000
00000000
00000000
00000000
00000000
00000000
00000000
00000000
00000000
00000000
00000000
00000000
00000000
00000000
00000000
00000000
00000000
00000000
00000000
00000000
00000000
00000000
00000000
00000000
00000000
00030000
00000000
00000000
00000000
00000000
00000000
00000000
00000000
00000000
00000000
00000000
00000000
00000000
00000000
00000000
00000000
00000000
00000000
00000000
00001000
00000000
00000000
00000000
00000000
00000000
00000000
00000000
00000000
00000000
00000000
00000000
01000000
00000000
00000000
00000000
00000000
00000000
00000000
00000000
00000000
00000000
00000000
00000000
00001000
00000000
00000000
00000000
00000000
00000000
00000000
00000000
00000000
00000000
00000000
00000000
01000000
00000000
00000000
00000000
00000000
00000000
00000000
00000000
00000000
00000000
00000000
00000000
00002000
00000000
00000000
00000000
00000000
00000000
00000000
00000000
00000000
00000000
00000000
00000000
00000000
00000000
00000000
00000000
00000000
00000000
00000000
00000000
00000000
00000000
00000000
00000000
00000000
00000000
00000000
00000000
00000000
00003000
00000000
00000000
00000000
00000000
00000000
00000000
00000000
00000000
00000000
00000000
00000000
00000000
00000000
00000000
00000000
00000000
00000000
00000000
,
00010000
00000000
00000000
00000000
00000000
00000000
00000000
00000000
00000000
00000000
00000000
00000000
00000010
00000000
00000000
00000000
00000000
00000000
00000000
00000000
00000000
00000000
00000000
00000000
00010000
00000000
00000000
00000000
00000000
00000000
00000000
00000000
00000000
00000000
00000000
00000000
00000010
00000000
00000000
00000000
00000000
00000000
00000000
00000000
00000000
00000000
00000000
00000000
00020000
00000000
00000000
00000000
00000000
00000000
00000000
00000000
00000000
00000000
00000000
00000000
00000000
00000000
00000000
00000000
00000000
00000000
00000000
00000000
00000000
00000000
00000000
00000000
00000000
00000000
00000000
00000000
00000000
00030000
00000000
00000000
00000000
00000000
00000000
00000000
00000000
00000000
00000000
00000000
00000000
00000000
00000000
00000000
00000000
00000000
00000000
00000000
00001000
00000000
00000000
00000000
00000000
00000000
00000000
00000000
00000000
00000000
00000000
00000000
00100000
00000000
00000000
00000000
00000000
00000000
00000000
00000000
00000000
00000000
00000000
00000000
00001000
00000000
00000000
00000000
00000000
00000000
00000000
00000000
00000000
00000000
00000000
00000000
00100000
00000000
00000000
00000000
00000000
00000000
00000000
00000000
00000000
00000000
00000000
00000000
00002000
00000000
00000000
00000000
00000000
00000000
00000000
00000000
00000000
00000000
00000000
00000000
00000000
00000000
00000000
00000000
00000000
00000000
00000000
00000000
00000000
00000000
00000000
00000000
00000000
00000000
00000000
00000000
00000000
00003000
00000000
00000000
00000000
00000000
00000000
00000000
00000000
00000000
00000000
00000000
00000000
00000000
00000000
00000000
00000000
00000000
00000000
00000000
;

//--------------- dance-double - forcednature ----------------
#NOTEDATA:;
#STEPSTYPE:dance-double;
#DESCRIPTION:forcednature;
#CREDIT:forcednature;
#DIFFICULTY:Hard;
#METER:16;
#RADARVALUES:0,0,0,0,0;
#NOTES:
00000000
00000000
00000000
00000000
,
00000000
00000000
00000000
00000000
,
00000000
00000000
00000000
00000000
,
00011000
00000000
00011000
00000000
,
00011000
00000000
00011000
00000000
00011000
00011000
00000000
00000000
,
00011000
00010000
01000000
00100000
00000000
00010000
01000000
00100000
,
00000000
00000000
10000000
01000000
00010000
00000000
00001000
00010000
00000000
00010000
00000100
00001000
00000100
00000000
00000100
00000000
,
00001001
00000001
00000100
00001000
00000000
00010000
00100000
00010000
,
00001000
00010000
00001000
00000000
00000100
00000001
00001000
00000100
00000010
00001000
00010000
00001000
01000000
00000000
00100000
10000000
,
01000000
00000000
00010000
00000000
00001000
00000000
00000010
00000000
00000001
00000100
00001000
00000100
00000001
00000010
00000100
00000000
,
00010000
00001000
01000000
00000000
00100000
10000000
01000000
00010000
00001000
00000100
00000001
00000010
00000100
00000000
00010000
00001000
,
01000000
00000000
00100000
00000000
00010000
00000000
00001000
00010000
00000100
00000000
00000010
00000000
00001000
00000000
00010000
01000000
,
10000000
00100000
00001000
00000100
00000010
00010000
01000000
00001000
,
00000100
00000000
00000000
00000000
00000001
00000000
00000000
00002000
00000000
00000000
00000000
00000000
00003000
00000000
00000000
00000000
,
00022000
00000000
00000000
00000000
,
00000000
00000000
00000000
00000000
00000000
00000000
00000000
00000000
00000000
00033000
00000000
00001000
00010000
00000000
00001000
00001000
00000000
00000000
00010100
00000000
00000000
00000100
00001000
00000001
,
00000200
00000000
00000300
00000200
00000000
00000300
00000000
00000000
00000010
00010000
00000000
00001000
00010000
00000000
01000000
00010000
00000000
00001000
00010000
00000000
00000000
00100000
10000000
00100000
,
20000000
00000000
30000000
20000000
00000000
30000000
00000000
00000000
01000000
00010000
00000000
00001000
00010000
00000000
00100000
00100000
00000000
00010000
00001000
00000000
00000000
00000010
00000001
00000010
,
00000002
00000000
00000003
00000002
00000000
00000003
00000000
00000000
00000100
00001000
00000000
00010000
00001000
00000000
00100000
00001000
00000000
00010000
02000000
00000000
03000000
00100000
00001000
00010000
,
00200000
00000000
00300000
10000000
00000000
00000000
01000000
00000000
00010000
00001000
00000000
00000100
00001000
00000000
00010000
00010000
00000000
00001000
00000010
00000000
00000000
00000001
00000100
00000010
,
00002000
00000000
00003000
00002000
00000000
00003000
00000000
00000000
00000010
00010000
00000000
00001000
01000000
00000000
00001000
00010000
00000000
00100000
10000000
00000000
00000000
01000000
00010000
00001000
,
00020000
00000000
00000000
00000000
00030000
00000000
00020000
00000000
00000000
00000000
00030000
00000000
00000000
00000000
00000000
00000000
00001000
00000000
00000100
00000000
00000000
00000000
00000010
00000000
00001000
00000000
00000000
00000000
00000100
00000000
00000100
00000000
00000000
00000000
00000010
00000000
00000002
00000000
00000000
00000000
00000003
00000000
00000100
00000000
00000000
00002000
00000000
00000000
,
00000000
00003000
00000000
00010000
00000000
00000000
02000000
00000000
00000000
00000000
03000000
00000000
10000000
00000000
00000000
00200000
00000000
00000000
00000000
00300000
00000000
00010000
00000000
00000000
00002000
00000000
00000000
00000000
00003000
00000000
00000010
00000000
00000000
00000001
00000000
00000000
00000200
00000000
00000000
00000000
00000000
00000000
00000000
00000000
00000000
00000000
00000000
00000000
,
00000000
00000000
00000000
00000000
00000300
00000000
00000010
00001000
,
00010000
01000000
00100000
10000000
01000000
00000000
00100000
00000000
,
00001000
00010000
00000000
00100000
00000000
01000000
00000000
00001000
,
00010000
00000100
00001000
00000010
00000000
00000000
00010000
00000000
,
00001000
00000010
00000000
00000001
00000000
00000100
00000000
00000010
,
00010000
00001000
00010000
00100000
00000000
00000000
01000000
00000000
,
00010000
10000000
00000000
01000000
00000000
00100000
00000000
00001000
,
00010000
00001000
00000100
00000010
00000000
00000000
00001000
00000000
,
00000100
00000010
00000000
00000001
00000000
00000100
00000000
00000010
,
00010000
00001000
00010000
00100000
00000000
00000000
00010000
00001000
,
00010000
00001000
01000000
00010000
01000000
00010000
10000000
01000000
,
10000000
01000000
00100000
00010000
00100000
00010000
00001000
00001000
,
00000100
00000000
00000100
00000000
00000010
00000000
00000010
00000000
00000001
00000000
00000001
00000000
00000100
00000000
00000010
00001000
,
00000010
00000100
00002000
00000000
00023000
00000000
00130000
10000000
,
01000000
00010000
01000000
00100000
00001000
00010000
00100000
01000000
,
00001000
00010000
00000100
00001000
00000010
00000000
00010000
00001000
,
00000010
00000100
00001000
00000001
00000100
00001000
00010000
00000100
,
00010000
01000000
00100000
00001000
00010000
00000000
00100000
10000000
,
00010000
10000000
01000000
00010000
00001000
00000010
00000100
00001000
,
00000001
00000100
00000010
00010000
00001000
00000000
00000010
00000100
,
00010000
00001000
01000000
00100000
00010000
00100000
10000000
00010000
,
10000000
01000000
00100000
00001000
00010000
00000000
00110000
00000000
,
00110000
00000000
00001100
00000000
00001100
00000000
00000100
00001000
,
00000010
00010000
00001000
00000100
00000010
00000000
00001000
00000001
,
00000010
00001000
00000010
00000100
00010000
00001000
01000000
00100000
,
00010000
00100000
10000000
00010000
00100000
00000000
01000000
01000000
,
00010000
00010000
00001000
00001000
00000010
00000010
00000001
00000001
,
00000100
00000100
00001000
00001000
00010000
00010000
00100000
10000000
,
00010000
00000000
10000000
00000000
01000000
00000000
00010000
00000000
00001000
00000000
00000010
00000000
00000001
00000000
00001000
00000010
,
00001000
00000010
00001000
00000010
00002000
00000000
00000000
00000000
00003200
00000000
00000000
00000000
00010300
00000000
00001000
00000000
,
01000000
00010000
01000000
00000000
00100000
00000000
10000000
00010000
10000000
00010000
10000000
00000000
01000000
00000000
00010000
00000000
,
00001000
00000000
01000000
00010000
01000000
00000000
00001000
00010000
00001000
00000000
00000100
00000001
00001000
00000010
00000000
00001000
,
00000001
00000000
00000010
00000000
00000100
00001000
00000100
00000000
00010000
00001000
00000000
00001000
01000000
00010000
01000000
00000000
,
00100000
10000000
00000000
00000000
02000000
00000000
03000000
00000000
00100000
00010000
00100000
00001000
00010000
00000000
00000000
00000000
,
00000010
00000000
00001000
00000001
00001000
00000000
00000010
00000000
00010000
00000000
00001000
00100000
00001000
00000000
00010000
00000000
,
00100000
00000000
00100000
00000000
10000000
00000000
01000000
00000000
00010000
00000000
00001000
00010000
00000200
00000000
00000300
00000000
,
00001000
00000001
00001000
00000001
00000100
00000000
00002000
00000000
00013000
00000000
00100000
00000000
10000000
01000000
10000000
01000000
,
00100000
00000000
00010000
01000000
00010000
01000000
00100000
00000000
10000000
00010000
10000000
00010000
01000000
00000000
00000000
00000000
,
00010000
00000000
00000010
00000000
00000001
00000000
00002002
00003003
,
00000001
00000000
00000100
00000000
00001000
00010000
00001000
00000000
00100000
00010000
00100000
00000000
01000000
10000000
00000000
10000000
,
00010000
00000000
01000000
00000000
00001000
00010000
00001000
00010000
00000100
00001000
00000100
00000000
00000010
00000001
00000000
00001000
,
00000001
00000000
00000100
00000000
00001000
00010000
00001000
00010000
00000200
00000000
00000300
00000000
00010000
00000000
00010000
00000000
,
01000000
01000000
00100000
00100000
00001000
00001000
00010000
00100000
,
10000000
00000000
01000000
00000000
00010000
00000000
00001000
00000000
00000100
00000000
00000001
00000000
00000010
00000001
00000010
00000000
,
00000100
00001000
00000100
00000000
00010000
00001000
00010000
00000000
00001000
01000000
00001000
00000000
00100000
00001000
00100000
00001000
,
00010000
00000000
00000000
00000000
00000000
00000000
00000000
00000000
00000000
00000000
00000000
00000000
00000000
00000000
00000000
00000000
00000000
00000000
00000000
00000000
00000000
00000000
00000000
00000000
00000010
00000000
00000000
00000000
00000000
00000000
00000000
00000000
00000000
00000000
00000000
00000000
00010000
00000000
00000000
00000000
00000000
00000000
00000000
00000000
00000000
00000000
00000000
00000000
00000010
00000000
00000000
00000000
00000000
00000000
00000000
00000000
00000000
00000000
00000000
00000000
00010000
00000000
00000000
00000000
00000000
00000000
00000000
00000000
00000000
00000000
00000000
00000000
00001000
00000000
00000000
00000000
00000000
00000000
00000000
00000000
00000000
00000000
00000000
00000000
00000000
00000000
00000000
00000000
00000000
00000000
00000000
00000000
00000000
00000000
00000000
00000000
00010000
00000000
00000000
00000000
00000000
00000000
00000000
00000000
00000000
00000000
00000000
00000000
00001000
00000000
00000000
00000000
00000000
00000000
00000000
00000000
00000000
00000000
00000000
00000000
00010000
00000000
00000000
00000000
00000000
00000000
00000000
00000000
00000000
00000000
00000000
00000000
00001000
00000000
00000000
00000000
00000000
00000000
00000000
00000000
00000000
00000000
00000000
00000000
00020000
00000000
00000000
00000000
00000000
00000000
00000000
00000000
00000000
00000000
00000000
00000000
00000000
00000000
00000000
00000000
00000000
00000000
00000000
00000000
00000000
00000000
00000000
00000000
00000000
00000000
00000000
00000000
00000000
00030000
00000000
00000000
00000000
00000000
00000000
00000000
00000000
00000000
00000000
00000000
00000000
00000000
00000000
00000000
00000000
00000000
00000000
00000000
,
00000100
00000000
00000000
00000000
00000000
00000000
00000000
00000000
00000000
00000000
00000000
00000000
00001000
00000000
00000000
00000000
00000000
00000000
00000000
00000000
00000000
00000000
00000000
00000000
00000100
00000000
00000000
00000000
00000000
00000000
00000000
00000000
00000000
00000000
00000000
00000000
00001000
00000000
00000000
00000000
00000000
00000000
00000000
00000000
00000000
00000000
00000000
00000000
00000200
00000000
00000000
00000000
00000000
00000000
00000000
00000000
00000000
00000000
00000000
00000000
00000000
00000000
00000000
00000000
00000000
00000000
00000000
00000000
00000000
00000000
00000000
00000000
00000000
00000000
00000000
00000000
00000000
00000300
00000000
00000000
00000000
00000000
00000000
00000000
00000000
00000000
00000000
00000000
00000000
00000000
00000000
00000000
00000000
00000000
00000000
00000000
00100000
00000000
00000000
00000000
00000000
00000000
00000000
00000000
00000000
00000000
00000000
00000000
00010000
00000000
00000000
00000000
00000000
00000000
00000000
00000000
00000000
00000000
00000000
00000000
00100000
00000000
00000000
00000000
00000000
00000000
00000000
00000000
00000000
00000000
00000000
00000000
00010000
00000000
00000000
00000000
00000000
00000000
00000000
00000000
00000000
00000000
00000000
00000000
00200000
00000000
00000000
00000000
00000000
00000000
00000000
00000000
00000000
00000000
00000000
00000000
00000000
00000000
00000000
00000000
00000000
00000000
00000000
00000000
00000000
00000000
00000000
00000000
00000000
00000000
00000000
00000000
00000000
00300000
00000000
00000000
00000000
00000000
00000000
00000000
00000000
00000000
00000000
00000000
00000000
00000000
00000000
00000000
00000000
00000000
00000000
00000000
,
00000010
00000000
00000000
00000000
00000000
00000000
00000000
00000000
00000000
00000000
00000000
00000000
00001000
00000000
00000000
00000000
00000000
00000000
00000000
00000000
00000000
00000000
00000000
00000000
00000010
00000000
00000000
00000000
00000000
00000000
00000000
00000000
00000000
00000000
00000000
00000000
00001000
00000000
00000000
00000000
00000000
00000000
00000000
00000000
00000000
00000000
00000000
00000000
00000020
00000000
00000000
00000000
00000000
00000000
00000000
00000000
00000000
00000000
00000000
00000000
00000000
00000000
00000000
00000000
00000000
00000000
00000000
00000000
00000000
00000000
00000000
00000000
00000000
00000000
00000000
00000000
00000000
00000030
00000000
00000000
00000000
00000000
00000000
00000000
00000000
00000000
00000000
00000000
00000000
00000000
00000000
00000000
00000000
00000000
00000000
00000000
01000000
00000000
00000000
00000000
00000000
00000000
00000000
00000000
00000000
00000000
00000000
00000000
00010000
00000000
00000000
00000000
00000000
00000000
00000000
00000000
00000000
00000000
00000000
00000000
01000000
00000000
00000000
00000000
00000000
00000000
00000000
00000000
00000000
00000000
00000000
00000000
00010000
00000000
00000000
00000000
00000000
00000000
00000000
00000000
00000000
00000000
00000000
00000000
02000000
00000000
00000000
00000000
00000000
00000000
00000000
00000000
00000000
00000000
00000000
00000000
00000000
00000000
00000000
00000000
00000000
00000000
00000000
00000000
00000000
00000000
00000000
00000000
00000000
00000000
00000000
00000000
00000000
03000000
00000000
00000000
00000000
00000000
00000000
00000000
00000000
00000000
00000000
00000000
00000000
00000000
00000000
00000000
00000000
00000000
00000000
00000000
;

//--------------- dance-double - forcednature ----------------
#NOTEDATA:;
#STEPSTYPE:dance-double;
#DESCRIPTION:forcednature;
#CREDIT:forcednature;
#DIFFICULTY:Challenge;
#METER:17;
#RADARVALUES:0,0,0,0,0;
#NOTES:
00000000
00000000
00000000
00000000
,
00000000
00000000
00000000
00000000
,
00000000
00000000
00000000
00000000
,
00011000
00000000
00011000
00000000
,
00011000
00000000
00000000
00000000
00000000
00000000
00000000
00000000
00000000
00000000
00000000
00000000
00000000
00000000
00000000
00000000
00011000
00000000
00000000
00000000
00000000
00000000
00000000
00000000
00000000
00000000
00000000
00000000
00000000
00000000
00000000
00000000
00011000
00000000
00000000
00000000
00011000
00000000
00000000
00000000
00011000
00000000
00000000
00000000
00000000
00000000
00000000
00000000
00000000
00000000
00000000
00000000
00000000
00000000
00000000
00000000
00000000
01000000
00000000
00000000
00000000
00000000
00000000
00000000
,
00011000
00000100
00010000
00000010
00010000
00001000
00000010
00000001
,
00000100
00000000
00000010
00001000
00000010
00000000
00000100
00001000
00010000
00100000
00010000
00001000
00010000
00000000
01000000
00000000
,
10010000
00000000
00000000
00000000
00000000
00000000
10000000
00000000
00000000
00000000
00000000
00000000
01000000
00000000
00000000
00000000
00000000
00000000
00010000
00000000
00000000
00000000
00000000
00000000
00001000
00000000
00010000
00000000
00000100
00000000
00010000
00000000
00000000
00001000
00000000
00000000
00000100
00000000
00000000
00000000
00000000
00000000
00000010
00000000
00000000
00000000
00000000
00000000
,
00001000
00000000
00000001
00000000
00001000
00000000
00000000
00000000
00000100
00001000
00000100
00000000
00010000
00000000
00001000
00000000
00100000
00000000
00001000
00000000
00010000
00000000
00100000
00000000
10000000
00000000
00000000
00000000
01000000
00000000
00010000
00000000
,
00001000
00000000
00000000
00000000
00000010
00000000
00000001
00000000
00000100
00000000
00000000
00000000
00000010
00000000
00010000
00000000
00000100
00000000
00001000
00000001
00001000
00000000
00000010
00010000
00000010
00000000
00001000
00000000
00000100
00000000
00000000
00000000
,
00010000
00000000
00001000
00100000
00001000
00000000
00010000
00000000
00100000
10000000
00100000
00000000
01000000
00000000
00001000
00000000
00010000
00000000
00000100
00001000
00000100
00000000
00000010
00000000
00000001
00000000
00000000
00000000
00000100
00000000
00001000
00000000
,
00011000
00000000
00001000
00000000
00100000
00000000
01000000
00010000
00011000
00000000
00010000
00000000
00000010
00000000
00000100
00001000
,
00011000
00000000
01000000
00001000
01001000
00000000
00000100
00010000
00010100
00000000
00000010
00000000
00001100
00000000
00100000
00000000
,
01010000
00000000
00000000
00000000
01000000
00000000
00000000
00002000
00000000
00000000
00000000
00000000
00000000
00000000
00000000
00000000
,
00000000
00000000
00000000
00100000
,
00100000
00000000
00000000
00000000
00000000
00000000
00000000
00000000
00000000
00000000
00000000
00000000
00000000
00000000
00000000
00000000
00000000
00000000
00000000
00000000
00000000
00000000
00000000
00000000
00100000
00000000
00000000
00000000
00000000
00000000
00000000
00000000
00000000
00000000
00000000
00000000
00000000
00000000
00000000
00000000
00000000
00000000
00000000
00000000
00100000
00000000
00000000
00000000
00103000
00000000
00000000
00000000
00000000
00000000
00000000
00000000
00001000
00000000
00000000
00000000
00001000
00000000
00000000
00000000
00000000
00000000
00000000
00000000
00000000
00000000
00000000
00000000
00020200
00000000
00000000
00000000
00000000
00000000
00000000
00000000
00000000
00030300
00000000
00000000
00010000
00000000
00000000
00000000
00000100
00000000
00000000
00000000
00001000
00000000
00000000
00000000
,
00000001
00000000
00000000
00000000
00000000
00000000
00000000
00000000
00000000
00000000
00000000
00000000
00000101
00000000
00000000
00000000
00000000
00000000
00000000
00000000
00000100
00000000
00000000
00000000
00001000
00000000
00000000
00000000
00000000
00000000
00000000
00000000
00001000
00000000
00000000
00000000
00010000
00000000
00000000
00000000
00000000
00000000
00000000
00000000
00100000
00000000
00000000
00000000
10000000
00000000
00000000
00000000
00000000
00000000
00000000
00000000
00010000
00000000
00000000
00000000
00100000
00000000
00000000
00000000
00000000
00000000
00000000
00000000
00000000
00000000
00000000
00000000
00022000
00000000
00000000
00000000
00000000
00000000
00000000
00000000
00000000
00033000
00000000
00000000
00010000
00000000
00000000
00000000
00000100
00000000
00000000
00000000
00001000
00000000
00000000
00000000
,
00000010
00000000
00000000
00000000
00000000
00000000
00000000
00000000
00000000
00000000
00000000
00000000
00001001
00000000
00000000
00000000
00000000
00000000
00000000
00000000
00000001
00000000
00000000
00000000
00000010
00000000
00000000
00000000
00000000
00000000
00000000
00000000
00000010
00000000
00000000
00000000
00000100
00000000
00000000
00000000
00000000
00000000
00000000
00000000
00010000
00000000
00000000
00000000
00001000
00000000
00000000
00000000
00000000
00000000
00000000
00000000
01000000
00000000
00000000
00000000
01000000
00000000
00000000
00000000
00000000
00000000
00000000
00000000
00010000
00000000
00000000
00000000
20020000
00000000
00000000
00000000
00000000
00000000
00000000
00000000
00000000
30030000
00000000
00000000
10000000
00000000
00000000
00000000
01000000
00000000
00000000
00000000
00100000
00000000
00000000
00000000
,
00010000
00000000
00000000
00000000
00000000
00000000
00000000
00000000
00000000
00000000
00000000
00000000
00101000
00000000
00000000
00000000
00000000
00000000
00000000
00000000
00001000
00000000
00000000
00000000
00010000
00000000
00000000
00000000
00000000
00000000
00000000
00000000
00010000
00000000
00000000
00000000
00000100
00000000
00000000
00000000
00000000
00000000
00000000
00000000
00000010
00000000
00000000
00000000
00000001
00000000
00000000
00000000
00000000
00000000
00000000
00000000
00001000
00000000
00000000
00000000
00000010
00000000
00000000
00000000
00000000
00000000
00000000
00000000
00000100
00000000
00000000
00000000
00000220
00000000
00000000
00000000
00000000
00000000
00000000
00000000
00000000
00000330
00000000
00000000
00000010
00000000
00000000
00000000
00010000
00000000
00000000
00000000
00001000
00000000
00000000
00000000
,
00202000
00000000
00000000
00000000
00000000
00000000
00000000
00000000
00000000
00000000
00000000
00000000
00000000
00000000
00000000
00000000
00000000
00000000
00303000
00000000
00000000
00000000
00000000
00000000
10000000
00000000
00000000
00000000
00000000
00000000
00000000
00000000
00000000
00000000
00000000
00000000
00000000
00000000
00000000
00000000
00010000
00000000
00000000
00000000
00000000
00000000
00000000
00000000
02020000
00000000
00000000
00000000
00000000
00000000
00000000
00000000
00000000
03030000
00000000
00000000
00000000
00000000
00000000
00000000
00001000
00000000
00000000
00000000
00000000
00000000
00000000
00000000
00022000
00000000
00000000
00000000
00000000
00000000
00000000
00000000
00000000
00033000
00000000
00000000
00000000
00000000
00000000
00000000
00000100
00000000
00000000
00000000
00000000
00000000
00000000
00000000
00002200
00000000
00000000
00000000
00000000
00000000
00000000
00000000
00000000
00003300
00000000
00000000
00000000
00000000
00000000
00000000
00010000
00000000
00000000
00000000
00000000
00000000
00000000
00000000
00010000
00000000
00000000
00000000
00000000
00000000
00000000
00000000
00000000
00000000
00000000
00000000
00000000
00000000
00000000
00000000
00000010
00000000
00000000
00000000
00000000
00000000
00000000
00000000
00002020
00000000
00000000
00000000
00000000
00000000
00000000
00000000
00000000
00000000
00000000
00000000
00000000
00000000
00000000
00000000
00000000
00000000
00003030
00000000
00000000
00000000
00000000
00000000
00000001
00000000
00000000
00000000
00000000
00000000
00000000
00000000
00000010
00000000
00000000
00000000
00000000
00000000
00000000
00000000
00001000
00000000
00000000
00000000
00000000
00000000
00000000
00000000
,
00010000
00000000
00000000
00000000
00000000
00000000
00000000
00000000
00000000
00000000
00000000
00000000
00101000
00000000
00000000
00000000
00000000
00000000
00000000
00000000
00100000
00000000
00000000
00000000
00010000
00000000
00000000
00000000
00000000
00000000
00000000
00000000
01000000
00000000
00000000
00000000
00010000
00000000
00000000
00000000
00000000
00000000
00000000
00000000
10000000
00000000
00000000
00000000
01000000
00000000
00000000
00000000
00000000
00000000
00000000
00000000
00100000
00000000
00000000
00000000
00001000
00000000
00000000
00000000
00000000
00000000
00000000
00000000
00010000
00000000
00000000
00000000
00022000
00000000
00000000
00000000
00000000
00000000
00000000
00000000
00000000
00033000
00000000
00000000
00000100
00000000
00000000
00000000
00001000
00000000
00000000
00000000
00000010
00000000
00000000
00000000
,
00001000
00000000
00000000
00000000
00000000
00000000
00000000
00000000
00000000
00000000
00000000
00000000
00001001
00000000
00000000
00000000
00000000
00000000
00000000
00000000
00000001
00000000
00000000
00000000
00000100
00000000
00000000
00000000
00000000
00000000
00000000
00000000
00001000
00000000
00000000
00000000
00010000
00000000
00000000
00000000
00000000
00000000
00000000
00000000
01000000
00000000
00000000
00000000
10000000
00000000
00000000
00000000
00000000
00000000
00000000
00000000
00100000
00000000
00000000
00000000
00100000
00000000
00000000
00000000
00000000
00000000
00000000
00000000
10000000
00000000
00000000
00000000
20020000
00000000
00000000
00000000
00000000
00000000
00000000
30030000
00000000
00000000
00000000
00000000
00001000
00000000
00000000
00000000
00000000
00000000
02002000
00000000
00000000
00000000
00000000
00000000
,
00000000
03003000
00000000
00000000
00000000
00000000
00010000
00000000
00000000
00000000
00000000
00000000
00020200
00000000
00000000
00000000
00000000
00000000
00000000
00030300
00000000
00000000
00000000
00000000
00000010
00000000
00000000
00000000
00000000
00000000
00000220
00000000
00000000
00000000
00000000
00000000
00000000
00000330
00000000
00000000
00000000
00000000
00001000
00000000
00000000
00000000
00000000
00000000
00002002
00000000
00000000
00000000
00000000
00000000
00000000
00003003
00000000
00000000
00000000
00000000
00000001
00000000
00000000
00000100
00000000
00000000
00000001
00000000
00000000
00000000
00000000
00000000
00000020
00000000
00000000
00000000
00000000
00000000
00000000
00000000
00000000
00000000
00000000
00000000
00000000
00000000
00000000
00000000
00000000
00000000
00000000
00000000
00000000
00000000
00000000
00000000
,
00000000
00000000
00000000
00000000
00000000
00000000
00000000
00000000
00000030
00000000
00000000
00000000
00000100
00010000
00000100
00010000
,
00001000
00010000
00001000
00010000
00001000
01000000
00001000
01000000
00010000
01000000
00010000
01000000
00100000
00000000
10000000
00000000
,
00010000
10000000
00000000
01000000
00010000
00001000
00000000
00000010
,
00000001
00001000
00000001
00000100
00000000
00000000
00000010
00010000
,
00001000
01000000
00000000
00010000
10000000
00010000
00000000
00100000
,
00001000
00010000
00001000
00000100
00000000
00000000
00000010
00010000
,
00001000
00000010
00000000
00000100
00001000
00000001
00000000
00000100
,
00001000
00010000
00100000
10000000
00000000
00000000
01000000
00100000
,
00010000
01000000
00000000
00001000
00010000
00000100
00000000
00000010
,
00000001
00000100
00001000
00010000
00000000
00000000
00100000
10000000
,
00100000
10000000
01000000
00010000
01000000
00010000
00001000
00000010
,
00001000
00000000
00000010
00000000
00000001
00000000
00000100
00000000
00000001
00000000
00000100
00000000
00000001
00001000
00000001
00001000
,
00000100
00010000
00000100
00010000
00001000
01000000
00010000
01000000
00100000
10000000
00010000
10000000
01000000
00000000
00100000
00010000
,
00100000
00001000
00011000
00000000
00010100
00000000
00000100
00000010
,
00000001
00000100
00001000
00000100
00000010
00010000
00001000
00100000
,
01000000
00000000
00010000
00000000
01000000
00000000
10000000
00010000
10000000
00000000
00000000
00000000
00100000
00000000
00010000
00000000
,
00001000
00100000
00010000
01000000
00100000
00010000
00001000
00000010
,
00000100
00000000
00001000
00000000
00000001
00000000
00000100
00000010
00000100
00000000
00000000
00000000
00001000
00000000
00010000
00000000
,
00100000
10000000
01000000
00010000
00001000
00100000
00010000
01000000
,
10000000
00000000
01000000
00000000
00010000
00000000
00100000
00001000
00100000
00000000
00000000
00000000
01000000
00000000
00010000
00000000
,
00001000
00000010
00000100
00010000
00001000
00000100
00000001
00001000
,
00000100
00000000
00000010
00000000
00001000
00000000
00010000
00000010
00010000
00000000
00000000
00000000
00001100
00000000
00000000
00000000
,
01010000
00000000
00001100
00000000
01010000
00000000
00001000
01000000
,
00100000
00000000
10000000
00000000
01000000
00000000
00100000
00010000
00100000
00000000
00000000
00000000
01000000
00000000
00010000
00000000
,
00001000
00000010
00000100
00001000
00000001
00000100
00001000
00010000
,
00100000
00000000
01000000
00000000
00010000
00000000
10000000
01000000
10000000
00000000
00000000
00000000
00100000
00000000
00100000
00000000
,
00010000
00010000
00001000
00001000
00000010
00000010
00000100
00000100
,
00010000
00000000
00010000
00000000
00001000
00000000
00001000
00000000
01000000
00000000
01000000
00000000
00100000
10000000
00100000
10000000
,
00010000
00100000
00010000
00100000
00001000
00010000
00000100
00010000
00000100
00001000
00000100
00000010
00000001
00000000
00000100
00000010
,
00001000
00000001
00000010
00000001
00000200
00000000
00000000
00000000
00002300
00000000
00000000
00000000
00013000
00000000
00000100
00000000
,
00010000
00001000
00010000
00000000
00100000
00000000
10000000
00010000
10000000
01000000
00100000
00000000
00001000
00000000
00010000
00000000
,
00000100
00000000
00010000
00001000
00010000
00000000
00000010
00001000
00000010
00000000
00000100
00000001
00001000
00000001
00001000
00000001
,
00001000
00000100
00001000
00000100
00010000
00001000
00010000
00001000
00100000
00010000
00000000
00010000
00100000
01000000
10000000
00010000
,
01000000
00010000
00000000
00000000
20000000
00000000
30100000
00000000
10000000
00010000
01000000
00001000
00010000
00000000
00000000
00000000
,
00000100
00000000
00001000
00000001
00001000
00000000
00000010
00000000
00010000
00000000
00001000
00100000
00001000
00000000
00010000
00000000
,
00100000
00000000
10000000
00000000
01000000
00000000
00010000
00000000
00001000
00000000
00100000
00001000
00200000
00000000
00300000
00000000
,
00001000
00010000
00000100
00001000
00000100
00000000
00000020
00000000
00000031
00000000
00000100
00000001
00001000
00000010
00001000
00000010
,
00010000
00000000
00001000
00100000
00001000
00100000
00010000
00000000
01000000
00010000
10000000
00000000
11000000
00000000
00000000
00000000
,
00110000
00000000
00001100
00000000
00000011
00000000
00002002
00003003
,
00000001
00000000
00000100
00000000
00001000
00010000
00001000
01000000
00010000
10000000
00010000
00000000
10000000
01000000
00000000
00100000
,
00010000
00000000
00100000
00001000
00010000
00001000
01000000
00010000
01000000
00001000
00010000
00001000
00010000
00000100
00000000
00001000
,
00000100
00000010
00000001
00001000
00000001
00000100
00000010
00001000
00000020
00000000
00000030
00000000
00000100
00000000
00010000
00000000
,
01000000
00010000
00100000
00001000
00010000
00100000
10000000
10000000
,
01000000
00000000
01000000
00000000
00001000
00000000
00001000
00000000
00000100
00000000
00000100
00000000
00000010
00000001
00001000
00000001
,
00000100
00000001
00001000
00000010
00010000
00001000
00100000
00001000
00010000
00000100
00010000
00000100
00010000
00001000
00010000
00001000
,
01000000
00000000
00000000
00000000
00000000
00000000
00000000
00000000
00000000
00000000
00000000
00000000
00000000
00000000
00000000
00000000
00000000
00000000
00000000
00000000
00000000
00000000
00000000
00000000
00010000
00000000
00000000
00000000
00000000
00000000
00000000
00000000
00000000
00000000
00000000
00000000
10000000
00000000
00000000
00000000
00000000
00000000
00000000
00000000
00000000
00000000
00000000
00000000
00010000
00000000
00000000
00000000
00000000
00000000
00000000
00000000
00000000
00000000
00000000
00000000
10000000
00000000
00000000
00000000
00000000
00000000
00000000
00000000
00000000
00000000
00000000
00000000
01000000
00000000
00000000
00000000
00000000
00000000
00000000
00000000
00000000
00000000
00000000
00000000
00000000
00000000
00000000
00000000
00000000
00000000
00000000
00000000
00000000
00000000
00000000
00000000
00010000
00000000
00000000
00000000
00000000
00000000
00000000
00000000
00000000
00000000
00000000
00000000
00001000
00000000
00000000
00000000
00000000
00000000
00000000
00000000
00000000
00000000
00000000
00000000
00010000
00000000
00000000
00000000
00000000
00000000
00000000
00000000
00000000
00000000
00000000
00000000
00001000
00000000
00000000
00000000
00000000
00000000
00000000
00000000
00000000
00000000
00000000
00000000
00020000
00000000
00000000
00000000
00000000
00000000
00000000
00000000
00000000
00000000
00000000
00000000
00000000
00000000
00000000
00000000
00000000
00000000
00000000
00000000
00000000
00000000
00000000
00000000
00000000
00000000
00000000
00000000
00000000
00030000
00000000
00000000
00000000
00000000
00000000
00000000
00000000
00000000
00000000
00000000
00000000
00000000
00000000
00000000
00000000
00000000
00000000
00000000
,
00010000
00000000
00000000
00000000
00000000
00000000
00000000
00000000
00000000
00000000
00000000
00000000
00001000
00000000
00000000
00000000
00000000
00000000
00000000
00000000
00000000
00000000
00000000
00000000
00010000
00000000
00000000
00000000
00000000
00000000
00000000
00000000
00000000
00000000
00000000
00000000
01000000
00000000
00000000
00000000
00000000
00000000
00000000
00000000
00000000
00000000
00000000
00000000
00020000
00000000
00000000
00000000
00000000
00000000
00000000
00000000
00000000
00000000
00000000
00000000
00000000
00000000
00000000
00000000
00000000
00000000
00000000
00000000
00000000
00000000
00000000
00000000
00000000
00000000
00000000
00000000
00000000
00030000
00000000
00000000
00000000
00000000
00000000
00000000
00000000
00000000
00000000
00000000
00000000
00000000
00000000
00000000
00000000
00000000
00000000
00000000
00001000
00000000
00000000
00000000
00000000
00000000
00000000
00000000
00000000
00000000
00000000
00000000
00010000
00000000
00000000
00000000
00000000
00000000
00000000
00000000
00000000
00000000
00000000
00000000
00001000
00000000
00000000
00000000
00000000
00000000
00000000
00000000
00000000
00000000
00000000
00000000
00000100
00000000
00000000
00000000
00000000
00000000
00000000
00000000
00000000
00000000
00000000
00000000
00002000
00000000
00000000
00000000
00000000
00000000
00000000
00000000
00000000
00000000
00000000
00000000
00000000
00000000
00000000
00000000
00000000
00000000
00000000
00000000
00000000
00000000
00000000
00000000
00000000
00000000
00000000
00000000
00000000
00003000
00000000
00000000
00000000
00000000
00000000
00000000
00000000
00000000
00000000
00000000
00000000
00000000
00000000
00000000
00000000
00000000
00000000
00000000
,
00010000
00000000
00000000
00000000
00000000
00000000
00000000
00000000
00000000
00000000
00000000
00000000
00001000
00000000
00000000
00000000
00000000
00000000
00000000
00000000
00000000
00000000
00000000
00000000
00010000
00000000
00000000
00000000
00000000
00000000
00000000
00000000
00000000
00000000
00000000
00000000
00100000
00000000
00000000
00000000
00000000
00000000
00000000
00000000
00000000
00000000
00000000
00000000
00020000
00000000
00000000
00000000
00000000
00000000
00000000
00000000
00000000
00000000
00000000
00000000
00000000
00000000
00000000
00000000
00000000
00000000
00000000
00000000
00000000
00000000
00000000
00000000
00000000
00000000
00000000
00000000
00000000
00030000
00000000
00000000
00000000
00000000
00000000
00000000
00000000
00000000
00000000
00000000
00000000
00000000
00000000
00000000
00000000
00000000
00000000
00000000
00001000
00000000
00000000
00000000
00000000
00000000
00000000
00000000
00000000
00000000
00000000
00000000
00010000
00000000
00000000
00000000
00000000
00000000
00000000
00000000
00000000
00000000
00000000
00000000
00001000
00000000
00000000
00000000
00000000
00000000
00000000
00000000
00000000
00000000
00000000
00000000
00000010
00000000
00000000
00000000
00000000
00000000
00000000
00000000
00000000
00000000
00000000
00000000
00002000
00000000
00000000
00000000
00000000
00000000
00000000
00000000
00000000
00000000
00000000
00000000
00000000
00000000
00000000
00000000
00000000
00000000
00000000
00000000
00000000
00000000
00000000
00000000
00000000
00000000
00000000
00000000
00000000
00003000
00000000
00000000
00000000
00000000
00000000
00000000
00000000
00000000
00000000
00000000
00000000
00000000
00000000
00000000
00000000
00000000
00000000
00000000
;
