#VERSION:0.83;
#TITLE:Beastie Starter;
#SUBTITLE:;
#ARTIST:GUHROOVY;
#TITLETRANSLIT:;
#SUBTITLETRANSLIT:;
#ARTISTTRANSLIT:;
#GENRE:SPEEDCORE;
#CREDIT:;
#MUSIC:Beastie Starter.ogg;
#BANNER:Beastie Starter.png;
#BACKGROUND:Beastie Starter-bg.png;
#CDTITLE:./CDTitles/jubeat saucer.png;
#SAMPLESTART:81.098;
#SAMPLELENGTH:15.000;
#SELECTABLE:YES;
#OFFSET:0.982;
#BPMS:0.000=190.000;
#STOPS:32.000=0.947;
#TIMESIGNATURES:0.000=4=4,
28.000=5=4,
33.000=4=4
;
#BGCHANGES:0.000=../BGAs/07te.mp4=1.000=0=0=0=StretchNoLoop====,
99999.000=-nosongbg-=1.000=0=0=0=StretchNoLoop====
;
#FGCHANGES:;

//--------------- dance-single - forcednature ----------------
#NOTEDATA:;
#STEPSTYPE:dance-single;
#DESCRIPTION:forcednature;
#DIFFICULTY:Beginner;
#METER:2;
#RADARVALUES:0,0,0,0,0;
#CREDIT:forcednature;
#NOTES:
0000
0000
0000
0000
,
0000
0000
0000
0000
,
0000
0000
0000
0000
,
0000
0000
0000
0000
,
0000
0000
0000
0000
,
0010
0000
0000
0000
,
0000
0000
0000
0000
,
0100
0000
0000
0000
,
0000
1001
0000
0000
,
0000
0000
0000
0000
,
0000
1000
0000
0000
,
0000
0000
0000
0000
,
0000
0100
0000
0000
,
0000
0000
0000
0000
,
0000
0010
0000
0000
,
0000
0000
0000
0000
,
0000
0001
0000
0000
,
0000
0000
0000
0000
,
0000
0100
0000
0000
,
0000
0000
0000
0000
,
0000
0010
0000
0000
,
0000
0000
0000
0000
,
0000
1000
0000
0000
,
0000
0001
0000
0000
,
0000
0010
0000
0000
,
0000
0000
0000
0000
,
0000
0100
0000
0000
,
0000
1000
0000
0000
,
0000
0001
0000
0000
,
0000
0000
0000
0000
,
0000
0100
0000
0000
,
0000
0010
0000
0000
,
0000
1001
0000
0000
,
0000
0000
0000
0000
,
0000
1000
0000
0000
,
0000
0001
0000
0000
,
0000
0010
0000
0000
,
0000
0000
0000
0000
,
0000
0100
0000
0000
,
0000
1000
0000
0000
,
0000
0001
0000
0000
,
0000
0000
0000
0000
,
0000
0100
0000
0000
,
0000
0000
0000
0000
,
0000
0010
0000
0000
,
0000
0000
0000
0000
,
0000
1000
0000
0000
,
0000
0001
0000
0000
,
0000
0010
0000
0000
,
0000
0000
0000
0000
,
0000
0100
0000
0000
,
0000
0000
0000
0000
,
0000
1000
0000
0000
,
0000
0000
0000
0000
,
0000
0001
0000
0000
,
0000
0000
0000
0000
,
0000
1001
0000
0000
,
0000
0001
0000
0000
,
0000
1000
0000
0000
,
0000
0001
0000
0000
,
0000
0100
0000
0000
,
0000
0010
0000
0000
,
0000
1000
0000
0000
,
0000
0001
0000
0000
,
0000
1001
0000
0000
,
0000
1000
0000
0000
,
0000
0100
0000
0000
,
0000
0010
0000
0000
,
0000
0001
0000
0000
,
0000
0100
0000
0000
,
0000
0010
0000
0000
,
0000
1000
0000
0000
,
0000
1001
0000
0000
,
0000
0001
0000
0000
,
0000
0010
0000
0000
,
0000
0001
0000
0000
,
0000
0100
0000
0000
,
0000
0010
0000
0000
,
0000
1000
0000
0000
,
0000
0001
0000
0000
,
0000
1001
0000
0000
,
0000
0000
0000
0000
,
0000
0000
0000
0000
,
0000
0000
0000
0000
,
0000
1001
0000
0000
;

//--------------- dance-single - forcednature ----------------
#NOTEDATA:;
#STEPSTYPE:dance-single;
#DESCRIPTION:forcednature;
#DIFFICULTY:Easy;
#METER:7;
#RADARVALUES:0,0,0,0,0;
#CREDIT:forcednature;
#NOTES:
0000
0000
0000
0000
,
0000
0000
0000
0000
,
0000
0000
0000
0000
,
0000
0000
0000
0000
,
0000
0000
0000
0000
,
2002
3003
0000
0000
,
0000
0000
0000
0000
,
0220
0330
0000
0000
,
0000
1000
0000
0100
,
1000
0100
0000
0010
,
0001
0010
0000
0001
,
0100
0001
0000
1000
,
0010
1000
0000
0100
,
0010
0100
0000
1000
,
0001
1000
0000
0010
,
0100
0001
0000
0010
,
0000
0110
0000
0100
,
1000
0001
0000
0100
,
0001
1000
0000
0010
,
0100
0001
0000
0010
,
0100
1000
0000
0001
,
1000
0010
0000
0100
,
0001
0010
0000
0100
,
1000
0001
0000
0100
,
0000
0110
0000
0010
,
1000
0001
0000
0010
,
0001
0100
0000
0010
,
1000
0001
0000
0010
,
0000
0110
0000
0100
,
1000
0001
0000
0100
,
0010
1000
0000
0001
,
0010
0200
0300
0000
,
0000
1000
0100
1000
,
0100
0010
0001
0010
,
0001
1000
0010
1000
,
0010
0100
0001
0100
,
0000
0010
1000
0010
,
1000
0001
0010
0001
,
0010
0100
1000
0100
,
1000
0001
0001
0002
,
0003
0100
0000
0001
,
1000
0001
0000
0010
,
0100
0010
0000
0001
,
1000
0001
0000
0100
,
0010
1000
0000
0100
,
0010
0100
0000
1000
,
0001
1000
0000
0010
,
0100
0010
0000
1000
,
0001
2002
0000
0000
,
0000
3003
0000
0000
,
0000
0020
0000
0000
,
0000
0030
0000
0000
,
0000
0200
0000
0000
,
0000
0300
0000
0000
,
0000
2000
0000
0000
,
0000
3000
0000
0000
,
0000
1001
0000
0001
,
0000
1000
0000
0001
,
0000
1001
0000
1000
,
0000
0001
0000
1000
,
0000
0010
0010
0100
,
0100
0001
0001
1000
,
1000
0100
0010
0100
,
0010
2002
0000
3003
,
0000
0001
0100
0010
,
1000
0001
0100
0010
,
1000
0001
0010
0100
,
1000
0001
0010
0100
,
1000
0001
0010
0001
,
1000
0001
0010
0001
,
1000
0010
0100
0001
,
1000
0010
0010
0020
,
0030
0100
0001
1000
,
0010
1000
0001
0100
,
0010
1000
0100
0010
,
0001
0010
0100
1000
,
0001
0100
0010
1000
,
0001
1000
0010
0100
,
0001
0010
0010
0100
,
0100
1000
0001
0200
,
0300
2002
0000
0000
,
0000
0000
0000
0000
,
0000
0000
0000
0000
,
0000
0000
0000
0000
,
3003
0220
0330
0000
;

//--------------- dance-single - forcednature ----------------
#NOTEDATA:;
#STEPSTYPE:dance-single;
#DESCRIPTION:forcednature;
#DIFFICULTY:Medium;
#METER:11;
#RADARVALUES:0,0,0,0,0;
#CREDIT:forcednature;
#NOTES:
0000
0000
0000
0000
,
0000
0000
0000
0000
,
0000
0000
0000
0000
,
0000
0000
0000
0000
,
0000
0000
0000
0000
,
2002
3003
0000
0000
,
0000
0000
0000
0000
,
0220
0330
0000
0000
,
0000
0000
0001
0100
0001
0000
0001
0010
,
0001
0000
1000
0100
1000
0000
1000
0010
,
1000
0000
0100
0010
0100
0000
0100
1000
,
0100
0000
0010
0001
0010
0000
0010
0100
,
0020
0000
0031
0100
0001
0000
0001
0010
,
0001
0000
1000
0100
1000
0000
1000
0010
,
1000
0000
0100
0001
0100
0000
0100
1000
,
0100
0000
0000
0000
0010
0000
0001
0000
0010
0000
0000
0000
0100
0000
0000
0100
,
0000
0000
1000
0000
0001
0000
0000
0100
0000
0000
0010
0000
1000
0000
0000
0010
,
0000
0000
0100
0000
0001
0000
0000
0010
0000
0000
0100
0000
1000
0000
0000
0100
,
0000
0000
0010
0000
0001
0000
0000
1000
0000
0000
0010
0000
1000
0000
0000
0001
,
0000
0000
0010
0000
0100
0000
0000
1000
0000
0000
0001
0000
0100
0000
0000
0010
,
0000
0000
0000
0000
1000
0000
0000
0001
0000
0000
0010
0000
0001
0000
0000
1000
,
0000
0000
0010
0000
0100
0000
0000
0001
0000
0000
1000
0000
0100
0000
0000
1000
,
0000
0000
0001
0000
0100
0000
0000
0010
0000
0000
1000
0000
0100
0000
0000
0010
,
0000
0000
0001
0000
0200
0000
0000
0000
0300
0000
0000
0000
0010
0000
0000
0010
,
0000
0010
1000
0000
0100
0000
0010
0001
,
0020
0000
0031
0000
0100
0000
0010
1000
,
0020
0000
1030
0000
0001
0000
0010
0100
,
0020
0031
1000
1001
,
0001
0000
1000
0000
0010
0000
0001
0010
,
2000
0000
3001
0000
0010
0000
1000
0010
,
0002
0000
1003
0000
0100
0000
0001
0100
,
2000
3020
0000
0000
,
0030
0000
0100
0001
0100
0001
0100
0001
,
0100
0000
0010
1000
0010
1000
0010
1000
,
0010
0000
1000
0100
1000
0100
1000
0100
,
1000
0000
0001
0010
0001
0010
0001
0010
,
0200
0000
1300
0010
1000
0010
1000
0010
,
1000
0000
0001
0010
0001
0010
0001
0010
,
0100
0000
1000
0001
1000
0001
0100
0010
,
1000
0000
0100
0010
0100
0010
0002
0000
,
0003
2000
0100
0001
,
0010
3002
0100
1000
,
0010
0203
1000
0010
,
0001
0320
0001
0100
,
1030
0001
2000
0000
0010
0000
0001
0000
,
0100
3002
0010
1000
,
0100
0000
0023
0000
1000
0000
0130
0010
,
0001
0000
0000
0000
1000
0000
0001
0000
1000
0000
0001
0000
0100
0000
0000
0100
,
0000
0010
2000
0000
0000
0000
0001
0000
,
0000
0000
0000
0000
,
0000
3002
0000
1000
,
0000
0000
0000
0000
,
0000
0023
0000
0230
,
0000
2300
0000
3002
,
0000
0203
0320
2030
,
3002
0023
0230
2300
,
3002
0103
0010
0110
,
0000
0000
0001
0000
1000
0100
1000
0000
,
0000
0100
0010
0110
,
0000
0000
1000
0000
0001
0100
0001
0000
,
0000
0010
0010
0001
,
0001
1000
1000
0010
,
0010
0000
0100
0001
0100
0001
1000
0100
,
1000
0100
0020
0000
0000
0000
0000
0000
,
0030
0000
0001
0100
0000
0001
1000
0100
,
0000
1000
0001
0010
0000
0001
1000
0010
,
0000
1000
0001
0100
0000
0010
1000
0001
,
0000
0010
0001
1000
0000
0100
1000
0001
,
0100
0000
0010
1000
0000
0001
0010
0001
,
0000
0100
0010
1000
0000
0100
0010
0001
,
0000
1000
0001
0100
0000
0010
1000
0001
,
0000
0010
0100
1000
0001
1000
0002
0000
,
0003
0000
0100
0001
1000
0010
0100
0001
,
1000
0000
0100
1000
0001
0010
0100
1000
,
0001
0000
0010
0001
1000
0100
0010
0001
,
1000
0000
0010
1000
0001
0100
0010
1000
,
0001
0000
0010
0100
1000
0001
0010
0100
,
1000
0000
0010
0100
0001
1000
0010
0100
,
0001
0000
1000
0100
0010
0001
0100
0010
,
1000
0000
0001
0100
0001
0100
0020
0000
,
2030
3002
0000
0010
,
0000
1000
0000
0100
,
0000
1000
0000
0010
,
0000
1000
0000
0103
,
0000
2002
3003
0000
;

//--------------- dance-single - forcednature ----------------
#NOTEDATA:;
#STEPSTYPE:dance-single;
#DESCRIPTION:forcednature;
#DIFFICULTY:Hard;
#METER:14;
#RADARVALUES:0,0,0,0,0;
#CREDIT:forcednature;
#NOTES:
0000
0000
0000
0000
,
0000
0000
0000
0000
,
0000
0000
0000
0000
,
0000
0000
0000
0000
,
0000
0000
0000
0000
,
2002
3003
0000
0000
,
0000
0000
0000
0000
,
0220
0330
0000
0000
,
0000
0000
1000
0100
0010
0001
0100
0010
,
1000
0001
0010
0100
1000
0001
0100
0010
,
1000
1000
0100
0010
0001
0100
0010
0100
,
0001
1000
0010
1000
0100
0010
0001
0100
,
0020
0000
1030
0100
1000
0010
0100
1000
,
0100
0001
0010
0100
1000
0100
0010
0001
,
1000
1000
0010
0100
0001
0100
0010
1000
,
0001
0000
0010
0000
0100
0000
0001
0000
0100
0000
1000
0000
0010
0000
0000
1010
,
0000
0000
0001
0000
0010
0000
0000
0001
0000
0000
1000
0010
1000
0000
0000
0001
,
0000
0000
0010
0000
0100
0000
0000
1000
0000
0000
0001
0010
0001
0000
0000
0100
,
0000
0000
0010
0000
1000
0000
0000
0001
0000
0000
0010
0100
0010
0000
0000
0001
,
0000
0000
1000
0000
0010
0000
0000
0100
0000
0000
0001
1000
0001
0000
0010
0000
,
0200
0000
0000
0000
1300
0000
0000
0010
0000
0000
0100
0001
0100
0000
0000
0010
,
0000
0000
1000
0000
0001
0000
0000
0010
0000
0000
0100
1000
0100
0000
0000
0010
,
0000
0001
0100
0010
1000
0001
0010
0010
,
0010
0000
0000
0000
0220
0000
0000
0000
0330
0000
0000
0000
1000
0000
0000
1001
,
0000
0001
0100
1000
0100
0010
0100
0001
,
1000
0000
0100
0001
0100
0010
0100
1000
,
0001
0000
0010
1000
0010
0100
0010
0001
,
1000
0000
0010
0001
0010
0100
0101
0000
,
2000
0000
3001
0010
0100
0001
0100
1000
,
0001
0000
1000
0010
0100
1000
0100
0001
,
1000
0001
0010
0100
0001
0100
1000
1000
,
0010
0220
0000
0000
,
0330
0000
0001
0100
0010
0100
1000
0100
,
0010
0100
0001
0010
0100
0010
1000
0010
,
0100
0010
0001
0100
0010
0100
1000
0100
,
0010
0100
0001
0010
0100
0010
1000
0010
,
0002
0000
1003
0100
0010
0100
0001
0100
,
0010
0100
1000
0010
0100
0010
0001
0010
,
0200
0000
0301
0010
0100
0010
1000
0010
,
0001
1000
0010
0010
0100
0100
0002
0000
,
0003
0000
1000
0100
1000
0010
0100
0001
,
0010
0000
0100
0001
0100
0010
0100
1000
,
0001
0001
0010
0001
1000
0010
0100
1000
,
0100
0000
0010
1000
0001
0010
0100
1000
,
0010
0000
0000
0010
0100
0000
0001
0000
0010
0000
0001
0000
1000
0000
0010
0000
,
1000
0000
0100
0010
0001
0100
0010
1000
,
0001
0000
0001
0000
0010
0000
0100
0000
1000
0000
0001
0000
0100
0000
0000
0100
,
0010
0000
0000
0010
1000
0000
1000
0000
0001
0000
0001
0000
0010
0000
0000
0110
,
0000
0100
2000
0000
0100
0000
0001
0000
,
0100
0010
0100
0001
,
0100
3002
0100
1000
,
0100
0010
0100
1000
,
0100
2003
0010
0001
,
0010
0100
0010
0001
,
0010
3002
0010
1000
,
0010
0100
0010
1000
,
0013
0102
1003
0022
,
0033
0000
0110
0000
1000
0100
0002
0000
,
0003
2100
3001
2020
,
3030
0000
0110
0000
0001
0100
2000
0000
,
3000
0110
0100
0001
,
0001
1000
1000
0100
,
0100
0000
0010
0001
1000
0010
0100
0001
,
1000
0100
2002
0000
0000
0000
0000
0000
,
3003
0000
0001
0100
1000
0100
0001
0010
,
0001
1000
0010
1000
0100
0001
0100
0010
,
0001
0000
1000
0010
1000
0000
0001
0000
0010
0000
0001
0000
0100
0000
0010
0000
,
0001
0010
1000
0001
0100
0001
1000
0100
,
0010
0001
0010
0000
0100
0000
1000
0000
0001
0000
0100
0000
1000
0000
0100
0000
,
0010
1000
0001
0010
0001
1000
0010
0100
,
0001
0000
0010
0100
0010
0000
0001
0000
1000
0000
0010
0000
0010
0000
0100
0000
,
0100
0000
0001
1000
0001
0010
0000
0010
0000
0010
0000
0010
0200
0000
0000
0000
,
0300
0000
1000
0001
1000
0000
0010
0000
0100
0000
1000
0000
0100
0000
0001
0000
,
0010
0001
1000
0010
1000
0100
0001
0100
,
0010
0000
0001
1000
0001
0000
0100
0000
1000
0000
0100
0000
0010
0000
1000
0000
,
0001
0010
0100
0001
0100
1000
0001
0010
,
0001
0100
0001
0000
1000
0000
0010
0000
0001
0000
0010
0000
0100
0000
0001
0000
,
1000
0001
0010
1000
0010
0001
0100
0010
,
1000
0000
0001
0010
0001
0000
1000
0000
0100
0000
0100
0000
0010
0000
0001
0000
,
0010
0000
0000
0000
0001
0100
0001
0000
1000
0010
1000
0000
0200
0000
0000
0000
,
0300
0000
1002
0000
0000
0100
0000
0000
,
0010
0000
1000
0000
0000
0100
0000
0000
,
0010
0000
2003
0000
0000
0001
0000
0000
,
0100
0000
0010
0000
0000
0001
0000
0000
,
3100
0220
0330
0000
;

//--------------- dance-single - forcednature ----------------
#NOTEDATA:;
#STEPSTYPE:dance-single;
#DESCRIPTION:forcednature;
#DIFFICULTY:Challenge;
#METER:17;
#RADARVALUES:0,0,0,0,0;
#CREDIT:forcednature;
#NOTES:
0000
0000
0000
0000
,
0000
0000
0000
0000
,
0000
0000
0000
0000
,
0000
0000
0000
0000
,
0000
0000
0000
0000
,
1001
0000
0000
0000
,
0000
0000
0000
0000
,
1001
0000
0000
0000
,
0000
0000
0000
0000
1000
0000
0000
0100
0000
0000
1000
0100
0010
0000
0000
0001
,
0000
0000
1000
0000
0001
0000
0000
0100
0000
0000
0001
0100
0010
0000
0000
1000
,
0000
0000
0001
0000
1000
0000
0000
0100
0000
0000
1000
0100
0010
0000
0000
0001
,
0000
0000
1000
0000
0001
0000
0000
0100
0000
0000
0010
1000
0001
0000
0010
0000
,
0100
1000
0100
1000
0001
0000
0000
0010
0000
0000
0001
0010
0100
0000
0000
1000
,
0000
0000
0001
0000
1000
0000
0000
0010
0000
0000
1000
0010
0100
0000
0000
0001
,
0000
0000
1000
0000
0001
0000
0000
0010
0000
0000
0001
0010
0100
0000
0000
1000
,
0000
0000
0001
0000
1000
0000
0000
0010
0000
0000
1000
0010
0100
0000
0000
0110
,
0000
0000
1001
0000
1000
0000
0100
1000
0000
1000
0100
0010
0001
0000
1000
0001
,
0000
0001
0010
0000
0001
0000
0100
0001
0000
0001
0100
0010
1000
0000
0001
1000
,
0000
1000
0010
0000
1000
0000
0100
1000
0000
1000
0100
0010
0001
0000
1000
0001
,
0000
0001
0010
0000
0001
0000
0100
0001
0000
0001
0100
0010
1000
0000
0001
1000
,
0010
0100
0010
0100
0001
0000
0010
0001
0000
0001
0010
0100
1000
0000
0001
1000
,
0000
1000
0100
0000
1000
0000
0010
1000
0000
1000
0010
0100
0001
0000
1000
0001
,
0000
0001
0100
0000
0001
0000
0010
0001
0000
0001
0010
0100
1000
0000
0010
1000
,
0010
1000
0001
1000
0100
0000
0000
0000
0000
0000
0100
0010
0001
0000
0000
1001
,
0000
0000
1000
0000
0010
0000
0100
0001
0100
0000
0010
0000
0100
1000
0100
0000
,
0001
0000
0000
0000
0010
0000
0100
1000
0100
0000
0010
0000
0100
0001
0100
0000
,
1000
0000
0000
0000
0100
0000
0010
0001
0010
0000
0100
0000
0010
1000
0010
0000
,
0001
0000
0000
0000
0100
0000
0010
1000
0010
0000
0100
0000
0110
0000
0000
0000
,
1000
0001
1000
0001
0010
0000
0100
1000
0100
0000
0010
0000
0100
0001
0100
0000
,
1000
0000
0000
0000
0010
0000
0100
0001
0100
0000
0010
0000
0100
1000
0100
0000
,
0001
0000
0000
0001
0010
0001
0010
0000
0100
0000
1000
0000
0001
0100
0001
0100
,
0010
0000
1000
0001
0020
0000
0000
0000
0000
0000
0000
0000
0000
0000
0000
0000
,
0030
0000
0200
1000
1000
0010
0010
0001
,
0301
0100
0020
1000
1000
0100
0100
0001
,
0031
0010
0002
0100
0100
1000
1000
0010
,
0013
0001
2000
0100
0100
0001
0001
3010
,
1000
0100
1000
0100
0020
0000
0001
0000
0001
0000
0100
0000
0100
0000
1000
0000
,
1030
0010
0200
0001
0001
0010
0010
1000
,
1300
0000
0100
0010
0002
0000
0100
0000
0100
0000
1000
0000
1003
0001
0010
0100
,
0010
0001
0010
0100
1000
0000
1000
0000
0001
0000
0001
0000
0200
0000
0000
0000
,
0300
0000
0010
1010
1000
1010
0010
0110
,
0100
0101
0001
0011
0010
0110
0100
1100
,
1000
0000
0001
0100
0010
0000
1010
0000
1000
0000
1001
0000
0001
0000
0011
0000
,
0010
0110
0100
1100
1000
1001
0001
0101
,
0100
0010
0100
0010
1000
0000
1100
0000
0100
0000
0110
0000
0010
0000
0011
0000
,
0001
0101
0100
0110
0010
1010
1000
1001
,
0001
0000
0010
0100
1000
0000
1010
0000
0010
0000
0110
0000
0100
0001
0010
0000
,
0100
1000
0010
0000
0100
0001
0100
0001
1000
0001
0010
0100
1000
0000
0000
1001
,
0000
0001
0200
0000
0000
0000
0000
0000
,
0000
0000
0000
0000
,
0000
0320
0000
0000
,
0000
0000
0000
0000
,
0000
2030
0000
0000
,
0000
0000
0000
0000
,
0000
3002
0000
0000
,
0000
0000
0000
0000
,
0003
0011
MMMM
0011
,
MMMM
0101
MMMM
0101
,
MMMM
1010
MMMM
1010
,
MMMM
1100
MMMM
1100
,
MMMM
1010
1100
0101
,
0011
1010
1100
0101
,
0011
0000
0001
0100
0001
0010
0100
1000
,
0010
1000
1001
0000
MMMM
0000
MMMM
0000
,
MMMM
0000
1100
0100
0110
0010
0011
0001
,
1001
1000
1010
0010
0110
0100
0101
0001
,
1001
0000
1000
0100
0010
0000
0001
0000
0101
0000
0100
0000
0110
0000
0010
0000
,
1010
1000
1001
0001
0011
0010
0110
0100
,
1000
0010
1000
0010
0100
0000
0001
0000
1001
0000
1000
0000
1100
0000
0100
0000
,
0110
0010
0110
0100
1100
1000
1010
0010
,
0110
0000
0100
0001
0010
0000
0100
0000
0110
0000
0010
0000
0011
0000
0001
0100
,
0010
0000
1000
0100
0010
0001
0000
0001
0100
0001
0000
0001
2000
0000
0000
0000
,
3000
0000
0100
0010
0001
0000
0100
0001
0100
0001
0100
0001
0100
0001
0100
0000
,
0010
0100
0010
0100
0010
0000
1000
0010
1000
0010
1000
0010
1000
0010
1000
0000
,
0001
1000
0001
1000
0001
0000
0010
0001
0010
0001
0010
0001
0010
0001
0010
0000
,
0100
0010
0100
0010
0100
0000
1000
0100
1000
0100
1000
0100
1000
0100
1000
0000
,
0001
1000
0001
1000
0010
0000
0100
0001
0100
0001
0100
0001
0100
0001
1000
0000
,
0100
1000
0100
1000
0001
0000
0100
0010
0100
0010
0100
0010
0100
0010
1000
0000
,
0001
0010
0001
0010
0100
0000
1000
0001
1000
0001
0100
0000
0010
1000
0010
1000
,
0001
1000
0100
0000
0010
0001
0010
0001
1000
0010
1000
0010
0100
0001
1000
0100
,
0010
0001
0100
0010
2000
0000
0000
0000
0000
0000
0100
0000
0000
0000
0000
0000
,
0001
0000
0010
0000
0000
0100
0000
0000
,
0001
0000
0010
0000
0000
0100
0000
0000
,
0001
0000
0010
0000
0000
0100
0000
0000
,
3001
2002
3003
0000
;

//--------------- dance-double - forcednature ----------------
#NOTEDATA:;
#STEPSTYPE:dance-double;
#DESCRIPTION:forcednature;
#DIFFICULTY:Easy;
#METER:7;
#RADARVALUES:0,0,0,0,0;
#CREDIT:forcednature;
#NOTES:
00000000
00000000
00000000
00000000
,
00000000
00000000
00000000
00000000
,
00000000
00000000
00000000
00000000
,
00000000
00000000
00000000
00000000
,
00000000
00000000
00000000
00000000
,
00022000
00033000
00000000
00000000
,
00000000
00000000
00000000
00000000
,
00022000
00033000
00000000
00000000
,
00000000
01000000
00010000
01000000
,
00000000
00100000
10000000
00100000
,
00000000
10000000
01000000
10000000
,
00000000
00010000
00100000
00001000
,
00010000
00000100
00001000
00000100
,
00000000
00000010
00000001
00000010
,
00000000
00000100
00001000
00000100
,
00000000
00010000
00001000
01000000
,
01000000
00010000
00100000
00010000
,
00000000
10000000
00100000
10000000
,
00000000
01000000
10000000
01000000
,
00000000
00100000
00010000
00100000
,
00000000
00001000
00010000
00001000
,
00000000
00000100
00000010
00000100
,
00000000
00000001
00000010
00000001
,
00000000
00001000
00000000
00000010
,
00000010
00010000
00000000
00001000
,
00100000
00001000
00000000
01000000
,
00010000
01000000
00000000
00100000
,
10000000
00100000
00000000
10010000
,
00000000
01100000
00000000
00010000
,
00100000
00010000
00000000
01000000
,
00001000
01000000
00000000
00001000
,
00010000
00001000
00000000
00000000
,
00000000
00000010
00000100
00000010
,
00000100
00001000
00000100
00001000
,
00000100
00000010
00000001
00000010
,
00000001
00001000
00000010
00001000
,
00000000
00010000
01000000
00010000
,
01000000
00100000
10000000
00100000
,
00000000
10000000
01000000
10000000
,
01000000
00100000
00100000
00010000
,
00000000
01000000
00000000
00001000
,
00000000
00010000
00000000
00001000
,
00000000
00100000
00000000
00001000
,
00000000
00010000
00000000
00000100
,
00000000
00010000
00000000
00001000
,
00000000
00010000
00000000
00000010
,
00000000
00010000
00000000
00001000
,
00000000
01000000
00000000
00001000
,
00000000
00020000
00000000
00000000
,
00000000
00000000
00000000
00000000
,
00000000
00030200
00000000
00000000
,
00000000
00000000
00000000
00000000
,
00000000
00002300
00000000
00000000
,
00000000
00000000
00000000
00000000
,
00000000
00003002
00000000
00000000
,
00000000
00000000
00000000
00000000
,
00000003
00001001
00000000
00001000
,
00000000
00000100
00000000
00001000
,
00000000
00000010
00000000
00001000
,
00000000
00000100
00000000
00001000
,
00000000
00000010
00000010
00010000
,
00010000
00001000
00001000
00100000
,
00100000
00010000
01000000
00010000
,
00100000
02200000
00000000
00000000
,
03300000
01000000
10000000
01000000
,
00100000
01000000
10000000
01000000
,
00100000
00010000
01000000
00001000
,
01000000
00010000
01000000
00001000
,
00010000
00000100
00001000
00000100
,
00000010
00000100
00001000
00000100
,
00000010
00000001
00001000
00000001
,
00000100
00000010
00000010
00001000
,
00000000
00000100
00010000
00001000
,
00010000
00000100
00010000
00001000
,
01000000
00010000
00100000
00010000
,
01000000
00010000
00100000
00010000
,
01000000
00100000
10000000
01000000
,
10000000
00100000
10000000
01000000
,
10000000
00010000
01000000
00001000
,
00010000
00000100
00000100
00001000
,
00000000
00000010
00000000
00000000
,
00000000
00000000
00000000
00000000
,
00000000
00000000
00000000
00000000
,
00000000
00000000
00000000
00000000
,
00000000
00001001
00000000
00000000
;

//--------------- dance-double - forcednature ----------------
#NOTEDATA:;
#STEPSTYPE:dance-double;
#DESCRIPTION:forcednature;
#DIFFICULTY:Medium;
#METER:11;
#RADARVALUES:0,0,0,0,0;
#CREDIT:forcednature;
#NOTES:
00000000
00000000
00000000
00000000
,
00000000
00000000
00000000
00000000
,
00000000
00000000
00000000
00000000
,
00000000
00000000
00000000
00000000
,
00000000
00000000
00000000
00000000
,
00022000
00033000
00000000
00000000
,
00000000
00000000
00000000
00000000
,
00000220
00000330
00000000
00000000
,
00000000
00000000
00000001
00000000
00000100
00000010
00001000
00000000
,
00000100
00010000
00001000
00000000
01000000
00010000
00100000
00000000
,
01000000
10000000
00010000
00000000
01000000
00001000
00010000
00000000
,
00000100
00001000
00000010
00000000
00000100
00000001
00000010
00000000
,
00000200
00000000
00010300
00000000
00001000
01000000
00010000
00000000
,
00100000
00001000
00010000
00000000
00100000
01000000
00010000
00000000
,
10000000
01000000
00100000
00000000
01000000
10000000
00010000
00000000
,
01000000
00000000
00001000
00000000
00010000
00000000
00000000
00000000
00000100
00000000
00001000
00000000
00000010
00000000
00000000
00000010
,
00000000
00000000
00000010
00000000
00000100
00000000
00000000
00000001
00000000
00000000
00000100
00000000
00000010
00000000
00000000
00001000
,
00000000
00000000
00000010
00000000
00010000
00000000
00000000
00001000
00000000
00000000
00010000
00000000
01000000
00000000
00000000
00100000
,
00000000
00000000
01000000
00000000
10000000
00000000
00000000
00010000
00000000
00000000
10000000
00000000
00100000
00000000
00000000
01000000
,
00000000
00000000
00100000
00000000
00010000
00000000
00000000
00001000
00000000
00000000
00010000
00000000
00000100
00000000
00001000
00000000
,
00000200
00000000
00000000
00000000
00000310
00000000
00000000
00000001
00000000
00000000
00000010
00000000
00000100
00000000
00000000
00001000
,
00000000
00000000
00000100
00000000
00010000
00000000
00000000
00001000
00000000
00000000
00010000
00000000
01000000
00000000
00000000
00100000
,
00000000
00000000
01000000
00000000
10000000
00000000
00000000
00010000
00000000
00000000
10000000
00000000
00100000
00000000
00000000
01000000
,
00000000
00000000
00100000
00000000
20020000
00000000
00000000
00000000
30030000
00000000
00000000
00000000
10000000
00000000
00000000
01000000
,
00000000
00010000
00001000
00000000
00100000
00010000
00100000
01000000
,
00100000
00000000
00001000
00000000
00010000
00000010
00001000
00000010
,
00010000
00000000
00001000
00000000
00000010
00000100
00001000
00000100
,
00000010
00000000
00000001
00000000
00000100
00000010
00001000
00000000
,
00020000
00000000
01030000
00000000
00100000
10000000
00010000
10000000
,
01000000
00000000
00100000
00000000
00001000
00010000
00100000
00010000
,
00001000
00000000
00000010
00000000
00000100
00001000
00000100
00010000
,
00001000
00022000
00000000
00000000
,
00033000
00000000
01000000
00010000
01000000
00010000
01000000
00010000
,
01000000
00000000
00100000
10000000
00100000
10000000
00100000
10000000
,
00100000
00000000
10000000
01000000
10000000
01000000
10000000
01000000
,
10000000
00000000
00010000
00100000
00010000
00100000
00010000
00100000
,
00010000
00000000
00001000
00000100
00001000
00000100
00001000
00000100
,
00001000
00000000
00000001
00000100
00000001
00000100
00000001
00000100
,
00000001
00000000
00001000
00000010
00001000
00000010
00001000
00000010
,
00001000
00000000
00000001
00000010
00000100
00000010
00000002
00000000
,
00000003
00000100
00001000
00010000
,
01000000
00100000
00001000
00010000
,
00100000
10000000
01000000
00010000
,
00001000
00000100
00000001
00000010
,
00000100
00010000
00001000
00000100
,
00001000
00010000
01000000
00100000
,
00001000
00010000
00100000
10000000
,
01000000
00000000
00000000
00000000
00010000
00000000
00000000
00000000
00001000
00000000
00000000
00000000
00000010
00000000
00000000
00000010
,
00000000
00000100
00002000
00000000
00000000
00000000
00000000
00000000
,
00000000
00000000
00000000
00000000
,
00000000
00003020
00000000
00000000
,
00000000
00000000
00000000
00000000
,
00000000
00020030
00000000
00000000
,
00000000
00000000
00000000
00000000
,
00000000
00032000
00000000
00000000
,
00000000
00000000
00000000
00000000
,
00003000
00101000
00001000
01001000
,
00000000
00011000
00010000
00011000
,
00000000
00010010
00010000
00010100
,
00000000
00011000
00001000
00011000
,
00000000
01001000
01000000
00010000
,
00010000
00100000
00100000
00001000
,
00001000
00000000
00010000
00000010
00010000
00000000
00000010
00001000
,
00000010
00000220
00000000
00000000
,
00000330
00000000
00000100
00000001
00000000
00000001
00000010
00000100
,
00000000
00000100
00010000
00001000
00000000
00001000
01000000
00010000
,
00000000
10000000
01000000
00100000
00000000
00100000
01000000
10000000
,
00000000
10000000
00010000
01000000
00000000
01000000
00001000
00010000
,
00000000
00000100
00001000
00000010
00000000
00000010
00000100
00000001
,
00000000
00000001
00000010
00000100
00000000
00000100
00010000
00001000
,
00000000
01000000
00010000
00100000
00000000
00100000
01000000
10000000
,
00000000
00010000
01000000
00100000
01000000
00100000
20000000
00000000
,
30000000
01000000
10000000
01000000
00000000
00100000
00010000
00100000
,
00001000
00010000
00000010
00001000
00000000
00000100
00000010
00000100
,
00001000
00000001
00000100
00000010
00000000
00001000
00000100
00010000
,
00001000
01000000
00010000
00100000
00000000
01000000
10000000
01000000
,
00010000
01000000
00100000
00001000
00000000
00010000
00000010
00001000
,
00000100
00001000
00000010
00000100
00000000
00000001
00000010
00000100
,
00001000
00000010
00010000
00001000
00000000
00100000
00010000
01000000
,
00001000
00010000
00100000
01000000
00100000
01000000
00020000
00000000
,
00230000
00000000
00302000
00000000
00000000
00010000
00000000
00000000
,
00000100
00000000
00010000
00000000
00000000
00100000
00000000
00000000
,
00010000
00000000
00000010
00000000
00000000
00010000
00000000
00000000
,
01000000
00000000
00010000
00000000
00000000
00100000
00000000
00000000
,
01003000
00022000
00033000
00000000
;

//--------------- dance-double - forcednature ----------------
#NOTEDATA:;
#STEPSTYPE:dance-double;
#DESCRIPTION:forcednature;
#DIFFICULTY:Hard;
#METER:15;
#RADARVALUES:0,0,0,0,0;
#CREDIT:forcednature;
#NOTES:
00000000
00000000
00000000
00000000
,
00000000
00000000
00000000
00000000
,
00000000
00000000
00000000
00000000
,
00000000
00000000
00000000
00000000
,
00000000
00000000
00000000
00000000
,
00022000
00033000
00000000
00000000
,
00000000
00000000
00000000
00000000
,
02200000
03300000
00000000
00000000
,
00000000
00000000
10000000
01000000
00010000
00001000
00010000
00100000
,
10000000
01000000
00100000
00001000
00010000
00000010
00000100
00001000
,
00000100
00000100
00000001
00000010
00000100
00000001
00000100
00001000
,
00000010
00010000
00001000
00100000
01000000
00100000
00010000
10000000
,
00100000
01000000
00100000
01000000
00100000
00000000
10000000
00000000
01000000
00000000
00010000
00000000
00001000
00000000
00000010
00000000
,
00000100
00010000
00001000
00000100
00000001
00000010
00000001
00000100
,
00001000
00001000
00010000
01000000
00100000
01000000
10000000
00100000
,
01000000
00000000
00100000
00000000
00010000
00000000
00001000
00000000
00000010
00000000
00000100
00000000
00001000
00000000
00000000
00000110
,
00000000
00000000
00000001
00000000
00000010
00000000
00000000
00000100
00000000
00000000
00010000
00001000
00010000
00000000
00000000
00100000
,
00000000
00000000
01000000
00000000
00010000
00000000
00000000
10000000
00000000
00000000
00010000
00100000
00010000
00000000
00000000
01000000
,
00000000
00000000
00100000
00000000
10000000
00000000
00000000
01000000
00000000
00000000
00100000
00010000
00100000
00000000
00000000
01000000
,
00000000
00000000
00010000
00000000
00001000
00000000
00000000
00000100
00000000
00000000
00000010
00001000
00000010
00000000
00000100
00000000
,
00000001
00001000
00000100
00000000
00000010
00000000
00000000
00000001
00000000
00000000
00000100
00000010
00000100
00000000
00000000
00001000
,
00000000
00000000
00010000
00000000
01000000
00000000
00000000
00100000
00000000
00000000
00010000
10000000
00010000
00000000
00000000
01000000
,
00000000
00000000
00100000
00000000
10000000
00000000
01000000
00000000
00010000
00000000
00001000
00000000
00100000
00010000
00100000
00010000
,
00100000
00000000
00000000
00000000
00022000
00000000
00000000
00000000
00033000
00000000
00000000
00000000
00000100
00000000
00000000
00001100
,
00000000
00000001
00000010
00000100
00010000
00001000
00100000
01000000
,
10000000
00000000
00100000
01000000
00001000
00010000
00000010
00000100
,
00000001
00000000
00000010
00000100
00010000
00001000
00100000
01000000
,
10000000
00000000
00100000
01000000
00001000
00010000
00010100
00000000
,
00000010
00001000
00000010
00001000
00000001
00000000
00000100
00000000
00001000
00000000
00010000
00000000
00100000
00000000
10000000
00000000
,
00010000
00000000
10000000
01000000
00010000
00001000
00000010
00000001
,
00001000
00000000
00000000
00001000
00000001
00000000
00000100
00000000
00001000
00000000
00010000
00000000
00100000
10000000
00100000
10000000
,
00100000
02200000
00000000
00000000
,
03300000
00000000
00010000
01000000
10000000
01000000
00010000
00100000
,
01000000
00010000
00001000
00000010
00000100
00001000
00000010
00000001
,
00000010
00001000
00000100
00010000
00001000
01000000
00100000
00010000
,
00100000
10000000
01000000
00010000
00001000
00000010
00000100
00010000
,
00001000
01000000
00001000
00000000
00100000
00000000
01000000
00000000
00100000
00000000
00001000
00000000
00010000
00000000
00100000
00000000
,
10000000
00010000
00100000
01000000
00100000
00001000
00010000
00000010
,
00001000
00000000
00000000
00001000
00000100
00000000
00000010
00000000
00001000
00000000
00000010
00000000
00000001
00000010
00000001
00000000
,
00000100
00000100
00001000
00010000
00100000
01000000
00020000
00000000
,
10030000
00000000
00010000
00100000
01000000
00010000
01000000
00100000
,
00001000
00010000
00000010
00000100
00001000
00000100
00000010
00010000
,
00001000
00100000
01000000
00010000
01000000
10000000
00010000
01000000
,
00100000
00010000
00001000
00000010
00000100
00001000
00000001
00000100
,
00000010
00000000
00010000
00001000
00010000
00000000
00000100
00000000
00001000
00000000
00000010
00000000
00000100
00000000
00001000
00000000
,
00010000
01000000
00100000
00001000
00010000
00100000
10000000
00010000
,
10000000
00000000
01000000
00000000
00010000
00000000
00001000
00000000
00000100
00000000
00000001
00000000
00000010
00000000
00000100
00001000
,
00000100
00000000
00010000
00001000
00010000
00000000
00010000
00000000
01000000
00000000
01000000
00000000
00100000
00000000
00000000
00110000
,
00000000
00010000
10000000
00000000
00100000
00000000
00010000
00000000
,
00100000
10000000
00100000
00010000
,
00100000
10000000
01000000
00001000
,
01000000
10000000
01000000
00001000
,
01000000
00100000
00010000
00000010
,
00010000
00100000
00010000
00000010
,
00010000
00001000
00000010
00000001
,
00000010
00001000
00000010
00000001
,
00000010
00000110
00011000
02200000
,
03300000
00000000
10010000
00000000
10000000
10000000
00020000
00000000
,
00030000
01100000
00011000
00000220
,
00000330
00000000
00001001
00000000
00000001
00000001
00002000
00000000
,
00003000
00000101
00000100
00000010
,
00000010
00010000
00010000
00001000
,
00001000
00000000
00100000
00010000
10000000
00100000
10000000
01000000
,
00010000
00001000
00022000
00000000
00000000
00000000
00000000
00000000
,
00033000
00000000
00010000
01000000
10000000
01000000
00010000
00001000
,
00000100
00000010
00010000
00001000
00000010
00000100
00000010
00000001
,
00000100
00000000
00001000
00010000
00001000
00000000
00100000
00000000
01000000
00000000
00100000
00000000
00001000
00000000
00010000
00000000
,
00100000
01000000
00010000
00100000
00010000
10000000
01000000
00010000
,
00001000
00100000
00001000
00000000
00010000
00000000
00100000
00000000
01000000
00000000
00100000
00000000
00010000
00000000
00001000
00000000
,
00000010
00000100
00000001
00000100
00000010
00000001
00000100
00001000
,
00010000
00000000
01000000
00100000
01000000
00000000
10000000
00000000
00010000
00000000
01000000
00010000
01000000
00000000
00001000
00010000
,
00001000
00000000
00010000
00000100
00010000
00001000
00000000
00001000
00000000
00001000
00000000
00001000
00000020
00000000
00000000
00000000
,
00000030
00000000
00000100
00001000
00000100
00000000
00000010
00000001
00000010
00000000
00000100
00000000
00000010
00000001
00000010
00000000
,
00000100
00000000
00010000
00000000
00001000
00000000
01000000
00010000
01000000
00000000
00100000
00000000
01000000
00010000
01000000
00000000
,
00100000
00000000
10000000
00010000
10000000
00000000
01000000
00100000
01000000
00000000
10000000
00000000
01000000
00100000
01000000
00000000
,
00010000
00000000
00001000
00000000
00000010
00000000
00000100
00001000
00000100
00000000
00000010
00000000
00000100
00001000
00000100
00000000
,
00010000
00001000
00010000
00000000
00100000
00000000
01000000
00010000
01000000
00000000
00100000
00000000
01000000
00010000
01000000
00000000
,
00100000
00000000
10000000
00000000
00010000
00000000
00100000
01000000
00100000
00000000
00010000
00000000
00100000
01000000
00100000
00000000
,
00001000
00000000
00010000
00000010
00010000
00000000
00000100
00001000
00000100
00000000
00000010
00000000
00000100
00001000
00000100
00000000
,
00010000
00000000
00001000
00000000
01000000
00010000
01000000
00000000
00100000
10000000
00100000
00000000
20000000
00000000
00000000
00000000
,
32000000
00000000
03020000
00000000
00000000
00000100
00000000
00000000
,
00001000
00000000
00100000
00000000
00000000
00001000
00000000
00000000
,
00000100
00000000
00032000
00000000
00000000
01000000
00000000
00000000
,
00010000
00000000
00000010
00000000
00000000
00010000
00000000
00000000
,
01000000
00203000
00300000
00000000
;

//--------------- dance-double - forcednature ----------------
#NOTEDATA:;
#STEPSTYPE:dance-double;
#DESCRIPTION:forcednature;
#DIFFICULTY:Challenge;
#METER:17;
#RADARVALUES:0,0,0,0,0;
#CREDIT:forcednature;
#NOTES:
00000000
00000000
00000000
00000000
,
00000000
00000000
00000000
00000000
,
00000000
00000000
00000000
00000000
,
00000000
00000000
00000000
00000000
,
00000000
00000000
00000000
00000000
,
00011000
00000000
00000000
00000000
,
00000000
00000000
00000000
00000000
,
00011000
00000000
00000000
00000000
,
MMMMMMMM
00000000
00000000
00000000
00010000
00000000
00000000
00001000
00000000
00000000
01000000
00010000
10000000
00000000
00000000
01000000
,
00000000
00000000
00010000
00000000
00001000
00000000
00000000
00100000
00000000
00000000
00010000
00100000
00001000
00000000
00000000
00010000
,
00000000
00000000
00000010
00000000
00001000
00000000
00000000
00000100
00000000
00000000
00000010
00000001
00000100
00000000
00000000
00000010
,
00000000
00000000
00001000
00000000
00000001
00000000
00000000
00000010
00000000
00000000
00000100
00010000
00001000
00000000
00100000
00000000
,
00000000
00000000
00000000
00000000
00010000
00000000
00000000
01000000
00000000
00000000
00100000
10000000
00010000
00000000
00000000
01000000
,
00000000
00000000
00001000
00000000
00010000
00000000
00000000
00000100
00000000
00000000
00001000
00000001
00000010
00000000
00000000
00000001
,
00000000
00000000
00001000
00000000
00000100
00000000
00000000
00010000
00000000
00000000
00001000
01000000
00010000
00000000
00000000
10000000
,
00000000
00000000
00100000
00000000
10000000
00000000
00000000
01000000
00000000
00000000
00010000
00001000
00010000
00000000
00000000
00011000
,
00000000
00000000
00001000
00000000
00000010
00000000
00000000
00000100
00000000
00000000
00001000
00000001
00000010
00000000
00000000
00000001
,
00000000
00000000
00000100
00000000
00001000
00000000
00000000
00010000
00000000
00000000
00100000
01000000
00010000
00000000
00000000
10000000
,
00000000
00000000
01000000
00000000
00100000
00000000
00000000
00001000
00000000
00000000
00010000
00000100
00001000
00000000
00000000
00000001
,
00000000
00000000
00000100
00000000
00001000
00000000
00000000
00010000
00000000
00000000
00001000
01000000
00010000
00000000
00000000
00100000
,
00000000
00000000
01000000
00100000
01000000
00000000
00000000
10000000
00000000
00000000
00010000
00100000
00001000
00000000
00000000
00010000
,
00000000
00000000
00000010
00000000
00001000
00000000
00000000
00000001
00000000
00000000
00000010
00000100
00001000
00000000
00000000
00000010
,
00000000
00000000
00010000
00000000
00011000
00000000
00000000
00001000
00000000
00000000
01000000
00010000
10000000
00010000
10000000
00010000
,
01000000
00010000
10000000
00010000
00200000
00000000
00000000
00000000
00300000
00000000
00000000
00000000
01000000
00000000
00000000
00010000
,
00000000
00000000
00001000
00000000
00010000
00000100
00001000
00000100
00010000
00000100
00001000
00000100
00010000
00000000
00001000
00000000
,
00100000
00000000
00000000
00000000
00001000
01000000
00010000
01000000
00001000
01000000
00010000
01000000
00001000
00000000
00010000
00000000
,
00000010
00000000
00000000
00000000
00010000
00000100
00001000
00000100
00010000
00000100
00001000
00000100
00010000
00000000
00001000
00000000
,
00100000
00000000
00000000
00000000
00001000
01000000
00010000
01000000
00001000
01000000
00010000
01000000
00002000
00000000
00000000
00000000
,
00023000
00000000
00000000
00000000
00030010
00001000
00000010
00010000
00000010
00001000
00000010
00010000
00001000
00000000
01000000
00000000
,
00010000
00000000
00000000
00000000
00100000
00010000
00100000
00001000
00100000
00010000
00100000
00001000
00010000
00000000
00000100
00000000
,
00001000
00000000
00000000
00000000
00000010
00001000
00000010
00010000
00000010
00001000
00000010
00010000
00001000
00000000
01000000
00010000
,
10000000
00000000
00100000
10000000
00020000
00000000
00000000
00000000
00000000
00000000
00000000
00000000
00000000
00000000
00000000
00000000
,
00030000
00000000
10000000
01000000
00100000
00010000
00001000
00000100
,
00000010
00000001
00000001
00000100
00000010
00001000
00010000
01000000
,
00100000
10000000
10000000
01000000
00100000
00010000
00001000
00000100
,
00000010
00000001
00000001
00000100
00000010
00001000
00010000
01000000
,
00200000
00000000
10300000
01000000
00010000
00001000
00000010
00000100
,
00001000
00000001
00000001
00000100
00001000
00010000
00100000
01000000
,
00010000
00000000
00000000
00010000
10000000
00000000
01000000
00000000
00010000
00000000
00001000
00000000
00000100
00000000
00000001
00000000
,
00000010
00000001
00000010
00000001
00000010
00000000
00000100
00000000
00000010
00000000
00000100
00000000
00002000
00000000
00000000
00000000
,
00003000
00000000
00000001
00010000
00001000
00000100
00000001
00000100
,
00001000
00010000
00000001
00010000
00001000
00000100
00000001
00000100
,
00001000
00000000
00010000
00001000
10000000
00000000
00001000
00000000
00010000
00000000
01000000
00000000
10000000
00000000
01000000
00000000
,
00010000
00001000
10000000
00001000
00010000
01000000
10000000
01000000
,
00010000
00000000
00001000
00010000
00000010
00000000
00100000
00000000
00001000
00000000
00010000
00000000
00000100
00000000
01000000
00000000
,
00001000
00010000
00000010
00100000
00001000
00010000
00000100
01000000
,
00001000
00000000
00010000
00001000
10000000
00000000
00001000
00000000
00010000
00000000
00000001
00000000
00010000
00000000
00001000
00000000
,
00100000
00000000
00000010
00000000
00010000
00001000
00010000
00001000
00010000
00001000
00010000
00001000
00010000
00000000
00000000
00011000
,
00000000
00000000
00001000
00010000
00002000
00000000
00000000
00000000
00003200
00000000
00000000
00000000
00000302
00000000
00000000
00000000
,
00000023
00002030
00003200
00000302
,
00000013
00001000
00020000
00000000
02030000
00000000
23000000
00000000
,
30200000
00320000
02030000
23000000
,
30100000
00010000
00002000
00000000
00003200
00000000
00000302
00000000
,
00000023
00002030
00003200
00000302
,
00000013
00001000
00020000
00000000
02030000
00000000
23000000
00000000
,
30200000
00320000
02030000
23000000
,
30100000
10010000
MMMM0000
00011000
,
MMMMMMMM
00001001
0000MMMM
00011000
,
MMMMMMMM
10010000
MMMM0000
00011000
,
MMMMMMMM
00001001
0000MMMM
00011000
,
MMMMMMMM
00000000
0110MMMM
00000000
00010000
00001000
00010000
00000000
,
00001000
00000000
MMMM0110
00000000
00001000
00010000
00001000
00000000
,
00010000
00000000
1000MMMM
01000000
00100000
00010000
MMMM1000
00000100
,
00000010
00000001
MMMM0200
00000000
MMMM0000
00000000
MMMM0000
00000000
,
MMMM0300
00000000
00001001
00001000
00001100
00000100
00010100
00010000
,
00011000
00001000
01001000
01000000
01010000
00010000
00110000
00100000
,
01100000
00000000
01000000
10000000
00010000
00000000
01000000
00000000
01001000
00000000
00001000
00000000
00011000
00000000
00010000
00000000
,
00010100
00000100
00001100
00001000
00001010
00000010
00000110
00000100
,
00000001
00000010
00000100
00001000
00000010
00000000
00010000
00000000
00011000
00000000
00001000
00000000
00101000
00000000
00100000
00000000
,
00110000
00010000
01010000
01000000
01100000
00100000
10100000
10000000
,
11000000
00000000
01000000
00100000
00010000
00000000
01000000
00000000
01001000
00000000
00001000
00010000
00001000
00000000
00010000
00000100
,
00001000
00000000
00000100
00001000
00000002
00000000
00000010
00000000
00001000
00000000
00000103
00000000
00001001
00000000
00000000
00000000
,
00000000
00000000
00001000
00000001
00001000
00000000
00000100
00001000
00000100
00001000
00000100
00001000
00000100
00001000
00000100
00000000
,
00010000
00001000
00010000
00001000
00010000
00000000
00001000
01000000
00001000
01000000
00001000
01000000
00001000
01000000
00001000
00000000
,
01000000
00010000
01000000
00010000
01000000
00000000
00100000
10000000
00100000
10000000
00100000
10000000
00100000
10000000
00100000
00000000
,
10000000
01000000
10000000
01000000
10000000
00000000
01000000
00100000
01000000
00100000
01000000
00100000
01000000
00100000
01000000
00000000
,
00100000
00010000
00100000
00010000
00100000
00000000
00001000
00010000
00001000
00010000
00001000
00010000
00001000
00010000
00001000
00000000
,
00010000
00000010
00010000
00000010
00010000
00000000
00000010
00001000
00000010
00001000
00000010
00001000
00000010
00001000
00000010
00000000
,
00000100
00000001
00000100
00000001
00000100
00000000
00000001
00000010
00000100
00001000
00000100
00000000
00001000
00000010
00010000
00001000
,
00010000
00000000
00001000
00000000
01000000
00010000
01000000
00001000
00010000
00001000
00100000
00010000
01000000
00010000
00100000
00001000
,
00010000
00000010
00001000
00000100
00000010
00000000
00000000
00000000
00000000
00000000
00000000
00000000
00000000
00000000
00000000
00000000
,
00000000
00000000
00000000
00000000
,
00000000
00000000
00000000
00000000
,
00000000
00000000
00000000
00000000
,
00000000
00022000
00033000
00000000
;
