#VERSION:0.83;
#TITLE:Battleground;
#SUBTITLE:;
#ARTIST:kors k;
#TITLETRANSLIT:;
#SUBTITLETRANSLIT:;
#ARTISTTRANSLIT:;
#GENRE:SCHRANZ;
#CREDIT:;
#MUSIC:Battleground.ogg;
#BANNER:Battleground.png;
#BACKGROUND:Battleground-bg.png;
#CDTITLE:./CDTitles/bm IIDX 25 CANNON BALLERS.png;
#SAMPLESTART:82.465;
#SAMPLELENGTH:15.000;
#SELECTABLE:YES;
#OFFSET:0.429;
#BPMS:0.000=165.000;
#STOPS:;
#TIMESIGNATURES:0.000=4=4;
#BGCHANGES:0.000=Battleground.mp4=1.000=0=0=0=StretchNoLoop====,
99999.000=-nosongbg-=1.000=0=0=0=StretchNoLoop====
;
#FGCHANGES:;

//--------------- dance-single - forcednature ----------------
#NOTEDATA:;
#STEPSTYPE:dance-single;
#DESCRIPTION:forcednature;
#DIFFICULTY:Beginner;
#METER:5;
#RADARVALUES:0,0,0,0,0;
#CREDIT:forcednature;
#NOTES:
0000
0000
0000
0000
,
0000
0000
0000
0000
,
0000
0000
0000
0000
,
0000
0000
0000
0000
,
0000
0000
0000
0000
,
1001
0000
0000
0000
,
0001
0000
1000
0000
,
0001
0000
0000
0000
,
0010
0000
0010
0000
,
1001
0000
0000
0000
,
1000
0000
0000
0000
,
0010
0000
0000
0000
,
0100
0000
0000
0000
,
0001
0000
0000
0000
,
1000
0000
0000
0000
,
0001
0000
0000
0000
,
0010
0000
0000
0000
,
0100
0000
0100
0000
,
1000
0000
1000
0000
,
0001
0000
0001
0000
,
0100
0000
0100
0000
,
0010
0000
0110
0000
,
0010
0000
0110
0000
,
1000
1000
0001
0001
,
0100
0000
0000
0000
,
1001
0000
0000
0000
,
0001
0000
1000
0000
,
0100
0000
0010
0000
,
0001
0000
0000
0000
,
0110
0000
0000
0000
,
1000
0000
0001
0000
,
0000
0100
0000
0100
,
0000
0100
0000
0100
,
0010
0000
0000
0000
,
1000
0000
0001
0000
,
0100
0000
0010
0000
,
1000
0000
0001
0000
,
0010
0000
0000
0000
,
0100
0000
1000
0000
,
0000
0010
0000
0010
,
0000
0010
0000
0010
,
0000
0000
0000
0000
,
0000
0000
0000
0000
,
0000
0000
0000
0000
,
0000
0000
0000
0000
,
1001
0000
0000
0000
,
0000
0000
0000
0000
,
0000
0000
0000
0000
,
0000
0000
0000
0000
,
0110
0000
0000
0000
,
1000
0000
0000
0000
,
0110
0000
0000
0000
,
0001
0000
0000
0000
,
1000
0000
1000
0000
,
0001
0000
0001
0000
,
0100
0100
0100
0000
,
0010
0000
0000
0000
,
1001
0000
1000
0000
,
0010
0000
1000
0000
,
0001
0000
0010
0000
,
0001
0000
1000
0000
,
0100
0000
1000
0000
,
0001
0000
0100
0000
,
0001
0000
1000
0000
,
0100
0100
0100
0000
,
0110
0000
0010
0000
,
0001
0000
1000
0000
,
0001
0000
0100
0000
,
0010
0000
1000
0000
,
1001
0000
0001
0000
,
0010
0000
0100
0000
,
1000
1000
1000
0000
,
0001
0000
0100
0000
,
0110
0000
0000
0000
,
0010
0000
1000
0000
,
0001
0000
1000
0000
,
0100
0000
0010
0000
,
1001
0000
0001
0000
,
0100
0100
0100
0000
,
0010
0000
1000
1000
,
1000
1000
0001
0000
,
2002
0000
0000
0000
,
0000
0000
3003
0000
,
0110
0000
0000
0000
;

//--------------- dance-single - forcednature ----------------
#NOTEDATA:;
#STEPSTYPE:dance-single;
#DESCRIPTION:forcednature;
#DIFFICULTY:Easy;
#METER:9;
#RADARVALUES:0,0,0,0,0;
#CREDIT:forcednature;
#NOTES:
0000
0000
0000
0000
,
0000
0000
0000
0000
,
0000
0000
0000
0000
,
0000
0000
0000
0000
,
0000
0000
0000
0000
,
1001
0000
1000
1000
,
0001
0001
0100
0000
,
1001
0000
0110
0000
,
1000
0001
0010
0000
,
1001
0000
1000
0000
,
0000
0010
1000
0000
,
0001
0000
0010
0001
,
0000
0100
0001
0000
,
0010
0000
0100
1000
,
0000
0001
1000
0000
,
0010
0000
0100
0001
,
0000
0010
0001
0000
,
1001
0000
0100
0000
,
1001
0000
0010
0000
,
0110
0000
1000
0000
,
0110
0000
0001
0000
,
1001
1000
1001
0001
,
0110
0100
0110
0010
,
1000
1000
0001
0001
,
0010
0010
0010
0100
,
1001
1000
0001
0100
,
0000
0001
1000
0010
,
1000
0001
0010
0001
,
0000
0100
0010
1000
,
0001
0010
0100
1000
,
0000
0010
0100
0001
,
0010
1001
0000
0110
,
0000
1001
0000
0110
,
1000
0001
0100
0010
,
0000
1000
0100
0010
,
0100
1000
0010
1000
,
0000
0000
0001
0000
0010
0000
0001
1000
,
0001
0110
1000
0001
,
0000
0100
0010
1000
,
0100
1001
0000
0110
,
0010
0000
1001
0000
1000
0000
0001
1000
,
0001
0000
0000
0000
0000
0000
0000
0200
,
0000
0000
0000
0300
0000
0000
0000
0200
,
0000
0000
0000
0300
0000
0000
0000
0200
,
0000
0000
0000
0300
0000
0000
0000
0000
,
0110
0000
0000
0000
0000
0000
0000
2000
,
0000
0000
0000
3000
0000
0000
0000
2000
,
0000
0000
0000
3000
0000
0000
0000
2000
,
0000
0000
0000
3001
0001
0000
0100
0000
,
0110
0000
0010
1000
,
0001
0000
0001
1000
,
0100
0000
0010
0001
,
1000
0000
1000
0010
,
1001
1000
0100
0010
,
1001
0001
0100
0010
,
1000
1000
0001
0001
,
0020
0000
0000
0130
,
1001
0000
1000
0000
0001
0000
0100
0010
,
0100
0000
0001
0000
1000
0000
0100
0010
,
0100
0000
1000
0000
0001
0000
0010
0100
,
0010
0000
0001
0000
1000
0000
0010
0100
,
0010
0000
1000
0000
0001
0000
1000
0100
,
1000
0000
0001
0000
1000
0000
0001
0100
,
0001
0000
0010
0000
0100
0010
0100
0000
,
1000
0000
0001
0000
0100
0100
0200
0000
,
0310
0000
1000
0010
1000
0000
0001
0000
,
1000
0000
0100
1000
0100
0000
0010
0001
,
0010
0000
0001
1000
0001
0000
0100
0000
,
0001
0000
0100
0010
0100
0000
0010
1000
,
0010
0000
1000
0001
1000
0000
0100
0000
,
1000
0000
0001
0100
0001
0000
0100
0010
,
0100
0000
0001
0001
0000
0010
0010
0000
,
0100
0110
1001
0000
,
0110
0000
1000
0001
1000
0001
1000
0000
,
0001
0100
0010
1000
,
0100
0000
1000
0001
1000
0001
1000
0000
,
0100
0010
0001
0100
,
0110
0000
0001
1000
0001
1000
0001
0000
,
1000
0100
1000
0000
0001
0100
0001
0000
,
0010
0000
0100
1000
0100
0000
1000
0010
,
1000
0000
0001
0010
0001
0010
0001
0000
,
2002
0000
0000
0000
,
0000
0000
0000
0000
0000
0000
0000
3003
0000
0000
0000
0100
0000
0010
0000
0000
,
0110
0000
0000
0000
;

//--------------- dance-single - forcednature ----------------
#NOTEDATA:;
#STEPSTYPE:dance-single;
#DESCRIPTION:forcednature;
#DIFFICULTY:Medium;
#METER:13;
#RADARVALUES:0,0,0,0,0;
#CREDIT:forcednature;
#NOTES:
0000
0000
0000
0000
,
0000
0000
0000
0000
,
0000
0000
0000
0000
,
0000
0000
0000
0000
,
0000
0000
0000
0000
,
1001
1000
0001
0001
,
0100
0010
0100
0000
0001
1000
0001
0000
,
1001
0010
1001
0100
,
0110
0000
1000
0001
0010
0000
0100
0000
,
1000
0000
0000
0000
1000
0000
0000
0000
0010
0000
0000
0010
0000
0000
0100
0000
,
0000
0000
0001
0000
0000
1000
0000
0000
0001
0000
0000
0010
0000
0000
0100
0000
,
0010
0000
0000
0000
0010
0000
0000
0000
0001
0000
0000
0001
0000
0000
1000
0000
,
0000
0000
0010
0000
0000
0100
0000
0000
0001
0000
0000
1000
0000
0000
0010
0000
,
1000
0000
0000
0000
1000
0000
0000
0000
0100
0000
0000
0100
0000
0000
0010
0000
,
0000
0000
0001
0000
0000
1000
0000
0000
0001
0000
0000
0100
0000
0000
0010
0000
,
1000
0000
0000
0000
1000
0000
0000
0000
0001
0000
0000
0010
0000
0000
0100
0000
,
0000
0000
0010
0000
0000
0001
0000
0000
1000
0000
0000
0010
0000
0000
0100
0000
,
0001
0010
0001
0100
,
1001
0010
1000
0100
,
1001
0010
0001
0100
,
1001
0010
1000
0100
,
1001
0100
1001
0010
,
1001
0100
1001
0010
,
1000
0100
1000
0010
0100
0001
0010
0001
,
0100
0100
0100
0010
,
1001
0000
1000
0100
0010
0100
1000
0001
,
0100
0010
1000
0001
0010
0100
0010
0001
,
0100
0000
0010
1000
0001
0010
0001
1000
,
0100
0010
0100
1000
0010
0100
0001
0000
,
1001
0000
1000
0010
0100
0010
1000
0100
,
0010
0001
0100
0010
0100
0001
0010
0000
,
1001
0100
0000
0100
,
1001
0100
0000
0100
,
0110
0000
0010
0001
0100
0001
1000
0100
,
1000
0010
0100
0010
1000
0001
0010
0100
,
1000
0000
0010
0100
0010
1000
0001
0010
,
0100
0000
1000
0000
0001
0000
0100
0000
0010
0000
0000
0110
0000
0000
1000
0000
,
0001
0000
0110
0000
1000
0001
0100
0010
,
1000
0000
0001
0000
0010
0000
0100
0000
1000
0000
0000
1000
0010
0000
0100
0000
,
0001
2010
3000
2010
,
3100
0000
0000
0000
0100
0000
0000
0000
0010
0000
0000
0010
0000
0010
0000
0000
,
1001
0000
0000
0000
0000
0000
0000
0202
,
0000
0000
0000
0000
0303
0000
0000
2020
,
0000
0000
0000
0000
3030
0000
0000
2002
,
0000
0000
0000
0000
3003
0000
0000
0010
,
1001
0000
0000
0000
0000
0000
0000
2200
,
0000
0000
0000
0000
3300
0000
0000
0022
,
0000
0000
0000
0000
0033
0000
0000
1002
,
0000
0000
0000
0103
0010
0000
0110
0000
,
1002
1000
0100
0100
,
1000
1000
0010
0013
,
2001
0001
0100
0100
,
0001
0000
0000
0000
0001
0000
0000
0000
0000
0010
0000
0010
3000
0000
1000
0000
,
0001
0010
0000
0010
0100
1000
0000
1000
,
0010
0100
0000
0100
0001
1000
0000
1000
,
0100
0010
0100
0010
0001
1000
0001
1000
,
0020
0000
0100
0000
0000
0130
0010
0000
,
1000
0001
0010
0001
0100
0001
0010
0001
,
1000
0010
1000
0100
1000
0001
1000
0010
,
1000
0100
0010
0100
0001
0100
0010
0100
,
1000
0000
0010
0000
0100
0000
0010
0000
1000
0000
0001
1000
0001
0000
1000
0000
,
0100
0010
0100
1000
0010
0100
0010
1000
,
0001
0010
0100
0010
0001
0100
0010
0100
,
1001
0000
1000
0100
0001
1000
0010
0001
,
2000
0000
0010
0000
0100
0100
3100
0000
,
0001
1000
0001
0000
1000
0000
0010
0000
0100
0000
0001
0000
1000
0000
0100
0000
,
0010
0100
0010
0000
0001
0000
1000
0000
0001
0000
0100
0000
0010
0000
1000
0000
,
0100
0010
0100
0000
0010
0000
0001
0000
1000
0000
0001
0000
0100
0000
0010
0000
,
1000
0010
1000
0000
0001
0000
0010
0000
0001
0000
0100
0000
0010
0000
1000
0000
,
0001
1000
0001
0000
1000
0000
0100
0000
0010
0000
0100
0000
1000
0000
0001
0000
,
1000
0010
1000
0000
0001
0000
0010
0000
0001
0000
0100
0000
0010
0000
0010
0000
,
1000
0010
1000
0000
0001
0010
0000
0001
0010
0000
0100
0010
0000
0100
1000
0000
,
0010
0000
1100
0000
0202
0000
0000
0303
,
1001
0000
1000
1000
0001
0001
1000
1000
,
0001
0000
0100
0000
0000
0000
1000
0000
0001
0000
0010
0000
1000
0010
1000
0000
,
0001
0000
0010
0001
0000
0010
0100
0000
1000
0000
0100
0000
0010
0000
0011
0000
,
0000
0000
0001
0100
0001
0000
0100
0000
0020
0000
0000
1000
0000
0000
0130
0000
,
1001
0000
0000
0000
1000
0000
0100
1000
0100
0000
0100
0000
0010
0000
0010
0000
,
0001
0000
0100
0000
1000
0000
0100
0000
0010
0000
1000
0001
0000
0000
0110
0000
,
1000
0000
0000
0000
0001
0100
0001
0000
0100
0000
0001
0000
1000
0100
1000
0000
,
0100
0000
0100
0000
0010
0000
0010
0000
0001
0000
0001
0100
0010
0000
1000
0000
,
2002
0000
0000
0000
,
0000
0000
0000
0000
0000
0000
0000
0000
0000
3003
0000
0100
0000
0010
0000
0000
,
1001
0000
0000
0000
;

//--------------- dance-single - forcednature ----------------
#NOTEDATA:;
#STEPSTYPE:dance-single;
#DESCRIPTION:forcednature;
#DIFFICULTY:Hard;
#METER:16;
#RADARVALUES:0,0,0,0,0;
#CREDIT:forcednature;
#NOTES:
0000
0000
0000
0000
,
0000
0000
0000
0000
,
0000
0000
0000
0000
,
0000
0000
0000
0000
,
0000
0000
0000
0000
,
1001
0001
0100
0100
,
0001
0000
1000
0000
0010
0000
0010
0000
0100
0001
0100
0001
1000
0000
0000
0000
,
1001
0010
1001
0010
,
1200
0000
0000
0000
0310
0000
0001
0000
0201
0000
0000
0000
0310
1000
0010
0000
,
0100
0000
0000
0100
0001
0000
0000
0100
0010
0000
0000
1000
0000
0000
0001
0000
,
0000
0000
0010
0000
0000
0100
0000
0000
1000
0000
0000
0010
0000
0000
0100
0000
,
0001
0000
0000
0001
0010
0000
0000
0001
1000
0000
0000
0010
0000
0000
0100
0000
,
0000
0000
0001
0000
0000
1000
0000
0000
0100
0000
0000
0010
0000
0000
0001
0000
,
0100
0000
0000
0010
0100
0000
0000
0010
1000
0000
0000
0001
0000
0000
0010
0000
,
0000
0000
0100
0000
0000
1000
0000
0000
0001
0000
0000
1000
0000
0000
0010
0000
,
0100
0000
0000
0001
0100
0000
0000
0001
1000
0000
0000
0100
0000
0000
0010
0000
,
0000
0000
0100
0000
0000
1000
0000
0000
0001
0000
0000
1000
0010
1000
0000
1000
,
0002
0003
0010
0000
0002
0003
0100
0000
,
2001
3000
0010
0000
2000
3000
0100
0000
,
1002
0003
0010
0000
0002
0003
0100
0000
,
2001
3000
0010
0000
2000
3000
0100
0000
,
1002
0000
0013
0100
2001
0000
3010
0100
,
1002
0000
0103
0010
2001
0000
3100
0010
,
0011
0100
1010
0100
1001
1100
1001
0101
,
0020
0000
0030
0000
0020
0000
0030
0000
0020
0000
0030
0000
0100
0010
0100
0000
,
1001
0000
0000
1000
0010
0000
0000
0010
0100
0000
0001
0010
0000
0100
0010
0000
,
0001
1000
0001
0000
0100
0010
0000
0010
1000
0000
1000
0100
0000
0100
0010
0000
,
0001
0000
0000
0001
0100
0000
0000
0100
0010
0000
1000
0001
0000
1000
0100
0000
,
0010
0001
0010
0000
0100
1000
0000
1000
0010
0000
0010
0100
0000
0100
1000
0000
,
0100
0000
0000
0001
0100
0000
0000
0001
0010
0000
0100
1000
0000
0001
0100
0000
,
0010
1000
0010
0000
0100
0001
0000
0001
0010
0000
0010
0100
0000
0100
1000
0000
,
1001
0000
0000
0000
0000
0000
0001
0000
0000
0100
0000
0000
2000
0000
0000
0000
0000
0000
0000
0000
3000
0000
0000
0000
0100
0000
0000
0000
0000
0000
0001
0000
0000
0010
0000
0000
2000
0000
0000
0000
0000
0000
0000
0000
3000
1000
0000
0000
,
0010
0000
0000
0000
0000
0000
0001
0000
0000
0100
0000
0000
2000
0000
0000
0000
0000
0000
0000
0000
3000
0000
0000
0000
0100
0000
0000
0000
0000
0000
0001
0000
0000
0010
0000
0000
2000
0000
0000
0000
0000
0000
0000
0000
3000
0000
0000
0000
,
0110
0000
0000
0001
1000
0000
0000
1000
0010
0000
0100
0001
0000
0010
0001
0000
,
0100
0010
0100
0000
0001
1000
0000
1000
0100
0000
0100
0010
0000
0010
0001
0000
,
0100
0000
0000
0010
0100
0000
0000
0010
1000
0000
0001
0010
0000
0001
0100
0000
,
0010
1000
0001
0000
0010
0100
0000
0100
1000
0000
0000
1010
0000
0000
0011
0000
,
0100
0000
0001
0010
1000
0000
0000
0000
0110
0000
0000
0001
0100
0000
0010
0000
,
1000
0100
1000
0000
0001
0100
0000
0100
0010
0000
0010
1000
0000
1000
0001
0000
,
0011
0000
0000
0000
0000
0000
0010
0000
0000
0100
0000
0000
2000
0000
0000
0000
0000
0000
0000
0000
3000
0000
0000
0000
0010
0000
0000
0000
0000
0000
1000
0000
0000
0100
0000
0000
0002
0000
0000
0000
0000
0000
0000
0000
0003
0000
0000
0000
,
0110
0000
0000
0000
0000
0000
0010
0000
0000
0000
0000
0000
2002
0000
0000
0000
0000
0000
0000
0000
3003
0000
0000
0000
1000
0000
0000
0010
0000
0000
0100
0000
0000
0010
0000
0000
0000
0000
0000
0100
0000
0000
0001
0000
0000
0000
0000
0000
,
1001
0000
1000
0000
0001
0000
0100
0020
,
1000
0000
0001
0000
1030
0000
0100
0020
,
0001
0000
1000
0000
0031
0000
0100
0020
,
1000
0000
0001
0000
1030
0000
0100
0010
,
1001
0000
0001
0000
0010
0000
0100
0020
,
0001
0000
1000
0000
0031
0000
0100
0020
,
1000
0000
0001
0000
1030
0000
0100
0020
,
0001
0000
1030
0110
1001
0000
0110
0000
,
1001
0000
0000
0001
0000
0000
0010
0000
0100
0000
0000
1000
0000
0000
0010
0000
,
0100
0000
0000
0001
0000
0000
0010
0000
0100
0000
0000
1000
0000
0000
0010
0000
,
0110
0000
0000
0100
0000
0000
0001
0000
0010
0000
0000
0100
0000
0000
1000
0000
,
0010
0000
0000
0100
0000
0000
0001
0000
0010
0100
0000
0100
1000
0000
0010
0000
,
0110
0000
0100
0001
0100
0000
0001
0010
0001
0000
1000
0010
1000
0000
0100
1000
,
0100
0000
1000
0001
0010
0000
0001
1000
0010
0000
0100
0001
1000
0000
0100
1000
,
0001
0000
0100
0001
0100
0000
0010
0100
0010
0000
1000
0010
1000
0000
0001
1000
,
0002
0000
0000
0000
0100
0000
1000
0000
0000
0000
0100
0000
1003
0001
0010
0000
,
0100
1000
0100
0010
0001
0000
1000
0000
0010
1000
0010
0100
0001
0000
1000
0000
,
0100
1000
0100
0010
0001
0000
1000
0000
0010
1000
0010
0100
0001
0000
0010
0000
,
0100
0010
0001
1000
0001
0000
0100
0000
0010
0100
0001
1000
0001
0000
0010
0000
,
0100
0010
0001
1000
0001
0000
0100
0000
0001
0000
0001
0010
1000
0000
0010
0100
,
1000
0001
0100
0001
0010
0000
0100
0000
1000
0001
0010
0001
0100
0000
0010
0000
,
0100
0010
1000
0001
0010
0000
0100
0000
0010
0100
1000
0001
0100
0000
0010
0000
,
1002
0000
0103
1000
0001
0011
0010
1010
,
1000
0001
1000
0001
0010
0000
0100
0000
0110
0000
0110
0000
0110
0000
1000
0001
,
0010
0100
0000
0100
1000
0000
0010
0000
0100
0001
1000
0010
1000
0001
0100
0000
,
0010
1000
0000
1000
0001
0000
0010
0000
0100
1000
0001
0010
0001
1000
0100
0000
,
0010
0001
0000
0001
1000
0000
0010
0000
1000
0001
0010
0100
0010
0001
1000
0000
,
0001
0100
0000
0100
0010
0000
1000
0000
0001
1000
0010
0100
0010
1000
0001
0000
,
0001
0010
0000
0100
0010
0000
0001
0000
0100
0010
1000
0001
0100
0010
1000
0000
,
0001
1000
0000
0100
1000
0000
0010
0000
1000
0100
0010
0001
1000
0100
0010
0000
,
0001
0100
0001
0000
0100
1000
0000
0100
0001
0000
0010
0001
0000
1000
0010
0000
,
1100
0000
0101
0000
0220
0000
0000
0330
,
1001
0000
0000
0000
0001
0100
0001
0100
0010
0100
0010
0100
0010
1000
0010
1000
,
0001
0000
0001
0100
1000
0000
0100
0001
1000
0010
0100
0001
0100
0010
1000
0000
,
0100
0000
0001
0100
0001
0100
0010
0100
0010
0100
1000
0001
0010
0100
1000
0000
,
0010
0000
0001
0010
1000
0000
0100
0000
1200
0000
0000
0001
0000
0000
0310
0000
,
1001
0000
0000
0000
1000
0100
1000
0100
0010
0100
0010
0100
0010
0001
0010
0001
,
1000
0000
0010
0100
1000
0000
0100
0000
0001
0010
0100
1000
0000
0010
0100
0000
,
1001
0000
0000
0000
0001
0100
0001
0100
0010
1000
0010
1000
0001
0010
0001
0010
,
0100
1000
0100
1000
0001
0000
0100
0000
0010
1000
0100
0010
0001
0000
0110
0000
,
2002
0000
0000
0000
,
0000
0000
0000
0000
0000
0000
0000
0000
0000
3003
0000
0010
0000
0010
0100
0000
,
1001
0000
0000
0000
;

//--------------- dance-double - forcednature ----------------
#NOTEDATA:;
#STEPSTYPE:dance-double;
#DESCRIPTION:forcednature;
#DIFFICULTY:Easy;
#METER:8;
#RADARVALUES:0,0,0,0,0;
#CREDIT:forcednature;
#NOTES:
00000000
00000000
00000000
00000000
,
00000000
00000000
00000000
00000000
,
00000000
00000000
00000000
00000000
,
00000000
00000000
00000000
00000000
,
00000000
00000000
00000000
00000000
,
00011000
00000000
00001000
00001000
,
01000000
01000000
00001000
00000000
,
00011000
00000000
00011000
00000000
,
00000100
00001000
00000001
00000000
,
00001001
00000000
00001000
00000000
,
00000000
00000010
00010000
00000000
,
00001000
00000000
00100000
00000000
,
00000000
00010000
00100000
00000000
,
01000000
00000000
10000000
00000000
,
00000000
01000000
00100000
00000000
,
00001000
00000000
00010000
00000000
,
00000000
00000010
00001000
00000000
,
00001001
00000000
00001000
00000000
,
00011000
00000000
00010000
00000000
,
10010000
00000000
10000000
00000000
,
10010000
00000000
00010000
00000000
,
01000000
01000000
00001000
00001000
,
00010000
00010000
00000100
00000100
,
00001000
00000001
00001000
00000001
,
00000100
00000100
00000100
00000010
,
00001001
00000000
00001000
00000100
,
00000000
00010000
00001000
01000000
,
00001000
00000000
00100000
00010000
,
00000000
00100000
01000000
10000000
,
01000000
00000000
00100000
00010000
,
00000000
00100000
00001000
00010000
,
00000010
00000110
00000000
00000110
,
00000000
00001001
00000000
00001001
,
00001000
00000100
00010000
00001000
,
00000000
01000000
00010000
01000000
,
00100000
10000000
00100000
01000000
,
00000000
00000000
00000000
00000000
00001000
00000000
00000000
00000000
00010000
00000000
00000000
00010000
00000000
00000000
00010000
00000000
,
00000000
00011000
00001000
00010000
,
00000000
00000100
00001000
00000001
,
00000100
00000110
00000000
00000110
,
00000000
00001000
00001000
00000001
,
00000010
00000000
00000000
00000000
00000000
00000000
00000000
00000200
,
00000000
00000000
00000000
00000300
00000000
00000000
00000000
00000200
,
00000000
00000000
00000000
00000300
00000000
00000000
00000000
00000200
,
00000000
00000000
00000000
00000300
00000000
00000000
00000000
00000000
,
00011000
00000000
00000000
00000000
00000000
00000000
00000000
02000000
,
00000000
00000000
00000000
03000000
00000000
00000000
00000000
02000000
,
00000000
00000000
00000000
03000000
00000000
00000000
00000000
02000000
,
00000000
00000000
00000000
03000000
00100000
00000000
00100000
00000000
,
01100000
00000000
01000000
00000000
,
00001000
00000000
00001000
00000000
,
00010000
00000000
00010000
00000000
,
00000100
00000000
00000100
00000000
,
00000010
00000001
00000010
00000001
,
00001000
00000100
00001000
00000100
,
00010000
00010000
00001000
00001000
,
02000000
00000000
00000000
03000000
,
00100000
10000000
00010000
10000000
,
01000000
10000000
00010000
10000000
,
00100000
01000000
00010000
01000000
,
00001000
01000000
00010000
01000000
,
00001000
00010000
00000100
00010000
,
00000010
00010000
00001000
00010000
,
00000100
00001000
00000100
00000010
,
00000001
00000000
00000000
00000000
00001000
00000001
00001000
00000000
,
00000010
00001000
00000100
00010000
,
00001000
01000000
00010000
00100000
,
01000000
10000000
01000000
00100000
,
00001000
00010000
00000100
00000010
,
00000001
00000100
00000010
00001000
,
00000010
00010000
00001000
00100000
,
00010000
00010000
10000000
10000000
,
00100000
00000000
01100000
00000000
,
10010000
00010000
00010000
00010000
,
00000000
01000000
00001000
00010000
,
00000100
00001000
00001000
00001000
,
00000000
00000001
00000100
00000010
,
00000110
00000000
00001000
00001000
,
00000100
00000100
00010000
00010000
,
00001000
00000000
01000000
01000000
,
00010000
00010000
10000000
10000000
,
20020000
00000000
00000000
00000000
,
00000000
00000000
00000000
00000000
00000000
00000000
00000000
00000000
00000000
00000000
00000000
30030000
00000000
00000000
00000000
00000000
,
01100000
00000000
00000000
00000000
;

//--------------- dance-double - forcednature ----------------
#NOTEDATA:;
#STEPSTYPE:dance-double;
#DESCRIPTION:forcednature;
#DIFFICULTY:Medium;
#METER:13;
#RADARVALUES:0,0,0,0,0;
#CREDIT:forcednature;
#NOTES:
00000000
00000000
00000000
00000000
,
00000000
00000000
00000000
00000000
,
00000000
00000000
00000000
00000000
,
00000000
00000000
00000000
00000000
,
00000000
00000000
00000000
00000000
,
00011000
00010000
00001000
00001000
,
01000000
00010000
01000000
00000000
00100000
10000000
00100000
00000000
,
10010000
01000000
10010000
00100000
,
00011000
00000000
00001000
00010000
00000100
00000000
00000010
00000000
,
00000001
00000000
00000000
00000000
00000001
00000000
00000000
00000000
00000100
00000000
00000000
00000100
00000000
00000000
00000010
00000000
,
00000000
00000000
00001000
00000000
00000000
00000100
00000000
00000000
00010000
00000000
00000000
00001000
00000000
00000000
01000000
00000000
,
00010000
00000000
00000000
00000000
00010000
00000000
00000000
00000000
00100000
00000000
00000000
00100000
00000000
00000000
01000000
00000000
,
00000000
00000000
10000000
00000000
00000000
00100000
00000000
00000000
10000000
00000000
00000000
01000000
00000000
00000000
00010000
00000000
,
00001000
00000000
00000000
00000000
00001000
00000000
00000000
00000000
00000010
00000000
00000000
00000010
00000000
00000000
00000001
00000000
,
00000000
00000000
00001000
00000000
00000000
00000010
00000000
00000000
00000100
00000000
00000000
00000010
00000000
00000000
00010000
00000000
,
00001000
00000000
00000000
00000000
00001000
00000000
00000000
00000000
00100000
00000000
00000000
00010000
00000000
00000000
00100000
00000000
,
00000000
00000000
01000000
00000000
00000000
10000000
00000000
00000000
00010000
00000000
00000000
10000000
00000000
00000000
00100000
00000000
,
01000000
10000000
01000000
00010000
,
00100000
01000000
00100000
00001000
,
00010000
00000100
00000010
00000100
,
00001000
00000010
00000001
00000010
,
00000110
00001000
00011000
00010000
,
01100000
00010000
00011000
00001000
,
01000000
00010000
00100000
00001000
00010000
00000010
00001000
00000100
,
00010000
00010000
00010000
00002000
,
01003000
00000000
00010000
00100000
01000000
00100000
00001000
00010000
,
00000000
00000010
00001000
00000001
00000010
00000100
00000010
00000001
,
00000100
00000000
00000010
00010000
00001000
01000000
00001000
00010000
,
00000000
00000010
00001000
00000100
00001000
00000010
00010000
00001000
,
00100000
00000000
01000000
10000000
01000000
00010000
00001000
00010000
,
00000000
00100000
01000000
00100000
10000000
00010000
10000000
01000000
,
00010000
00002000
00003100
00002000
,
00013000
00002000
00003010
00002000
,
00013000
00000000
00001000
00100000
00001000
01000000
00010000
10000000
,
00000000
01000000
00010000
00001000
00000100
00001000
00010000
00000010
,
00010000
00000000
00001000
00000010
00000100
00001000
00000001
00000010
,
00000000
00000001
00000100
00001000
00010000
01000000
10000000
00100000
,
10000000
00000000
01000000
00100000
00001000
00010000
00000100
00000010
,
00000000
00000001
00000100
00000010
00010000
00001000
00100000
00001000
,
00010000
00002000
00003010
00002000
,
00013000
00002000
00003100
00002000
,
00013000
00000000
00000000
00000000
00000000
00000000
00000000
00020200
,
00000000
00000000
00000000
00000000
00030300
00000000
00000000
02002000
,
00000000
00000000
00000000
00000000
03003000
00000000
00000000
00020020
,
00000000
00000000
00000000
00000000
00030030
00000000
00000000
00010000
,
00011000
00000000
00000000
00000000
00000000
00000000
00000000
02200000
,
00000000
00000000
00000000
00000000
03300000
00000000
00000000
00022000
,
00000000
00000000
00000000
00000000
00033000
00000000
00000000
00000220
,
00000000
00000000
00000330
00000000
,
00000001
00000100
00001000
00000100
,
00000001
00000000
00000100
00000000
00001000
00000000
00010000
01000000
,
10000000
01000000
00010000
01000000
,
10000000
00000000
00000000
00000000
01000000
00000000
00000000
00000000
00010000
00001000
00000000
00010000
00000000
00000000
00001000
00000000
,
00010000
00000100
00000000
00000100
00001000
00000010
00000000
00010000
,
00001000
00100000
00000000
00100000
00010000
01000000
00000000
01000000
,
00001000
00010000
00001000
00010000
01000000
00100000
01000000
00100000
,
00010000
00000000
01000000
00000000
10000000
01000000
00010000
00000000
,
00100000
01000000
00100000
00001000
00010000
00000010
00000100
00000000
,
00001000
00000100
00000001
00000010
00000001
00000100
00001000
00000000
,
00010000
01000000
00100000
00001000
00010000
00100000
10000000
00000000
,
01000000
00010000
00001000
00000100
00001000
00010000
00100000
00000000
,
01000000
00100000
00010000
00001000
00000100
00000010
00010000
00000000
,
00001000
00000010
00000100
00001000
00000010
00010000
00000100
00000000
,
00000110
00000000
00000010
00000001
00000100
00001000
00010000
01000000
,
20000000
00000000
00000000
00000000
00100000
00100000
30100000
00000000
,
10000000
01000000
00010000
01000000
00100000
00001000
00010000
00000010
,
00000100
00001000
00000100
00000001
00000010
00001000
00010000
01000000
,
00100000
00001000
01000000
00100000
10000000
01000000
00010000
00001000
,
00000010
00000100
00010000
00000010
00000100
00001000
00010000
00100000
,
01000000
00001000
00100000
01000000
00010000
00001000
00000010
00000001
,
00000100
00001000
00000100
00000001
00000010
00001000
00010000
01000000
,
10000000
00000000
00000000
00000000
00010000
00000000
00000000
00100000
00000000
00000000
00001000
00000000
00000000
00000010
00000000
00000000
,
00000100
00000000
00010100
00000000
02002000
00000000
00000000
03003000
,
10010000
00000000
10000000
01000000
00010000
01000000
10000000
01000000
,
00010000
00001000
00000000
00000010
00000100
00010000
00000010
00000100
,
00000000
00000000
00001000
00000000
00000000
00010000
00000000
00000000
00100000
00000000
10000000
00000000
01000000
00000000
10000000
00000000
,
00000000
00000000
00100000
00000000
00010000
00000000
00001000
00000000
00000020
00000000
00000000
00000100
00000000
00000000
00000130
00000000
,
00000010
00000000
00000001
00000100
00000010
00001000
00010000
01000000
,
00100000
00000000
10000000
00000000
00010000
00000000
10000000
00000000
01000000
00000000
00000000
00010000
00000000
00000000
00001000
00000000
,
00000010
00000000
00000001
00000100
00001000
00010000
01000000
10000000
,
01000000
00010000
00001000
00000100
00000001
00000010
00001000
00010000
,
00022000
00000000
00000000
00000000
,
00000000
00000000
00000000
00000000
00000000
00000000
00000000
00000000
00000000
00000000
00000000
00033000
00000000
00000000
00000000
00000000
,
01100000
00000000
00000000
00000000
;

//--------------- dance-double - forcednature ----------------
#NOTEDATA:;
#STEPSTYPE:dance-double;
#DESCRIPTION:forcednature;
#DIFFICULTY:Hard;
#METER:17;
#RADARVALUES:0,0,0,0,0;
#CREDIT:forcednature;
#NOTES:
00000000
00000000
00000000
00000000
,
00000000
00000000
00000000
00000000
,
00000000
00000000
00000000
00000000
,
00000000
00000000
00000000
00000000
,
00000000
00000000
00000000
00000000
,
00011000
00010000
01000000
01000000
,
10000000
00000000
00010000
00000000
01000000
00000000
01000000
00000000
00001000
00010000
00001000
00010000
00000100
00000000
00000000
00000000
,
00000110
00001000
00000110
00000001
,
00000201
00000000
00000000
00000000
00001300
00000000
00010000
00000000
00012000
00000000
00000000
00000000
00103000
00010000
00100000
00000000
,
01000000
00000000
00000000
01000000
10000000
00000000
00000000
01000000
00100000
00000000
00000000
00001000
00000000
00000000
00010000
00000000
,
00000000
00000000
00000010
00000000
00000000
00000100
00000000
00000000
00001000
00000000
00000000
00010000
00000000
00000000
00000100
00000000
,
00001000
00000000
00000000
00001000
00000001
00000000
00000000
00000100
00000001
00000000
00000000
00000010
00000000
00000000
00000100
00000000
,
00000000
00000000
00010000
00000000
00000000
00001000
00000000
00000000
00010000
00000000
00000000
00100000
00000000
00000000
10000000
00000000
,
01000000
00000000
00000000
00100000
01000000
00000000
00000000
00100000
00001000
00000000
00000000
00010000
00000000
00000000
00000100
00000000
,
00000000
00000000
00001000
00000000
00000000
00000010
00000000
00000000
00000001
00000000
00000000
00000010
00000000
00000000
00000100
00000000
,
00000001
00000000
00000000
00001000
00000001
00000000
00000000
00000010
00000100
00000000
00000000
00010000
00000000
00000000
00001000
00000000
,
00000000
00000000
01000000
00000000
00000000
00010000
00000000
00000000
10000000
00000000
00000000
01000000
10000000
01000000
00000000
01000000
,
00200000
00300000
00010000
00000000
00000020
00000030
00001000
00000000
,
00012000
00003000
00000100
00000000
00020000
00030000
01000000
00000000
,
00021000
00030000
00100000
00000000
00002000
00003000
00000010
00000000
,
00012000
00003000
00000100
00000000
00020000
00030000
01000000
00000000
,
10020000
00000000
00130000
01000000
00021000
00000000
00030010
00000100
,
00002000
00000000
01003000
00100000
00021000
00000000
00030100
00000010
,
00000001
00000100
00000010
00001000
00010000
01000000
00100000
10000000
,
02000000
03000000
02000000
03000000
02000000
03000000
00020000
00030000
,
00011000
00000000
00000000
00001000
00000010
00000000
00000000
00000010
00000100
00000000
00001000
00000001
00000000
00000100
00000001
00000000
,
00000010
00000100
00000010
00000000
00000100
00010000
00000000
00010000
00001000
00000000
00001000
01000000
00000000
01000000
00010000
00000000
,
10000000
00000000
00000000
10000000
01000000
00000000
00000000
01000000
00100000
00000000
00001000
00010000
00000000
00000010
00010000
00000000
,
00001000
00100000
00001000
00000000
00010000
00000100
00000000
00000100
00001000
00000000
00001000
00000001
00000000
00000001
00000100
00000000
,
00000010
00000000
00000000
00010000
00000010
00000000
00000000
00010000
00001000
00000000
00100000
00010000
00000000
10000000
00100000
00000000
,
01000000
00010000
01000000
00000000
00001000
00010000
00000000
00010000
00000100
00000000
00000100
00001000
00000000
00001000
00000010
00000000
,
00000110
00000000
00000100
00001000
00020000
00000000
00000000
00000000
00130000
00000000
00010000
00001000
00000200
00000000
00000000
00001300
,
00010000
00000000
01000000
00010000
00002000
00000000
00000000
00000000
00003010
00000000
00001000
00010000
02000000
00000000
00000000
03000000
,
01100000
00000000
00000000
00100000
00001000
00000000
00000000
00001000
00010000
00000000
00000010
00010000
00000000
00000100
00001000
00000000
,
00000100
00000010
00000100
00000000
00000010
00000001
00000000
00000001
00000100
00000000
00000100
00000010
00000000
00000010
00010000
00000000
,
00001000
00000000
00000000
00100000
00010000
00000000
00000000
00100000
01000000
00000000
10000000
00010000
00000000
01000000
00010000
00000000
,
00100000
00001000
00010000
00000000
00000010
00001000
00000000
00001000
00000100
00000000
00000000
00000110
00000000
00000000
00001001
00000000
,
00000001
00000000
00000100
00001000
00010000
00000000
00000000
00000000
00011000
00000000
00000000
00001000
01000000
00000000
00010000
00000000
,
10000000
01000000
10000000
00000000
00100000
01000000
00000000
01000000
00001000
00000000
00001000
00010000
00000000
00010000
00000100
00000000
,
00000110
00000000
00000010
00001000
00020000
00000000
00000000
00030000
01000000
00000000
00010000
00001000
00000200
00000000
00000000
00000300
,
00000110
00000000
00000000
00000000
00000000
00000000
00000000
00000000
00000000
00000000
00000000
00000000
00022000
00000000
00000000
00000000
00000000
00000000
00000000
00000000
00033000
00000000
00000000
00000000
01000000
00000000
00000000
00010000
00000000
00000000
10000000
00000000
00000000
00010000
00000000
00000000
00000000
00000000
00000000
00100000
00000000
00000000
01000000
00000000
00000000
00000000
00000000
00000000
,
01100000
00000000
01000000
00000000
00010000
00000000
00001000
00000100
,
00000010
00000000
00000100
00000000
00001000
00000000
00010000
01000000
,
00100000
00000000
01000000
00000000
00010000
00000000
00001000
00000100
,
00000010
00000000
00000100
00000000
00001000
00000000
00010000
00100000
,
01100000
00000000
01000000
00000000
00001000
00000000
00010000
00000100
,
00000010
00000000
00000100
00000000
00010000
00000000
00001000
01000000
,
00100000
00000000
01000000
00000000
00001000
00000000
00010000
00000100
,
00000010
00000000
00000100
00010100
00101000
00000000
01100000
00000000
,
10010000
00000000
00000000
10000000
00000000
00000000
01000000
00000000
00010000
00000000
00000000
00001000
00000000
00000000
00000100
00000000
,
00000001
00000000
00000000
00000010
00000000
00000000
00000001
00000000
00000100
00000000
00000000
00001000
00000000
00000000
00010000
00000000
,
00011000
00000000
00000000
00001000
00000000
00000000
00010000
00000000
00100000
00000000
00000000
10000000
00000000
00000000
01000000
00000000
,
00010000
00000000
00000000
00001000
00000000
00000000
00000010
00000000
00000100
00001000
00000000
00001000
00000001
00000000
00000100
00000000
,
00000010
00000000
00001000
00000010
00001000
00000000
00000010
00010000
00000010
00000000
00010000
00001000
00010000
00000000
00001000
00100000
,
00001000
00000000
00100000
00010000
10000000
00000000
00100000
01000000
00010000
00000000
01000000
00001000
00010000
00000000
00000100
00010000
,
00001000
00000000
00000010
00000100
00000010
00000000
00000001
00000100
00000001
00000000
00001000
00000100
00001000
00000000
00000100
00010000
,
00002000
00000000
00000000
00000000
01000000
00000000
00000000
00000000
00000000
00000000
01003000
00000000
00001000
00010000
00001000
00000000
,
01000000
00010000
01000000
00100000
10000000
00000000
01000000
00000000
00100000
00010000
00100000
00001000
00010000
00000000
00000010
00000000
,
00001000
00000100
00001000
00000001
00000100
00000000
00000010
00000000
00001000
00000100
00010000
00001000
00010000
00000000
00100000
00000000
,
01000000
00010000
10000000
00010000
00100000
00000000
01000000
00000000
10000000
01000000
00100000
00010000
00100000
00000000
00001000
00000000
,
00010000
00000010
00001000
00000010
00000100
00000000
00000001
00000000
00000010
00000000
00000010
00000100
00010000
00000000
00001000
00010000
,
00001000
01000000
00010000
01000000
00100000
00000000
10000000
00000000
01000000
00100000
00010000
00100000
00001000
00000000
00010000
00000000
,
00000010
00001000
00000010
00000100
00000001
00000000
00000010
00000000
00000100
00001000
00000100
00010000
00001000
00000000
01000000
00000000
,
01200000
00000000
10300000
01000000
00100000
00101000
00001000
00011000
,
00010000
00000010
00001000
00000010
00000100
00000000
00000001
00000000
00001001
00000000
00001001
00000000
00001001
00000000
00001000
00000100
,
00010000
00001000
00000000
00001000
01000000
00000000
00010000
00000000
10000000
01000000
00100000
00010000
00100000
01000000
10000000
00000000
,
00010000
01000000
00000000
01000000
00001000
00000000
00010000
00000000
00000100
00001000
00000001
00000010
00000001
00001000
00000100
00000000
,
00010000
00001000
00000000
00001000
01000000
00000000
00010000
00000000
00100000
01000000
10000000
00010000
10000000
01000000
00100000
00000000
,
00001000
00010000
00000000
00010000
00000010
00000000
00001000
00000000
00000100
00000010
00000001
00001000
00000001
00000010
00000100
00000000
,
00010000
00001000
00000000
01000000
00010000
00000000
00100000
00000000
01000000
10000000
00010000
00100000
00010000
10000000
01000000
00000000
,
00100000
00001000
00000000
00010000
00001000
00000000
01000000
00000000
00001000
00010000
00000100
00001000
00000100
00010000
00001000
00000000
,
01000000
00010000
01000000
00000000
00010000
00100000
00000000
01000000
00010000
00000000
00001000
00000010
00000000
00000100
00001000
00000000
,
00010100
00000000
01001000
00000000
02200000
00000000
00000000
03300000
,
10010000
00000000
00000000
00000000
10000000
01000000
10000000
01000000
00100000
01000000
00100000
01000000
00100000
00001000
00100000
00001000
,
00010000
00000000
00000010
00001000
00000010
00000000
00000100
00000001
00001000
00000001
00000010
00000100
00001000
00000100
00010000
00000000
,
00001000
00000000
01000000
00010000
01000000
00001000
00010000
00000100
00001000
00000100
00000010
00000001
00001000
00000001
00000100
00000000
,
00001000
00000000
00010000
00001000
00010000
00000000
00100000
00000000
20000000
00000000
00000000
01000000
00000000
00000000
30100000
00000000
,
10010000
00000000
00000000
00000000
10000000
01000000
10000000
01000000
00010000
01000000
00010000
01000000
00010000
00001000
00010000
00001000
,
00100000
00000000
00010000
01000000
00001000
00000000
00010000
00000000
00000100
00001000
00000001
00000100
00000010
00001000
00000001
00000000
,
00000010
00000000
00000000
00000000
00000100
00001000
00000100
00001000
00000100
00010000
00000100
00010000
00001000
01000000
00001000
01000000
,
00010000
10000000
00010000
10000000
01000000
00000000
00100000
00000000
00001000
00010000
00000010
00001000
00000100
00000010
00000001
00000000
,
00002002
00000000
00000000
00000000
,
00000000
00000000
00000000
00000000
00000000
00000000
00000000
00000000
00000000
00003003
00000000
00000001
00000000
00000100
00001000
00000000
,
00011000
00000000
00000000
00000000
;
