#VERSION:0.83;
#TITLE:爆ゼニ☆がってんワーカー;
#SUBTITLE:;
#ARTIST:ARM×狐夢想 feat. ななひら;
#TITLETRANSLIT:Bakuzeni gatten worker;
#SUBTITLETRANSLIT:;
#ARTISTTRANSLIT:ARM×Komso feat. nanahira;
#GENRE:勤労☆電波;
#CREDIT:;
#MUSIC:Bakuzeni gatten worker.ogg;
#BANNER:Bakuzeni gatten worker.png;
#BACKGROUND:Bakuzeni gatten worker-bg.png;
#CDTITLE:./CDTitles/bm IIDX 26 Rootage.png;
#SAMPLESTART:83.868;
#SAMPLELENGTH:15.000;
#SELECTABLE:YES;
#OFFSET:1.037;
#BPMS:0.000=195.000;
#STOPS:;
#TIMESIGNATURES:0.000=4=4,
144.000=6=4,
150.000=5=4,
160.000=3=4,
184.000=4=4,
384.000=2=4,
386.000=5=4
;
#BGCHANGES:3.000=Bakuzeni gatten worker.mp4=1.000=0=0=0=StretchNoLoop====,
99999.000=-nosongbg-=1.000=0=0=0=StretchNoLoop====
;
#FGCHANGES:;

//--------------- dance-single - forcednature ----------------
#NOTEDATA:;
#STEPSTYPE:dance-single;
#DESCRIPTION:forcednature;
#CREDIT:forcednature;
#DIFFICULTY:Beginner;
#METER:4;
#RADARVALUES:0,0,0,0,0;
#NOTES:
0000
0000
0000
0000
,
0000
0000
0000
0000
,
0000
0000
0000
0000
,
0000
0000
0000
0000
,
0000
0000
0000
0000
,
0000
0000
0000
0000
,
0000
0000
0000
0000
,
0000
0000
0000
0000
,
0000
0000
0000
0000
,
0000
0000
0000
0000
,
0000
0000
0000
0000
,
0000
0000
0000
0000
,
0000
0000
0000
0000
,
1000
0000
1000
0000
,
1000
0000
0000
0000
,
0001
0000
0000
0000
,
0100
0000
0000
0000
,
0001
0000
0001
0000
,
0001
0000
0000
0000
,
1000
0000
0000
0000
,
0100
0000
0000
0000
,
0010
0000
0000
0000
,
0001
0000
0000
0000
,
0010
0000
0001
0000
,
0010
0000
0000
0000
,
0001
0000
0000
0000
,
0100
0000
0000
0000
,
0010
0000
0000
0000
,
1000
0000
0001
0000
,
1000
0000
0000
0000
,
0100
0000
0000
0000
,
0010
0000
0000
0000
,
0001
0000
0000
0000
,
0100
0000
0000
0000
,
0010
0000
0000
0000
,
1000
0000
0000
0000
,
2002
0000
0000
0000
,
3003
0000
0000
0000
,
0000
0000
0000
0000
,
0000
0000
0000
0000
,
0001
0000
0000
1000
,
0000
0000
0010
0000
,
0000
0100
0000
0000
,
0001
0000
0000
1000
,
0000
0000
0200
0000
,
0000
0000
0000
0300
,
0000
0000
0000
0000
,
1000
0000
0001
0000
,
0100
0000
0000
0000
,
0010
0000
0000
0000
,
1000
0000
0000
0000
,
0001
0000
0001
0000
,
0001
0000
0000
0000
,
0010
0000
0000
0000
,
0100
0000
0000
0000
,
1000
0000
1000
0000
,
1000
0000
0000
0000
,
0001
0000
0000
0000
,
0100
0000
0010
0000
,
0100
0000
0000
0000
,
0010
0000
1000
0000
,
0010
0000
0000
0000
,
1000
0000
0001
0000
,
2002
0000
0000
0000
,
3003
0000
0000
0000
,
1000
0000
0000
0000
,
0001
0000
0000
0000
,
0100
0000
0100
0000
,
0010
0000
0000
0000
,
1000
0000
1000
0000
,
1000
0000
0000
0000
,
0001
0000
0010
0000
,
0100
0000
1000
0000
,
0001
0000
0001
0000
,
0001
0000
0000
0000
,
0010
0000
0010
0000
,
0100
0000
1000
0000
,
0010
0000
0010
0000
,
0010
0000
0000
0000
,
0100
0000
0001
0000
,
1001
0000
0000
0000
,
1000
0000
0001
0000
,
0001
0000
1000
0000
,
0010
0000
0100
0000
,
0000
1001
0000
0000
,
0100
0000
0100
0000
,
0010
0000
0000
0000
,
1000
0000
1000
0000
,
1000
0000
0000
0000
,
0001
0000
0000
0000
,
0010
0000
0000
0000
,
0001
0000
0001
0000
,
0001
0000
1000
0000
,
0010
0000
0000
0000
,
0100
0000
0000
0000
,
0001
0000
1000
0000
,
0100
0000
2002
0000
,
0000
0000
0000
3003
;

//--------------- dance-single - forcednature ----------------
#NOTEDATA:;
#STEPSTYPE:dance-single;
#DESCRIPTION:forcednature;
#CREDIT:forcednature;
#DIFFICULTY:Easy;
#METER:9;
#RADARVALUES:0,0,0,0,0;
#NOTES:
0000
0000
0000
0000
,
0000
0000
0000
0000
,
0000
0000
0000
0000
,
0000
0000
0000
0000
,
0000
0000
0000
0000
,
0000
0000
0000
0000
,
0000
0000
0000
0000
,
0000
0000
0000
0000
,
0000
0000
0000
0000
,
0000
0000
0000
0000
,
0000
0000
0000
0000
,
0000
0000
0000
0000
,
0000
0000
0000
0000
,
1001
0000
0110
0000
,
1000
0001
1001
0000
,
0110
0000
1001
0000
,
0001
1000
1001
0000
,
1100
0000
0101
0000
,
0010
0010
0100
0100
,
1000
0000
0001
0000
,
0100
0100
0002
0003
,
1000
0010
1000
0010
,
0100
0000
0001
0000
0100
0001
0100
0000
,
0001
0010
0001
0010
,
0100
0000
1000
0000
0200
0000
0300
0100
,
1000
0001
1000
0010
,
0100
0000
0001
0000
1000
0001
1000
0000
,
0002
0000
2003
0000
,
3100
0000
0100
0000
1000
0001
1000
0000
,
0010
0010
0010
0010
,
1000
0001
0010
0100
,
0010
0010
0010
0010
,
0001
1000
0020
0030
,
1000
1000
0100
0100
,
0010
0010
0001
0001
,
0200
0000
0000
0300
,
2002
0000
0000
0000
,
3003
0000
0000
0000
,
0000
0000
0000
0000
,
0000
0000
0000
0000
,
1000
0000
0000
0001
,
0000
0000
0100
0000
,
0000
0010
0000
0000
,
1000
0000
0000
0001
,
0000
0000
0010
0000
,
0000
2002
0000
3003
,
0000
0000
0000
0000
,
1001
0000
0110
0000
,
1000
0001
1001
0000
,
0001
0100
0010
1000
,
0001
0100
0010
0000
,
1000
0001
1000
0001
,
0100
0100
0100
0000
,
0001
0010
0100
1000
,
0010
0010
1000
0000
,
0100
0100
0010
0010
,
0100
0100
0010
0000
,
1001
0000
0001
0100
,
0010
1000
0001
0000
,
1000
0100
1000
0010
,
0100
0001
1000
0000
,
1010
0000
0001
0000
,
0011
0000
1000
0000
,
2002
0000
0000
0000
,
0000
0000
3003
0000
,
1001
0000
0000
0000
,
0110
0000
0000
0000
,
1000
0001
1000
0001
,
0200
0000
0020
0330
,
1001
0110
1000
0001
,
0100
0010
1000
0000
,
0001
0010
0100
1000
,
0001
1000
0000
0001
1000
0000
0000
0000
,
0010
0100
0001
1000
,
0100
0010
0001
0000
,
0100
0100
1000
1000
,
0100
0001
0001
1001
,
1000
0100
1000
0010
,
0100
0001
0010
0000
,
0100
1000
0010
0100
,
0001
1000
0000
0001
1000
0000
0000
0000
,
0002
0000
0000
0010
0000
0013
0000
0000
,
2000
0000
0000
0010
0000
3010
0000
0000
,
2002
3003
0220
0330
,
0000
2002
0000
3003
,
1000
1000
0001
0001
,
0010
0100
0220
0330
,
1001
0000
0110
0000
,
1000
0001
1001
0000
,
1010
0000
0011
0000
,
0010
0100
0110
0000
,
1000
1000
0001
0001
,
1000
0001
1000
0000
0001
1000
0001
0000
,
0020
0030
0200
0300
,
1000
0001
0200
0300
,
0001
0000
1000
0000
0001
0000
1000
0001
,
1000
0000
2002
0000
,
0000
0000
0000
3003
;

//--------------- dance-single - forcednature ----------------
#NOTEDATA:;
#STEPSTYPE:dance-single;
#DESCRIPTION:forcednature;
#CREDIT:forcednature;
#DIFFICULTY:Medium;
#METER:13;
#RADARVALUES:0,0,0,0,0;
#NOTES:
0000
0000
0000
0000
,
0000
0000
0000
0000
,
0000
0000
0000
0000
,
0000
0000
0000
0000
,
0000
0000
0000
0000
,
0000
0000
0000
0000
,
0000
0000
0000
0000
,
0000
0000
0000
0000
,
0000
0000
0000
0000
,
0000
0000
0000
0000
,
0000
0000
0000
0000
,
0000
0000
0000
0000
,
0000
0000
0000
0000
,
0001
0100
0001
0000
1000
0100
1000
0000
,
0010
0010
0010
0000
0110
0000
1001
0000
,
1000
0010
1000
0000
0001
0010
0001
0000
,
0100
0000
0000
0100
0010
0000
0000
0000
0100
0000
0000
0000
1001
0000
0000
0000
,
1000
0100
0010
0000
0001
0100
0010
0000
,
0100
0100
0100
0000
0001
0100
1000
0100
,
0020
0030
0200
0300
,
0001
1000
0100
0020
,
0130
0000
1000
0000
0001
0100
0001
0000
,
1000
0000
0010
0000
1000
0100
1000
0000
,
0010
0000
0100
0000
0001
1000
0001
0000
,
0010
0000
0000
0000
0100
0000
0000
0000
1000
0000
0000
0001
0000
0000
1000
0000
,
0001
0000
0100
0000
0010
1000
0010
0000
,
1000
0000
0100
0000
0010
0001
0010
0000
,
0200
0300
0020
0030
,
0100
0000
0000
0000
0000
0000
0000
0000
1000
0000
0000
0000
0000
0000
0000
0000
0001
0000
0000
0000
0000
0000
0000
0000
0100
0000
0000
0000
0000
0000
0100
0000
0000
0000
0000
0000
0100
0000
0000
0000
0000
0000
0000
0000
0000
0001
0000
0000
,
2000
3200
0302
0203
,
1300
0001
1000
0001
1000
0000
0010
0000
,
0200
1000
0010
0301
,
0100
0001
0100
0001
0200
0000
0300
0000
,
0001
0001
1000
1000
,
0100
1000
0100
1000
0100
1000
0001
0100
0001
0100
0001
0100
,
0020
0000
0000
0030
,
2002
0000
0000
0000
,
3003
0000
0000
0000
,
0000
0000
0000
0000
,
0000
0000
0000
0000
,
0010
0000
0010
0100
,
0000
0100
0001
0000
,
0001
1000
0000
1000
,
0100
0000
0100
0010
,
0000
0010
0001
0000
,
0100
2002
0000
3003
,
0000
0000
0000
0000
,
0110
0000
1001
0000
,
0110
0110
0220
0330
,
0001
0100
0001
0000
1000
0100
1000
0000
,
0010
0100
0001
1000
0100
0010
0001
0000
,
0100
0100
0100
0000
0010
0010
0010
0000
,
1000
0001
1000
0100
0010
0001
0100
0000
,
0001
0100
0001
0000
1000
0100
1000
0000
,
0010
0100
0001
1000
0010
0100
0001
0000
,
1100
1000
0101
0001
,
0010
0100
0010
0000
0100
0010
0100
0000
,
1001
2000
0010
3100
,
1000
0000
0001
0010
0000
0001
0010
0000
,
0100
0000
1000
0000
0001
1000
0001
0000
,
1000
0000
0010
0000
0100
0001
0100
0000
,
0010
0000
1000
0000
0100
0010
0100
0000
,
1000
0000
0001
0000
0100
0010
0100
0000
,
2002
0000
0000
0000
,
0000
0000
0000
3003
,
2200
0000
3300
0000
,
0202
0000
0303
0000
,
1001
0110
1001
0110
,
1001
0000
0000
0001
1000
0002
2000
0000
0000
3003
0000
0000
,
0101
0000
1100
0000
0010
0001
1000
0000
,
0001
0100
0010
1000
0001
0000
0100
0000
,
0010
0100
0001
0000
0010
0001
0100
0000
,
0001
0101
0000
1000
1100
0000
0010
0000
,
1010
0000
0011
0000
0001
1000
0010
0000
,
0100
0001
1000
0100
0010
0010
0010
0000
,
0110
0000
0000
1001
0000
0000
0001
0100
0010
1000
0100
0010
,
0001
0000
0100
0100
0100
0000
1001
0000
,
0101
0000
1100
0000
0010
1000
0001
0000
,
1000
0100
0010
0001
0100
0000
0010
0000
,
1000
0001
0010
0000
0001
1000
0010
0000
,
0100
0101
0000
0100
1100
0000
0010
0000
,
1001
0000
0001
0100
0000
1000
0000
0100
,
0010
0000
1000
0100
0000
0001
0000
0100
,
1000
1000
1000
0010
0001
0001
0001
0010
,
0000
0220
0000
0330
,
0001
0001
0001
0000
1000
1000
1000
0000
,
0100
0100
0100
0100
0200
0000
0300
0000
,
0100
0010
0001
0000
0100
0010
1000
0000
,
0100
0100
0100
0000
0110
0000
1001
0000
,
0001
0100
0010
0000
1000
0100
0010
0000
,
0001
0000
0000
0001
1000
0000
0000
0000
0010
0000
0000
0000
1001
0000
0000
0000
,
0001
0100
0010
1000
0001
0010
0100
1000
,
0010
0100
0010
0100
0001
1000
0001
1000
,
0200
0300
0020
0030
,
0001
0001
0001
0020
,
0130
0000
0000
0000
0000
0000
1000
0000
0001
0000
1000
0000
0001
0000
0000
0100
0000
0000
0010
0000
0000
1000
0000
0000
,
0001
0000
2002
0000
,
0000
0000
0000
3003
;

//--------------- dance-single - forcednature ----------------
#NOTEDATA:;
#STEPSTYPE:dance-single;
#DESCRIPTION:forcednature;
#CREDIT:forcednature;
#DIFFICULTY:Hard;
#METER:15;
#RADARVALUES:0,0,0,0,0;
#NOTES:
0000
0000
0000
0000
,
0000
0000
0000
0000
,
0000
0000
0000
0000
,
0000
0000
0000
0000
,
0000
0000
0000
0000
,
0000
0000
0000
0000
,
0000
0000
0000
0000
,
0000
0000
0000
0000
,
0000
0000
0000
0000
,
0000
0000
0000
0000
,
0000
0000
0000
0000
,
0000
0000
0000
0000
,
0000
0000
0000
0000
,
1100
0100
1000
0000
0101
0100
0001
0000
,
1000
0001
0100
0010
1001
0010
0100
0000
,
0101
0010
1000
0000
1100
0010
0001
0000
,
1000
0000
0001
0100
0001
0000
0010
0000
0100
0000
0000
0000
1001
0000
0000
0000
,
0011
0010
0100
0000
1010
0010
0100
0000
,
0001
0000
1000
0100
1000
0000
0001
0100
0001
0100
0010
1000
0010
0000
1000
0001
,
2000
0000
3200
0000
,
0310
0100
0010
0002
,
1003
0010
0100
0001
0010
0001
1000
0000
,
0100
0000
0001
0000
0100
0000
0010
0000
0100
0000
1000
0001
1000
0000
0010
0000
,
0100
0000
0001
0000
1000
0000
0010
0000
1000
0100
1000
0000
0001
0100
0001
0000
,
0010
0000
0000
0010
0100
0000
1000
0000
0001
0000
1000
0010
0100
0001
1000
0000
,
0100
0010
0001
1000
0010
0100
0001
0000
,
0100
1000
0100
0001
0010
0100
1000
0000
,
0002
0000
0203
0000
,
0310
0000
0000
0000
0000
0000
0000
0000
1000
0000
0000
0000
0000
0000
0000
0000
0001
0000
0000
0000
0010
0000
0000
0000
0100
0000
0000
1000
0000
0000
0100
0000
0000
1000
0000
0000
0100
0000
0000
0010
0000
0000
0000
0000
0000
0001
0000
0000
,
1000
0000
0000
1000
0010
0000
0000
0010
0001
0000
0000
0001
0010
0000
0000
0010
,
1000
0001
0100
0010
2000
0000
3002
0000
,
0013
0000
0000
0010
1000
0000
0000
1000
0010
0000
0000
0010
0001
0000
0000
0001
,
0100
0010
0100
1000
0100
0001
0010
0000
,
0001
0000
1000
0100
1000
0000
0001
0100
0001
0000
1000
0010
1000
0000
0001
0010
,
0001
0100
0010
1000
0100
0010
0001
0100
0001
1000
0100
1000
,
0020
0000
0000
0000
,
0200
0000
0000
0000
,
0330
0000
0000
0000
,
0000
0000
0000
0000
,
0000
0000
0000
0000
,
0002
0000
0000
0000
0000
0000
0000
0000
0103
0001
1000
0010
2000
0000
0000
0000
,
0000
0000
3100
0010
0002
0000
0000
1003
,
0001
1000
0020
0000
0000
0000
0230
0000
,
0302
0000
0000
0000
0010
0000
0000
0000
1000
0000
0103
0001
2000
0000
0000
0000
,
0010
0000
0001
0000
3200
2300
3002
0203
,
0320
2030
3002
0000
0000
0000
0000
0000
,
1003
0100
0010
0001
,
0101
0010
1100
0010
,
0101
1100
2002
3003
,
0001
0000
0000
0001
0100
0000
0010
0000
1000
0000
0000
1000
0100
0000
0010
0000
,
0100
0000
1000
0000
0001
0000
0100
0000
0001
0000
1000
0000
0100
0010
0100
0000
,
1000
0000
0001
0100
0000
0000
0100
0000
0001
0000
1000
0100
0000
0000
0100
0000
,
1000
0100
0010
0000
0001
0100
0010
0000
1000
0000
0001
1000
0000
0000
1000
0000
,
0010
1000
0010
1000
0010
0000
0000
0000
0100
0001
0100
0001
0100
0000
0000
0000
,
0001
0010
0100
0000
1000
0010
0100
0000
0001
1000
0001
1000
0001
1000
0001
0000
,
1000
0000
1000
0001
0000
0000
0100
0000
0001
0000
0001
1000
0000
0000
0100
0000
,
0110
0000
0110
0000
0001
0100
1000
0100
,
0010
0000
1002
0000
0013
0000
0001
0100
,
0010
1000
0100
0010
0000
0001
1000
0000
,
0101
0000
1100
0000
0001
1000
0010
0100
,
0001
0000
1000
0100
1000
0000
0010
0000
0100
0000
0001
0010
0100
0000
1000
0000
,
0001
0000
0000
0100
0010
0000
1000
0000
0001
0000
0000
0010
0100
0000
1000
0000
,
0001
0000
0100
0010
1000
0000
0001
0000
1000
0000
0100
0010
0001
0000
0100
0000
,
0120
0001
0100
1000
,
0100
0001
0100
1030
,
2002
0000
3003
0000
,
0220
0000
0330
0000
,
1100
0101
1010
0011
,
2001
0000
0000
3001
0100
0010
2000
0000
0000
3001
0000
0000
,
1100
0000
0101
0000
1000
0001
0100
0010
,
1000
0001
0010
1000
0001
0100
1000
0000
,
0010
0001
0010
1000
0010
0100
0001
1000
,
1001
0000
0101
0000
0000
0000
1001
0000
1100
0000
1000
0001
1000
0000
0010
0000
,
0110
0000
1001
0000
0001
0100
0010
0001
,
0010
0000
1000
0000
0001
0000
0010
0000
0100
1000
0100
1000
0010
0000
0000
0000
,
1001
0000
0001
0100
0000
0010
1000
0100
0001
0100
1000
0010
,
1000
0000
0000
0000
0100
0000
0010
0000
0000
0010
0000
0000
0010
0000
0000
0000
0000
0000
1001
0000
0000
0000
0000
0000
,
0101
0000
1100
0000
0001
0010
0100
1000
,
0010
0001
0010
1000
0001
0010
0100
0000
,
0001
0000
0100
0000
1000
0000
0010
0000
1000
0000
0001
0010
0001
0000
0000
0000
,
0101
0000
1010
0000
0000
0000
1100
0000
0011
0000
0001
1000
0010
0000
0000
0000
,
0100
0001
0100
1100
0000
0101
0000
0010
,
1000
0001
0010
1010
0000
0011
0000
1000
,
0100
0100
1100
0001
0100
0100
0101
1000
,
0000
0000
0001
1000
0020
0000
0000
0000
0001
0000
0000
0000
0130
0000
0010
0000
,
1000
1000
1000
0000
0001
0001
0001
0000
,
0100
0000
0100
0010
0100
0000
0100
0000
0220
0000
0000
0000
0330
0000
0000
0000
,
0101
0010
1000
0000
1100
0010
0001
0000
,
0110
1000
0001
0100
1001
0010
0100
0000
,
1100
0010
0101
0000
0011
0100
1010
0000
,
0001
0000
0010
0100
1000
0000
0001
0000
0100
0000
0000
0000
0110
0000
0000
0000
,
0101
0000
0001
0010
0100
1000
0001
0000
1000
0000
0010
0100
0000
0001
1000
0000
,
0100
0000
0010
0001
0000
0100
0010
0000
1000
0100
0010
0001
0000
1000
0001
0000
,
0200
0000
0320
0000
,
0130
0100
2002
3003
,
0001
0000
0000
0000
0000
0000
0100
0000
0010
0000
1000
0000
0001
0000
0000
0010
0000
0000
1000
0000
0000
0010
0000
0000
,
0001
0000
0000
0100
0010
0000
0000
0000
2002
0000
0000
0000
0000
0000
0000
0000
,
0000
0000
0000
3003
;

//--------------- dance-single - forcednature ----------------
#NOTEDATA:;
#STEPSTYPE:dance-single;
#DESCRIPTION:forcednature;
#CREDIT:forcednature;
#DIFFICULTY:Challenge;
#METER:18;
#RADARVALUES:0,0,0,0,0;
#NOTES:
0000
0000
0000
0000
,
0000
0000
0000
0000
,
0000
0000
0000
0000
,
0000
0000
0000
0000
,
0000
0000
0000
0000
,
0000
0000
0000
0000
,
0000
0000
0000
0000
,
1000
0100
1000
0000
0001
0100
0001
0000
1000
0100
1000
0000
0001
0100
0001
0000
,
1000
0010
1000
0000
0001
0010
0001
0000
1000
0010
1000
0000
0001
0010
0001
0000
,
1000
0100
0010
0001
0010
0100
1000
0000
0001
0100
0010
1000
0010
0100
0001
0000
,
1000
0100
0010
0001
0100
0010
1000
0001
1000
0100
0010
0001
0100
0010
1000
0001
,
1000
0001
0010
0100
1000
0001
1000
0010
0100
0001
0010
0100
,
2002
0000
3003
0000
,
0101
0000
1000
0010
1000
0000
0001
0000
1100
0000
0001
0010
0001
0000
1000
0000
,
0110
0000
0001
1000
0001
0000
0010
0000
0100
1000
0001
1000
0010
0000
0100
0000
,
0101
0000
1000
0100
0010
0000
0001
0000
1100
0000
0001
0100
0010
0000
1000
0000
,
1001
0000
1000
0001
0010
0001
0100
0010
1000
0000
0000
0000
1001
0000
0000
0000
,
1100
0000
0001
0100
0010
1000
0001
0000
0101
0000
1000
0100
0010
0001
1000
0000
,
1001
0000
0001
0100
0010
0000
1000
0001
0010
0100
1000
0001
1000
0010
0100
0001
,
0020
0030
0200
0300
,
1000
0000
0020
0030
0200
0300
0002
0000
,
0013
0001
0100
0001
1000
0010
0001
0010
,
0100
0000
0001
0000
1000
0000
0100
0000
0001
0000
0100
0010
0001
0000
1000
0000
,
0010
0000
1000
0000
0001
0000
0100
0000
0010
1000
0100
0000
0010
0001
0100
0000
,
0010
0000
1000
0001
0010
0000
0100
0000
1000
0000
0001
0100
1000
0100
0001
0000
,
0010
0100
0001
0100
1000
0001
1000
0010
,
0001
0010
0100
0001
1000
0100
0110
0000
,
2002
0000
0000
3003
,
1100
0000
0000
0000
0000
0000
0000
0000
0011
0000
0000
0000
0000
0000
0000
0000
0001
0000
0000
0000
0100
0000
0000
0000
0010
0000
0000
1000
0000
0000
0001
0000
0000
0010
0000
0000
0100
0000
0000
1000
0000
0000
0000
0000
0000
0001
0000
0000
,
1000
0100
1000
0000
0001
0100
0001
0000
1000
0100
1000
0000
0001
0100
0001
0000
,
0010
0000
0010
0000
0010
0000
0100
0000
1000
0000
0001
0100
0010
0000
1000
0000
,
0001
0000
0010
0100
1000
0000
0001
0010
0100
0000
1000
0010
0100
0000
0001
1000
,
0010
0000
0010
0100
0010
0000
1000
0000
0001
0100
0001
0100
0001
0100
0001
0100
,
0010
0000
1000
0100
0010
0000
0001
0100
0010
0000
1000
0001
0010
0000
0001
1000
,
0010
0100
0001
1000
0100
0001
0100
1000
0010
0100
1000
0100
,
0001
1000
0001
1000
0001
1000
0001
1000
0001
1000
0001
1000
,
0200
0020
0000
0000
0000
0000
0000
0000
,
0330
0000
0000
0000
0000
0000
1000
0100
0020
0000
0000
0000
,
0000
0000
0000
0000
0000
0000
0000
0031
0000
0000
0100
0000
,
0000
0000
0000
0000
0000
0000
0000
0000
0010
0000
0000
0000
0000
0000
0000
0000
0000
0000
0000
0000
0000
0000
0000
0000
1000
0000
0000
0000
0000
0000
0000
0000
0000
0100
0000
0000
0000
0000
0000
0000
0000
0000
0010
0000
0000
0000
0000
0000
0000
0000
0000
0001
0000
0000
0000
0000
0000
0000
0000
0000
0100
0000
0000
0000
0000
0000
0000
0000
0000
0010
0000
0000
0000
0000
0000
0000
0000
0000
1000
0000
0000
0000
0000
0000
0000
0000
0000
0000
0000
0000
0000
0000
0000
0000
0000
0000
,
0002
0000
0000
0000
1000
0000
0000
0000
0013
0001
0100
0010
2000
0000
0000
0000
,
0001
0000
3100
0001
0200
0000
0010
0301
,
0100
1000
0002
0000
0100
0000
0023
0000
,
0130
0000
1000
0000
0001
0000
0100
0000
1000
0000
0000
1000
0100
0000
0001
0000
,
1000
0100
0001
0000
0100
0010
0001
1000
,
0010
0100
0002
0000
0000
0000
0000
0000
,
2003
3000
0200
0300
0020
0030
0002
0003
,
0101
1100
0011
1010
,
0110
1000
0110
0001
0110
0000
1001
0000
,
1000
0000
0100
0010
0001
0000
0100
0010
1000
0000
0100
0010
0001
0000
0100
0010
,
1000
0000
0001
0010
0100
0000
1000
0001
0100
0010
0100
0001
0100
0010
0100
0001
,
1000
0000
0100
0001
0100
0000
1000
0000
0001
0000
0100
1000
0100
0000
0001
0000
,
0010
0100
1000
0100
0010
0100
1000
0100
0010
0001
1000
0001
0100
0000
0010
0000
,
1000
0100
0010
0001
0100
0000
0010
0000
1000
0100
0010
0001
0100
0000
0010
0000
,
1000
0100
0010
0001
1000
0010
0100
0001
1000
0001
1000
0001
0010
0100
1000
0000
,
0001
0000
0000
0000
0000
0000
0100
0000
0000
1000
0000
0000
0100
0000
0000
0000
0000
0000
0001
0000
0000
0000
0000
0000
1000
0000
0000
0000
0100
0000
0000
0000
0010
0000
0000
0000
0001
0000
0000
0000
0010
0000
0000
0000
0100
0000
0000
0000
,
1000
0000
0000
0000
0000
0000
0000
0000
1000
0000
0000
0000
0010
0000
0000
0000
0000
0000
0000
0000
0010
0000
0000
0000
0100
0000
0000
0001
0000
0000
0100
0000
0000
0010
0000
0000
0100
0000
0000
0001
0000
0000
0100
0000
0000
0010
0000
0000
,
1000
0000
0000
1000
0100
0000
0010
0000
0001
0000
0000
0001
0100
0000
0010
0000
,
1000
0000
0000
1000
0001
0000
0010
0000
0001
0000
0000
0001
1000
0000
0010
0000
,
0100
0000
0000
0100
0001
0000
1000
0000
0100
0000
0000
0100
1000
0000
0001
0000
,
0010
0000
0100
1000
0100
0000
0001
0000
0100
0000
0010
0001
1000
0000
0001
0000
,
0100
0000
0010
1000
0010
0000
0100
0000
0001
0000
1000
0100
1000
0000
0010
0000
,
0100
0000
0001
0010
0100
0000
1000
0010
0100
0000
0001
1000
0010
0000
0100
0000
,
0001
0010
0001
0000
0010
0100
0010
0000
0100
1000
0100
0000
1000
0001
1000
0000
,
0001
0100
0001
0000
0100
0010
0100
0000
0010
1000
0010
0000
1000
0001
1000
0000
,
0102
0000
0000
0000
0000
0000
0000
0000
0000
0000
0000
0000
0000
0000
0000
0000
0000
0000
0000
0000
0000
0000
0000
0000
0000
0000
0000
0000
0000
0000
0000
0000
0000
1000
0000
0000
0000
0000
0000
0000
0000
0000
0000
0000
0000
0000
0000
0000
0000
0000
0000
0000
0000
0000
0000
0000
0000
0000
0000
0000
0000
0000
1000
0000
0000
0000
0000
0000
0000
0000
0000
0000
0000
0000
0000
0000
0000
0000
0000
0000
0000
1000
0000
0000
0000
0000
0000
0000
0000
0000
0000
0000
0000
0000
0000
0000
0000
0000
0000
0000
0000
1000
0000
0000
0000
0000
0000
0000
0003
0000
0000
0000
0000
0000
0000
0000
0000
0000
0000
0000
0000
0000
0000
0000
0000
0000
0000
0000
0000
0000
0000
0000
0000
0000
0000
0000
0000
0000
0000
0000
0000
0000
0000
0000
0000
0000
0000
0000
0000
0000
0000
0000
0000
0000
0000
0000
0000
0000
0000
0000
0000
0000
0000
0000
0000
0000
0000
0000
0000
0000
0000
0000
0000
0000
0000
0000
0000
0000
0000
0000
0000
0000
0000
0000
0000
0000
0000
0000
0000
0000
0000
0000
,
2100
0000
0000
0000
0000
0000
0000
0000
0000
0000
0000
0000
0000
0000
0000
0000
0000
0000
0000
0000
0000
0000
0000
0000
0000
0000
0000
0000
0000
0000
0000
0000
0000
0000
0001
0000
0000
0000
0000
0000
0000
0000
0000
0000
0000
0000
0000
0000
0000
0000
0000
0000
0000
0000
0000
0000
0000
0000
0000
0000
0000
0001
0000
0000
0000
0000
0000
0000
0000
0000
0000
0000
0000
0000
0000
0000
0000
0000
0000
0000
0001
0000
0000
0000
0000
0000
0000
0000
0000
0000
0000
0000
0000
0000
0000
0000
0000
0000
0000
0000
0000
0000
0001
0000
0000
0000
0000
0000
0000
0000
0000
0000
0000
0000
0000
0000
0000
0000
0000
0000
0000
0000
0000
0000
0000
0000
0000
0000
0000
0000
0001
0000
0000
0000
0000
0000
0000
0000
0000
0000
0000
0000
0000
0000
0000
0000
0000
0000
0000
0000
0000
0000
0000
0000
0000
0000
3000
0000
0000
0000
0000
0000
0000
0000
0000
0000
0000
0000
0000
0000
0000
0000
0000
0000
0000
0000
0000
0000
0000
0000
0000
0000
0000
0000
0000
0000
0000
0000
0000
0000
0000
0000
,
1100
1000
0101
0001
1010
1000
0011
0001
,
1001
0000
0000
2000
3200
0320
0032
0000
0000
0103
0000
0000
,
0001
0010
0001
0000
1000
0010
1000
0000
0100
0000
0010
0100
1000
0000
0001
0100
,
0010
0000
1000
0000
0001
1000
0100
0000
0010
0000
0001
0100
0010
0000
1000
0100
,
0010
0000
0100
1000
0010
0000
0100
0001
0010
0000
0100
0010
0001
0000
0100
0000
,
1010
0000
1100
0000
0000
0000
0011
0000
0101
0000
0001
1000
0100
0000
0100
0000
,
0010
0001
1000
0000
0010
0100
0001
0000
0010
0000
0100
1000
0001
0000
0100
0010
,
1000
0000
0100
0000
0010
0001
1000
0000
0010
0100
1000
0100
0001
0000
0000
0000
,
1010
0000
1000
1100
0000
0001
0101
0100
0010
0001
0010
1000
,
0002
0000
0000
0000
0000
0000
0000
0003
0000
0000
0000
0000
1000
0000
0000
0000
0100
0000
0000
0000
0000
0000
0000
0000
0110
0000
0000
0000
0000
0000
0000
0000
0110
0000
0000
0000
0000
0000
0000
0000
0000
0000
0000
0000
0000
0000
0000
0000
1001
0000
0000
0000
0000
0000
0000
0000
0000
0000
0000
0000
0000
0000
0000
0000
,
0001
0100
0010
0000
1000
0100
0010
0000
0100
0000
1000
0001
0100
0000
0010
1000
,
0001
0000
0010
0000
0100
1000
0001
0000
0100
0000
0010
1000
0100
0000
0010
0001
,
1000
0000
0001
0100
0010
0000
1000
0100
0010
0000
0010
0001
0100
0000
0100
0000
,
1010
0000
1100
0000
1001
0000
0011
0000
0101
0000
0100
0010
1000
0000
0000
0000
,
0100
0010
0001
0000
0100
0000
0001
0010
0100
0000
1000
0000
1001
0000
0001
0000
,
0100
0010
1000
0000
0100
0000
1000
0010
0100
0000
0001
0000
1001
0000
1000
0000
,
1100
1100
0010
1001
0101
0101
0010
1001
,
0000
0000
1000
0001
0200
0000
0000
0000
1000
0000
0000
0000
0301
0000
0100
0000
,
0010
1010
1100
0000
0010
0011
0101
0000
,
1001
0000
0100
0010
0100
0000
0110
0000
2002
0000
0000
0000
3003
0000
0000
0000
,
0001
0100
0010
1000
0010
0000
0100
0000
0001
0010
0100
1000
0100
0000
0010
0000
,
0001
0100
0010
1000
0001
1000
0100
0010
0001
0100
0010
1000
0001
0000
0010
0000
,
0100
1000
0001
1000
0010
0000
0110
0000
0100
0001
1000
0001
0010
0000
0110
0000
,
0100
1000
0001
1000
0010
0100
0001
0010
0100
0000
0000
0000
1001
0000
0000
0000
,
1100
0000
1000
0100
0001
0100
1000
0000
0101
0000
0001
0100
1000
0100
0001
0000
,
0010
0100
1000
0001
0100
0010
1000
0001
1000
0100
0010
0001
0100
0010
1000
0001
,
0020
0030
0200
0300
,
1000
0000
0100
0010
0001
0000
0100
0010
1000
0100
1000
0100
0020
0000
0000
0000
,
0031
0000
0000
0000
0000
0000
0100
0000
0100
0000
0100
0000
0100
0000
0000
0010
0000
0000
0001
0000
0000
0010
0000
0000
,
1000
0000
0000
0100
0010
0000
0000
0000
2002
0000
0000
0000
0000
0000
0000
0000
,
0000
0000
0000
3003
;

//--------------- dance-double - forcednature ----------------
#NOTEDATA:;
#STEPSTYPE:dance-double;
#DESCRIPTION:forcednature;
#CREDIT:forcednature;
#DIFFICULTY:Easy;
#METER:9;
#RADARVALUES:0,0,0,0,0;
#NOTES:
00000000
00000000
00000000
00000000
,
00000000
00000000
00000000
00000000
,
00000000
00000000
00000000
00000000
,
00000000
00000000
00000000
00000000
,
00000000
00000000
00000000
00000000
,
00000000
00000000
00000000
00000000
,
00000000
00000000
00000000
00000000
,
00000000
00000000
00000000
00000000
,
00000000
00000000
00000000
00000000
,
00000000
00000000
00000000
00000000
,
00000000
00000000
00000000
00000000
,
00000000
00000000
00000000
00000000
,
00000000
00000000
00000000
00000000
,
00011000
00000000
00011000
00000000
,
00001000
00001000
00010000
00000000
,
00000100
00010000
00001000
00010000
,
00000010
00010000
00001000
00000000
,
00011000
00000000
00011000
00000000
,
01000000
01000000
00010000
00010000
,
10000000
00000000
00010000
00000000
,
00100000
00100000
00020000
00030000
,
01000000
00001000
01000000
00001000
,
00010000
00000010
00010000
00000010
,
00001000
00000100
00001000
00000100
,
00010000
00001000
02000000
03000000
,
00010000
10000000
00010000
10000000
,
01000000
00100000
01000000
00100000
,
00020000
00000000
20030000
00000000
,
30010000
00010000
01000000
00001000
,
00010000
00010000
00010000
00010000
,
00000100
00001000
00000100
00000010
,
00000001
00000001
00000001
00000001
,
00000100
00000010
00002000
00003000
,
00000100
00000100
00010000
00010000
,
00001000
00001000
01000000
01000000
,
00200000
00000000
00000000
00300000
,
20020000
00000000
00000000
00000000
,
30030000
00000000
00000000
00000000
,
00000000
00000000
00000000
00000000
,
00000000
00000000
00000000
00000000
,
10000000
00000000
00000000
01000000
,
00000000
00000000
00100000
00000000
,
00000000
00001000
00000000
00000000
,
00010000
00000000
00000000
00000010
,
00000000
00000000
00001000
00000000
,
00000000
00002002
00000000
00003003
,
00000000
00000000
00000000
00000000
,
00001000
00000000
00001000
00000000
,
00000100
00000100
00010000
00000000
,
00001000
01000000
00010000
01000000
,
00100000
10000000
00010000
00000000
,
10000000
01000000
10000000
01000000
,
00100000
00100000
00100000
00000000
,
00010000
00100000
00001000
00100000
,
00001000
00001000
00010000
00000000
,
00000010
00000010
00001000
00001000
,
00000010
00000010
00001000
00000000
,
00001001
00000000
00000001
00000010
,
00000100
00001000
00000010
00000000
,
00010000
00001000
00010000
00001000
,
01000000
00010000
10000000
00000000
,
01000000
00000000
00100000
00000000
,
00010000
00000000
00100000
00000000
,
00022000
00000000
00000000
00000000
,
00000000
00000000
00033000
00000000
,
00000100
00000000
00000000
00000000
,
01000000
00000000
00000000
00000000
,
00001000
00010000
00001000
00010000
,
00002000
00000000
00000000
00003000
,
00010000
00010000
00001000
01000000
,
00010000
01000000
00100000
00000000
,
10000000
01000000
00100000
01000000
,
10000000
00010000
00000000
10000000
00010000
00000000
00000000
00000000
,
01000000
00001000
00010000
00000010
,
00001000
00000010
00000100
00000000
,
00000001
00000001
00000010
00000010
,
00000100
00001000
00000010
00000000
,
00001000
00000100
00010000
00001000
,
00010000
00000010
00001000
00000000
,
00000001
00000010
00000100
00001000
,
00000001
00001000
00000000
00000001
00001000
00000000
00000000
00000000
,
00000020
00000000
00000000
00010000
00000000
00010030
00000000
00000000
,
00020000
00000000
00000000
00001000
00000000
00031000
00000000
00000000
,
02000000
03000000
00020000
00030000
,
00000000
20020000
00000000
30030000
,
10000000
10000000
01000000
01000000
,
00100000
00001000
00020000
00030000
,
00011000
00000000
00011000
00000000
,
00000100
00001000
00000100
00000000
,
00000010
00000010
00000001
00000001
,
00000100
00000010
00000110
00000000
,
00000010
00000010
00010000
00010000
,
00001000
00001000
01000000
01000000
,
00020000
00030000
20000000
30000000
,
01000000
00100000
00020000
00030000
,
01000000
01000000
00001000
00001000
,
00010000
00000000
00022000
00000000
,
00000000
00000000
00000000
00033000
;

//--------------- dance-double - forcednature ----------------
#NOTEDATA:;
#STEPSTYPE:dance-double;
#DESCRIPTION:forcednature;
#CREDIT:forcednature;
#DIFFICULTY:Medium;
#METER:13;
#RADARVALUES:0,0,0,0,0;
#NOTES:
00000000
00000000
00000000
00000000
,
00000000
00000000
00000000
00000000
,
00000000
00000000
00000000
00000000
,
00000000
00000000
00000000
00000000
,
00000000
00000000
00000000
00000000
,
00000000
00000000
00000000
00000000
,
00000000
00000000
00000000
00000000
,
00000000
00000000
00000000
00000000
,
00000000
00000000
00000000
00000000
,
00000000
00000000
00000000
00000000
,
00000000
00000000
00000000
00000000
,
00000000
00000000
00000000
00000000
,
00000000
00000000
00000000
00000000
,
00001000
00010000
01000000
00000000
00010000
00001000
00000100
00000000
,
00001100
00011000
00110000
10000000
,
10000000
01000000
00010000
00000000
00001000
00000010
00000001
00000000
,
00000100
00000010
00000100
00000001
00001000
00000000
00001001
00000000
,
00000001
00000100
00001000
00000000
00010000
00100000
10000000
00000000
,
01000000
10000000
00010000
01000000
00100000
10000000
00010000
00000000
,
02000000
00000000
03002000
00000000
,
00003010
00000100
00001000
00000001
,
00000100
00001000
00000100
00000001
00000100
00000000
00000010
00000000
,
00010000
00001000
00000010
00000000
00001000
00010000
00100000
00000000
,
00010000
00001000
00010000
01000000
00100000
00000000
00010000
00000000
,
10000000
00000000
00100000
00000000
10000000
00000000
00000000
00000000
00010000
00000000
00000000
00010000
00000000
00000000
00010000
00000000
,
01000000
00001000
00010000
00000100
00001000
00000000
00000001
00000000
,
00001000
00000100
00000001
00000000
00000100
00001000
00000010
00000000
,
00000200
00000000
00002300
00000000
,
00013000
00000000
00000000
00000000
00000000
00000000
00000000
00000000
01000000
00000000
00000000
00000000
00000000
00000000
00000000
00000000
10000000
00000000
00000000
00000000
00010000
00000000
00000000
00000000
01000000
00000000
00000000
00000000
00000000
00000000
01000000
00000000
00000000
00000000
00000000
00000000
01000000
00000000
00000000
00000000
00000000
00000000
00000000
00000000
00000000
00001000
00000000
00000000
,
00020000
00030020
00000230
00020300
,
01030000
00100000
10000000
00010000
00100000
00000000
00100000
00000000
,
00002000
00000010
00010000
01003000
,
00001000
00000100
00000001
00000000
00000010
00000100
00001000
00000000
,
00000010
00010000
01000000
00100000
,
00001000
00000000
00010000
00000000
00100000
00000000
10000000
00000000
00010000
00000000
10000000
00000000
,
02000000
00000000
00000000
03000000
,
00022000
00000000
00000000
00000000
,
00033000
00000000
00000000
00000000
,
00000000
00000000
00000000
00000000
,
00000000
00000000
00000000
00000000
,
00000200
00000000
00000000
00000000
00001300
00000001
00000200
00000000
,
00000000
00000000
00001300
00010000
00200000
00000000
00000000
01300000
,
00010000
10000000
02000000
00000000
00000000
00000000
03100000
00000000
,
00002000
00000000
00000000
00003200
,
00000000
00000000
00000000
00000000
00000301
00000100
00001000
00010000
,
01000000
10000000
00200000
00000000
00000000
00000000
00300000
00000000
,
01000000
00001000
00000010
00000001
,
00000101
00000010
00011000
00100000
,
11000000
01010000
11000000
00100000
,
10010000
00000000
10000000
01000000
00010000
00000000
01000000
00000000
,
10000000
00010000
01000000
00001000
00010000
00000100
00001000
00000000
,
00000001
00000100
00001000
00000000
00001000
00000100
00000001
00000000
,
00000010
00000100
00001000
00000000
00000010
00000000
00000010
00000000
,
00001010
00000000
00000100
00000001
00000010
00000000
00000100
00001000
,
00000010
00000000
00000000
00000010
00010000
00000000
00000000
00010000
00001000
00000000
00100000
00000000
00001000
00000000
00100000
00000000
,
01000000
00000000
10000000
00000000
00010000
01000000
00010000
00000000
,
10000000
01000000
00010000
00000000
00001000
00000000
00010000
00000000
,
00011000
00010000
00001000
00000100
,
00000001
00000000
00000010
00000100
00000000
00001000
00000001
00000000
,
00000100
00000000
00001000
00000000
00010000
00100000
00010000
00000000
,
00001000
00010000
01000000
00000000
10000000
00010000
01000000
00000000
,
00100000
00000000
10000000
01000000
00000000
00010000
00001000
00000000
,
00000100
00000001
00000100
00000001
00001000
00000010
00001000
00000010
,
00000200
00001000
00000010
00000001
,
00000010
00001000
00010000
00001300
,
00000220
00000000
00000330
00000000
,
00022000
00000000
00033000
00000000
,
01100000
11000000
01010000
01100000
,
10010000
00000000
00000000
10000000
01000000
00010000
00001000
00000000
00000000
00011000
00000000
00000000
,
00010100
00000000
01001000
00000000
00001000
00010000
01000000
00000000
,
00100000
00010000
10000000
00100000
01000000
00001000
00010000
00000000
,
00000100
00001000
00000001
00000100
00001000
00010000
00000100
00000010
,
00000001
00000101
00000000
00001000
00001100
00000000
00011000
00000000
,
00110000
00000000
01010000
00000000
00001000
00010000
00100000
00000000
,
01000000
00010000
10000000
01000000
00010000
00001000
01000000
00000000
,
00010000
00000000
00010000
01000000
00000000
01000000
00001000
00010000
00001000
00010000
00001000
00010000
,
00001000
00000000
00000010
00000001
00000100
00000000
00001001
00000000
,
00010010
00000000
01001000
00000000
00001000
00010000
01000000
00000000
,
00100000
00010000
10000000
00100000
10000000
01000000
00010000
00000000
,
00001000
00000010
00000001
00000100
00000001
00000010
00000100
00000000
,
00000010
00001010
00000000
00010000
00011000
00000000
00110000
00000000
,
01000000
00010000
10000000
01000000
00000000
01100000
00000000
00100000
,
00001000
00000000
00010000
00100000
00000000
01010000
00000000
10000000
,
01000000
00010000
00001000
00000100
00000001
00000010
00000100
00001000
,
00000000
00000000
00000010
00010000
00000010
00000000
00000000
00000000
00000010
00000000
00000000
00000000
00000100
00000000
00001000
00000000
,
00010000
00010000
00010000
00000000
00001000
00001000
00001000
00000000
,
00010000
01000000
10000000
00100000
00010000
00000000
00011000
00000000
,
00000100
00010000
00001000
00000000
01000000
00001000
00010000
00000000
,
10100000
01100000
11000000
00010000
,
01000000
00001000
00010000
00000000
00000100
00001000
00000010
00000000
,
00010000
00001000
00000010
00000001
00000100
00000000
00001001
00000000
,
00000001
00000100
00001000
00010000
00000100
00010000
00001000
01000000
,
00001000
00010000
01000000
10000000
00100000
00010000
00001000
00000000
,
00200000
00000000
02300000
00000000
,
03020000
00032000
00003020
00000030
,
00000100
00000000
00000000
00000000
00000000
00000000
00001000
00000000
00000001
00000000
00001000
00000000
00000001
00000000
00000000
00000100
00000000
00000000
00001000
00000000
00000000
00010000
00000000
00000000
,
01000000
00000000
20020000
00000000
,
00000000
00000000
00000000
30030000
;

//--------------- dance-double - forcednature ----------------
#NOTEDATA:;
#STEPSTYPE:dance-double;
#DESCRIPTION:forcednature;
#CREDIT:forcednature;
#DIFFICULTY:Hard;
#METER:16;
#RADARVALUES:0,0,0,0,0;
#NOTES:
00000000
00000000
00000000
00000000
,
00000000
00000000
00000000
00000000
,
00000000
00000000
00000000
00000000
,
00000000
00000000
00000000
00000000
,
00000000
00000000
00000000
00000000
,
00000000
00000000
00000000
00000000
,
00000000
00000000
00000000
00000000
,
00000000
00000000
00000000
00000000
,
00000000
00000000
00000000
00000000
,
00000000
00000000
00000000
00000000
,
00000000
00000000
00000000
00000000
,
00000000
00000000
00000000
00000000
,
00000000
00000000
00000000
00000000
,
01001000
01000000
00001000
00000000
00010100
00000100
00010000
00000000
,
00001000
00000100
00000001
00000010
00000100
00010000
00001000
00000000
,
01010000
01000000
00010000
00000000
11000000
01000000
10000000
00000000
,
00100000
00000000
00010000
00001000
00010000
00000000
00000100
00000000
00000010
00000000
00000000
00000000
00001001
00000000
00000000
00000000
,
00000101
00000100
00001000
00000000
00011000
00010000
01000000
00000000
,
10000000
00000000
00100000
01000000
00100000
00000000
00010000
00001000
00010000
00001000
00000010
00000001
00000010
00000000
00000100
00001000
,
00000200
00000000
00020300
00000000
,
01030000
10000000
00100000
02000000
,
03001000
00010000
00100000
01000000
00001000
00010000
00000100
00000000
,
00000010
00000000
00000001
00000000
00000010
00000000
00001000
00000000
00010000
00000000
00000100
00001000
00000100
00000000
00010000
00000000
,
00001000
00000000
01000000
00000000
00010000
00000000
01000000
00000000
00100000
10000000
00100000
00000000
01000000
00010000
01000000
00000000
,
00100000
00000000
00000000
10000000
01000000
00000000
00010000
00000000
00001000
00000000
00010000
00000100
00001000
00000100
00000010
00000000
,
00000001
00000100
00001000
00000100
00000010
00001000
00000001
00000000
,
00000010
00001000
00010000
01000000
10000000
00010000
01000000
00000000
,
00200000
00000000
00320000
00000000
,
00031000
00000000
00000000
00000000
00000000
00000000
00000000
00000000
00000010
00000000
00000000
00000000
00000000
00000000
00000000
00000000
00000001
00000000
00000000
00000000
00000100
00000000
00000000
00000000
00000010
00000000
00000000
00001000
00000000
00000000
00000010
00000000
00000000
00001000
00000000
00000000
00000100
00000000
00000000
00000010
00000000
00000000
00000000
00000000
00000000
00000001
00000000
00000000
,
00000100
00001000
00010000
00100000
00010000
00001000
00010000
01000000
,
10000000
00010000
01000000
00100000
00010000
00001000
00000010
00000000
,
00000100
00000001
00000100
00001000
00000010
00010000
00001000
00100000
,
00001000
00010000
00100000
01000000
00001000
00010000
01000000
00000000
,
10000000
00000000
00010000
01000000
00010000
00000000
01000000
00001000
01000000
00000000
00001000
00010000
00001000
00000000
00010000
00000100
,
00010000
00001000
00010000
00000100
00001000
00000010
00001000
00000100
00000010
00000001
00000100
00000010
,
00020000
00000000
00000000
00000000
,
00002000
00000000
00000000
00000000
,
00033000
00000000
00000000
00000000
,
00000000
00000000
00000000
00000000
,
00000000
00000000
00000000
00000000
,
00020000
00000000
00000000
00000000
00000000
00000000
00000000
00000000
01030000
10000000
00010000
10000000
00200000
00000000
00000000
00000000
,
00000000
00000000
00310000
00001000
00000020
00000000
00000000
00000130
,
00001000
00000001
00000200
00000000
00000000
00000000
00002300
00000000
,
00023000
00000000
00000000
00000000
00000000
00000000
00000000
00000000
00000000
00000000
00130000
10000000
02000000
00000000
00000000
00000000
,
00000000
00000000
00000000
00000000
03020000
00032000
00003020
00000230
,
00002300
00003002
00000203
00000000
00000000
00000000
00000000
00000000
,
00001300
01000000
00100000
10000000
,
11000000
00100000
00011000
00100000
,
01001000
00011000
00020200
00030300
,
00010000
00001000
00000100
00000010
00001000
00000001
00000010
00001000
,
00010000
00000000
00100000
00000000
00010000
00000000
00001000
00000000
00000100
00000001
00000100
00000000
00000010
00001000
00000010
00000000
,
00010000
00000000
00001000
01000000
00001000
00000000
00010000
00000000
01000000
00000000
10000000
00010000
10000000
00000000
01000000
00000000
,
00100000
00001000
00010000
00000000
00000010
00010000
00001000
00000000
00000010
00000000
00000001
00001000
00000001
00000000
00000001
00000000
,
00000100
00001000
00000100
00001000
00010000
00000000
00010000
00000000
01000000
00010000
01000000
00010000
00001000
00000000
00001000
00000000
,
01000000
00010000
01000000
00000000
00001000
00010000
00001000
00000000
00000010
00000001
00000010
00000001
00000010
00000001
00000010
00000000
,
00000100
00000000
00010000
00001000
00000000
00000000
01000000
00000000
01000000
00000000
00001000
00010000
00000000
00000000
00000100
00000000
,
00001100
00000000
00000101
00000000
00000100
00010000
00001000
01000000
,
00100000
00000000
12000000
00000000
03010000
00000000
01000000
00010000
,
00001000
00000010
00000100
00001000
00000000
00000001
00000100
00000000
,
00000110
00000000
00001001
00000000
00000001
00000100
00001000
00010000
,
00100000
00000000
10000000
00010000
10000000
00000000
01000000
00000000
00010000
00000000
00001000
00010000
00001000
00000000
00000100
00000000
,
00000001
00000000
00001000
00000100
00000000
00010000
00001000
01000000
,
00100000
00000000
10000000
01000000
00100000
00000000
00001000
00000000
00010000
00000000
00000010
00000100
00000001
00000000
00000010
00000000
,
00000200
00000001
00000010
00001000
,
00010000
00001000
00000010
00000301
,
00020200
00000000
00030300
00000000
,
02002000
00000000
03003000
00000000
,
01010000
00101000
00010010
00001100
,
00011000
00000000
00000000
00010000
00001000
00000100
00000002
00000000
00000000
00000010
00000000
00000000
,
00000103
00000000
00001001
00000000
00001000
00000100
00000010
00001000
,
00010000
00100000
01000000
00001000
00010000
01000000
10000000
00000000
,
00100000
00010000
00001000
00000010
00000100
00000001
00000100
00001000
,
00000010
00000000
00000110
00000000
00000000
00000000
00010000
00000000
00011000
00000000
01000000
00001000
01000000
00000000
00100000
00000000
,
10000000
00000000
01100000
00000000
10000000
00010000
00100000
10000000
,
00100000
00000000
00010000
00000000
01000000
00000000
00001000
00000000
00010000
00000010
00010000
00000010
00000100
00000000
00000001
00000000
,
00001000
00000000
00000001
00000100
00000000
00001000
00010000
00100000
01000000
00010000
00100000
01000000
,
10000000
00000000
00000000
00000000
00010000
00000000
01000000
00000000
00000000
00001000
00000000
00000000
00000010
00000000
00000000
00000000
00000000
00000000
00000120
00000000
00000000
00000000
00000000
00000000
,
00000031
00000000
00001001
00000000
00000001
00001000
00000100
00000001
,
00001000
00000010
00001000
00010000
01000000
00100000
00010000
00000000
,
01000000
00000000
10000000
00000000
01000000
00000000
00010000
00000000
00100000
00000000
00001000
00010000
00001000
00000000
00000000
00000000
,
00000100
00000000
00010100
00000000
00000000
00000000
01000000
00000000
01001000
00000000
00001000
00010000
00001000
00000000
00000000
00000000
,
00000010
00000001
00000100
00001000
00000000
00011000
00000000
00010000
,
00100000
10000000
01000000
00010000
00000000
00011000
00000000
00001000
,
00000100
00000001
00000010
00001000
00010000
01000000
10000000
00100000
,
00000000
00000000
00010000
00001000
00020000
00000000
00000000
00000000
00100000
00000000
00000000
00000000
00031000
00000000
00010000
00000000
,
01000000
10000000
01000000
00000000
00010000
00000010
00010000
00000000
,
00001000
00000000
00000100
00000001
00000100
00000000
00000010
00000000
00020000
00000000
00000000
00000000
00130000
00000000
00000000
00000000
,
01001000
01000000
00100000
00000000
00010100
00000100
00000010
00000000
,
00000001
00000100
00010000
01000000
00100000
10000000
01000000
00000000
,
00101000
00001000
00010000
00000000
00010010
00010000
00001000
00000000
,
00000100
00000000
00000001
00001000
00000001
00000000
00000010
00000000
00001000
00000000
00000000
00000000
00011000
00000000
00000000
00000000
,
01000000
00000000
00010000
10000000
01000000
10000000
01000000
00000000
00100000
00000000
00001000
00010000
00000100
00010000
00000100
00000000
,
00000010
00000000
00000001
00001000
00000010
00001000
00000010
00000000
00010000
00001000
00010000
00001000
01000000
00010000
01000000
00000000
,
00200000
00000000
20300000
00000000
,
31000000
00010000
00022000
00033000
,
00001000
00000000
00000000
00000000
00000000
00000000
00000100
00000000
00000001
00000000
00001000
00000000
00000100
00000000
00000000
00000010
00000000
00000000
00001000
00000000
00000000
00100000
00000000
00000000
,
00010000
00000000
00000000
01000000
00100000
00000000
00000000
00000000
20020000
00000000
00000000
00000000
00000000
00000000
00000000
00000000
,
00000000
00000000
00000000
30030000
;

//--------------- dance-double - forcednature ----------------
#NOTEDATA:;
#STEPSTYPE:dance-double;
#DESCRIPTION:forcednature;
#CREDIT:forcednature;
#DIFFICULTY:Challenge;
#METER:18;
#RADARVALUES:0,0,0,0,0;
#NOTES:
00000000
00000000
00000000
00000000
,
00000000
00000000
00000000
00000000
,
00000000
00000000
00000000
00000000
,
00000000
00000000
00000000
00000000
,
00000000
00000000
00000000
00000000
,
00000000
00000000
00000000
00000000
,
00000000
00000000
00000000
00000000
,
00020000
00032000
00023000
00230000
,
00320000
00032000
00003020
00002030
,
00013000
00001000
01000000
00010000
01000000
00001000
00010000
00000000
00001000
00010000
00000100
00001000
00000100
00010000
00001000
00000000
,
00100000
00010000
10000000
00010000
01000000
00100000
10000000
00010000
10000000
01000000
00100000
00010000
00100000
00001000
00010000
00000010
,
00001000
00000001
00000010
00000001
00001000
00000010
00000100
00000001
00001000
00000100
00010000
00001000
,
02000000
00000000
00200000
03300000
,
10010000
00000000
10000000
01000000
00100000
00000000
00010000
00000000
01010000
00000000
01000000
00001000
00010000
00000000
00000100
00000000
,
00001100
00000000
00001000
00000001
00000100
00000000
00000010
00000000
00001000
00000100
00010000
00001000
00010000
00000000
00100000
00000000
,
01100000
00000000
01000000
00010000
10000000
00000000
01000000
00000000
01100000
00000000
00100000
00001000
00010000
00000000
00000010
00000000
,
00000110
00000000
00000100
00000001
00001000
00000100
00000010
00000001
00000100
00000000
00000000
00000000
00000110
00000000
00000000
00000000
,
00011000
00000000
00010000
00001000
01000000
00010000
01000000
00000000
01100000
00000000
00100000
10000000
00010000
10000000
01000000
00000000
,
01100000
00000000
00100000
00001000
00010000
00000000
00100000
01000000
00100000
10000000
00010000
10000000
01000000
00100000
00010000
00100000
,
00002000
00003000
00020000
00030000
,
00000010
00000000
00000200
00000300
00000002
00000003
00002000
00000000
,
00003100
00010000
00001000
00010000
01000000
00100000
00010000
10000000
,
00100000
00000000
00010000
00000000
00100000
00000000
01000000
00000000
00010000
00000000
10000000
01000000
00100000
00000000
00010000
00000000
,
01000000
00000000
00001000
00000000
00010000
00000000
00001000
00000000
00000010
00000100
00001000
00000000
00000010
00000100
00000001
00000000
,
00001000
00000000
00000100
00010000
00001000
00000000
01000000
00000000
00100000
00000000
10000000
01000000
00010000
01000000
10000000
00000000
,
00100000
01000000
00010000
01000000
00001000
00010000
00000100
00001000
,
00000100
00000001
00000100
00000010
00000001
00000100
00000110
00000000
,
00022000
00000000
00000000
00033000
,
00010100
00000000
00000000
00000000
00000000
00000000
00000000
00000000
01001000
00000000
00000000
00000000
00000000
00000000
00000000
00000000
01000000
00000000
00000000
00000000
00010000
00000000
00000000
00000000
10000000
00000000
00000000
01000000
00000000
00000000
00100000
00000000
00000000
00010000
00000000
00000000
01000000
00000000
00000000
00001000
00000000
00000000
00000000
00000000
00000000
00001000
00000000
00000000
,
00010000
00000100
00010000
00000000
00001000
01000000
00001000
00000000
00010000
00000010
00010000
00000000
00001000
00100000
00001000
00000000
,
00010000
00000000
00010000
00000000
00010000
00000000
00100000
00000000
10000000
00000000
00010000
10000000
01000000
00000000
00010000
00000000
,
00001000
00000000
00000100
00000010
00001000
00000000
00000100
00000010
00000001
00000000
00001000
00000001
00000100
00000000
00000001
00001000
,
00000100
00000000
00000100
00010000
00001000
00000000
01000000
00000000
00010000
10000000
00010000
10000000
00010000
10000000
00010000
10000000
,
01000000
00000000
00100000
00001000
00010000
00000000
00000010
00010000
00001000
00000000
01000000
00001000
00010000
00000000
00000100
00010000
,
00001000
00100000
01000000
00010000
00001000
00000010
00000100
00010000
00001000
01000000
00100000
00010000
,
00001000
00000010
00000100
00000010
00000001
00000100
00000010
00000100
00001000
00010000
01000000
00100000
,
02000000
20000000
00000000
00000000
00000000
00000000
00000000
00000000
,
33000000
00000000
00000000
00000000
00000000
00000000
10000000
01000000
00020000
00000000
00000000
00000000
,
00000000
00000000
00000000
00000000
00000000
00000000
00000000
00031000
00000000
00000000
00000100
00000000
,
00000000
00000000
00000000
00000000
00000000
00000000
00000000
00000000
00000001
00000000
00000000
00000000
00000000
00000000
00000000
00000000
00000000
00000000
00000000
00000000
00000000
00000000
00000000
00000000
00000010
00000000
00000000
00000000
00000000
00000000
00000000
00000000
00000000
00000100
00000000
00000000
00000000
00000000
00000000
00000000
00000000
00000000
00001000
00000000
00000000
00000000
00000000
00000000
00000000
00000000
00000000
00000100
00000000
00000000
00000000
00000000
00000000
00000000
00000000
00000000
00010000
00000000
00000000
00000000
00000000
00000000
00000000
00000000
00000000
00001000
00000000
00000000
00000000
00000000
00000000
00000000
00000000
00000000
01000000
00000000
00000000
00000000
00000000
00000000
00000000
00000000
00000000
00000000
00000000
00000000
00000000
00000000
00000000
00000000
00000000
00000000
,
00020000
00000000
00000000
00000000
00000000
00000000
00000000
00000000
10030000
01000000
00100000
00010000
02000000
00000000
00000000
00000000
,
00000000
00000000
03001000
00010000
00000200
00000000
00000000
00000310
,
00000001
00000100
00002000
00000000
00000000
00000000
00023000
00000000
,
00130000
00000000
10000000
00000000
01000000
00000000
00010000
00000000
00001000
00000000
00000000
00010000
00001000
00000000
00000010
00000000
,
00000001
00000100
00001000
00000000
00010000
00100000
00010000
00000010
,
00010000
00001000
00000020
00000000
00000000
00000000
00000000
00000000
,
00000230
00000300
00020000
00030000
00002000
00003000
02000000
03000000
,
01100000
10010000
11000000
01010000
,
10000000
01000000
00010000
00000100
00001000
00000000
00001001
00000000
,
00000001
00000000
00000100
00000010
00001000
00000000
00000100
00000010
00000001
00000000
00000100
00000010
00001000
00000000
00000100
00010000
,
00001000
00000000
01000000
00001000
00010000
00000000
00100000
10000000
00010000
01000000
00010000
10000000
00010000
00100000
00010000
10000000
,
00010000
00000000
01000000
00001000
00010000
00000000
00000100
00000000
00000010
00000000
00000100
00010000
00001000
00000000
01000000
00000000
,
00100000
10000000
01000000
00100000
01000000
10000000
00100000
01000000
00100000
10000000
00010000
00100000
00001000
00000000
00010000
00000000
,
00000010
00001000
00000100
00000010
00000001
00000000
00000100
00000000
00000010
00001000
00000100
00000010
00000001
00000000
00000100
00000000
,
00001000
00010000
00001000
01000000
00010000
10000000
01000000
00100000
00010000
01000000
00010000
01000000
00001000
00010000
00000100
00000000
,
00000010
00000000
00000000
00000000
00000000
00000000
00000100
00000000
00000000
00010000
00000000
00000000
00001000
00000000
00000000
00000000
00000000
00000000
01000000
00000000
00000000
00000000
00000000
00000000
00100000
00000000
00000000
00000000
00010000
00000000
00000000
00000000
00100000
00000000
00000000
00000000
10000000
00000000
00000000
00000000
00010000
00000000
00000000
00000000
10000000
00000000
00000000
00000000
,
01000000
00000000
00000000
00000000
00000000
00000000
00000000
00000000
01000000
00000000
00000000
00000000
00010000
00000000
00000000
00000000
00000000
00000000
00000000
00000000
00010000
00000000
00000000
00000000
00001000
00000000
00000000
00010000
00000000
00000000
00000100
00000000
00000000
00010000
00000000
00000000
00001000
00000000
00000000
00010000
00000000
00000000
00000010
00000000
00000000
00010000
00000000
00000000
,
00001000
00000000
00000000
00001000
00000010
00000000
00000100
00000000
00001000
00000000
00000000
00001000
00000001
00000000
00000100
00000000
,
00001000
00000000
00000000
00001000
00010000
00000000
00100000
00000000
10000000
00000000
00000000
10000000
01000000
00000000
00010000
00000000
,
00001000
00000000
00000000
00001000
00000010
00000000
00000100
00000000
00001000
00000000
00000000
00001000
00000001
00000000
00000100
00000000
,
00001000
00000000
00010000
00100000
01000000
00000000
00100000
00000000
10000000
00000000
00010000
10000000
01000000
00000000
00010000
00000000
,
00001000
00000000
00010000
00000100
00001000
00000000
00000010
00000000
00010000
00000000
00001000
01000000
00010000
00000000
00100000
00000000
,
00001000
00000000
00010000
00000100
00001000
00000000
00000010
00010000
00001000
00000000
00100000
00001000
00010000
00000000
00100000
00000000
,
20000000
32000000
03200000
00320000
,
00032000
00003200
00000320
00000032
,
00000203
00000000
00000000
00000000
00000000
00000000
00000000
00000000
00000000
00000000
00000000
00000000
00000000
00000000
00000000
00000000
00000000
00000000
00000000
00000000
00000000
00000000
00000000
00000000
00000000
00000000
00000000
00000000
00000000
00000000
00000000
00000000
00000000
00001000
00000000
00000000
00000000
00000000
00000000
00000000
00000000
00000000
00000000
00000000
00000000
00000000
00000000
00000000
00000000
00000000
00000000
00000000
00000000
00000000
00000000
00000000
00000000
00000000
00000000
00000000
00000000
00000000
00001000
00000000
00000000
00000000
00000000
00000000
00000000
00000000
00000000
00000000
00000000
00000000
00000000
00000000
00000000
00000000
00000000
00000000
00000000
00001000
00000000
00000000
00000000
00000000
00000000
00000000
00000000
00000000
00000000
00000000
00000000
00000000
00000000
00000000
00000000
00000000
00000000
00000000
00000000
00001000
00000000
00000000
00000000
00000000
00000000
00000000
00000000
00000000
00000000
00000000
00000000
00000000
00000000
00000000
00000000
00000000
00000000
00000000
00000000
00000000
00000000
00000000
00000000
00000000
00000000
00000000
00000000
00000000
00000000
00000000
00000000
00000000
00000000
00000000
00000000
00000000
00000000
00000000
00000000
00000000
00000000
00000000
00000300
00000000
00000000
00000000
00000000
00000000
00000000
00000000
00000000
00000000
00000000
00000000
00000000
00000000
00000000
00000000
00000000
00000000
00000000
00000000
00000000
00000000
00000000
00000000
00000000
00000000
00000000
00000000
00000000
00000000
00000000
00000000
00000000
00000000
00000000
00000000
00000000
00000000
00000000
00000000
00000000
00000000
00000000
00000000
00000000
00000000
00000000
00000000
,
00002000
00000000
00000000
00000000
00000000
00000000
00000000
00000000
00000000
00000000
00000000
00000000
00000000
00000000
00000000
00000000
00000000
00000000
00000000
00000000
00000000
00000000
00000000
00000000
00000000
00000000
00000000
00000000
00000000
00000000
00000000
00000000
00000000
00000000
00010000
00000000
00000000
00000000
00000000
00000000
00000000
00000000
00000000
00000000
00000000
00000000
00000000
00000000
00000000
00000000
00000000
00000000
00000000
00000000
00000000
00000000
00000000
00000000
00000000
00000000
00000000
00010000
00000000
00000000
00000000
00000000
00000000
00000000
00000000
00000000
00000000
00000000
00000000
00000000
00000000
00000000
00000000
00000000
00000000
00000000
00010000
00000000
00000000
00000000
00000000
00000000
00000000
00000000
00000000
00000000
00000000
00000000
00000000
00000000
00000000
00000000
00000000
00000000
00000000
00000000
00000000
00000000
00010000
00000000
00000000
00000000
00000000
00000000
00000000
00000000
00000000
00000000
00000000
00000000
00000000
00000000
00000000
00000000
00000000
00000000
00000000
00000000
00000000
00000000
00000000
00000000
00000000
00000000
00000000
00000000
00010000
00000000
00000000
00000000
00000000
00000000
00000000
00000000
00000000
00000000
00000000
00000000
00000000
00000000
00003000
00000000
00000000
00000000
00000000
00000000
00000000
00000000
00000000
00000000
00000000
00000000
00000000
00000000
00000000
00000000
00000000
00000000
00000000
00000000
00000000
00000000
00000000
00000000
00000000
00000000
00000000
00000000
00000000
00000000
00000000
00000000
00000000
00000000
00000000
00000000
00000000
00000000
00000000
00000000
00000000
00000000
00000000
00000000
00000000
00000000
00000000
00000000
,
01001000
00010010
00010100
00101000
,
00011000
00000000
00000000
02000000
03002000
00203000
00320000
00000000
00000000
10030000
00000000
00000000
,
10000000
01000000
00100000
00000000
00010000
01000000
00100000
00000000
00010000
00000000
00001000
00010000
00000100
00000000
00001000
00000100
,
00010000
00000000
00001000
00000000
00000100
00000001
00001000
00000000
00000100
00000000
00000010
00000001
00000100
00000000
00000010
00010000
,
00001000
00000100
00001000
01000000
00010000
00100000
01000000
10000000
,
10100000
00000000
11000000
00000000
00000000
00000000
00101000
00000000
01001000
00000000
01000000
00010000
00100000
00000000
00100000
00000000
,
00001000
00010000
00000100
00000000
00001000
00000100
00010000
00000000
00001000
00000000
00000100
00000001
00000010
00000000
00000100
00001000
,
00000010
00000000
00000100
00000000
00001000
00010000
00100000
00000000
01000000
10000000
01000000
00010000
01000000
00000000
00000000
00000000
,
10100000
00000000
10000000
01000000
00000000
00010000
00001000
00000010
00000100
00001000
00000010
00000100
,
00000002
00000000
00000000
00000000
00000000
00000000
00000000
00000000
00000000
00000000
00000000
00000000
00000000
00000000
00000000
00000000
00000000
00000000
00000000
00000003
00000000
00000000
00000000
00000000
00000000
00000000
00000000
00000000
00000000
00000000
00000000
00000000
00000000
00000000
00000000
00000000
00000010
00000000
00000000
00000000
00000000
00000000
00000000
00000000
00000000
00000000
00000000
00000000
00001000
00000000
00000000
00000000
00000000
00000000
00000000
00000000
00000000
00000000
00000000
00000000
00000000
00000000
00000000
00000000
00000000
00000000
00000000
00000000
00000000
00000000
00000000
00000000
00010000
00000000
00000000
00000000
00000000
00000000
00000000
00000000
00000000
00000000
00000000
00000000
00000000
00000000
00000000
00000000
00000000
00000000
00000000
00000000
00000000
00000000
00000000
00000000
00011000
00000000
00000000
00000000
00000000
00000000
00000000
00000000
00000000
00000000
00000000
00000000
00000000
00000000
00000000
00000000
00000000
00000000
00000000
00000000
00000000
00000000
00000000
00000000
00000000
00000000
00000000
00000000
00000000
00000000
00000000
00000000
00000000
00000000
00000000
00000000
00000000
00000000
00000000
00000000
00000000
00000000
00000000
00000000
00000000
00000000
00000000
00000000
01001000
00000000
00000000
00000000
00000000
00000000
00000000
00000000
00000000
00000000
00000000
00000000
00000000
00000000
00000000
00000000
00000000
00000000
00000000
00000000
00000000
00000000
00000000
00000000
00000000
00000000
00000000
00000000
00000000
00000000
00000000
00000000
00000000
00000000
00000000
00000000
00000000
00000000
00000000
00000000
00000000
00000000
00000000
00000000
00000000
00000000
00000000
00000000
,
01000000
00010000
10000000
00000000
01000000
00100000
00010000
00000000
01000000
00000000
00001000
00010000
00000100
00000000
00001000
00000001
,
00000100
00000000
00001000
00000000
00010000
00000010
00001000
00000000
00000100
00000000
00010000
00001000
01000000
00000000
00010000
10000000
,
01000000
00000000
00010000
01000000
10000000
00000000
00010000
01000000
00100000
00000000
00100000
10000000
01000000
00000000
01000000
00000000
,
00100000
00000000
00001000
00000000
00000010
00000000
00000100
00000000
00010000
00000000
01000000
00100000
00010000
00000000
00000000
00000000
,
01000000
00001000
00010000
00000000
00000100
00000000
00001000
00000010
00000100
00000000
00000001
00000000
00001001
00000000
00001000
00000000
,
00000100
00010000
00001000
00000000
01000000
00000000
00010000
10000000
01000000
00000000
00100000
00000000
01100000
00000000
01000000
00000000
,
00010000
00000010
00010000
00100000
00001000
00000100
00001000
01000000
,
00000000
00000000
00100000
00010000
02000000
00000000
00000000
00000000
10000000
00000000
00000000
00000000
03001000
00000000
01000000
00000000
,
00100000
00010000
00000010
00000000
00000100
00001000
01000000
00000000
,
00010000
00000000
10000000
01000000
00010000
00000000
00001000
00000000
00022000
00000000
00000000
00000000
00033000
00000000
00000000
00000000
,
00010000
00000100
00001000
00000010
00010000
00000000
00000000
00000000
00001000
01000000
00010000
00100000
00001000
00000000
00000000
00000000
,
00100000
01000000
10000000
00010000
10000000
00100000
01000000
00010000
01000000
00001000
00010000
00000100
00010000
00000000
00001000
00000000
,
00000010
00000100
00001000
00000001
00001000
00000000
00000010
00000000
00000100
00001000
00010000
00001000
00100000
00000000
00010000
00000000
,
01000000
00100000
10000000
00010000
10000000
01000000
00100000
00010000
01000000
00000000
00000000
00000000
00011000
00000000
00000000
00000000
,
00000100
00001000
00000010
00010000
00000100
00010000
00001000
00000000
01000000
00010000
00100000
00001000
01000000
00001000
00010000
00000000
,
00000100
00001000
00000100
00000010
00000001
00001000
00000001
00000100
00000010
00010000
00001000
01000000
00010000
10000000
01000000
00100000
,
00020000
00030000
00002000
00003000
,
00000100
00000000
00000010
00000001
00000100
00000000
00000010
00001000
00000100
00010000
00000100
00010000
00002000
00000000
00000000
00000000
,
01003000
00000000
00000000
00000000
00000000
00000000
00100000
00000000
00100000
00000000
00100000
00000000
00100000
00000000
00000000
10000000
00000000
00000000
00100000
00000000
00000000
00010000
00000000
00000000
,
00001000
00000000
00000000
00001000
00000010
00000000
00000000
00000000
00000022
00000000
00000000
00000000
00000000
00000000
00000000
00000000
,
00000000
00000000
00000000
00000033
;
