#VERSION:0.83;
#TITLE:爆烈歓迎♪エクストリーム飲茶旋風脚ッ!!;
#SUBTITLE:;
#ARTIST:BlackY feat. Risa Yuzuki;
#TITLETRANSLIT:Bakuretsu kangei extreme yamucha senpuukyaku!!;
#SUBTITLETRANSLIT:;
#ARTISTTRANSLIT:;
#GENRE:;
#CREDIT:;
#MUSIC:Bakuretsu kangei extreme yamucha senpuukyaku!!.ogg;
#BANNER:Bakuretsu kangei extreme yamucha senpuukyaku!!.png;
#BACKGROUND:Bakuretsu kangei extreme yamucha senpuukyaku!!-bg.png;
#CDTITLE:./CDTitles/SDVX EXCEED GEAR.png;
#SAMPLESTART:65.000;
#SAMPLELENGTH:15.000;
#SELECTABLE:YES;
#OFFSET:0.086;
#BPMS:0.000=94.000
,22.000=188.000
,54.000=94.000
,70.000=188.000
,258.000=94.000
,261.500=188.000
;
#STOPS:261.500=0.160
,293.750=0.319
;
#TIMESIGNATURES:0.000=4=4,
16.000=2=4,
18.000=4=4,
294.000=3=4,
297.000=4=4
;
#BGCHANGES:0.000=../BGAs/19po.mp4=1.000=0=0=0=StretchNoLoop====,
99999.000=-nosongbg-=1.000=0=0=0=StretchNoLoop====
;
#FGCHANGES:;

//--------------- dance-single - forcednature ----------------
#NOTEDATA:;
#STEPSTYPE:dance-single;
#DESCRIPTION:forcednature;
#DIFFICULTY:Beginner;
#METER:5;
#RADARVALUES:0,0,0,0,0;
#CREDIT:forcednature;
#NOTES:
0000
0000
0000
0000
,
0000
0000
0000
0000
,
0000
0000
0000
0000
,
0001
0000
0000
0000
,
1000
0000
0010
0010
,
0010
0000
1000
0000
,
0000
0000
0100
0000
,
0000
0000
1000
0000
,
0000
0000
0000
0000
,
0000
0000
0001
0000
,
0000
0000
0100
0000
,
0000
0000
0001
0000
,
0000
0000
0010
0000
,
0000
0000
1001
0000
,
0000
0000
1000
0000
,
0000
0000
0010
0000
,
0000
0000
0100
0000
,
0001
0000
1000
0000
,
1000
0000
1000
0000
,
1000
0000
0001
0000
,
0001
0000
0001
0000
,
0001
0000
0100
0000
,
0100
0000
0100
0000
,
0100
0000
0010
0000
,
0010
0000
0010
0000
,
0000
0000
1000
0000
,
0001
0000
1000
0000
,
0000
0000
0100
0000
,
0010
0000
0001
0000
,
0000
0000
0001
0000
,
1000
0000
0001
0000
,
0000
0000
0100
0000
,
0010
0000
1000
0000
,
0000
0000
0001
0000
,
0010
0000
0100
0000
,
0010
0000
0100
0000
,
1000
0000
0001
0000
,
0000
0000
1000
0000
,
0001
0000
0100
0100
,
0100
0000
2002
0000
,
0000
0000
3003
0000
,
0000
0000
1001
0000
,
0110
0000
0001
0000
,
1000
0000
0010
0000
,
0100
0000
0110
0000
,
0000
0000
1000
1000
,
0000
0001
0001
0000
,
1000
0000
0010
0000
,
0100
0000
0110
0000
,
0000
0000
1001
0000
,
0110
0000
0001
0000
,
1000
0000
0010
0000
,
0100
0000
0110
0000
,
0000
0000
0001
0001
,
0000
1000
1000
0000
,
0001
0000
0010
0000
,
0100
0000
0110
0000
,
0000
0000
1000
1000
,
1000
0000
0100
0100
,
0100
0000
0010
0010
,
0010
0000
0001
0001
,
0001
0000
1000
0010
,
1000
0000
0001
0100
,
0001
0000
1001
0000
,
0110
0000
2002
0000
,
3003
0000
0000
0000
,
1000
0000
0100
0000
,
0000
0000
1000
0000
,
0010
0000
1000
0000
,
0000
0000
0001
0000
,
0010
0000
0001
0000
,
0000
0000
0100
0000
,
0001
0000
0100
0000
,
0010
0000
0000
1001
,
0000
1000
0000
0100
,
0000
1000
0000
0010
,
0000
0100
0000
0001
,
0000
0010
0000
0000
,
0000
0100
0000
1000
,
0000
0001
0001
0000
,
1000
1000
0000
0010
,
0000
0010
0000
0000
0010
0000
0220
0000
,
0000
0030
0000
0300
;

//--------------- dance-single - forcednature ----------------
#NOTEDATA:;
#STEPSTYPE:dance-single;
#DESCRIPTION:forcednature;
#DIFFICULTY:Easy;
#METER:9;
#RADARVALUES:0,0,0,0,0;
#CREDIT:forcednature;
#NOTES:
0000
0000
0000
0000
,
0000
0000
0000
0000
,
0000
0000
0000
0000
,
1000
0010
0100
0001
,
1000
0001
0010
0110
,
1000
0001
1000
0000
0010
0000
0010
0000
,
0100
0100
0010
1000
,
0001
0000
0010
0010
,
0100
0100
0010
0001
,
2000
3000
0010
0010
,
0100
0100
0010
1000
,
0001
0010
0110
0000
,
1001
0000
1000
0001
,
0100
0010
1001
0000
,
1000
0100
1000
0000
,
0001
0010
0001
0000
,
0100
0001
0100
0000
,
0010
0000
1000
0000
,
1001
0000
0001
0001
,
0001
0000
0100
0000
,
0110
0000
0010
0010
,
0010
0000
0001
0000
,
1001
0000
1000
1000
,
1000
0000
0100
0000
,
0110
0000
0010
0010
,
0010
0000
0001
1000
,
0010
1000
0001
1000
,
0100
0000
0010
0001
,
1000
0001
0100
0001
,
1000
0000
0010
0100
,
0001
1000
0010
0100
,
0001
0000
0010
0100
,
1000
0100
0010
0001
,
1000
0000
1001
0000
,
0110
0000
0001
1000
,
0010
1000
0001
0000
,
0010
0001
1000
0100
,
0010
0000
0110
0000
,
1001
0000
0010
0100
,
0110
0000
2002
0000
,
0000
3003
0010
0100
,
0010
0100
0010
0000
1001
0000
1001
0000
,
1000
0100
0010
0100
,
1000
0010
0110
0110
,
0001
0010
0100
0010
,
0001
1000
0001
0100
,
0101
1000
0010
1010
,
0001
1000
0100
0110
,
0010
0110
1001
1001
,
1001
0000
0110
0110
,
0001
1000
0010
0100
,
0001
0010
1001
1001
,
1000
0100
1000
0010
,
0100
0001
0010
0011
,
1000
1100
0001
0101
,
0010
1010
1000
0001
,
1000
0001
1000
0000
0010
0000
0100
0000
,
0220
0330
1001
1001
,
1100
1100
1001
1001
,
0011
0011
1001
0110
,
1001
0110
2002
0000
,
3003
0000
1000
1100
,
0001
0101
1000
1010
,
0001
0011
2002
3003
,
0220
0330
2002
0000
,
0000
0000
0000
3003
0000
0000
1000
0000
,
0100
1000
0010
1000
,
0001
0000
0100
0001
,
0010
0001
1000
0010
,
0200
0000
0301
1000
,
0010
1000
0001
0010
,
0100
0000
0020
0030
,
0001
1000
0100
1100
,
0010
0011
0000
0001
,
0100
0001
1000
0010
,
1000
0001
1000
0100
,
1000
0000
0001
1000
0001
0000
0010
0000
,
0100
0220
0330
0010
,
0001
1000
0010
0100
,
0001
0000
1000
0001
1000
0000
0001
0000
,
0010
0000
0100
0000
0010
0000
0000
0000
0100
0000
0000
0000
1000
0000
0000
1000
,
0000
0000
0001
0000
0000
0001
0000
0000
2002
0000
0000
0000
0000
0000
0000
0000
,
0000
0003
0000
3000
;

//--------------- dance-single - forcednature ----------------
#NOTEDATA:;
#STEPSTYPE:dance-single;
#DESCRIPTION:forcednature;
#DIFFICULTY:Medium;
#METER:13;
#RADARVALUES:0,0,0,0,0;
#CREDIT:forcednature;
#NOTES:
0000
0000
0000
0000
,
0000
0000
0000
0000
,
0000
0000
0000
0000
,
0002
0023
0230
2300
,
3001
0100
0010
0000
0110
0000
1001
0000
,
0100
0110
0010
1001
1000
0000
0100
0010
,
0001
0010
0200
0000
1300
0001
0100
0001
,
1000
0010
1000
0000
0001
0000
0010
0100
,
1000
0100
0020
0000
0031
1000
0010
1000
,
0200
0000
0301
0000
0100
1000
0010
0000
,
0100
0001
0010
0000
0001
1000
0010
1000
,
0001
0010
1000
0000
0022
0000
0033
0000
,
2200
3300
0101
1010
,
1000
0000
0001
1000
0001
0000
0000
0000
0020
0000
0000
0000
0230
0000
0000
0000
,
0320
0000
0031
1000
0010
0000
0100
0001
,
1000
0010
1010
0000
0002
0000
2003
0000
,
3001
0010
0100
1000
0002
0000
0003
0100
,
0020
0000
2000
3030
1001
0000
0100
0000
,
0110
0010
1001
1100
,
0011
1000
1001
0100
,
0110
0010
1001
0101
,
1010
0000
0001
0000
1000
0100
0001
0000
,
0100
1000
0010
0000
0100
0100
0001
0100
,
0010
0000
1001
0000
0001
0100
1000
0000
,
0100
0001
0010
0000
0100
0100
1000
0010
,
1000
0001
0010
0001
0200
0000
0300
0010
,
2000
0000
3000
0001
0020
0000
0030
0100
,
1000
0001
0010
0001
2000
0000
0010
0000
,
3002
0010
0203
0320
,
2030
0000
3002
0000
0023
0000
0130
1000
,
0020
0000
0130
0001
0020
0000
0130
1000
,
0001
0000
0100
0000
0001
0000
1000
0000
0100
0000
0000
0010
0000
0000
0100
0000
,
1000
0001
0010
0000
0001
1000
0010
1000
,
0001
0100
0010
0000
0110
0000
0100
0001
,
0010
0100
1000
0010
0100
0000
0010
1000
,
0100
0010
0001
0100
0010
0000
1010
0000
,
0001
0010
0100
1000
0001
0000
0011
0000
,
1000
0010
0100
0001
0101
0000
0000
0000
,
1010
0000
0011
0110
,
1100
0110
2002
0000
,
0000
0000
3003
0000
0001
0100
1000
0100
,
0001
0000
1000
0001
1000
0000
0000
0000
0011
0000
0000
0000
1100
0000
0000
0000
,
0001
0010
1000
0010
0001
1000
0100
1000
,
0001
0000
0100
0000
0010
0000
1000
0000
0001
0000
0000
0001
0010
0000
0000
0010
,
0100
0000
0000
0100
1000
0000
0000
0000
0002
0000
0203
0000
0320
0000
2030
0000
,
3002
0023
0230
2300
3001
0001
0001
0001
,
0100
0000
0010
0010
0010
0010
1000
0000
,
0001
0010
0001
1000
0100
1000
0010
1000
,
0001
0010
0110
1001
,
0110
0000
0000
1000
0001
0000
1000
0000
0000
0000
0000
0000
0110
0000
0000
0000
,
0001
0100
1000
0100
0001
1000
0010
1000
,
0001
0010
0100
1000
0001
0010
0001
1000
,
0010
0000
1000
0000
0100
0000
0000
0000
1000
0000
0000
1000
0010
0000
0000
0010
,
0100
0000
0000
0100
0001
0000
0000
0000
1000
0000
1000
0000
1000
0000
0000
0000
,
0100
0100
0100
0000
0010
0010
0010
0000
,
0001
0001
0001
0000
1000
0010
0100
0010
,
1000
0001
0100
0001
1000
1000
1000
1000
,
0020
0130
1001
1100
,
1001
0011
1001
0101
,
1001
1010
1100
0110
,
0011
0000
0000
0000
1001
0000
0000
0000
1010
0000
0000
0000
0001
0000
0000
0001
,
0100
0100
0001
0001
1000
0010
1000
0010
,
0100
0001
0100
0001
1000
0100
0010
0100
,
0010
0001
1000
0001
2002
0000
3003
0000
,
0220
0000
0330
0000
2002
0000
0000
3003
,
0001
0000
0000
1000
0001
0000
1000
0000
0001
0000
0000
0000
0020
0030
0000
0000
0100
0000
0000
0000
1000
0000
0000
0000
0010
0000
0000
0000
1000
0000
0000
0000
,
0100
1000
0001
0000
0100
0010
1000
0100
,
0020
0000
0032
0000
1003
0010
0100
0001
,
0010
0100
1000
0000
0001
0100
1000
0100
,
0002
0000
2003
0000
3001
0010
0100
0010
,
0001
1000
0100
0000
1000
0010
0100
0001
,
1000
0010
1000
0001
0020
0000
0030
0100
,
1000
0001
0100
0001
1001
0000
0110
0000
,
0001
1000
0010
0200
0300
0000
0001
1000
,
0100
0000
0010
0001
1000
0001
0010
0100
,
0001
0100
1000
0000
1000
0001
0010
0001
,
1000
0010
1000
0001
0100
1000
0100
0001
,
1000
0010
0200
0000
0000
0301
0010
1000
,
0010
0001
0100
1000
0100
0001
0010
0100
,
1000
0010
0100
0100
0100
0001
0010
0000
,
0100
0000
0100
0000
0100
0000
1000
0000
0010
0000
0000
0000
1001
0000
0000
0110
,
0000
0000
1001
0000
0000
0110
0000
0000
2002
0000
0000
0000
0000
0000
0000
0000
,
0000
3000
0000
0003
;

//--------------- dance-single - forcednature ----------------
#NOTEDATA:;
#STEPSTYPE:dance-single;
#DESCRIPTION:forcednature;
#DIFFICULTY:Hard;
#METER:17;
#RADARVALUES:0,0,0,0,0;
#CREDIT:forcednature;
#NOTES:
0000
0000
0000
0000
,
0000
0000
0000
0000
,
0000
0000
0000
0000
,
0001
0000
0100
0000
0010
0000
1000
0000
0001
0000
0010
0000
0100
1000
0100
0000
,
0010
0001
1000
0010
0110
0000
1001
0000
,
0110
0000
1001
0000
1100
0000
0011
0000
0002
0003
0100
0001
0100
0000
0010
0100
,
0010
0000
1000
0000
0001
0010
0100
0000
1000
0000
0001
0100
0001
0000
0010
0000
,
0110
0000
0000
0000
1000
0001
0100
0010
1000
0000
0100
1000
0100
0000
0010
0100
,
0010
0000
0001
0000
1000
0010
0100
0000
0001
0000
1000
0100
1000
0000
0010
0000
,
0210
0000
0000
0000
1300
0000
0000
0000
0001
0000
0010
0001
0010
0000
0100
0010
,
0100
0000
1000
0000
0001
0100
0010
0000
1000
0000
0010
0100
0001
0000
1000
0000
,
0100
0000
0001
0000
0100
0000
1000
0000
2002
0000
0000
0000
3003
0000
0001
1000
,
0001
0010
0100
1000
1001
0000
0110
0000
,
0001
0100
0001
0100
0010
1000
0010
1000
0002
0000
0000
0013
0200
0000
0000
0310
,
0002
0000
0000
1003
0100
1000
0001
0100
0020
0000
0030
1000
0001
0010
0001
1000
,
0100
0000
0110
0000
2002
0000
3003
0000
2000
0000
0000
3010
0200
0000
0000
0310
,
1000
0000
0001
0000
0010
0000
0100
0000
0220
0000
0000
0330
0000
1000
0000
0001
,
0200
0000
0000
0000
0020
0000
0330
0000
2000
3000
0001
0000
1000
0100
0001
0000
,
0100
0000
0000
0000
1100
0000
0000
0000
0001
0000
1000
0001
0000
0100
0001
1000
,
0010
0000
0000
0000
0110
0000
0000
0000
0001
0000
1000
0000
0001
0100
1000
0000
,
0100
0000
0000
0000
0101
0000
0000
0000
0001
0000
0010
0001
0010
0000
0100
0010
,
0100
0000
1000
0001
0010
0000
0000
0000
0001
0000
1000
0000
0001
0010
1000
0000
,
0010
0000
0000
0000
0011
0000
0000
0000
1000
0000
0001
1000
0000
0001
0100
0010
,
1000
0000
0000
0000
0110
0000
0000
0000
1000
0000
0001
0000
1000
0010
0001
0000
,
0010
0000
0000
0000
1010
0000
0000
0000
0001
0000
0010
0001
0020
0000
0230
0000
,
2300
3020
0032
0023
2030
0000
3100
0010
,
0002
0000
0103
0010
0002
0000
0013
1000
,
0001
0100
1000
0100
0020
0000
1000
0000
,
0230
0000
0000
0000
0001
0000
0000
0000
0310
0000
1000
0010
1000
0000
0010
0100
,
0010
0000
0100
0001
1000
0000
0001
0010
0200
0000
0000
0000
0301
0000
0100
0000
,
2000
0000
3001
0010
2000
0000
3010
0001
,
1000
0000
0010
0000
0100
0000
0001
0000
1000
0000
0010
1000
0010
0000
0100
0010
,
0100
0000
0001
0100
0001
0000
1000
0000
0100
0010
0000
0010
0100
0000
0010
0000
,
0001
0000
1000
0000
0001
0100
0010
1000
0001
0000
0010
0000
0001
0000
0100
0000
,
0001
0010
1000
0010
0001
1000
0100
1000
,
0020
0230
2300
3002
0013
0000
1010
0000
,
1100
0000
0000
0000
0001
0000
1000
0000
0001
0000
0010
0001
0010
0000
0100
0010
,
0100
0000
1000
0100
0010
0000
0001
0000
2001
0000
0000
0000
3100
0000
0010
0000
,
1002
0000
0103
0010
1010
0000
0101
0000
,
0011
1000
1100
0000
1002
0000
0103
0010
,
2000
0000
0000
0000
3002
0010
0203
0010
,
0301
1000
0010
1000
0002
0000
0000
0000
0013
0100
0010
0000
0100
1000
0100
0000
,
0010
0000
0001
0000
1000
0000
0010
0000
0100
0000
0001
1000
0010
0000
1000
0000
,
0001
0000
0010
0000
0100
0000
1000
0000
0010
1000
0010
0000
0100
0001
0100
0000
,
0010
0000
0000
0000
1001
0000
0000
0000
1000
0100
1000
0100
0010
0001
0010
0001
,
0010
0100
0010
0100
1000
0001
0010
0100
1000
0000
0001
0000
0010
0000
0001
0000
,
0101
0000
0001
1000
0010
1000
1100
0000
,
0001
0000
0010
0100
0010
0000
0100
1000
0001
0000
0100
0000
1000
0000
0100
0000
,
0001
0000
0010
0001
1000
0000
0000
0000
1100
0000
0100
0000
0110
0000
0010
0000
,
0011
0000
0000
0001
1000
0000
0001
0000
0000
0000
0100
0010
0110
0000
0000
0000
,
0001
0000
1000
0010
0100
0000
0001
0000
1000
0000
0100
1000
0100
0000
0010
0100
,
0010
0000
0001
0000
1000
0000
0010
0000
0100
0001
1000
0000
0010
1000
0001
0000
,
0010
0000
0100
0000
1001
0000
0000
0000
0001
0100
0001
0100
0010
1000
0010
1000
,
0010
0100
0010
0100
0001
1000
0010
0100
0001
0000
0000
0001
0010
0000
0100
0000
,
1000
0000
0000
1000
0010
0000
0100
0000
0001
0000
0000
0001
1000
0000
0100
0000
,
0010
0000
0100
0010
0100
0000
0010
0001
2000
0000
0010
0000
3002
0000
0010
0000
,
2003
0000
0100
0000
3002
0000
0100
0000
2003
0000
0010
0000
0010
0000
0010
3000
,
0010
1000
0001
0100
0010
0000
0000
0000
1100
0000
0000
0000
1010
0000
0000
0000
,
0011
0101
1100
0101
,
0011
1010
1001
1100
,
1001
0000
0000
0000
0101
0000
0000
0000
0110
0000
0000
0000
0110
0000
0000
0010
,
1000
0000
0001
0000
0100
0001
0100
0001
1000
0000
0100
0000
1000
0001
0010
0000
,
0001
0000
0100
0000
0001
1000
0010
0000
0110
0000
0100
0000
0001
0010
0100
0000
,
0110
0000
0100
0000
1000
0010
0100
0000
0102
0000
0000
0000
0013
0000
0000
0000
,
2100
0000
3010
0000
2002
0000
0000
3003
,
1000
0000
0000
1000
0001
0000
0100
0000
0010
0000
0000
0000
0220
0330
0000
0000
0001
0000
0000
0000
0001
0000
0100
0000
0010
0000
0000
0000
0010
0000
1000
0000
,
0001
0000
0010
0000
0100
1000
0001
0000
0010
0000
0001
1000
0001
0000
0100
0000
,
0010
0000
1000
0100
0010
0001
0010
0100
1000
0000
1000
0010
0100
0000
0100
0001
,
1000
0000
0100
0000
0010
0001
1000
0000
0010
0000
1000
0001
1000
0000
0001
0000
,
0100
0010
0100
0010
1000
0001
1000
0001
0100
0000
0100
0001
1000
0000
1000
0001
,
0010
0000
0100
0000
0010
0001
1000
0000
0010
0000
0100
0001
0100
0000
0010
0000
,
2000
0000
3200
0000
0302
0000
2003
0000
3010
0001
0010
0001
1000
0000
0010
0100
,
0001
0000
1000
0000
0100
0000
0010
0000
0110
0000
0000
0001
1000
0000
0010
0000
,
0100
0001
1000
0001
1000
0100
0010
0002
1003
0000
0010
0100
0001
0000
0010
0000
,
0001
1000
0010
0000
0100
0000
0001
1000
0100
0000
0010
0000
0001
0100
0010
0100
,
0001
1000
0010
1000
0001
0000
0010
0001
0100
0000
0010
1000
0100
0000
0001
0000
,
0100
0000
1000
0000
0010
0000
0100
0001
0100
0010
0100
0001
1000
0000
0010
0000
,
0110
0000
0100
0000
1002
0000
0000
0000
0000
0000
1003
0010
0100
0010
1000
0001
,
0100
0001
1000
0010
1000
0001
0100
0010
1000
0010
0100
0001
1000
0100
0010
0001
,
1000
0001
0010
0100
1000
0000
0010
0000
1010
0000
0110
0000
0101
0000
0000
0000
,
0001
0000
1000
0000
0001
0010
0001
0010
0100
1000
0001
1000
0100
0000
0000
1010
,
0000
0000
0011
0000
0000
0101
0000
0000
0220
0000
0000
0000
0000
0000
0000
0000
,
0000
0300
0000
0030
;

//--------------- dance-double - forcednature ----------------
#NOTEDATA:;
#STEPSTYPE:dance-double;
#DESCRIPTION:forcednature;
#DIFFICULTY:Easy;
#METER:9;
#RADARVALUES:0,0,0,0,0;
#CREDIT:forcednature;
#NOTES:
00000000
00000000
00000000
00000000
,
00000000
00000000
00000000
00000000
,
00000000
00000000
00000000
00000000
,
00001000
00010000
00100000
01000000
,
00010000
10000000
01000000
01100000
,
00100000
00100000
00100000
00000000
00001000
00000000
00001000
00000000
,
00010000
00010000
00000100
00001000
,
00000010
00000000
00010000
00010000
,
00001000
00001000
01000000
00010000
,
00200000
00300000
00001000
00001000
,
00010000
00010000
00000010
00001000
,
00000100
00000000
00000110
00000000
,
00001001
00000000
00001000
00000100
,
00010000
00001000
00200000
00300000
,
00020000
00030000
02000000
03000000
,
00002000
00023000
00030200
00000300
,
00002000
00003000
00000002
00000003
,
00000200
00000320
00001030
00000000
,
00001001
00000000
00010000
00010000
,
00010000
00000000
00001000
00000000
,
00011000
00000000
00100000
00100000
,
00100000
00000000
00010000
00000000
,
10010000
00000000
00001000
00001000
,
00001000
00000000
00010000
00000000
,
00011000
00000000
00000010
00000010
,
00000010
00000000
00001000
00000100
,
00010000
00000000
00001000
00100000
,
00010000
00000000
01000000
00100000
,
10000000
00100000
01000000
00010000
,
10000000
00000000
01000000
00100000
,
00001000
00000000
00010000
00000100
,
00000010
00000000
00000001
00001000
,
00000001
00001000
00000010
00000100
,
00000001
00000000
00001001
00000000
,
00000110
00000000
00001000
00000100
,
00010000
00001000
00100000
00000000
,
00010000
01000000
00010000
10000000
,
00100000
00000000
01100000
00000000
,
10010000
00000000
00001000
00010000
,
00011000
00000000
00022000
00000000
,
00000000
00033000
00000100
00001000
,
00000100
00000010
00001001
00001001
,
00001000
00000100
00010000
00001000
,
00100000
00010000
10010000
10010000
,
10000000
00100000
20000000
32000000
,
03200000
00320000
01030000
00001000
,
00011000
00000100
00010000
00011000
,
00001000
00000010
00000100
00000100
,
00001000
00000001
00001001
00000110
,
00001001
00000000
00000100
00000110
,
00000010
00001000
00000100
00010000
,
00001000
00100000
01100000
10010000
,
10000000
01000000
20000000
30020000
,
00230000
00302000
00013000
00011000
,
00000000
00001100
00000000
00011000
,
00000000
00000000
01010000
00000000
00000000
00001000
00000000
00001000
,
00000000
00001000
00000000
00001000
00010000
00000000
00010000
00000000
,
00022000
00033000
00101000
00101000
,
00011000
00011000
00010010
00010010
,
00011000
00011000
01001000
00011000
,
00010100
00011000
00200000
00000000
,
00300000
00000000
00010000
01010000
,
00001000
00011000
00000010
00001010
,
00000001
00000101
00002000
00003000
,
00000002
00000003
00002002
00000000
,
00000000
00000000
00000000
00003003
00001000
00000000
00000100
00000000
,
00010000
00001000
00010000
00010000
,
10000000
00000000
00010000
01000000
,
00001000
00010000
00000010
00001000
,
00000002
00000003
00001000
00000100
,
00010000
00001000
00100000
00010000
,
10000000
00010000
02000000
03000000
,
00100000
10000000
00010000
00010000
,
00100000
00011000
00000010
00001000
,
00000010
00000100
00000001
00001000
,
00000001
00000010
00000100
00001000
,
00000100
00000000
00010000
00001000
00010000
00000000
00001000
00000000
,
00100000
00020000
00000000
01030000
,
00100000
10000000
01000000
00010000
,
00001000
00100000
00001000
00011000
,
00000010
00000000
00000000
00000000
00010000
00000000
00000000
00000000
00011000
00000000
00000000
00000000
01000000
00000000
00000000
01000000
,
00000000
00000000
00010000
00000000
00000000
00010000
00000000
00000000
00200000
00000000
00000000
00000000
00000000
00000000
00000000
00000000
,
00000000
00000000
00000000
00300000
;

//--------------- dance-double - forcednature ----------------
#NOTEDATA:;
#STEPSTYPE:dance-double;
#DESCRIPTION:forcednature;
#DIFFICULTY:Medium;
#METER:14;
#RADARVALUES:0,0,0,0,0;
#CREDIT:forcednature;
#NOTES:
00000000
00000000
00000000
00000000
,
00000000
00000000
00000000
00000000
,
00000000
00000000
00000000
00000000
,
00002000
00023000
00030200
00002300
,
00003001
00000100
00001000
00000000
00011000
00000000
00101000
00000000
,
00100000
00100000
01000000
01100000
10000000
00000000
01000000
00010000
,
00001000
00100000
00020000
00000000
00130000
00001000
00010000
00000100
,
00010000
00001000
00000010
00000000
00000001
00000000
00000100
00001000
,
00010000
00000010
00002000
00000000
00013000
01000000
10000000
01000000
,
00200000
00000000
10300000
00000000
00010000
01000000
00100000
00000000
,
10000000
01000000
00100000
00000000
01000000
00010000
00001000
00100000
,
00010000
00100000
00001000
00000000
02002000
00000000
03003000
00000000
,
00020200
00030300
00001100
00000011
,
00001000
00000000
00000001
00001000
00000001
00000000
00000000
00000000
00000200
00000000
00000000
00000000
00002300
00000000
00000000
00000000
,
00023000
00000000
00130000
10000000
00010000
00000000
01000000
00010000
,
10000000
01000000
00010000
00000000
00002000
00000000
00003020
00000000
,
00000130
00010000
00000010
00000100
00020000
00000000
00030000
01000000
,
00200000
00000000
20000000
30300000
10010000
00000000
00000000
00000000
,
01100000
00000000
00011000
00101000
,
00010100
00000000
00001001
00000000
,
00000110
00000000
00011000
00010010
,
01001000
00000000
10010000
00000000
,
01100000
00000000
01010000
00011000
,
00001010
00000000
00001001
00000000
,
00000110
00000000
00022000
00000000
,
00000000
00000000
00033000
00000000
02000000
00000000
03010000
00100000
,
02000000
00000000
03100000
00001000
00020000
00000000
00030100
00001000
,
00000010
00000100
00000001
00000010
00000200
00000000
00001000
00000000
,
00020300
00001000
00230000
02300000
,
03020000
00000000
20030000
00000000
32000000
00000000
03100000
00010000
,
02000000
00000000
03100000
10000000
02000000
00000000
03100000
00010000
,
00100000
00000000
00001000
00000000
00010000
00000000
00000100
00000000
00001000
00000000
00000000
00000010
00000000
00000000
00001000
00000000
,
00000001
00000010
00001000
00000000
00010000
01000000
00100000
01000000
,
10000000
00010000
00100000
00000000
01100000
00000000
01000000
10000000
,
00100000
10000000
01000000
00010000
00001000
00000000
00100000
00010000
,
00100000
00001000
00000010
00000100
00001000
00000000
00000110
00000000
,
00000001
00000010
00000001
00000100
00001000
00000000
00011000
00000000
,
00010000
00100000
10000000
00000000
10010000
00000000
00000000
00000000
,
00011000
00000000
00001001
00000110
,
00011000
01100000
20020000
00000000
,
00000000
00000000
30030000
00000000
10000000
01000000
00100000
01000000
,
00010000
00000000
00001000
00010000
00001000
00000000
00000000
00000000
00101000
00000000
00000000
00000000
00010100
00000000
00000000
00000000
,
00010000
00001000
00000010
00000100
00001000
00000001
00000010
00000001
,
00000100
00000000
00001000
00000000
00010000
00000000
00100000
00000000
01000000
00000000
00000000
01000000
00010000
00000000
00000000
00010000
,
10000000
00000000
00000000
10000000
00100000
00000000
00000000
00000000
20000000
00000000
32000000
00000000
03200000
00000000
00320000
00000000
,
00032000
00003200
00000320
00000032
00000103
00000010
00000100
00001000
,
00010000
00000000
01000000
00100000
01000000
00010000
00001000
00000000
,
00100000
00010000
00100000
00001000
00010000
01000000
10000000
00100000
,
10000000
00010000
01100000
00011000
,
00000110
00000000
00000000
00000001
00001000
00000000
00000010
00000000
00000000
00000000
00000000
00000000
00000110
00000000
00000000
00000000
,
00001000
00010000
00100000
01000000
00010000
10000000
00100000
10000000
,
01000000
00000000
00010000
00000000
00001000
00000000
00000010
00000000
00000100
00000000
00000000
00000100
00001000
00000000
00000000
00001000
,
00000001
00000000
00000000
00000001
00000010
00000000
00000000
00000000
00000002
00000000
00000203
00000000
00000320
00000000
00002030
00000000
,
00023000
02030000
03200000
20300000
31000000
00000000
01100000
00000000
,
00010000
00011000
00000010
00000110
,
00000001
00000000
00001001
00000000
00000001
00000010
00001000
00000010
,
00000001
00001000
00000100
00000000
00000110
00000000
00011000
00000000
,
01100000
00000000
00000000
10000000
00010000
00000000
00000000
00000000
11000000
00000000
00000000
00000000
11000000
00000000
00000000
00000000
,
00110000
00110000
00001100
00001100
,
00000011
00000011
00000101
00000101
,
00001010
00000000
00000000
00000000
00001010
00000000
00000000
00000000
01010000
00000000
00000000
00000000
01000000
00000000
00000000
00010000
,
01000000
01000000
00100000
00100000
10000000
00010000
10000000
00010000
,
00100000
01000000
00100000
01000000
00010000
00001000
00000010
00000100
,
00010000
00001000
00000010
00000000
00000220
00000000
00000330
00000000
,
00022000
00000000
00033000
00000000
02200000
00000000
00000000
03300000
,
00010000
00000000
00000000
10000000
00010000
00000000
10000000
00000000
00010000
00000000
00000000
00000000
00200000
00300000
00000000
00000000
01000000
00000000
00000000
00000000
10000000
00000000
00000000
00000000
00100000
00000000
00000000
00000000
10000000
00000000
00000000
00000000
,
01000000
00010000
00001000
00000000
00100000
00010000
00100000
00001000
,
00020000
00000000
00030200
00000000
00001300
00000010
00001000
00000001
,
00000100
00001000
00010000
00000000
00001000
00000100
00000001
00000000
,
00002000
00000000
00003020
00000000
00010030
00100000
01000000
00100000
,
10000000
00010000
01000000
00000000
00100000
10000000
01000000
10000000
,
00100000
00010000
00001000
00010000
00000200
00000000
00000300
00001000
,
00000001
00000010
00001000
00010000
00011000
00000000
00101000
00000000
,
00100000
00010000
10000000
02000000
03000000
00000000
00010000
00001000
,
00100000
00000000
00001000
00010000
00000010
00010000
00001000
00000010
,
00000100
00000010
00000001
00000000
00000001
00000100
00000010
00000100
,
00001000
00010000
00001000
00100000
00010000
00100000
01000000
10000000
,
01000000
00010000
00002000
00000000
00000000
00103000
00010000
00001000
,
00000100
00010000
00001000
00000100
00000010
00001000
00000100
00000010
,
00000001
00000100
00001000
00001000
00001000
00010000
00100000
00000000
,
00010000
00000000
00010000
00000000
00010000
00000000
00001000
00000000
00000010
00000000
00000000
00000000
00000110
00000000
00000000
00001000
,
00000000
00000000
00011000
00000000
00000000
00010000
00000000
00000000
02200000
00000000
00000000
00000000
00000000
00000000
00000000
00000000
,
00000000
03000000
00000000
00300000
;

//--------------- dance-double - forcednature ----------------
#NOTEDATA:;
#STEPSTYPE:dance-double;
#DESCRIPTION:forcednature;
#DIFFICULTY:Hard;
#METER:17;
#RADARVALUES:0,0,0,0,0;
#CREDIT:forcednature;
#NOTES:
00000000
00000000
00000000
00000000
,
00000000
00000000
00000000
00000000
,
00000000
00000000
00000000
00000000
,
00001000
00000000
00010000
00000000
00001000
00000000
00100000
00000000
00010000
00000000
00100000
00000000
01000000
10000000
01000000
00000000
,
00010000
00001000
00000010
00000001
00001001
00000000
00000110
00000000
,
00011000
00000000
00101000
00000000
00110000
00000000
01010000
00000000
02000000
03000000
00100000
01000000
00100000
00000000
10000000
00100000
,
10000000
00000000
00010000
00000000
00100000
00000000
01000000
00000000
00010000
00000000
00001000
00010000
00001000
00000000
00100000
00000000
,
00010000
00000000
00000000
00000000
00001000
00000100
00001000
00000100
00000010
00000000
00000100
00000010
00000100
00000000
00000010
00000001
,
00000010
00000000
00000001
00000000
00001000
00000000
00000010
00000000
00000100
00000000
00001000
00010000
00001000
00000000
00100000
00000000
,
00020000
00000000
00000000
00000000
01030000
00000000
00000000
00000000
00010000
00000000
00100000
00010000
00100000
00000000
00001000
00010000
,
00001000
00000000
00000010
00000000
00000100
00000000
00010000
00000000
00001000
00000000
00000010
00000100
00000010
00000000
00000001
00000000
,
00001000
00000000
00000010
00000000
00000100
00000000
00001000
00000000
00020000
00000000
00000000
00000000
00030000
00000000
00001000
00010000
,
00001000
00010000
00100000
10000000
10010000
00000000
01100000
00000000
,
10000000
01000000
10000000
01000000
00100000
00010000
00100000
00010000
00200000
00000000
00000000
00301000
00020000
00000000
00000000
00030100
,
00002000
00000000
00000000
00003001
00000100
00000001
00001000
00000010
00002000
00000000
00003000
00000100
00010000
00001000
00100000
00010000
,
00100000
00000000
01100000
00000000
20020000
00000000
30030000
00000000
00020000
00000000
00000000
01030000
00002000
00000000
00000000
00013000
,
00000010
00000000
00001000
00000000
00000001
00000000
00000010
00000000
00000220
00000000
00000000
00000330
00000000
00001000
00000000
00000100
,
00020000
00000000
00000000
00000000
00002000
00000000
00033000
00000000
00020000
00030000
01000000
00000000
10000000
00000000
00100000
00000000
,
00010000
00000000
00000000
00000000
00011000
00000000
00000000
00000000
00100000
00000000
00010000
00100000
00000000
00001000
00010000
00000100
,
00001000
00000010
00010000
00000000
00001000
00000100
00000001
00000010
,
00001000
00000000
00000000
00000000
00011000
00000000
00000000
00000000
00000010
00000000
00001000
00000010
00000000
00010000
00001000
01000000
,
00010000
00100000
00001000
00000000
00010000
00100000
10000000
01000000
,
00010000
00000000
00000000
00000000
00011000
00000000
00000000
00000000
01000000
00000000
00010000
01000000
00000000
00001000
00010000
00000010
,
00001000
00000100
00010000
00000000
00001000
00000010
00000001
00000100
,
00001000
00000000
00000000
00000000
00011000
00000000
00000000
00000000
00000100
00000000
00001000
00000100
00000000
00010000
00001000
00100000
,
00020000
02030000
03002000
00203000
00320000
00000000
10030000
01000000
,
00020000
00000000
00031000
00010000
02000000
00000000
03010000
00001000
,
00000010
00000001
00001000
00000001
00000200
00000000
00001000
00000000
,
00000302
00000000
00000000
00000000
00000010
00000000
00000000
00000000
00001003
00000000
00000100
00001000
00000100
00000000
00010000
00001000
,
00010000
00000000
00000010
00001000
00000010
00000000
00000100
00000001
00002000
00000000
00000000
00000000
00003001
00000000
00000100
00000000
,
00002000
00000000
00013000
00001000
00000200
00000000
00001300
00010000
,
00100000
10000000
00010000
10000000
02000000
00010000
00000000
00010000
,
23000000
00000000
00100000
00000000
00000000
00000000
00100000
00000000
30010000
00000000
01000000
00010000
01000000
00000000
00001000
00010000
,
00001000
00000000
00100000
00010000
00100000
00010000
10000000
01000000
00100000
00000000
00010000
00000000
01000000
00000000
00001000
00000000
,
00100000
00010000
00001000
00000100
00010000
00000010
00001000
00000100
,
00020000
00032000
00003020
00000032
00001003
00000000
00001010
00000000
,
00010100
00000000
00000000
00000000
00100000
00000000
00001000
00000000
00010000
00000000
00100000
00010000
00100000
00000000
10000000
00100000
,
10000000
00000000
01000000
10000000
01000000
00000000
00010000
00000000
00012000
00000000
00000000
00000000
00103000
00000000
00000000
00000000
,
00021000
00030010
00010100
00101000
,
00001000
01000000
00010000
00000000
10020000
00000000
00000000
00000000
,
00230000
00000000
00000000
00000000
00301000
00000010
00000100
00000010
,
00000001
00001000
00000100
00001000
00000002
00000000
00000000
00000000
00000103
00001000
00000000
00000000
00010000
00001000
00000000
00000000
,
00010000
00000000
00100000
00000000
10000000
00000000
00100000
00000000
01000000
00000000
00010000
10000000
01000000
00000000
00010000
00000000
,
00001000
00000000
00100000
00000000
00010000
00000000
10000000
00000000
01000000
00010000
00000000
00000000
00001000
00010000
00000000
00000000
,
00001000
00000000
00000010
00000000
00000001
00000000
00000000
00000000
00001000
00000100
00010000
00000000
00001000
00100000
00010000
00000000
,
01000000
00100000
10000000
00000000
01000000
00100000
00010000
00000000
10000000
00000000
01000000
00000000
00010000
00000000
00001000
00000000
,
00000010
00000000
00000001
00000100
00001000
00010000
00100000
00000000
,
10000000
00000000
00010000
10000000
00010000
00000000
00100000
00000000
01000000
00000000
00010000
00000000
00001000
00000000
00100000
00000000
,
01000000
01100000
10010000
00011000
,
00001001
00000000
00000000
00000001
00000010
00000000
00000100
00000000
00000000
00000000
00000010
00000100
00010000
00000000
00000000
00000000
,
00001000
00000000
00000010
00000000
00000001
00000000
00000010
00000000
00000100
00000000
00001000
00000001
00000100
00000000
00001000
00000000
,
00010000
00000000
00000010
00000000
00001000
00000000
00000001
00000000
00000100
00001000
00000000
00000000
00010000
00001000
00000000
00000000
,
00010000
00000000
00100000
00000000
10000000
00000000
00000000
00000000
00010000
01000000
00001000
00000000
00010000
00000010
00001000
00000000
,
00000100
00000010
00000001
00000000
00000100
00000010
00001000
00000000
00000001
00000000
00000000
00000100
00000010
00000000
00001000
00000000
,
00010000
00000000
00000000
01000000
00100000
00000000
10000000
00000000
00010000
00000000
00000000
10000000
01000000
00000000
00100000
00000000
,
00010000
00000000
00100000
00001000
00010000
00000000
00001000
00010000
00000200
00000000
00001000
00000000
00020300
00000000
00001000
00000000
,
00030020
00001000
00020030
00001000
00030200
00000010
00000010
00000010
,
00000310
00000001
00001000
00000001
00000100
00000000
00000000
00000000
00000101
00000000
00000000
00000000
00001010
00000000
00000000
00000000
,
01010000
10100000
11000000
00110000
,
00001100
00000011
00001001
00000110
,
00011000
00000000
00000000
00000000
01100000
00000000
00000000
00000000
20010000
00000000
00000000
00000000
00100000
00000000
30000000
00100000
,
10000000
00000000
00010000
00000000
01000000
00010000
01000000
00010000
10000000
00000000
01000000
00000000
10000000
01000000
00100000
00000000
,
00010000
00000000
00100000
00000000
00010000
00100000
00001000
00000000
00010000
00000000
00000100
00000000
00010000
00000100
00001000
00000000
,
00000010
00000000
00000100
00000000
00000010
00000100
00000001
00000000
00002000
00000000
00000000
00000000
00000010
00000000
00000000
00000000
,
00023000
00000000
00130000
00000000
20020000
00000000
00000000
30030000
,
10000000
00000000
00000000
10000000
01000000
00000000
00010000
00000000
00001000
00000000
00000000
00000000
00022000
00033000
00000000
00000000
00010000
00000000
00000000
00000000
00001000
00000000
00010000
00000000
00001000
00000000
00000000
00000000
00010000
00000000
00000100
00000000
,
00001000
00000000
00000100
00000000
00000010
00000000
00000001
00000000
00001000
00000000
00000010
00001000
00000010
00000000
00010000
00000000
,
00001000
00000000
00100000
00010000
10000000
00010000
00100000
00000000
01000000
00000000
10000000
01000000
10000000
00000000
01000000
00100000
,
00010000
00000000
00100000
00000000
00001000
00000000
00010000
00000000
00000100
00000000
00001000
00000001
00001000
00000000
00000010
00000000
,
00000100
00000001
00000100
00000000
00000010
00001000
00000010
00000000
00000100
00000000
00000001
00000100
00000001
00000000
00000100
00000010
,
00001000
00000000
00000100
00000000
00010000
00000000
00001000
00000000
00100000
00000000
00010000
10000000
00010000
00000000
01000000
00000000
,
00200000
00000000
20300000
00000000
32000000
00000000
03020000
00000000
00031000
00010000
00001000
00010000
00000000
00000000
00000100
00001000
,
00000100
00000000
00000010
00000000
00000001
00000000
00000100
00000000
00000110
00000000
00000000
00001000
00000100
00000000
00010000
00000000
,
00001000
00010000
00001000
00010000
00001000
00100000
00010000
00200000
01300000
00000000
10000000
01000000
10000000
00000000
01000000
00000000
,
00100000
01000000
00100000
00000000
00010000
00000000
00100000
00001000
00010000
00000000
00001000
00000000
00010000
00001000
00010000
00001000
,
00010000
00000010
00001000
00000010
00001000
00000000
00000010
00000100
00000001
00000000
00000100
00000010
00001000
00000000
00000001
00000000
,
00000010
00000000
00000100
00000000
00001000
00000000
00000100
00010000
00001000
00010000
00000100
00010000
00001000
00000000
00100000
00000000
,
00010000
00000000
01000000
00000000
00200000
00000000
00000000
00000000
00000000
00000000
10300000
00100000
10000000
00100000
01000000
00010000
,
01000000
00001000
00010000
00001000
00100000
00010000
00100000
00001000
00010000
00000100
00001000
00000100
00010000
00001000
00010000
00000100
,
00001000
00000100
00000010
00000001
00000010
00000000
00001000
00000000
00010000
00000000
00001000
00000000
00101000
00000000
00000000
00000000
,
00001000
00000000
00010000
00000000
00001000
00010000
00001000
01000000
00010000
01000000
00001000
00010000
00001000
00000000
00000000
00101000
,
00000000
00000000
00011000
00000000
00000000
01001000
00000000
00000000
02200000
00000000
00000000
00000000
00000000
00000000
00000000
00000000
,
00000000
03000000
00000000
00300000
;
