#VERSION:0.83;
#TITLE:BLUE STRAGGLER;
#SUBTITLE:;
#ARTIST:L.E.D.;
#TITLETRANSLIT:;
#SUBTITLETRANSLIT:;
#ARTISTTRANSLIT:;
#GENRE:HARD DANCE;
#CREDIT:;
#MUSIC:BLUE STRAGGLER.ogg;
#BANNER:BLUE STRAGGLER.png;
#BACKGROUND:BLUE STRAGGLER-bg.png;
#CDTITLE:./CDTitles/bm IIDX 20 tricoro.png;
#SAMPLESTART:13.615;
#SAMPLELENGTH:15.000;
#SELECTABLE:YES;
#OFFSET:1.362;
#BPMS:0.000=160.000;
#STOPS:;
#TIMESIGNATURES:0.000=4=4;
#BGCHANGES:0.500=BLUE STRAGGLER.mp4=1.000=0=0=0=StretchNoLoop====,
99999.000=-nosongbg-=1.000=0=0=0=StretchNoLoop====
;
#FGCHANGES:;

//--------------- dance-single - forcednature ----------------
#NOTEDATA:;
#STEPSTYPE:dance-single;
#DESCRIPTION:forcednature;
#DIFFICULTY:Beginner;
#METER:3;
#RADARVALUES:0,0,0,0,0;
#CREDIT:forcednature;
#NOTES:
0000
0000
0000
0000
,
0000
0000
0000
0000
,
0000
0000
0000
0000
,
0000
0000
0000
0000
,
0000
0000
0000
0000
,
0000
0000
0000
0000
,
1000
0000
0000
0000
,
0100
0000
0000
0000
,
1000
0000
0000
0000
,
0010
0000
0000
0000
,
1001
0000
0000
0000
,
0001
0000
0100
0000
,
0001
0000
0000
0000
,
1000
0000
0100
0000
,
1000
0000
0000
0000
,
0001
0000
0010
0000
,
0001
0000
0100
0000
,
0010
0000
0010
0000
,
0000
1001
0000
0000
,
1000
0000
0100
0000
,
1000
0000
0000
0000
,
0001
0000
0100
0000
,
0001
0000
0000
0000
,
0001
0000
0010
0000
,
0001
0000
1000
0000
,
0000
0010
0000
0000
,
1000
0000
0100
0000
,
1000
0000
0000
0000
,
0001
0000
0100
0000
,
0001
0000
0000
0000
,
0010
0000
0001
0000
,
0010
0000
0000
0000
,
0100
0000
1000
0000
,
0000
0010
0000
0000
,
2002
0000
0000
0000
,
0000
0000
0000
0000
,
0000
0000
0000
0000
,
0000
0000
0000
0000
,
0000
0000
0000
0000
,
0000
0000
0000
0000
,
0000
0000
0000
0000
,
3003
0000
0000
0000
,
1000
0000
0000
0000
,
0000
0000
0000
0000
,
0001
0000
0000
0000
,
0100
0000
0010
0000
,
0100
0000
0000
0000
,
0000
0000
0000
0000
,
0001
0000
0000
0000
,
1000
0000
0000
0000
,
0100
0000
0000
0100
,
0010
0000
0000
0100
,
0010
0000
0010
0000
,
0001
0000
0001
0000
,
1000
0000
0000
0000
,
0000
0000
0000
0000
,
0001
0000
0100
0000
,
0001
0000
0010
0000
,
0100
0000
1000
0000
,
0010
0000
1000
0000
,
0001
0000
0010
0000
,
0001
0000
0100
0000
,
0010
0000
1000
0000
,
0100
0000
1000
0000
,
0001
0000
0100
0000
,
0001
0000
0010
0000
,
0100
0000
1000
0000
,
0010
0000
1000
0000
,
0001
0000
0010
0000
,
0001
0000
0100
0000
,
0010
0000
0010
0000
,
0000
1000
0000
1000
,
0001
0000
0000
0000
;

//--------------- dance-single - forcednature ----------------
#NOTEDATA:;
#STEPSTYPE:dance-single;
#DESCRIPTION:forcednature;
#DIFFICULTY:Easy;
#METER:7;
#RADARVALUES:0,0,0,0,0;
#CREDIT:forcednature;
#NOTES:
0000
0000
0000
0000
,
0000
0000
0000
0000
,
0000
0000
0000
0000
,
0000
0000
0000
0000
,
0000
0000
0000
0000
,
0000
0000
0000
0000
,
1000
0100
0000
0100
,
0000
1000
0001
0100
,
0000
0010
0000
1000
,
0000
0001
0001
0010
,
0100
0000
1000
0100
,
0000
0010
0001
0000
,
1000
0000
0010
0100
,
0000
0001
0100
0000
,
1001
0000
1000
0100
,
0010
0000
0001
0100
,
0010
0000
1000
0001
,
0000
0010
0010
0010
,
0000
1001
0000
1000
,
0100
1000
0000
0001
,
0100
0000
0010
1000
,
0000
0001
0000
0010
,
0100
0010
0000
0001
,
0100
0010
0000
1000
,
0100
0100
1000
0010
,
0000
0100
0100
0100
,
0000
0001
0010
0001
,
0010
0100
1000
0100
,
0000
1000
0010
1000
,
0010
0100
0001
0100
,
0010
0000
0010
1000
,
0100
0000
0100
0010
,
0001
0001
1000
1000
,
0000
0010
0010
0010
,
0200
0000
0000
0000
,
0000
0000
0000
0000
,
0000
0000
0000
0000
,
0000
0000
0000
0000
,
0000
0000
0000
0000
,
0000
0000
0000
0000
,
0000
0000
0000
0000
,
0000
0000
0000
0300
,
0001
0000
0010
0000
,
0001
0000
0100
0000
,
0010
0000
1000
0000
,
0100
0000
1000
1000
,
0001
0000
0100
0000
,
0001
0000
0010
0000
,
0100
0000
1000
0000
,
0010
0000
1000
1000
,
0100
0000
0000
0100
,
0010
0000
0000
0010
,
0001
0000
0001
0000
,
0100
0001
0100
0001
,
1000
0000
0000
0000
,
0200
0000
0000
0000
,
0310
0001
0100
0001
,
1000
0010
1000
0100
,
1000
0001
0100
0010
,
1000
0001
0010
0001
,
0100
0010
1000
0010
,
0100
0001
1000
0001
,
0010
0100
1000
0100
,
0010
0001
1000
0010
,
0100
0001
1000
0001
,
0010
0100
1000
0100
,
0010
0001
1000
0001
,
0100
0010
1000
0010
,
0100
0100
0001
1000
,
0100
0100
1000
0001
,
0010
0001
0100
0001
,
0000
1000
1000
1000
,
2002
0000
0000
0000
,
0000
0000
0000
0000
,
0000
0000
0000
0000
,
3003
0000
0000
0000
;

//--------------- dance-single - forcednature ----------------
#NOTEDATA:;
#STEPSTYPE:dance-single;
#DESCRIPTION:forcednature;
#DIFFICULTY:Medium;
#METER:11;
#RADARVALUES:0,0,0,0,0;
#CREDIT:forcednature;
#NOTES:
0000
0000
0000
0000
,
0000
0000
0000
0000
,
0000
0000
0000
0000
,
0000
0000
0000
0000
,
0000
0000
0000
0000
,
0000
0000
0000
0000
,
1000
0100
0010
0100
0000
0100
1000
0010
,
0000
0010
0000
0100
0000
0100
0000
0001
,
0000
0001
0010
0100
0000
0100
0010
0001
,
0000
0100
0000
0000
0100
0000
0000
0010
0000
0000
0010
0000
1000
0000
0001
0000
,
1000
0000
0000
0100
0000
0000
1000
0000
0000
0010
0000
0000
0100
0000
0001
0000
,
0000
0010
0000
0000
0100
0000
0000
0010
0000
0000
0001
0000
0000
1000
0000
0000
,
0010
0000
0000
0100
0000
0000
0001
0000
0000
0100
0000
0000
0010
0000
0010
0000
,
0000
1000
0000
0000
0001
0000
0000
0010
0000
0000
0001
0000
0000
0100
0000
0000
,
0010
0000
0000
1000
0000
0000
0100
0000
0000
1000
0000
0000
0001
0000
0001
0000
,
0010
0000
0000
0001
0000
0000
0100
0000
0000
0001
0000
0000
1000
0000
1000
0000
,
0000
0010
0000
0000
1000
0000
0000
0100
0000
0010
0000
0000
0001
0000
0010
0000
,
0000
0100
0000
0000
0100
0000
0000
1000
0000
1000
0010
0000
0100
0000
0001
0000
,
0000
0000
1001
0000
1000
0010
1000
0001
,
0000
0010
0000
0000
0100
0000
0000
1000
0000
0000
0100
0000
0000
0010
0000
0000
,
0001
0000
0000
1000
0000
0000
0001
0000
0000
0100
0000
0000
0010
0000
1000
0000
,
0000
0100
0000
0000
1000
0000
0000
0001
0000
0000
0100
0000
0000
0010
0000
0000
,
1000
0000
0000
0001
0000
0000
0010
0000
0000
0001
0000
0000
0100
0000
0000
0000
,
0001
0000
0000
1000
0000
0000
0010
0000
0000
1000
0000
0000
0100
0000
0000
0000
,
0010
0001
0010
0001
0100
0001
0100
0001
,
0000
0010
0000
0000
0010
0000
0000
0100
0000
0000
0100
0000
1000
0000
0001
0000
,
0100
0000
0000
0010
0000
0000
0001
0000
0000
0010
0000
0000
1000
0000
0001
0000
,
0000
0010
0000
0000
0100
0000
0000
1000
0000
0000
0100
0000
0000
0001
0000
0000
,
0100
0000
0000
0010
0000
0000
0001
0000
0000
1000
0000
0000
0001
0000
0100
0000
,
0000
0010
0000
0000
0001
0000
0000
0010
0000
0000
1000
0000
0000
0100
0000
0000
,
1000
0010
1000
0010
0000
0010
1000
0001
,
0010
0001
0010
0001
0000
0001
0100
0010
,
1000
1000
0100
0000
1000
1000
0010
0000
,
0000
0001
0000
0000
0010
0000
0000
0100
0000
0000
0010
0000
0000
1000
0000
0000
,
2002
0000
0000
0000
,
0000
0000
0000
0000
,
0000
0000
0000
0000
,
0000
0000
0000
0000
,
0000
0000
0000
0000
,
0000
0000
0000
0000
,
0000
0000
0000
0000
,
0000
0000
0000
3003
,
0000
0000
0001
0000
0000
0100
0000
0000
0010
0000
0000
1000
0000
0000
0001
0000
,
0000
0000
1000
0000
0000
0100
0000
0000
0010
0000
0000
0001
0000
0000
1000
0000
,
0000
0000
0010
0000
0000
0100
0000
0000
0001
0000
0000
1000
0000
0000
0100
0000
,
0000
0000
0010
0000
0000
0100
0000
0000
1000
0000
0001
0000
1000
0000
0000
0010
,
0000
0000
0100
0000
0001
0000
0000
0010
0000
0000
0001
0000
0100
0000
0001
0000
,
0000
0000
1000
0000
0000
0100
0000
0000
1000
0000
0000
0010
0000
0000
1000
0000
,
0000
0000
0001
0000
0000
0010
0000
0000
0100
0000
0000
1000
0000
0000
0100
0000
,
0000
0000
0010
0000
0000
0001
0000
0000
0100
0000
0000
0001
0000
0000
1000
0000
,
0010
0000
0000
0110
,
1001
0000
0000
0110
,
1000
0100
1000
0000
0001
0100
0001
0000
,
0010
0010
0100
0010
0001
0001
1000
0001
,
0100
0000
0000
0000
,
0020
0000
0000
0000
0000
0000
0000
0000
0000
0000
0000
0000
0000
0030
0000
0000
,
1000
0000
0100
0000
0000
0010
0000
0000
0100
0000
0000
1000
0000
0000
0001
0000
,
0000
0000
0100
0000
0000
0010
0000
0000
0100
0000
0000
0001
0000
0000
1000
0000
,
0010
0000
0100
0000
0000
0010
0000
0000
1000
0000
0000
0001
0000
0000
0010
0000
,
0000
0000
0100
0000
0000
1000
0000
0000
0100
0000
0010
0000
0100
0000
0010
0000
,
0000
0000
0001
0000
0000
1000
0000
0000
0010
0000
0100
0000
0010
0000
0100
0000
,
0000
0000
0001
0000
0000
0010
0000
0000
0001
0000
0000
1000
0000
0000
0010
0000
,
0000
0000
0100
0000
0000
0001
0000
0000
1000
0000
0000
0100
0000
0000
1000
0000
,
0000
0000
0010
0000
0000
0100
0000
0000
0001
0000
0000
1000
0000
0000
0010
0000
,
0100
0000
0001
0000
0000
1000
0000
0000
0001
0000
0000
0010
0000
0000
0100
0000
,
0000
0000
0010
0000
0000
0001
0000
0000
1000
0000
0000
0001
0000
0000
0100
0000
,
0010
0000
1000
0000
0000
0100
0000
0000
1000
0000
0000
0001
0000
0000
0100
0000
,
0000
0000
0010
0000
0000
1000
0000
0000
0001
0000
0010
0000
0001
0000
0100
0000
,
0010
0000
0010
1000
0100
1000
0001
0100
,
0001
0000
0001
0010
0001
1000
0010
1000
,
0100
0000
0100
0010
0001
0000
0001
0100
,
0000
0000
1000
0000
0000
0100
0000
0000
0001
0000
0000
0010
0000
0000
0100
0000
,
2002
0000
0000
0000
,
0000
0000
0000
0000
,
0000
0000
0000
0000
,
3003
0000
0000
0000
;

//--------------- dance-single - forcednature ----------------
#NOTEDATA:;
#STEPSTYPE:dance-single;
#DESCRIPTION:forcednature;
#DIFFICULTY:Hard;
#METER:16;
#RADARVALUES:0,0,0,0,0;
#CREDIT:forcednature;
#NOTES:
0000
0000
0000
0000
,
0000
0000
0000
0000
,
0000
0000
0000
0000
,
0000
0000
0000
0000
,
0000
0000
0000
0000
,
0000
0000
0000
0000
,
1000
0100
0010
0001
0000
0001
0100
1000
,
0000
1000
0100
0010
0000
0010
1000
0001
,
0000
0010
0100
1000
0000
1000
0100
0001
,
0000
0101
0000
0000
1100
0000
0000
1010
0000
0010
0100
0000
0001
0000
0010
0000
,
0100
1000
0000
1000
0010
0000
0100
0001
0000
0001
0010
0000
0100
1000
0001
0010
,
0000
0100
0000
0000
0001
0000
0000
0100
0000
0000
1000
0000
0000
0010
0000
0010
,
1000
0001
0000
0001
0010
0000
0100
1000
0000
1000
0001
0000
0100
0001
0100
0010
,
0000
1000
0000
0000
0100
0000
0000
0001
0000
0000
0100
0000
0000
0010
0000
0010
,
0001
1000
0000
1000
0010
0000
1000
0100
0000
0100
0010
0000
0001
0000
1000
0000
,
0010
0100
0000
0100
0001
0000
0010
0001
0000
0001
1000
0000
0010
0100
0001
0100
,
0000
0010
0000
0000
1000
0000
0000
0001
0000
0010
0001
0000
0100
0000
0001
0000
,
0000
0101
0000
0000
1100
0000
0000
1010
0000
0010
0100
0000
0001
0000
0010
0000
,
0200
0000
0001
0000
1300
0100
1000
0000
0100
0010
0000
0010
0001
1000
0001
0100
,
0000
0010
0000
0000
0001
0000
0000
0010
0000
0000
1000
0000
0000
0100
0000
0100
,
0010
0001
0000
0001
0100
0000
0010
1000
0000
1000
0100
0000
0010
0001
1000
0010
,
0000
0100
0000
0000
1000
0000
0000
0100
0000
0000
0001
0000
0000
0010
0000
0010
,
0001
1000
0000
1000
0010
0000
0100
0001
0000
0001
1000
0000
0100
0000
0010
0000
,
0001
0100
0000
0100
0010
0000
1000
0001
0000
0001
0010
0000
0100
1000
0001
1000
,
0010
0000
0010
0000
0100
0000
0100
0000
0001
0000
0001
0000
1000
0000
1000
0100
,
0000
0011
0000
0000
0101
0000
0000
1010
0000
0000
1000
0100
1000
0001
1000
0010
,
0100
0001
0000
0001
0010
0000
0010
0100
0000
0100
1000
0000
1000
0010
0100
0001
,
0000
0010
0000
0000
1000
0000
0000
0010
0000
0000
0001
0000
0000
0100
0000
0100
,
0010
1000
0000
1000
0100
0000
0100
0010
0000
0010
0001
0000
0001
0100
0010
1000
,
0000
0001
0000
0000
0010
0000
0000
1000
0000
0000
0010
0000
0110
0000
0100
0000
,
1000
1010
0010
0110
0100
0101
0001
1001
,
1000
1100
0100
0110
0010
0011
0001
1001
,
1000
0010
1000
0010
0100
0001
0100
0001
0010
0100
0010
0100
1000
0001
1000
0001
,
0000
0101
0000
0000
1100
0000
0000
1010
0000
0000
0011
0000
0000
0100
0000
0100
,
0020
0000
0000
0000
,
0000
0000
0000
0000
,
0000
0000
0000
0000
,
0000
0000
0000
0000
,
0000
0000
0000
0000
,
0000
0000
0000
0000
,
0000
0000
0000
0000
,
0000
0000
0000
0030
,
2000
0000
0100
0000
0000
0001
0000
0000
0010
0000
0000
0010
0000
0000
3002
1000
,
0000
0000
0100
0000
0000
1000
0000
0000
0010
0000
0000
0010
0000
0000
1003
0001
,
0020
0000
0001
0000
0000
0100
0000
0000
1000
0000
0000
0100
0030
0000
0010
0000
,
0200
0000
0001
0000
0000
0310
0000
0000
0100
0000
1000
0000
1100
0000
0100
0010
,
0002
0000
0100
0000
1000
0000
0000
0010
0000
0000
0010
0000
0010
0000
2003
0001
,
0000
0000
0100
0000
0000
0001
0000
0000
0010
0000
0000
0001
0000
0000
3100
1000
,
0002
0000
0100
0000
0000
1000
0000
0000
0010
0000
0000
1000
0000
0000
0103
0001
,
2000
0000
0100
0000
0000
0001
0000
0000
0010
0000
0000
3010
1000
0000
1000
0100
,
0010
0000
0000
0110
,
1001
0000
0000
0110
,
1000
1010
0010
0110
0100
0101
0001
1001
,
1000
0100
1000
0100
0010
0001
0010
0001
0100
0010
0100
0010
1000
0100
0010
0001
,
0100
0000
0000
0000
,
0010
1000
0010
1000
0001
0010
0001
0010
0100
1000
0001
1000
0010
0100
0001
1000
,
0100
0010
0001
0000
0001
0100
0000
0100
1000
0000
1000
0100
0000
0100
0010
1000
,
0001
1000
0100
0000
0010
1000
0000
1000
0010
0000
0010
0001
0000
0001
0100
0010
,
1000
0001
0010
0000
0100
0001
0000
0001
0100
0000
0100
1000
0000
1000
0010
0000
,
0100
0001
1000
0000
0010
0100
0000
0100
1000
0000
1000
0000
1000
0000
0100
0010
,
0100
0001
1000
0000
0100
0010
0000
0010
1000
0000
1000
0000
1000
0000
1000
0010
,
0100
0010
0001
0000
1000
0001
0000
0001
0100
0000
0100
1000
0000
1000
0100
0010
,
0000
0100
0001
0000
1000
0001
0000
0010
0001
0000
1000
0010
0000
1000
0100
0010
,
0000
0100
1000
0000
0001
1000
0000
0010
1000
0000
1000
0000
1100
0000
1000
0001
,
0100
0010
1000
0000
0100
0010
0000
0010
1000
0000
1000
0010
0000
0010
0001
0100
,
0000
0010
1000
0000
1000
0001
0000
0001
0100
0000
0100
1000
0000
1000
0100
0001
,
1000
0001
0010
0000
0100
1000
0000
1000
0010
0000
0010
0100
0000
0100
1000
0000
,
1000
0100
0001
0000
0100
0010
0000
0010
0001
0000
0001
0000
0001
0000
0001
0010
,
0100
0101
0001
0011
0100
1100
1000
1010
,
0100
0110
0001
1001
0010
0110
1000
1001
,
0001
0100
0010
1000
0001
0010
0100
1000
0010
0100
0001
1000
0100
0010
0001
1000
,
0000
0000
0100
0001
0000
0100
1000
0001
1000
0010
0000
0001
0010
0000
0100
0001
,
2000
0000
0000
0000
,
0000
0000
0000
0000
,
0000
0000
0000
0000
,
3000
0000
0000
0000
;

//--------------- dance-double - forcednature ----------------
#NOTEDATA:;
#STEPSTYPE:dance-double;
#DESCRIPTION:forcednature;
#DIFFICULTY:Easy;
#METER:8;
#RADARVALUES:0,0,0,0,0;
#CREDIT:forcednature;
#NOTES:
00000000
00000000
00000000
00000000
,
00000000
00000000
00000000
00000000
,
00000000
00000000
00000000
00000000
,
00000000
00000000
00000000
00000000
,
00000000
00000000
00000000
00000000
,
00000000
00000000
00000000
00000000
,
00000000
00001000
00010000
00001000
,
00000000
01000000
00010000
01000000
,
00000000
00001000
00010000
00001000
,
00000000
00000010
00000010
00000010
,
00000000
00000100
00001000
00000100
,
00010000
00001000
00010000
00001000
,
00000000
01000000
00010000
01000000
,
00001000
00010000
00001000
00010000
,
00000000
00000010
00001000
00000100
,
00000000
00000100
00001000
00000010
,
00000000
00010000
00001000
00010000
,
00000000
00100000
00100000
00100000
,
00000000
10010000
00000000
10000000
,
01000000
00100000
00010000
01000000
,
00000000
00001000
00010000
00000100
,
00001000
00000100
00010000
00001000
,
00000000
00000010
00000001
00000100
,
00000000
00000100
00000001
00000010
,
00000000
00000010
00000100
00010000
,
00000000
00011000
00011000
00011000
,
00000000
00001000
01000000
00010000
,
10000000
00010000
00100000
00001000
,
00000000
00010000
00000100
00001000
,
00000001
00001000
00000010
00010000
,
00000000
00001000
01000000
00001000
,
00100000
00010000
00100000
00001000
,
00010000
00010000
00000100
00000100
,
00000000
00000110
00000110
00000110
,
00000020
00000000
00000000
00000000
,
00000000
00000000
00000000
00000000
,
00000032
00000000
00000000
00000000
,
00000000
00000000
00000000
00000000
,
00000203
00000000
00000000
00000000
,
00000000
00000000
00000000
00000000
,
00002300
00000000
00000000
00000000
,
00020000
00000000
00000000
00000000
,
00033000
00001000
01000000
00001000
,
00000000
00001000
01000000
00001000
,
00000000
00010000
00000100
00010000
,
00000000
00001000
00100000
00001000
,
00000000
00010000
00000000
00010000
,
00000000
00000010
00000000
00000010
,
00000000
00001000
00000001
00001000
,
00000000
00000100
00010000
00000100
,
00010000
00000000
00000000
00010000
,
00001000
00000000
00000000
00001000
,
01000000
01000000
00010000
00010000
,
00100000
01000000
00100000
01000000
,
10010000
00000000
00000000
00000000
,
00002000
00000000
00000000
00000000
,
00013000
00000100
00001000
00000010
,
00010000
00001000
00100000
00010000
,
01000000
00100000
10000000
01000000
,
00100000
00001000
00010000
00000100
,
00001000
00000001
00000100
00000010
,
00001000
00000100
00010000
00001000
,
01000000
00010000
10000000
01000000
,
00100000
00010000
01000000
00001000
,
00011000
00010000
00000100
00001000
,
00000001
00000100
00000010
00001000
,
00001001
00000001
00000010
00000100
,
00010000
00001000
00100000
01100000
,
10010000
00010000
01000000
00001000
,
00011000
00010000
00000100
00001000
,
00001001
00000100
00001001
00000010
,
00000000
00011000
00011000
00011000
,
00200000
00000000
00000000
00000000
,
00000000
00000000
00000000
00000000
,
00000000
00000000
00000000
00000000
,
00300000
00000000
00000000
00000000
;

//--------------- dance-double - forcednature ----------------
#NOTEDATA:;
#STEPSTYPE:dance-double;
#DESCRIPTION:forcednature;
#DIFFICULTY:Medium;
#METER:12;
#RADARVALUES:0,0,0,0,0;
#CREDIT:forcednature;
#NOTES:
00000000
00000000
00000000
00000000
,
00000000
00000000
00000000
00000000
,
00000000
00000000
00000000
00000000
,
00000000
00000000
00000000
00000000
,
00000000
00000000
00000000
00000000
,
00000000
00000000
00000000
00000000
,
00000000
00001000
00010000
00100000
00000000
00010000
00100000
10000000
,
00000000
10100000
00000000
11000000
00000000
10100000
00000000
11000000
,
00000000
01000000
00010000
00001000
00000000
00010000
00001000
00000010
,
00000000
00000100
00000000
00000000
00010000
00000000
00000000
00000010
00000000
00000000
00000100
00000000
00000100
00000000
00000100
00000000
,
00000001
00000010
00000100
00010000
00000010
00001000
00000100
00000000
,
00010100
00000000
00011000
00000000
01000000
00001000
00010000
00000000
,
01000000
00100000
00001000
00010000
00100000
10000000
01000000
00000000
,
01100000
00000000
00101000
00000000
00001000
00010000
00000010
00000000
,
00000100
00001000
00010000
00000100
00000010
00000001
00001000
00000000
,
00000010
00000100
00001000
00010000
01000000
00100000
00001000
00000000
,
00010000
00100000
10000000
01000000
00010000
00001000
00100000
00100000
,
00000000
01000000
00000000
00000000
00010000
00000000
00000000
00001000
00000000
00000000
00000010
00000000
00000100
00000000
00000010
00000000
,
00000000
00000000
00011000
00000000
00010000
01000000
00100000
00001000
,
00000000
00010000
00100000
10000000
01000000
10000000
00100000
00000000
,
00010000
00001000
00000010
00000100
00010000
00001000
00000100
00000001
,
00000000
00000010
00000100
00010000
00001000
00100000
01000000
00000000
,
10000000
00100000
00010000
00100000
01000000
00001000
00100000
00000000
,
01000000
00010000
00001000
00000010
00000100
00010000
00000010
00000000
,
00000100
00001000
00000100
00001000
00010000
00100000
00010000
00100000
,
00000000
01000000
00000000
00000000
00001000
00000000
00000000
00010000
00000000
00000000
00100000
00000000
00100000
00000000
10000000
00000000
,
01000000
00000000
00010000
00001000
00000010
00000100
00010000
00000010
,
00000100
00000001
00000010
00001000
00010000
01000000
00100000
00000000
,
10010000
00000000
10000000
00100000
00010000
00001000
00000100
00000001
,
00001000
00000010
00010000
00001000
00000010
00000000
00000110
00000000
,
00000100
00010000
00000010
00001000
00000001
00000010
00001000
00000000
,
00010000
01000000
00100000
00001000
00010000
00100000
10000000
00000000
,
01000000
00010000
01000000
00010000
00001000
00000010
00001000
00000010
,
00000000
00000100
00000000
00000000
00010000
00000000
00000000
00000010
00000000
00000000
00000100
00000000
00000000
00000001
00000000
00000001
,
00002000
00000000
00000000
00000000
,
00000000
00000000
00000000
00000000
,
00003200
00000000
00000000
00000000
,
00020300
00000000
00000000
00000000
,
00032000
00000000
00000000
00000000
,
00000000
00000000
00000000
00000000
,
02003000
00000000
00000000
00000000
,
00020000
00000000
00000000
03030000
,
10010000
00010000
00100000
01000000
,
00010000
00001000
00000010
00000000
,
00000110
00000100
00010000
00000010
,
00000110
00000000
00000100
00000000
00000001
00001000
00000001
00000000
,
00002001
00000100
00000100
00000001
,
00000000
00000010
00000010
00003001
,
00001001
00001000
00010000
10000000
,
10010000
00010000
00001000
00000001
,
00001001
00000000
00000000
00011000
,
10010000
00000000
00000000
00011000
,
00100000
00010000
01000000
00001000
00010000
00000100
00001000
00000010
,
00000100
00001000
00010000
00100000
01000000
00100000
00010000
00001000
,
00000100
00000000
00000000
00000000
,
00000002
00000000
00000000
00000000
,
00000013
00001000
00010000
01000000
00100000
00001000
00010000
00100000
,
00000000
10000000
01000000
00010000
00001000
01000000
00010000
00100000
,
00000000
01000000
00010000
00001000
00000100
00001000
00010000
00000100
,
00000000
00000010
00001000
00010000
00000010
00000010
00000010
00001000
,
00000000
00000001
00000100
00010000
01000000
01000000
01000000
00001000
,
00000000
00010000
01000000
10000000
00010000
00100000
01000000
00010000
,
00000000
00001000
00000010
00000100
00010000
00000010
00000100
00001000
,
00000000
00000100
00000001
00000010
00001000
00010000
00001000
00010000
,
00000000
00100000
10000000
01000000
00010000
00001000
01000000
00010000
,
00000000
00100000
01000000
00010000
00001000
00000010
00000100
00010000
,
00000000
00001000
00000100
00000001
00000010
00000001
00000100
00001000
,
00000000
00010000
01000000
10000000
00100000
00100000
00100000
00010000
,
00000000
00100000
10000000
01000000
10000000
00100000
00010000
00001000
,
00000000
00000010
00000001
00000100
00000001
00000010
00001000
00010000
,
00000000
01000000
10000000
00100000
10000000
01000000
00010000
00001000
,
00000000
00000000
00000010
00000000
00000000
00000100
00000000
00000000
00010000
00000000
00000000
00000010
00000000
00000000
00000100
00000000
,
00002000
00000000
00000000
00000000
,
00000000
00000000
00000000
00000000
,
00000000
00000000
00000000
00000000
,
00003000
00000000
00000000
00000000
;

//--------------- dance-double - forcednature ----------------
#NOTEDATA:;
#STEPSTYPE:dance-double;
#DESCRIPTION:forcednature;
#DIFFICULTY:Hard;
#METER:15;
#RADARVALUES:0,0,0,0,0;
#CREDIT:forcednature;
#NOTES:
00000000
00000000
00000000
00000000
,
00000000
00000000
00000000
00000000
,
00000000
00000000
00000000
00000000
,
00000000
00000000
00000000
00000000
,
00000000
00000000
00000000
00000000
,
00000000
00000000
00000000
00000000
,
00001000
00010000
01000000
00100000
00000000
00001000
00010000
00100000
,
00000000
10000000
01000000
00010000
00000000
00001000
00000010
00000001
,
00000000
00000100
00001000
00010000
00000100
00000010
00000001
00000001
,
00000000
00000100
00000000
00000000
00001000
00000000
00000000
00010000
00000000
00010000
00100000
00000000
01000000
00000000
01000000
00000000
,
00010000
00000000
10000000
00000000
01000000
00000000
00010000
00000000
00001000
00000000
00100000
00000000
01000000
00100000
01000000
00100000
,
00000000
00001000
00010000
00000100
00001000
00000010
00000100
00001000
,
00010000
00000000
00000010
00000000
00001000
00000000
00000100
00000000
00000010
00000000
00000001
00000000
00000100
00000010
00000100
00000010
,
00000000
00010000
00001000
00000010
00000001
00000100
00001000
00000100
,
00000001
00000000
00000010
00000000
00001000
00000000
00010000
00000000
01000000
00000000
00100000
00000000
00010000
10000000
00010000
00000000
,
01000000
00000000
00100000
00000000
00010000
00000000
00001000
00000000
00100000
00000000
01000000
00000000
00010000
00001000
00010000
00001000
,
00000000
00000010
00000100
00010000
00000010
00000100
00000001
00000010
,
00000000
00000110
00000000
00000000
00010100
00000000
00000000
00010000
00000000
00001000
00100000
00000000
01000000
00000000
00010000
00000000
,
00000000
00000000
00000000
00000000
00000110
00000000
00000000
00000000
00000001
00000000
00000100
00000000
00001000
00010000
00001000
00010000
,
00000000
00100000
01000000
00001000
00100000
01000000
10000000
00100000
,
00010000
00000000
00001000
00000000
00000010
00000000
00000001
00000000
00000100
00000000
00001000
00000000
00000100
00000010
00000100
00000010
,
00000000
00010000
00001000
00000010
00000001
00000100
00001000
00010000
,
01000000
00000000
00100000
00000000
00001000
00000000
00010000
00000000
00100000
00000000
10000000
00000000
01000000
00100000
01000000
00000000
,
00010000
00000000
00001000
00000000
00000100
00000000
00000001
00000000
00000010
00000000
00000100
00000000
00001000
00000001
00001000
00000001
,
00001000
00000010
00000100
00001000
00010000
01000000
00100000
00001000
,
00000000
00011000
00000000
00000000
00101000
00000000
00000000
01100000
00000000
00000000
10000000
00010000
10000000
00010000
10000000
00000000
,
01000000
00000000
00010000
00000000
00001000
00000000
00000010
00000000
00000100
00000000
00010000
00000000
00000010
00001000
00000010
00001000
,
00000010
00000100
00001000
00010000
01000000
00100000
00001000
00000000
,
00010000
00000000
00100000
00000000
10000000
00000000
01000000
00000000
00010000
00000000
00001000
00000000
00100000
00010000
00100000
00010000
,
00100000
01000000
00010000
00001000
00000010
00000100
00010000
00001000
,
00000100
00000000
00000001
00000000
00000010
00000000
00000001
00000000
00000100
00000000
00001000
00000000
00010000
00000000
00100000
10000000
,
01000000
00000000
10000000
00000000
00100000
00000000
10000000
00000000
01000000
00000000
00010000
00000000
00001000
00000000
00000010
00000001
,
00001000
00000100
00000001
00000100
00010000
00000010
00001000
00010000
,
00000000
01010000
00000000
00000000
00101000
00000000
00000000
00010010
00000000
00000000
00001100
00000000
00000000
00000100
00000000
00000100
,
00000020
00000000
00000000
00000000
,
00000000
00000000
00000000
00000000
,
00002030
00000000
00000000
00000000
,
02003000
00000000
03020000
00000000
,
00230000
00000000
00000000
00000000
,
00000000
00000000
00000000
00000000
,
00302000
00000000
00000000
00000000
,
02003000
00000000
00000000
03000000
,
00020000
00000000
01000000
00000000
10000000
00000000
00130000
00010000
,
00002000
00000000
00000100
00000000
00000001
00000000
00003010
00001000
,
00020000
00000000
01000000
00000000
10000000
00000000
00130000
00010000
,
00002000
00000000
00000000
00000000
00000100
00000000
00000000
00000000
00013000
00000000
01000000
00000000
00010000
00000000
00100000
01000000
,
20000000
00100000
00010000
01000000
,
00000000
01000000
00010000
30100000
,
10000000
01000000
00010000
00001000
00000100
00000001
00000010
00000000
,
00000001
00000100
00001000
00010000
01000000
10000000
00100000
00000000
,
01100000
00010000
00001000
00011000
,
00000110
00001000
00010000
01100000
,
10000000
01000000
00100000
00010000
00001000
00000100
00000010
00000001
,
00001000
00000100
00001000
00000100
00010000
00001000
00010000
00001000
01000000
00010000
01000000
00010000
10000000
00100000
10000000
00100000
,
01000000
00000000
00000000
00000000
,
00001000
00010000
00100000
10000000
01000000
00010000
00001000
00000010
,
00000100
00000000
00010000
00000000
00000010
00000000
00000100
00000000
00001000
00000000
00010000
00000000
00100000
01000000
00100000
00000000
,
10000000
00000000
01000000
00000000
00010000
00000000
00001000
00000000
01000000
00000000
00010000
00000000
00100000
01000000
00100000
00000000
,
00001000
00000000
00000010
00000000
00000100
00000000
00010000
00000000
00000010
00000000
00001000
00000000
00000100
00000010
00000100
00000000
,
00010000
00000000
00000010
00000000
00000100
00000000
00000001
00000000
00000010
00000000
00000010
00000000
00001000
00000000
00010000
00001000
,
00010000
00000000
00100000
00000000
01000000
00000000
00001000
00000000
00010000
00000000
00010000
00000000
01000000
00000000
10000000
00100000
,
10000000
00000000
01000000
00000000
00010000
00000000
00001000
00000000
00000010
00000000
00000100
00000000
00010000
00000000
00000010
00001000
,
00000010
00000000
00000100
00000000
00001000
00000000
00010000
00000000
01000000
00000000
00100000
00000000
00001000
00000000
00010000
00000100
,
00010000
00000000
00001000
00000000
01000000
00000000
00100000
00000000
00010000
00000000
00010000
00000000
00001000
00000000
00100000
00010000
,
00100000
00000000
01000000
00000000
10000000
00000000
01000000
00000000
00010000
00000000
00001000
00000000
00000010
00000000
00000100
00001000
,
00000001
00000000
00000100
00000000
00001000
00000000
01000000
00000000
00010000
00000000
00100000
00000000
01000000
00000000
00010000
00001000
,
00100000
00000000
00010000
00000000
01000000
00000000
00001000
00000000
00000100
00000000
00001000
00000000
00010000
00000000
00000010
00001000
,
00000001
00000000
00000010
00000000
00001000
00000000
00010000
00000000
01000000
00000000
00100000
00000000
00001000
00000000
00010000
00100000
,
10000000
00000000
01000000
00000000
10000000
00000000
00100000
00000000
10000000
00000000
01000000
00000000
00010000
00000000
00001000
00000010
,
00000001
00000000
00000100
00000000
00000001
00000000
00000010
00000000
00000001
00000000
00000100
00000000
00001000
00000000
00010000
00100000
,
10000000
00000000
01000000
10000000
01000000
10000000
00010000
00100000
00010000
00100000
00001000
00010000
00001000
00010000
00000010
00001000
,
00000000
00000000
00000001
00000100
00000000
00000100
00001000
00000000
00001000
00010000
00000000
00010000
00100000
00000000
00100000
10000000
,
00020000
00000000
00000000
00000000
,
00000000
00000000
00000000
00000000
,
00000000
00000000
00000000
00000000
,
00030000
00000000
00000000
00000000
;
