#VERSION:0.83;
#TITLE:B.O.D.Y.;
#SUBTITLE:;
#ARTIST:BEMANI Sound Team "L.E.D. Sota F."& Starbitz;
#TITLETRANSLIT:;
#SUBTITLETRANSLIT:;
#ARTISTTRANSLIT:L.E.D. Sota F. & Starbitz;
#GENRE:HARD BODY MUSIC;
#CREDIT:;
#MUSIC:B.O.D.Y.ogg;
#BANNER:B.O.D.Y.png;
#BACKGROUND:B.O.D.Y-bg.png;
#CDTITLE:./CDTitles/bm IIDX 30 RESIDENT.png;
#SAMPLESTART:71.305;
#SAMPLELENGTH:15.000;
#SELECTABLE:YES;
#OFFSET:0.534;
#BPMS:0.000=157.000
,179.000=78.500
,182.500=157.000
,246.000=78.500
,248.000=157.000
;
#STOPS:114.750=0.382
,182.500=0.191
,248.000=0.191
;
#TIMESIGNATURES:0.000=4=4,
112.000=3=4,
115.000=4=4,
243.000=6=4,
249.000=4=4
;
#DISPLAYBPM:157.000;
#BGCHANGES:0.000=B.O.D.Y.mp4=1.000=0=0=0=StretchNoLoop====,
99999.000=-nosongbg-=1.000=0=0=0=StretchNoLoop====
;
#FGCHANGES:;

//--------------- dance-single - forcednature ----------------
#NOTEDATA:;
#STEPSTYPE:dance-single;
#DESCRIPTION:forcednature;
#DIFFICULTY:Beginner;
#METER:1;
#RADARVALUES:0,0,0,0,0;
#CREDIT:forcednature;
#NOTES:
0000
0000
0000
0000
,
0000
0000
0000
0000
,
0000
0000
0000
0000
,
0000
0000
0000
0000
,
0000
0000
0000
0000
,
0001
0000
0000
0000
,
0000
0000
0000
0000
,
1000
0000
0000
0000
,
0000
0000
0000
0000
,
0010
0000
0000
0000
,
0000
0000
0000
0000
,
0100
0000
0000
0000
,
0000
0000
0000
0000
,
0001
0000
0000
0000
,
0000
0000
0000
0000
,
0010
0000
0000
0000
,
0010
0000
0000
0000
,
0001
0000
0000
0000
,
0000
0000
0000
0000
,
0100
0000
0000
0000
,
0100
0000
0000
0000
,
0001
0000
0000
0000
,
0000
0000
0000
0000
,
1000
0000
0000
0000
,
0000
0000
0000
0000
,
0100
0000
0000
0000
,
0000
0000
0000
0000
,
0010
0000
0000
0000
,
0001
0000
0000
0000
,
0000
0000
0000
1000
,
0000
0000
0000
0000
,
0000
0000
0000
0010
,
0000
0000
0000
0000
,
0000
0000
0000
0100
,
0000
0000
0000
0000
,
0000
0000
0000
0001
,
0000
0000
0000
0000
,
0000
0000
0000
0010
,
0000
0000
0000
0000
,
0000
0000
0000
0100
,
0000
0000
0000
1000
,
0000
0000
0000
1000
,
0000
0000
0000
0001
,
0000
0000
0000
0100
,
0000
0000
0000
1001
,
0000
0000
0000
0001
,
0000
0000
0000
0010
,
0000
0000
0000
0100
,
0000
0000
0000
0000
,
0000
0000
0000
1000
,
0000
0000
0000
0010
,
0000
0000
0000
0100
,
0000
0000
0000
0000
,
0000
0000
0000
0001
,
0000
0000
0000
1000
,
0000
0000
0000
0100
,
0000
0000
0000
0000
,
0000
0000
0000
1000
,
0000
0000
0000
0001
,
0000
0000
0000
0010
,
0000
0000
0000
0100
,
0000
0000
0000
0000
,
0000
0001
0000
0000
0000
0000
0000
0000
,
0000
0100
0000
0000
0000
0000
0000
0000
,
0000
0010
0000
0000
0000
0000
0000
0000
,
0000
1000
0000
0000
0000
0000
0000
0000
,
0000
0001
0000
0000
0000
0000
0000
0000
,
0000
0010
0000
0000
0000
0000
0000
0000
,
0000
0100
0000
0000
0000
0000
0000
0000
,
0000
1000
0000
0000
0000
0000
0000
0000
,
1001
0000
0000
0000
;

//--------------- dance-single - forcednature ----------------
#NOTEDATA:;
#STEPSTYPE:dance-single;
#DESCRIPTION:forcednature;
#DIFFICULTY:Easy;
#METER:5;
#RADARVALUES:0,0,0,0,0;
#CREDIT:forcednature;
#NOTES:
0000
0000
0000
0000
,
0000
0000
0000
0000
,
0000
0000
0000
0000
,
0000
0000
0000
0000
,
0000
0000
0000
0000
,
1000
0000
0000
0000
,
0100
0100
1000
0001
,
0010
0000
0000
0000
,
0001
0001
0100
0010
,
1000
0000
0000
0000
,
0100
0100
0010
0001
,
1000
0000
0000
0000
,
0010
0010
0010
0000
,
1001
0000
0001
0000
,
0100
0000
0010
0000
,
1000
1000
0100
1000
,
0010
0010
1000
0010
,
0100
0000
0001
0000
,
0010
0000
0100
0000
,
0010
0010
0001
0100
,
0010
0010
0100
0001
,
1001
0000
1000
0000
,
0100
0000
0010
0000
,
0001
0000
0100
0000
,
0010
0000
1000
0000
,
0001
0001
0010
0000
,
0001
0001
0100
0000
,
1000
1000
0010
0000
,
1000
1000
0100
0000
,
0000
0001
1000
0010
,
0000
0100
0000
0001
,
0000
0010
0001
1000
,
0000
0010
0000
0100
,
0000
0001
0010
0100
,
0000
1000
0010
0100
,
0000
0001
0010
0100
,
0000
0100
0000
1001
,
0000
1000
0010
0100
,
0000
0001
0000
1000
,
0000
0100
0010
0001
,
0000
1000
0000
0010
,
0010
0100
0100
0010
,
0010
0100
0100
1001
,
0000
0110
0000
0001
,
1000
0010
0000
0220
,
0000
0000
0000
0000
0000
0330
0000
0000
,
0001
0100
0000
0010
,
0010
1000
0001
0000
,
1000
0100
0000
0010
,
0010
0001
1000
0000
,
0010
0100
0000
0001
,
0001
1000
0100
0000
,
0010
0001
0000
1000
,
1000
0010
0000
0110
,
0000
0100
0001
1000
,
0001
0010
0000
0100
,
1000
0001
0000
0010
,
0001
1000
0000
0010
,
0010
0100
0001
1000
,
0100
0010
0000
0001
,
1000
0010
0000
0100
,
0100
0002
0000
0000
,
0003
1001
0000
0000
0000
1000
0000
0000
,
0000
0100
0000
0000
0000
1000
0000
0000
,
0000
0010
0000
0010
0000
0100
0000
0100
,
0000
0010
0000
0010
0000
0100
0000
0100
,
0000
0001
0000
0000
0000
0010
0000
0000
,
0000
0001
0000
0000
0000
1000
0000
0000
,
0000
0100
0000
0100
0000
0010
0000
0010
,
0000
0100
0000
0100
0000
0010
0000
0000
,
2002
0000
3003
0000
;

//--------------- dance-single - forcednature ----------------
#NOTEDATA:;
#STEPSTYPE:dance-single;
#DESCRIPTION:forcednature;
#DIFFICULTY:Medium;
#METER:10;
#RADARVALUES:0,0,0,0,0;
#CREDIT:forcednature;
#NOTES:
0000
0000
0000
0000
,
0000
0000
0000
0000
,
0000
0000
0000
0000
,
0000
0000
0000
0000
,
0000
0000
0000
0000
,
1100
0000
0001
0010
0100
0000
0010
0000
,
0001
1000
0010
0000
1000
0001
0100
0000
,
0010
0000
1000
0001
0010
0000
0100
0000
,
1100
0000
0001
0010
0000
0001
0010
0000
,
0101
0000
1000
0010
0100
0000
0001
0000
,
1000
0100
0010
0000
0001
0000
1000
0000
,
0110
0000
0001
1000
0010
0000
0100
0000
,
0001
0000
0000
0001
0000
0000
0010
0000
0000
0100
0000
0000
1000
0000
0000
0000
,
1001
0001
0100
0001
,
1000
0010
0100
0010
,
1000
0100
1000
0000
0100
0000
0010
0000
,
0001
0100
0001
0000
0100
0000
0010
0000
,
1001
0001
0010
0001
,
1000
0010
0100
0001
,
1000
0010
1000
0000
0010
0000
0100
0000
,
0001
0010
0001
0000
0010
0000
0100
0000
,
1001
0000
0001
0000
0010
0000
0100
0010
,
0000
0100
1000
0000
0010
0000
0100
0000
,
0001
0000
1000
0000
0010
0000
1000
0100
,
0000
0010
0100
0000
0010
0000
0001
0000
,
1000
0010
1000
0000
0100
0000
0010
0000
,
0001
0010
0001
0000
0100
0000
0010
0000
,
1000
0001
1000
0000
0010
0000
0100
0000
,
0001
0000
0000
0000
1000
0000
0000
0000
0000
0000
1000
0000
0000
0000
0000
0000
0010
0000
0000
0000
0000
0000
0202
0303
0001
0000
0000
0000
0000
0000
0000
0000
,
0010
0000
1000
0000
0010
0000
0001
1000
,
0100
0000
1000
0001
0010
0000
0001
0000
,
0100
0000
1000
0000
0100
0000
0010
1000
,
0001
0000
0100
0001
1000
0000
0100
0000
,
0001
0000
0100
0000
1000
0000
0001
0010
,
0100
0000
1000
0010
0100
0000
0001
0000
,
0010
0000
1000
0000
0010
0000
0001
0100
,
0000
1000
0100
0000
0010
0000
1001
0000
,
1000
0100
0010
0000
0100
1000
0010
0000
,
0100
0001
0010
0100
,
0010
0001
0100
0000
0010
0100
0001
0000
,
0010
0100
1000
1010
,
1010
0101
0101
1010
,
1010
0101
0101
0002
,
1003
0200
1300
0110
,
0001
0010
0000
0001
0100
0000
2002
0000
,
0000
0000
0000
0000
0000
3003
0110
0000
,
0001
1000
0010
0000
1000
0001
0010
0000
,
0100
1000
0010
0000
0100
0000
0001
0000
,
0010
0100
1000
0000
0010
0100
0001
0000
,
1000
0100
0010
0000
0001
0000
1000
0000
,
0010
0100
0001
0000
0010
0001
0100
0000
,
0010
1000
0001
0000
0010
0000
0100
0000
,
1000
0001
0100
0000
0010
0000
1000
0001
,
0010
0000
0100
0010
0001
0000
0101
0000
,
1000
0010
0000
0001
0010
0000
1000
0001
,
0000
0100
0001
0000
0010
0000
0110
0000
,
0100
1000
0100
0000
0010
0100
0010
0000
,
0001
0010
0001
0000
0100
0000
0010
0000
,
1000
0001
0010
0000
0001
0000
1000
0100
,
0000
0010
0100
0000
0010
0000
0001
0000
,
1000
0010
0100
0000
0001
0000
0010
0010
,
0000
0000
0000
0000
0110
0000
0000
0000
0000
0000
0000
0000
2100
0000
0000
0000
0000
0000
0000
0000
0000
0000
0001
0000
0000
0001
0000
0000
3010
0000
0000
0000
,
1001
1000
0000
0100
0000
0010
0100
1000
,
0000
0001
0000
0100
0000
0010
0100
0001
,
0000
0011
0000
0011
0000
1100
0000
1100
,
0000
0011
0000
0011
0000
1100
0000
1100
,
0000
0001
0000
1000
0000
0010
0100
0001
,
0000
1000
0000
0100
0000
0010
0001
1000
,
0000
1001
0000
1001
0000
0110
0000
0110
,
0000
1001
0000
1001
0000
0110
0000
0001
,
0020
0000
0030
0000
;

//--------------- dance-single - forcednature ----------------
#NOTEDATA:;
#STEPSTYPE:dance-single;
#DESCRIPTION:forcednature;
#DIFFICULTY:Hard;
#METER:15;
#RADARVALUES:0,0,0,0,0;
#CREDIT:forcednature;
#NOTES:
0000
0000
0000
0000
,
0000
0000
0000
0000
,
0000
0000
0000
0000
,
0000
0000
0000
0000
,
0000
0000
0000
0000
,
1000
0000
0100
0000
0010
0100
0010
0000
0001
0000
1000
0000
0010
0000
0100
0000
,
0001
0010
0100
1000
0010
0100
0110
0000
,
0001
0000
0010
0000
0100
0010
0100
0000
1000
0000
0001
0000
0100
0000
0010
0000
,
1000
0100
0010
0001
1000
0010
0110
0000
,
0001
0000
1000
0000
0100
0010
0100
0000
0010
0000
0001
0000
1000
0000
0010
0000
,
0100
0001
0010
0100
1000
0010
0110
0000
,
1000
0000
0001
0000
0100
0010
0100
0000
0001
0000
0010
0000
0100
0000
1000
0000
,
0010
0000
0000
0110
0000
0000
0101
0000
0000
0011
0000
0000
1000
0001
1000
0001
,
1000
0000
0010
0100
1000
0100
0010
1000
,
0100
0010
1000
0010
0100
1000
0001
0000
,
0010
0100
0000
0100
0000
1000
0010
0000
0100
0001
0000
0001
1000
0000
0000
0000
,
0010
0100
0000
0100
0000
0001
0010
0000
0100
1000
0000
1000
0001
0000
0000
0000
,
0100
0001
0010
0100
0001
0100
0010
0001
,
0100
0010
0001
0010
1000
0001
0100
0000
,
0010
1000
0000
1000
0000
0001
0010
0000
0001
0100
0000
0100
0001
0000
0000
0000
,
0010
0001
0000
0001
0000
1000
0010
0000
1000
0100
0000
0100
0010
0000
0000
0000
,
0001
0100
1000
0100
0001
1000
0010
1000
,
0001
0010
1000
0001
0100
1000
0001
0000
,
1000
0100
0001
0100
1000
0010
0001
0010
,
1000
0000
0001
0000
0100
0000
0010
0000
1000
0001
1000
0001
0100
0000
0000
0000
,
0001
0000
1000
0100
0000
0010
0100
0000
0010
0000
0001
0000
1001
0000
0000
0000
,
1000
0000
0001
0100
0000
0010
0100
0000
0010
0000
1000
0000
1001
0000
0000
0000
,
0001
0000
0010
0100
1000
0000
0010
0100
0001
0000
0010
0001
1000
0000
0010
1000
,
0001
0000
0000
0000
0001
0000
0000
0000
0010
0000
0100
0000
0000
0000
1000
0000
0100
0000
0000
0000
0000
0000
0220
0330
1001
0000
0000
0000
0000
0000
1000
0000
,
0010
0000
0000
0010
0100
0000
0000
0100
0001
0000
0000
0000
0010
0000
0100
0000
,
0001
0000
0100
0000
1000
0000
0001
0000
0010
0000
0000
0000
0001
0000
0000
0001
,
0100
0000
0000
0100
0010
0000
0000
0010
1000
0000
0000
0000
0001
0000
0010
0000
,
1000
0000
0010
0000
0001
0000
1000
0000
0100
0000
0000
0000
1000
0000
0000
1000
,
0010
0000
0000
0010
0100
0000
0000
0100
0001
0000
0000
0001
0010
0000
0000
0010
,
0100
0000
0000
0100
1000
0000
0010
0000
0100
0000
0000
0000
0001
0000
0010
0001
,
0010
0000
0100
0000
1000
0000
0010
1000
0010
0000
0100
0000
0001
1000
0000
0001
,
1000
0000
0010
0100
0000
0010
0100
0000
0001
0000
0000
0000
1000
0000
0000
1000
,
0100
0000
0000
0100
0001
0000
0000
0001
0100
0000
0000
0000
1000
0000
0001
0000
,
0010
0000
1000
0000
0010
0000
0001
0000
1000
0000
0000
0000
0001
0000
0000
0001
,
0100
0000
0000
0100
1000
0000
0000
1000
0100
0000
0000
0000
0001
0000
1000
0000
,
0010
0000
0001
0000
0010
0000
1000
0000
0001
0000
0000
0000
0010
0100
0010
0000
,
0100
1000
0100
0000
0010
0001
1000
0000
0010
1000
0001
0000
0100
0010
0100
0000
,
0001
0100
0001
0000
0010
0001
1000
0000
0010
1000
0001
0000
0010
0000
0000
0010
,
0100
0000
1000
0000
0010
0000
0000
0010
0100
0000
0000
0000
0101
0000
0000
0000
,
1000
1010
0000
0001
1000
0000
0220
0000
,
0000
0000
0000
0000
0330
0000
0000
0000
0001
0000
1000
0000
0000
1000
0000
0000
0010
0000
0000
0010
0100
0000
0000
0000
0001
0000
0000
0000
0010
0000
0100
0000
,
1000
0000
0010
0000
1000
0000
0100
0010
0001
0000
0100
0000
0010
0000
1000
0000
,
0001
0000
0010
0000
1000
0000
0010
0000
0001
0000
0000
0000
0100
0000
0010
1000
,
0001
0000
0010
0000
0100
0000
0010
0001
1000
0000
0010
0000
0100
0000
0001
0000
,
0010
0000
0100
0000
1000
0010
1000
0010
0100
0000
0001
0000
1000
0000
0100
0010
,
0001
0000
1000
0000
0001
0000
0010
0100
1000
0000
0010
0000
0100
0000
1000
0000
,
0100
0000
0001
0000
1000
0000
0010
0000
0110
0000
0000
0000
0001
0000
0010
0001
,
0010
0000
0100
0010
0100
0000
1000
0100
1000
0000
0001
0000
0100
0000
0000
0100
,
0010
0000
1000
0000
0100
0000
0000
0010
0002
0000
0000
0000
1003
0000
0010
0100
,
0001
0000
0010
0000
0001
1000
0010
0000
0100
0000
0000
0000
0001
0010
0100
0000
,
0110
0000
0010
0000
0100
1000
0010
0000
0110
0000
0000
0000
1000
0000
0010
0100
,
0001
0000
0010
0000
0001
0100
0010
0000
1000
0000
0000
0000
0100
0010
0001
0000
,
1001
0000
1000
0000
0010
0100
0001
0000
1001
0000
0000
0000
1000
0000
0100
0010
,
0001
0000
0100
0000
0010
1000
0001
0000
0010
0000
0100
0000
1000
0000
0010
0100
,
0001
0000
0011
0000
0001
0000
0100
0010
1000
0000
0000
0000
0001
0000
0100
0001
,
0100
0000
0010
0100
0010
0000
1000
0010
1000
0000
0000
0000
0101
0000
0101
0000
,
0000
0000
0000
0000
0011
0000
0000
0000
0000
0000
0000
0000
1100
0000
0000
0000
2100
0000
0000
0000
0000
0000
0010
0000
0000
0010
0000
0000
3010
0000
0000
1000
,
0002
0003
0010
0000
0100
0000
1000
0100
1000
0000
0001
0000
0010
0000
0001
0000
,
1000
0000
0010
0000
0100
0000
0001
0100
0001
0000
1000
0000
0010
0000
0100
0000
,
0000
0000
0001
0010
0100
0000
1000
0100
0010
0000
0001
1000
0010
0000
1000
0001
,
0100
0000
0001
0010
0100
0000
1000
0100
0010
0000
0001
1000
0010
0000
1000
0001
,
0100
0000
0010
0000
1000
0000
0100
0010
0100
0000
0010
0000
0001
0000
1000
0000
,
0010
0000
0100
0000
0001
0000
0010
0100
0010
0000
0001
1000
0000
0001
0000
1000
,
0000
0000
0100
0010
0001
0000
0100
0010
1000
0000
0001
1000
0100
0000
1000
0001
,
0010
0000
0110
0000
0110
0000
0000
1000
0001
0000
0101
0000
0000
0110
0000
0000
,
2020
0000
3030
0000
;

//--------------- dance-single - forcednature ----------------
#NOTEDATA:;
#STEPSTYPE:dance-single;
#DESCRIPTION:forcednature;
#DIFFICULTY:Challenge;
#METER:17;
#RADARVALUES:0,0,0,0,0;
#CREDIT:forcednature;
#NOTES:
0000
0000
0000
0000
,
0000
0000
0000
0000
,
0000
0000
0000
0000
,
0000
0000
0000
0000
,
0000
0000
0000
0000
,
1000
0100
0000
0010
0100
0010
0001
0000
1000
0000
0010
0000
0100
0001
1000
0000
,
0001
0000
0010
0100
1000
0100
0020
0000
0000
0000
0031
0000
1001
0000
0000
0000
,
0001
0100
0000
0010
0100
0010
1000
0000
0001
0000
0010
0000
0100
1000
0001
0000
,
1000
0010
0100
0001
0100
0010
2000
0000
0000
0000
3100
0000
1001
0000
0000
0000
,
1000
0010
0000
0100
0010
0100
0001
0000
1000
0000
0100
0000
0010
0001
1000
0000
,
0001
0000
0100
0010
1000
0010
0200
0000
0000
0000
0301
0000
1001
0000
0000
0000
,
0001
0010
0000
0100
0010
0100
1000
0000
0001
0000
0100
0000
0010
1000
0001
0000
,
1001
0000
0000
1100
0000
0000
0011
0000
0000
0110
0000
0000
1000
0001
0100
0010
,
1000
0000
0000
0000
0001
0000
0010
0100
1000
0000
0001
0000
0100
0010
1000
0000
,
0002
0010
0010
2003
0010
0010
3001
0000
,
1000
0100
0000
0001
0000
0100
1000
0000
0001
0010
0000
1000
0010
0000
0000
0000
,
0001
0100
0000
1000
0000
0100
0001
0000
1000
0010
0000
0001
0010
1000
0001
0100
,
0010
0000
1000
0001
0010
0000
0100
0000
0010
0000
0001
1000
0010
0000
0100
0000
,
0002
0100
0203
0010
0320
2030
3002
0013
,
0001
0100
0000
1000
0000
0100
0001
0000
1000
0010
0000
0001
0010
0000
0000
0000
,
1000
0100
0000
0001
0000
0100
1000
0000
0001
0010
0001
0010
0100
1000
0001
1000
,
0010
0000
0100
0001
0010
0000
0100
1000
0010
0000
0100
0001
1000
0000
0100
0000
,
0110
0000
0000
0010
0001
0000
0100
0000
0110
0000
0000
0010
1000
0000
0001
0000
,
0010
0000
0110
0000
0110
0000
1100
0000
1100
0000
0001
0010
0100
0000
0000
0000
,
0010
0001
1000
0001
0010
0000
0100
0000
1000
0010
0000
0100
0010
0000
0100
0001
,
1000
0000
0100
0001
0000
0100
1000
0000
0001
0010
0100
1000
0001
0100
0010
1000
,
0001
0000
0100
1000
0000
0100
0001
0000
1000
0010
0100
0001
1000
0100
0010
0001
,
1000
0000
0010
0100
0000
0001
0010
0000
0100
1000
0010
1000
0001
0010
0100
0000
,
0110
0000
0011
0000
0001
0100
0010
0000
1000
0001
0100
2000
3100
0000
0001
0100
,
0000
0010
0100
0000
0010
1000
0010
1000
0001
0000
0000
0000
0010
0100
1000
0000
,
0010
0100
0001
0000
1100
0000
0001
0000
0011
0000
0000
0000
1000
0000
0010
0100
,
0000
0001
0100
0000
0010
1000
0001
1000
0010
0000
0000
0000
0100
0001
0010
0000
,
0100
1000
0010
0000
0100
0001
1000
0001
0100
0000
0000
0000
0010
1000
0010
0100
,
0000
0001
0100
0000
0010
1000
0001
1000
0010
0000
1000
0000
0001
0010
0100
0010
,
0000
0001
1000
0100
0000
1000
0001
0010
0001
0000
1000
0000
0010
0100
0001
0100
,
0010
1000
0001
0000
0010
0100
1000
0100
0010
0000
0001
0000
0102
0000
1003
0000
,
0010
0000
0201
0000
0310
0000
1000
0000
2002
0000
3003
0000
1000
0100
0010
0100
,
0000
0010
0001
0000
1000
0010
0100
0010
1000
0000
1000
0000
0001
0000
0010
0100
,
1000
0010
0100
0000
0010
0100
0001
0010
0100
0000
1000
0000
0001
0000
0001
0100
,
0000
0010
0100
0000
0010
1000
0001
1000
0010
0000
0100
0000
0001
0010
0001
0010
,
0100
0000
1000
0000
0001
0000
0000
0000
1000
0000
0010
0000
0100
0000
0010
0000
1000
0000
0000
0000
0001
0000
0000
0000
2000
0000
0100
3000
0001
0000
0000
0000
,
0200
0000
1000
0300
0001
0000
0000
0000
2000
0000
0010
3000
0001
0000
0000
0000
0020
0000
1000
0030
0001
0000
0000
0000
0002
0000
0100
0003
1000
0000
0000
0000
,
0200
0000
0001
0300
1000
0000
0000
0000
0002
0000
0010
0003
1000
0000
0000
0000
0020
0000
0001
0030
1000
0000
0000
0000
0110
0000
0000
0000
0000
0000
0010
0000
,
0001
0000
1000
0000
0010
0100
0001
0100
0010
0000
1000
0000
1200
0000
0300
0001
,
0010
0000
0021
0000
0030
1000
0100
0000
0110
0000
0000
0000
2002
0000
0000
0000
,
0000
0000
0000
0000
3003
0000
0000
0000
0001
0100
0010
0000
1000
0010
0000
0100
0001
0010
0100
1000
0010
0000
0000
0000
1000
0000
0000
0000
0100
0000
0010
0000
,
0001
0000
0100
0010
1000
0000
0100
0010
0001
0000
1000
0000
0110
0000
0110
0000
,
1010
0000
0001
0010
0100
0010
0001
1000
0100
1000
0001
0010
0100
0000
0010
0001
,
0100
0000
0010
1000
0100
0000
0010
0001
1000
0000
0010
0000
0110
0000
0110
0000
,
0100
0001
0010
0000
0011
0000
0001
1000
0100
1000
0001
0010
0001
0000
1000
0010
,
0100
0000
0001
0010
0100
0000
1000
0001
0100
0000
0010
0000
1100
0000
1100
0000
,
0011
0000
0001
0100
0001
1000
0010
0000
1000
0001
0010
0100
1000
0000
0010
0100
,
0001
0100
0010
1000
0001
1000
0010
0100
0001
1000
0010
0000
0100
0001
1000
0001
,
0100
0000
0010
1000
0001
1000
0100
0000
0220
0000
0330
0000
0010
0001
0010
0100
,
0010
0000
0100
1000
0001
1000
0100
0000
0010
0001
1000
0000
1010
0000
1010
0000
,
0110
0000
0100
0001
0010
0100
1000
0001
0020
0000
0030
0000
0100
1000
0010
0000
,
0100
0001
0010
0000
0001
0100
1000
0100
0001
0000
1000
0000
1010
0000
0010
0100
,
0001
0000
0011
0000
0010
0100
1000
0001
0010
0001
1000
0010
0100
0000
0001
0010
,
0100
0000
0010
0001
1000
0000
0100
1000
0010
0000
0100
0000
0001
0010
0001
1000
,
0100
0000
0010
0001
1000
0000
1010
0000
0220
0000
0330
0000
0001
1000
0100
1000
,
0001
0010
0100
0010
0001
1000
0010
1000
0001
0100
0010
0000
1010
0000
1000
0100
,
0000
0000
0000
0000
0011
0000
0000
0000
0000
0000
0000
0000
0101
0000
0000
0000
0120
0000
0000
0000
0000
0030
1000
0100
0000
0010
0100
0000
0010
0001
1000
0100
,
0020
0030
0001
1000
0010
1000
0001
0100
0000
0010
1000
0010
0100
0001
0000
0010
,
0001
0100
0010
1000
0100
0010
0100
1000
0010
0100
0001
0010
0001
0100
0010
1000
,
0100
0000
1000
0000
0002
0000
0010
0003
1000
0000
0000
0000
0002
0000
0100
0003
1000
0000
0000
0000
2000
0000
0010
3000
0001
0000
0000
0000
2000
0000
0100
3000
,
0001
0000
0000
0000
0002
0000
0010
0003
1000
0000
0000
0000
0002
0000
0100
0003
1000
0000
0000
0000
2000
0000
0010
3000
0001
0000
0000
0000
2000
0000
0100
3000
,
0001
0000
0010
0001
0100
0010
1000
0100
0000
0010
0100
0010
0001
1000
0000
0010
,
0100
0001
0010
0001
1000
0010
1000
0100
0010
0001
1000
0010
0001
0010
0000
1000
,
0001
0000
0100
0000
0002
0000
0010
0003
1000
0000
0000
0000
0002
0000
0100
0003
1000
0000
0000
0000
2000
0000
0010
3000
0001
0000
0000
0000
2000
0000
0100
3000
,
0001
0000
0011
0000
0011
0000
0100
1000
0010
0000
0110
0000
0100
0001
0010
0000
,
2002
0000
3003
0000
;

//--------------- dance-double - forcednature ----------------
#NOTEDATA:;
#STEPSTYPE:dance-double;
#DESCRIPTION:forcednature;
#DIFFICULTY:Easy;
#METER:5;
#RADARVALUES:0,0,0,0,0;
#CREDIT:forcednature;
#NOTES:
00000000
00000000
00000000
00000000
,
00000000
00000000
00000000
00000000
,
00000000
00000000
00000000
00000000
,
00000000
00000000
00000000
00000000
,
00000000
00000000
00000000
00000000
,
00001000
00000000
00000000
00000000
,
00010000
00010000
00001000
00001000
,
00100000
00000000
00000000
00000000
,
00010000
00010000
01000000
00100000
,
10000000
00000000
00000000
00000000
,
00010000
00010000
00100000
00001000
,
00010000
00000000
00000000
00000000
,
00000100
00000100
00000100
00000000
,
00001001
00000000
00001000
00000000
,
00000010
00000000
00001000
00000000
,
00000100
00000100
00000100
00001000
,
00000100
00000100
00000100
00000010
,
00000001
00000000
00000100
00000000
,
00000001
00000000
00001000
00000000
,
00000010
00000010
00000010
00001000
,
00000010
00000010
00000010
00010000
,
00011000
00000000
01000000
00000000
,
00010000
00000000
00100000
00000000
,
01000000
00000000
10000000
00000000
,
00100000
00000000
01000000
00000000
,
00010000
00010000
00100000
00000000
,
00001000
00001000
00010000
00000000
,
00000100
00000100
00001000
00000000
,
00000010
00000010
00000010
00000000
,
00000000
00000100
00000001
00001000
,
00000000
00000010
00000000
00010000
,
00000000
00001000
00010000
00001000
,
00000000
00100000
00000000
00010000
,
00000000
01000000
00100000
10000000
,
00000000
01000000
00100000
00010000
,
00000000
00100000
00001000
00010000
,
00000000
00001000
00000000
00011000
,
00000000
00000100
00001000
00000010
,
00000000
00000100
00000000
00000001
,
00000000
00001000
00000100
00000010
,
00000000
00000001
00000000
00000100
,
00000100
00000010
00000010
00000100
,
00000100
00000010
00000010
00001001
,
00000000
00010000
00000000
00001000
,
00001000
00001000
00000000
00022000
,
00000000
00000000
00000000
00000000
00000000
00033000
00000000
00000000
,
01000000
00010000
00000000
10000000
,
10000000
00100000
10000000
00000000
,
00010000
00100000
00000000
00001000
,
00001000
00010000
00001000
00000000
,
00010000
00000100
00000000
00001000
,
00001000
00000010
00001000
00000000
,
00000001
00000010
00000000
00000100
,
00000100
00010000
00000000
00011000
,
00000000
01000000
00010000
10000000
,
00010000
00100000
00000000
01000000
,
10000000
00010000
00000000
00100000
,
00001000
00010000
00000000
00000010
,
00000010
00001000
00000010
00000100
,
00000001
00000100
00000000
00000010
,
00001000
00000001
00000000
00000010
,
00000010
00000200
00000000
00000000
,
00000300
00001001
00000000
00000000
00000000
00001000
00000000
00000000
,
00000000
00000100
00000000
00000000
00000000
00010000
00000000
00000000
,
00000000
00001000
00000000
00001000
00000000
00100000
00000000
00100000
,
00000000
00001000
00000000
00001000
00000000
00100000
00000000
00100000
,
00000000
00010000
00000000
00000000
00000000
01000000
00000000
00000000
,
00000000
00100000
00000000
00000000
00000000
10000000
00000000
00000000
,
00000000
00010000
00000000
00010000
00000000
01000000
00000000
01000000
,
00000000
00010000
00000000
00010000
00000000
00100000
00000000
00000000
,
00022000
00000000
00033000
00000000
;

//--------------- dance-double - forcednature ----------------
#NOTEDATA:;
#STEPSTYPE:dance-double;
#DESCRIPTION:forcednature;
#DIFFICULTY:Medium;
#METER:10;
#RADARVALUES:0,0,0,0,0;
#CREDIT:forcednature;
#NOTES:
00000000
00000000
00000000
00000000
,
00000000
00000000
00000000
00000000
,
00000000
00000000
00000000
00000000
,
00000000
00000000
00000000
00000000
,
00000000
00000000
00000000
00000000
,
00011000
01000000
00010000
00100000
,
01000000
10000000
01000000
00000000
00100000
00000000
00001000
00000000
,
00010000
00000100
00001000
00000010
,
00000100
00000001
00000100
00000000
00000010
00000000
00001000
00000000
,
00000101
00001000
00000100
00010000
,
00001000
00100000
00010000
00000000
10000000
00000000
00100000
00000000
,
10000000
01000000
00100000
00001000
,
00010000
00000000
00000000
00010000
00000000
00000000
00000100
00000000
00000000
00001000
00000000
00000000
00000010
00000000
00000000
00000000
,
00000110
00000000
00000100
00000000
00000100
00000001
00000000
00000001
,
00000010
00000000
00000010
00000100
00000000
00000100
00010000
00000000
,
00011000
00101000
00001000
00010000
,
00011000
00010010
00010000
00001000
,
01000000
00010000
00100000
00010000
,
10000000
00000000
10000000
00100000
00000000
00100000
01000000
00000000
,
01010000
01001000
00001000
00010000
,
00001100
00010100
00010000
00001000
,
00011000
00000000
00100000
00000000
00010000
00000000
00100000
01000000
,
00000000
10000000
01000000
00000000
00100000
00000000
00001000
00000000
,
00010000
00000000
00000100
00000000
00001000
00000000
00000010
00000100
,
00000000
00000001
00000100
00000000
00000010
00000000
00001000
00000000
,
00000100
00001000
00000100
00000000
00010000
00000000
00001000
00000000
,
01000000
00010000
01000000
00000000
00001000
00000000
00010000
00000000
,
00000010
00001000
00000010
00000000
00010000
00000000
00001000
00000000
,
00100000
00000000
00000000
00000000
00100000
00000000
00000000
00000000
00000000
00000000
00010000
00000000
00000000
00000000
00000000
00000000
01000000
00000000
00000000
00000000
00000000
00000000
02200000
03300000
00000000
00000000
00000000
00000000
00000000
00000000
00000000
00000000
,
10000000
00000000
01000000
00000000
00010000
00000000
00001000
00010000
,
00001000
00000010
00000001
00000100
,
00000010
00000000
00000100
00000000
00001000
00000000
00010000
00001000
,
00010000
00100000
10000000
01000000
,
00100000
00000000
01000000
00000000
00010000
00000000
00001000
00010000
,
00001000
00000010
00000001
00000100
,
00000010
00000100
00001000
00010000
,
00010000
00100000
00000000
00100000
10000000
00000000
10010000
00000000
,
10000000
00000000
01000000
00000000
00010000
00000000
00001000
00010000
,
00001000
00000010
00000001
00000100
,
00000010
00000000
00000100
00000000
00001000
00000000
00010000
00001000
,
00010000
00100000
10000000
10100000
,
10100000
01010000
01010000
10100000
,
10100000
01010000
01010000
00002000
,
00013000
00000200
00001300
00000110
,
00000010
00000001
00000000
00000100
00000001
00000000
00002002
00000000
,
00000000
00000000
00000000
00000000
00000000
00003003
00000110
00000000
,
00001000
00000000
00000100
00000000
00010000
00000000
00001000
00100000
,
00001000
00010000
00100000
10000000
,
00010000
00000000
01000000
00000000
00100000
00000000
10000000
00010000
,
10000000
00000000
01000000
00100000
01000000
00000000
00100000
00000000
,
00001000
00000000
00010000
00000000
00000100
00000000
00001000
00000001
,
00001000
00000010
00000100
00000001
,
00000010
00000000
00000100
00000000
00010000
00000000
00001000
00010000
,
00000000
00001000
00000000
00100000
00010000
00000000
10010000
00000000
,
10000000
00100000
00000000
10000000
01000000
00000000
00100000
01000000
,
00000000
00100000
00010000
00000000
00100000
00000000
00001000
00010000
,
00001000
00000000
00010000
00000000
00000100
00000000
00001000
00000010
,
00001000
00000001
00000100
00000010
,
00001000
00000001
00001000
00000000
00000100
00000000
00010000
00001000
,
00000000
00100000
00000000
00010000
00100000
00000000
00010000
00000000
,
10000000
00100000
10000000
00000000
01000000
00000000
00010000
00010000
,
00000000
00000000
00000000
00000000
00011000
00000000
00000000
00000000
00000000
00000000
00000000
00000000
00010200
00000000
00000000
00000000
00000000
00000000
00000000
00000000
00000000
00000000
00001000
00000000
00000000
00001000
00000000
00000000
00001300
00000000
00000000
00000000
,
00000110
00000010
00000000
00000001
00000000
00000100
00000000
00001000
,
00000000
00010000
00000000
00100000
00000000
10000000
00000000
00010000
,
00000000
00110000
00000000
00110000
00000000
11000000
00000000
11000000
,
00000000
00110000
00000000
00110000
00000000
11000000
00000000
11000000
,
00000000
00010000
00000000
00100000
00000000
00001000
00000000
00010000
,
00000000
00000010
00000000
00001000
00000000
00000001
00000000
00000010
,
00000000
00000101
00000000
00000101
00000000
00001010
00000000
00001010
,
00000000
00000101
00000000
00000101
00000000
00001010
00000000
00001000
,
00000002
00000000
00000003
00000000
;

//--------------- dance-double - forcednature ----------------
#NOTEDATA:;
#STEPSTYPE:dance-double;
#DESCRIPTION:forcednature;
#DIFFICULTY:Hard;
#METER:14;
#RADARVALUES:0,0,0,0,0;
#CREDIT:forcednature;
#NOTES:
00000000
00000000
00000000
00000000
,
00000000
00000000
00000000
00000000
,
00000000
00000000
00000000
00000000
,
00000000
00000000
00000000
00000000
,
00000000
00000000
00000000
00000000
,
00001000
00010000
00000100
00001000
00000010
00000100
00000001
00000010
,
00001000
00010000
01000000
00100000
00001000
01000000
00010000
00000000
,
10000000
00100000
10000000
01000000
00010000
00001000
00000010
00000100
,
00010000
00001000
00000010
00000001
00000100
00000001
00000010
00000000
,
00001000
00010000
01000000
00100000
00001000
00010000
00100000
10000000
,
00010000
01000000
10000000
01000000
00010000
00100000
00001000
00000000
,
00000010
00000100
00001000
00000010
00010000
00001000
00000010
00000001
,
00000100
00000000
00000000
00000110
00000000
00000000
00001010
00000000
00000000
00001100
00000000
00000000
00010000
00001000
00010000
00001000
,
00010000
00000000
00100000
01000000
00010000
00100000
01000000
00010000
,
00001000
00000010
00000100
00001000
00000010
00000100
00000001
00000000
,
00000010
00000100
00000000
00000100
00000000
00001000
00000000
00000000
00000100
00010000
00000000
00010000
00001000
00000000
00000000
00000000
,
00100000
00010000
00000000
00010000
00000000
01000000
00000000
00000000
00100000
10000000
00000000
10000000
00010000
00000000
00000000
00000000
,
00100000
00010000
01000000
00100000
01000000
00010000
00100000
01000000
,
00010000
00001000
00000010
00000100
00000010
00001000
00010000
00000000
,
00000010
00001000
00000000
00001000
00000000
00000001
00000000
00000000
00000100
00000010
00000000
00000010
00001000
00000000
00000000
00000000
,
00000100
00010000
00000000
00010000
00000000
00001000
00000000
00000000
00100000
00010000
00000000
00010000
01000000
00000000
00000000
00000000
,
00100000
10000000
01000000
00000000
00100000
00010000
01000000
00000000
,
00100000
10000000
01000000
00010000
00001000
00000100
00000001
00000000
,
00000010
00000001
00000001
00000100
00000100
00000010
00001000
00000000
,
00000001
00000100
00001000
00020000
00000000
00130000
20000000
00000000
,
30010000
00000000
00100000
01000000
00000000
10000000
00000000
00000000
01000000
00000000
00010000
00000000
00011000
00000000
00000000
00000000
,
00000100
00000000
00001000
00000010
00000000
00000100
00000000
00000000
00000001
00000000
00000010
00000000
00000110
00000000
00000000
00000000
,
00000100
00010000
00001000
00100000
00001000
00010000
01000000
00000000
,
10000000
00000000
00000000
00000000
10000000
00000000
00000000
00000000
00000000
00000000
10100000
00000000
00000000
00000000
00000000
00000000
01100000
00000000
00000000
00000000
00000000
00000000
02020000
03030000
10000000
00000000
00000000
00000000
00000000
00000000
10000000
00000000
,
01000000
00000000
00000000
01000000
00010000
00000000
00000000
00010000
00001000
00000000
00000000
00000000
00100000
00000000
00010000
00000000
,
01000000
00000000
00001000
00000000
00010000
00000000
00000010
00000000
00001000
00000000
00000000
00000000
00000001
00000000
00000000
00000001
,
00000100
00000000
00000000
00000100
00001000
00000000
00000000
00001000
00010000
00000000
00000000
00000000
00000010
00000000
00001000
00000000
,
00000100
00000000
00000010
00000000
00001000
00000000
00010000
00000000
01000000
00000000
00000000
00000000
00100000
00000000
00000000
00100000
,
00001000
00000000
00000000
00001000
00010000
00000000
00000000
00010000
00000100
00000000
00000000
00000100
00001000
00000000
00000000
00001000
,
00000010
00000000
00000000
00000010
00010000
00000000
00001000
00000000
00011000
00000000
00000000
00000000
00100000
00000000
00100000
00000000
,
00010000
01000000
00100000
00100000
10000000
00010000
00200000
00000000
,
01300000
00000000
00020000
00000000
00000000
00000000
00031000
00000000
00000010
00000000
00000000
00000000
00000100
00000000
00000000
00000100
,
00001000
00000000
00000000
00001000
00000001
00000000
00000000
00000001
00000100
00000000
00000000
00000000
00000010
00000000
00001000
00000000
,
00010000
00000000
01000000
00000000
00100000
00000000
10000000
00000000
00010000
00000000
00000000
00000000
00100000
00000000
00000000
00100000
,
00001000
00000000
00000000
00001000
00010000
00000000
00000000
00010000
00000100
00000000
00000000
00000000
00001000
00000000
00000010
00000000
,
00000100
00001000
00010000
00100000
01000000
00000000
00010000
10000000
,
01000000
00010000
00001000
00000010
00000011
00000000
00001000
00000001
,
00000100
00001000
00010000
00100000
10100000
00000000
20000000
00000000
,
31000000
00010000
00002000
00000000
00003010
00000000
00000110
00000000
,
00000001
00000101
00000000
00001000
00010000
00000000
02200000
00000000
,
00000000
00000000
00000000
00000000
03300000
00000000
00000000
00000000
00010000
00000000
10000000
00000000
00000000
10000000
00000000
00000000
00100000
00000000
00000000
00000000
01100000
00000000
00000000
00000000
10000000
00000000
00000000
00000000
01000000
00000000
00000000
00000000
,
00010000
00001000
00100000
00010000
00100000
00001000
00000010
00000100
,
00010000
00001000
00000010
00000001
00001000
00000000
00000010
00000100
,
00001000
00000100
00000001
00001000
00000010
00010000
00001000
01000000
,
00010000
00000000
00100000
00000000
01000000
00100000
01000000
00000000
10000000
00000000
00000000
00000000
01000000
00000000
00010000
00000000
,
00001000
00100000
00010000
00100000
00001000
00010000
00000010
00000100
,
00001000
00010000
00000010
00001000
00000001
00000000
00000010
00001000
,
00010000
01000000
00100000
00001000
00010000
00000000
00100000
10000000
,
01000000
10000000
00010000
00100000
01100000
00000000
01000000
00010000
,
00001000
00000010
00000100
00010000
00001000
00000010
00000001
00000001
,
00000100
00001000
00010000
00000010
00001000
00000000
00010000
01000000
,
00010000
00100000
01000000
00010000
00001000
00100000
00010000
00100000
,
00001000
00000010
00000100
00010000
00001000
00000000
00000010
00000001
,
00000100
00000001
00000010
00001000
00010000
01000000
00100000
00001000
,
00010000
00100000
10000000
00010000
01000000
00000000
00100000
10000000
,
01000000
00010000
00001000
00000010
00000001
00000000
00000101
00000101
,
00000000
00000000
00000000
00000000
00000110
00000000
00000000
00000000
00000000
00000000
00000000
00000000
00001010
00000000
00000000
00000000
00002010
00000000
00000000
00000000
00000000
00000000
00000100
00000000
00000000
00000100
00000000
00000000
00003100
00000000
00000000
00000000
,
00011000
01000000
00010000
00100000
01000000
00010000
00001000
00100000
,
00000000
00001000
00010000
00000100
00001000
00000010
00010000
00001000
,
00000000
00000010
00000001
00000100
00001000
00010000
00100000
10100000
,
00000000
00100000
10000000
01000000
00010000
00001000
00000010
00000011
,
00000000
00000001
00000100
00001000
00010000
00000010
00001000
00000100
,
00000000
00010000
00001000
01000000
00010000
00100000
01000000
00010000
,
00000000
00001000
00000010
00000001
00000100
00001000
00010000
00011000
,
00000000
00000000
00010000
00000000
00100000
00000000
00000000
10100000
00000000
00000000
11000000
00000000
00000000
01100000
00000000
00000000
,
00220000
00000000
00330000
00000000
;

//--------------- dance-double - forcednature ----------------
#NOTEDATA:;
#STEPSTYPE:dance-double;
#DESCRIPTION:forcednature;
#DIFFICULTY:Challenge;
#METER:17;
#RADARVALUES:0,0,0,0,0;
#CREDIT:forcednature;
#NOTES:
00000000
00000000
00000000
00000000
,
00000000
00000000
00000000
00000000
,
00000000
00000000
00000000
00000000
,
00000000
00000000
00000000
00000000
,
00000000
00000000
00000000
00000000
,
00001000
00000000
00010000
00000100
00000000
00001000
00000100
00000000
00000010
00000000
00000001
00000000
00001000
00000000
00000010
00000000
,
00000100
00000000
00001000
00010000
00001000
00000000
00020000
00000000
00000000
00000000
00130000
00000000
10000000
00000000
00000000
00000000
,
00010000
00000000
01000000
00100000
00000000
10000000
00100000
00000000
10000000
00000000
01000000
00000000
00010000
00000000
00001000
00000000
,
00100000
00000000
00010000
00100000
00001000
00000000
00020000
00000000
00000000
00000000
00030100
00000000
00000010
00000000
00000000
00000000
,
00000001
00000000
00000100
00000010
00000000
00001000
00000100
00000000
00000010
00000000
00001000
00000000
00010000
00000000
00001000
00000000
,
00100000
00000000
00010000
00000000
01000000
00100000
20000000
00000000
00000000
00000000
31000000
00000000
00010000
00000000
00000000
00000000
,
00001000
00000000
00010000
00000100
00000000
00001000
00000010
00000000
00000100
00000000
00000001
00000000
00000010
00000000
00001000
00000000
,
00011000
00000000
00000000
00101000
00000000
00000000
00110000
00000000
00000000
01010000
00000000
00000000
10000000
00010000
10000000
00010000
,
00100000
00000000
01000000
00010000
00001000
00100000
00001000
00010000
,
01000000
00100000
00001000
00000010
00000100
00001000
00001010
00000000
,
00000001
00000100
00000000
00001000
00000000
00010000
00001000
00000000
00010000
00100000
00000000
10000000
00100000
00000000
00000000
00000000
,
10000000
01000000
00000000
00010000
00000000
00001000
00010000
00000000
00001000
00000010
00000000
00000001
00000010
00000000
00000100
00000010
,
00000110
00000000
00000000
00000000
00001000
00000000
00000001
00000000
00000100
00000000
00001000
00010000
00001000
00000000
00010000
00000000
,
00100000
10000000
01000000
00010000
00001000
00100000
00010000
00000000
,
10000000
01000000
00000000
00010000
00000000
00001000
00010000
00000000
00001000
00000010
00000000
00000001
00000010
00000000
00000000
00000000
,
00000001
00000100
00000000
00001000
00000000
00010000
00001000
00000000
00010000
00100000
00000000
10000000
00100000
01000000
00010000
01000000
,
00100000
00000000
10000000
00010000
00100000
00000000
00010000
10000000
00100000
00000000
10000000
00000000
01000000
00000000
01100000
00000000
,
00000000
00000000
00100000
00001000
00010000
00000000
00011000
00000000
00000000
00000000
00000100
00001000
00000010
00000000
00000000
00000000
,
00000100
00000000
00000001
00000000
00000100
00000000
00001000
00000000
00010000
00000000
00100000
01000000
00100000
00000000
00000000
00000000
,
01000000
00010000
10000000
00000000
00100000
00000000
10000000
00000000
01000000
00000000
00100000
00000000
01100000
00000000
00000000
00000000
,
10000000
00000000
01000000
00010000
00000000
00001000
00010000
00000000
00001000
00000010
00000000
00000001
00000010
00000100
00001000
00000000
,
00000001
00000000
00000100
00001000
00000000
00010000
00001000
00000000
00010000
00100000
00000000
10000000
00100000
01000000
00010000
00000000
,
10000000
00000000
01000000
00010000
00000000
00001000
00010000
00000000
00001000
00000010
00000000
00000001
00000100
00000010
00001000
00000000
,
00001010
00000000
00000110
00000000
00000000
00000101
00000000
00000000
00000001
00000010
00000100
00000002
00000103
00000000
00001000
00000100
,
00000000
00000100
00010000
00000000
00001000
00100000
00010000
00100000
01000000
00000000
00000000
00000000
10000000
00000000
00100000
00000000
,
00010000
00000000
00001000
00000000
01000000
00000000
00010000
00000000
00110000
00000000
00000000
00000000
01000000
00000000
00010000
01000000
,
00000000
01000000
00001000
00000000
00010000
00000010
00001000
00000010
00000100
00000000
00000000
00000000
00000001
00000000
00000010
00000000
,
00001000
00000000
00010000
00000000
00000100
00000000
00001000
00000000
00001010
00000000
00000000
00000000
00000001
00000000
00000100
00000001
,
00000000
00001000
00000010
00000000
00010000
00001000
00100000
00001000
00010000
00000000
00100000
00000000
10000000
00000000
01000000
00100000
,
00000000
00010000
00100000
00001000
00000000
00010000
00000100
00001000
00000100
00000000
00000010
00000000
00000001
00001000
00000010
00001000
,
00000001
00000000
00000100
00000000
00001000
00010000
00000010
00010000
00001000
00000000
00100000
00000000
00002000
00000000
00013000
00000000
,
01000000
00000000
20000000
00000000
31000000
00000000
00010000
00000000
00022000
00000000
00033000
00000000
01000000
00000000
00010000
01000000
,
00000000
01000000
00001000
00000000
00010000
00000010
00001000
00000010
00000100
00000000
00000000
00000000
00000001
00000000
00000010
00000000
,
00001000
00000000
00010000
00000000
00000100
00000000
00001000
00000000
00001010
00000000
00000000
00000000
00000100
00000000
00001000
00000100
,
00000000
00000100
00010000
00000000
00001000
00100000
00010000
00100000
01000000
00000000
00000000
00000000
10000000
00000000
00100000
00000000
,
00010000
00000000
00001000
00000000
01000000
00000000
00010000
00000000
00110000
00000000
00000000
00000000
00001000
00010000
00000100
00000000
,
00010000
00001000
01000000
00000000
00001000
00010000
00100000
00000000
00010000
00001000
00000010
00000000
00001000
00010000
00000100
00000000
,
00010000
00001000
01000000
00000000
00001000
00010000
00100000
00000000
00010000
00001000
00000010
00000000
00000110
00000000
00000000
00000100
,
00001000
00000000
00000010
00000000
00000110
00000000
00000000
00000100
00000001
00000000
00000010
00000000
00001100
00000000
00000000
00010000
,
00001000
00000000
00110000
00000000
00000000
10000000
01000000
00000000
01100000
00000000
00000000
00000000
20020000
00000000
00000000
00000000
,
00000000
00000000
00000000
00000000
30030000
00000000
00000000
00000000
10000000
01000000
10000000
00000000
01000000
00100000
00000000
00010000
00100000
00001000
00010000
00000000
00011000
00000000
00000000
00000000
00001000
00000000
00000000
00000000
00000010
00000000
00000100
00000000
,
00000010
00000000
00000001
00001000
00000100
00000000
00001000
00000001
00000010
00000000
00000000
00000000
00000001
00000000
00000100
00000000
,
00001000
00000000
00010000
00000000
00100000
01000000
00010000
01000000
00100000
00000000
10000000
00000000
00010000
00000000
01000000
00100000
,
01000000
00000000
00010000
10000000
00100000
00000000
10000000
00010000
01000000
00000000
00001000
00000000
00010000
00000000
00000100
00001000
,
00000100
00000000
00000010
00000000
00000001
00000100
00000010
00000100
00000000
00000010
00001000
00000001
00001000
00000000
00000010
00000100
,
00000010
00000000
00001000
00000001
00000100
00000000
00000010
00001000
00000001
00000000
00000010
00000000
00001000
00000000
00010000
00000000
,
01000000
00000000
00100000
00000000
00010000
10000000
00100000
00000000
10000000
00010000
01000000
00000000
00010000
00000000
00100000
00010000
,
00100000
00001000
00010000
00000100
00001000
00000100
00000010
00000001
00001000
00000001
00000100
00000000
00000010
00001000
00000010
00010000
,
00001000
00000000
01000000
00010000
01000000
00100000
10000000
00000000
02200000
00000000
03300000
00000000
00010000
00000000
10000000
01000000
,
00100000
00000000
00001000
00000000
00100000
01000000
10000000
00000000
00100000
00000000
01000000
00000000
00010000
00000000
00100000
00000000
,
00001000
00000000
00000010
00000000
00000100
00001000
00000001
00001000
00000200
00000000
00000300
00000000
00000010
00000000
00000001
00000100
,
00000010
00001000
00000010
00000000
00000100
00000000
00001000
00000000
00011000
00000000
00020000
00000000
00000000
00000000
00130000
01000000
,
00100000
00000000
10000000
00000000
00010000
01000000
00001000
00010000
00000010
00001000
00000010
00000100
00000001
00000000
00001000
00000000
,
00000100
00000000
00000010
00000000
00001000
00010000
00000100
00010000
00001000
00000000
00100000
00000000
00010000
01000000
00100000
00000000
,
10000000
00000000
01000000
00100000
00001000
00000000
00010000
00000000
00011000
00000000
00000000
00000000
00000010
00001000
00000010
00010000
,
00001000
01000000
00010000
01000000
00100000
10000000
00010000
10000000
00100000
01000000
00010000
00000000
00110000
00000000
00001000
00010000
,
00000000
00000000
00000000
00000000
00001100
00000000
00000000
00000000
00000000
00000000
00000000
00000000
00000011
00000000
00000000
00000000
00000201
00000000
00000000
00000000
00000000
00000300
00000010
00000100
00000000
00000010
00001000
00000000
00000100
00010000
00001000
00100000
,
00020000
00030000
01000000
00000000
00100000
10000000
00010000
01000000
00000000
00010000
00100000
00000000
00001000
00010000
00000000
00000100
,
00001000
00000100
00000010
00000001
00001000
00000001
00000010
00000100
00000000
00001000
00000010
00010000
00001000
00010000
00000000
00001000
,
00100000
00000000
00001000
00010000
00000100
00000000
00010000
00001000
01000000
00000000
00001000
00010000
00100000
00000000
00010000
00001000
,
00000010
00000000
00001000
00010000
00000100
00000000
00010000
00001000
01000000
00000000
00001000
00010000
00100000
00000000
00010000
00001000
,
00000010
00000000
00000110
00000000
00000100
00001000
00000100
00010000
00000000
00001000
00100000
00010000
00100000
00001000
00000000
00010000
,
00001000
00000000
01000000
00000000
00010000
10000000
00100000
10000000
00000000
01000000
00100000
00010000
00100000
00001000
00000000
00010000
,
00000100
00000000
00010000
00001000
00100000
00000000
00001000
00010000
00000010
00000000
00010000
00001000
00000100
00000000
00001000
00010000
,
01000000
00000000
01100000
00000000
01100000
00000000
00000000
00100000
00001000
00000000
00011000
00000000
00000000
00000110
00000000
00000000
,
00002002
00000000
00003003
00000000
;
