#VERSION:0.83;
#TITLE:アストライアの双皿;
#SUBTITLE:;
#ARTIST:ZODIACSYNDICATE;
#TITLETRANSLIT:Astraia no soubei;
#SUBTITLETRANSLIT:;
#ARTISTTRANSLIT:;
#GENRE:ZODIAC ORACLE 7;
#CREDIT:;
#MUSIC:Astraia no soubei.ogg;
#BANNER:Astraia no soubei.png;
#BACKGROUND:Astraia no soubei-bg.png;
#CDTITLE:./CDTitles/jubeat saucer.png;
#SAMPLESTART:94.511;
#SAMPLELENGTH:15.000;
#SELECTABLE:YES;
#OFFSET:1.198;
#BPMS:0.000=173.000;
#STOPS:;
#TIMESIGNATURES:0.000=4=4;
#BGCHANGES:0.000=../BGAs/07tr.mp4=1.000=0=0=0=StretchNoLoop====,
99999.000=-nosongbg-=1.000=0=0=0=StretchNoLoop====
;
#FGCHANGES:;

//--------------- dance-single - forcednature ----------------
#NOTEDATA:;
#STEPSTYPE:dance-single;
#DESCRIPTION:forcednature;
#DIFFICULTY:Beginner;
#METER:3;
#RADARVALUES:0,0,0,0,0;
#CREDIT:forcednature;
#NOTES:
0000
0000
0000
0000
,
0000
0000
0000
0000
,
0000
0000
0000
0000
,
0000
0000
0000
0000
,
0000
0000
0000
0000
,
0000
0000
1000
0000
,
0000
0000
0001
0000
,
0000
0000
0100
0000
,
0000
0000
0010
0000
,
0000
0000
0000
0000
,
1001
0000
0000
0000
,
1000
0000
0000
0000
,
0100
0000
0000
0000
,
1000
0000
0000
0000
,
0001
0000
0000
0000
,
0100
0000
0000
0000
,
0001
0000
0000
0000
,
0010
0000
0000
0000
,
0100
0000
0000
0000
,
0000
0000
0000
0000
,
1000
0000
0000
0000
,
0000
0000
0000
0000
,
0001
0000
0000
0000
,
0100
0000
0000
0000
,
0010
0000
0000
0000
,
1000
0000
0000
0000
,
0010
0000
0000
0000
,
0100
0000
0000
0000
,
0001
0000
0000
0000
,
0010
0000
0000
0000
,
0001
0000
0000
0000
,
1000
0000
0000
0000
,
0010
0000
0000
0000
,
1000
0000
0000
0000
,
0100
0000
0000
0000
,
0110
0000
0000
0000
,
0010
0000
0000
0000
,
0001
0000
0000
0000
,
1000
0000
0000
0000
,
0010
0000
0000
0000
,
0100
0000
0000
0000
,
0001
0000
0000
0000
,
0010
0000
0000
0000
,
0100
0000
0000
0000
,
0000
0000
0000
0000
,
1000
0000
0000
0000
,
0000
0000
0000
0000
,
0001
0000
0000
0000
,
0000
0000
0000
0000
,
0100
0000
0000
0000
,
0000
0000
0000
0000
,
0010
0000
0000
0000
,
1000
0000
0000
0000
,
0001
0000
0000
0000
,
0010
0000
0000
0000
,
0100
0000
0000
0000
,
1000
0000
0001
0000
,
1000
0000
0000
0000
,
0001
0000
0000
0000
,
1000
0000
0000
0000
,
0001
0000
0000
0000
,
1000
0000
0001
0000
,
0001
0000
1000
0000
,
1000
0000
0001
0000
,
0001
0000
1000
0000
,
1000
0000
0001
0000
,
0100
0000
0010
0000
,
1000
0000
0000
0000
,
0001
0000
0000
0000
,
1001
0000
0000
0000
,
1000
0000
0000
0000
,
0100
0000
0010
0000
,
0100
0000
0010
0000
,
0001
0000
0000
0000
,
1000
0000
0000
0000
,
0010
0000
0100
0000
,
0010
0000
0100
0000
,
0001
0000
0000
0000
,
1000
0000
0100
0000
,
1000
0000
0000
0000
,
0001
0000
0100
0000
,
0001
0000
0000
0000
,
1000
0000
0100
0000
,
0010
0000
0001
0000
,
0001
0000
0100
0000
,
0010
0000
1000
0000
,
1001
0000
0000
0000
,
0010
0010
0100
0100
;

//--------------- dance-single - forcednature ----------------
#NOTEDATA:;
#STEPSTYPE:dance-single;
#DESCRIPTION:forcednature;
#DIFFICULTY:Easy;
#METER:9;
#RADARVALUES:0,0,0,0,0;
#CREDIT:forcednature;
#NOTES:
0000
0000
0000
0000
,
0000
0000
0000
0000
,
0000
0000
0000
0000
,
0000
0000
0000
0000
,
0000
0000
0000
0000
,
0000
0000
1000
0001
,
1000
0001
0010
0100
,
0010
0100
1000
0010
,
1000
0100
0010
0001
,
0100
0000
0002
0000
0000
0003
0000
0000
,
1001
1000
0100
1000
,
0010
0100
0001
0010
,
0001
0100
0010
0100
,
0001
1000
0100
0010
,
0001
1000
0000
0000
1000
0000
0010
0000
,
1000
0001
0000
0000
0001
0000
0010
0000
,
0100
0010
0000
0000
0010
0000
0001
0000
,
0100
0010
0000
0000
1000
0000
0001
0000
,
0020
0000
0000
0000
,
0230
0000
2300
0000
,
3002
0000
0203
0000
,
0320
0000
2030
0000
,
3002
0000
0000
0000
0000
0000
0000
0000
0020
0000
0000
0000
0000
0033
0000
0000
,
0001
0100
0001
0000
1000
0000
1010
0000
,
1000
0100
1000
0000
0001
0000
0011
0000
,
0100
0001
0100
0000
0010
1000
0010
0000
,
1000
0100
1000
0000
0010
0000
0100
0000
,
0001
0000
0000
0010
0100
0000
0001
0000
,
1000
0000
0000
0010
0100
0000
0010
0000
,
1000
0000
0000
0001
0010
0000
0000
0001
,
0100
0000
0000
0010
1000
0000
0100
0000
,
1001
0000
0000
0001
0100
0000
0000
0010
,
1000
0000
0000
1000
0100
0000
0010
0000
,
1001
0000
0000
0001
0010
0000
0000
0001
,
0100
0010
1000
0001
,
0010
0000
0000
0000
0100
0000
0000
1000
0000
0000
0100
0000
0010
0000
0000
0000
,
0001
0000
0000
0000
1000
0000
0000
0010
0000
0000
0100
0000
0001
0000
0000
0000
,
1000
0000
0000
0000
0100
0000
0000
1000
0000
0000
0010
0000
0100
0000
0000
0000
,
0001
0000
0000
0000
0010
0000
0000
0100
0000
0000
0010
0000
0001
0000
0000
0000
,
1000
0000
0010
1000
0001
0000
0010
0000
,
0100
0000
0010
0001
1000
0000
0010
0000
,
0200
0010
0001
0310
,
0100
0000
0000
0001
0000
0000
1000
0000
0000
0100
0000
0000
0020
0000
0000
0000
,
0032
0000
0000
0000
,
0203
0000
0000
0000
,
0320
0000
0000
0000
,
2030
0000
0000
0000
,
3002
0000
0000
0000
,
0023
0000
0000
0000
,
0230
0000
0000
0000
,
1300
0000
0000
1000
0000
0000
0001
0000
0000
0001
0000
0000
0100
0000
0000
0000
,
0020
0000
0030
2000
0000
3000
0002
0000
,
0013
0100
0010
0001
,
0200
0000
0300
0020
0000
0030
2000
0000
,
3001
0010
0001
0100
,
0020
0000
1030
0001
,
0010
0100
1000
0001
,
1000
0000
0001
0000
,
0100
0000
0010
0000
,
1000
0000
0001
0000
,
0010
0000
0100
0000
,
1000
0001
0100
0010
,
1000
0001
0010
0100
,
1000
0010
0001
0010
,
0100
1000
0100
0001
,
0010
0100
0010
0000
0100
0010
0100
0000
,
1000
1000
0001
0001
,
0200
0000
0000
0300
,
0010
0000
1000
0001
0010
0001
0010
0000
,
0110
0000
0100
0000
1000
0001
0100
0000
,
0010
0000
1000
0000
0001
0010
0100
0000
,
0110
0010
0011
0001
,
0100
0001
1000
0000
0010
1000
0001
0000
,
1001
0000
1000
0000
0100
0010
0001
0000
,
1000
0010
0100
0000
0001
1000
0100
0000
,
0010
0011
0100
1100
,
1000
0000
0000
0001
0000
0000
2002
0000
0000
0000
3003
0000
,
1000
0000
0000
0000
0100
0000
1000
0000
0000
0100
0000
0000
1000
0000
0000
0000
,
0001
0010
0001
0000
1000
0001
1000
0000
,
0001
0000
0000
0100
0000
0000
0001
0000
0000
0100
0000
0000
0001
0000
0000
0000
,
0010
0100
0110
0000
,
1000
0000
0001
0000
,
0101
0000
1010
0000
,
1100
0000
0011
0000
,
1100
1000
0101
0001
,
1010
1000
0011
0001
,
1001
0000
0000
0000
,
1001
0000
0001
0100
0010
1000
0001
0010
;

//--------------- dance-single - forcednature ----------------
#NOTEDATA:;
#STEPSTYPE:dance-single;
#DESCRIPTION:forcednature;
#DIFFICULTY:Medium;
#METER:14;
#RADARVALUES:0,0,0,0,0;
#CREDIT:forcednature;
#NOTES:
0000
0000
0000
0000
,
0000
0000
0000
0000
,
0000
0000
0000
0000
,
0000
0000
0000
0000
,
0000
0000
0000
0000
,
0000
0000
0000
0010
0110
0000
1000
0001
,
0100
0000
0001
1000
0100
0000
0010
0001
,
1000
0000
0010
1000
0001
0010
0001
0100
,
0010
0000
1000
0000
0100
0000
0100
0000
0010
0000
0001
0000
1000
0000
0000
1000
,
0010
0000
0000
0010
0100
0000
0001
0000
0000
0000
0020
0000
0000
0000
0000
0000
,
0130
0001
0100
1000
0010
0001
0010
1000
,
0100
0001
0100
1000
0010
0001
0001
0010
,
0100
0001
0011
0000
0100
1000
1010
0000
,
0100
0000
0001
0000
0011
0000
0000
0000
0100
1000
0000
1000
0020
0000
0000
0000
,
0130
0000
0101
0000
0000
0000
0001
0000
0000
0010
0000
0000
0100
0000
1000
0000
,
0010
0000
1010
0000
0000
1000
0000
0100
0000
0010
0000
0000
0001
0000
1000
0000
,
0010
0000
0110
0000
0000
0100
0000
0001
0000
1000
0000
0000
0100
0000
0010
0000
,
0001
0000
0000
1001
0000
0000
1000
0000
0000
0000
0000
0000
0001
0000
0100
0000
0001
0000
1000
0000
0100
0000
1000
0000
,
0020
0000
0230
0302
,
2003
3200
0320
0230
,
2300
3002
0203
0302
,
0023
0000
0000
0000
0000
0000
0000
0000
0230
0000
0000
0000
0000
0300
0000
0000
,
2002
0000
0000
0000
0000
3003
0000
0000
0220
0000
0000
0000
0000
0330
0000
0000
,
1000
0100
0010
0001
1000
0010
0100
0001
,
1000
0100
0010
0001
1000
0010
0100
0001
,
0010
1000
0010
0001
0100
1000
0100
0001
,
0010
0000
0001
0000
1000
0010
1000
0000
0010
0100
0010
0000
0100
0001
0100
0000
,
0020
0000
0000
0000
0000
0030
1000
0100
1000
0000
0001
0000
0100
0000
0001
0000
,
0020
0000
0000
0000
0000
0030
0001
0100
0001
0000
1000
0000
0100
0000
1000
0000
,
0020
0000
0000
0000
0000
0030
1000
0010
2000
0000
0000
0000
0000
3000
0001
0010
,
0002
0000
0000
0000
0000
0003
0100
0010
0100
0000
0001
0000
1000
0000
0100
0000
,
0020
0000
0000
0000
0000
0030
0100
1000
0200
0000
0000
0000
0000
0300
0010
0001
,
0020
0000
0000
0000
0000
0030
0001
0100
0001
0000
1000
0000
0100
0000
1000
0000
,
0020
0000
0000
0000
0000
0030
0100
0001
0200
0000
0000
0000
0000
0300
0010
1000
,
0010
0000
0100
0000
0000
0001
0000
0000
2000
0000
0000
0000
3002
0000
0000
0000
,
1003
0100
0000
1000
0100
0000
0010
0001
0000
0010
0001
0000
1000
0000
0000
0000
,
0001
0100
0000
0001
0100
0000
0010
1000
0000
0010
1000
0000
0001
0000
0000
0000
,
0010
0100
0000
0010
0100
0000
1000
0001
0000
1000
0001
0000
0100
0000
0000
0000
,
0010
1000
0000
0100
1000
0000
0001
0010
0000
0001
0100
0000
0010
0000
0000
0000
,
1000
0000
0100
1000
0100
0000
0010
0000
0000
0001
0000
0000
1000
0000
0010
0000
,
0100
0000
0001
0100
0001
0000
1000
0000
0000
0100
0000
0000
0010
0000
0001
0000
,
0100
0010
0001
0010
1000
1000
0001
0001
,
0100
0010
0000
1000
0001
0000
0010
0100
0000
1000
0001
0000
0100
0000
0010
0000
,
2000
0000
0000
3200
0000
0000
0320
0000
,
0032
0000
0000
2003
0000
0000
0000
0000
,
3020
0000
0000
0230
0000
0000
0302
0000
,
0023
0000
0000
0230
0000
0000
2300
0000
,
3020
0000
0000
0000
,
0230
0000
0000
0302
0000
0000
2003
0000
,
3200
0000
0000
0320
0000
0000
0031
0000
,
0101
0000
0000
0110
0000
0000
1010
0000
0000
1001
0000
0000
1000
0000
0100
0000
,
0010
0001
0010
0000
0000
0000
0100
1000
0100
0000
0000
0000
0010
0000
0001
0000
,
1000
0010
1000
0000
0010
0100
0010
0000
0100
0001
0100
0000
0001
1000
0001
0000
,
1000
0100
1000
0000
0000
0000
0011
0000
0000
0000
0000
0000
0101
0000
0000
0000
,
0100
0010
0100
0000
0010
1000
0010
0000
1000
0001
1000
0000
0001
0010
0001
0000
,
0100
0000
0000
0000
0000
0000
0010
1000
0001
0000
0000
0000
0000
0000
0000
0000
,
0001
0100
0010
1000
0010
0000
0100
0001
1000
0100
0010
0001
,
1000
1000
0000
0000
0001
0001
0000
0000
,
0100
0100
0000
0000
0010
0010
0000
0000
,
1000
1000
0000
0000
0001
0001
0000
0000
,
0010
0010
0000
0000
0100
0100
0000
0000
,
1000
0000
0000
1000
0100
0000
0000
0100
1000
0000
0000
1000
0001
0000
0000
0001
,
0100
0000
0000
0100
0001
0000
0000
0001
1000
0000
0000
1000
0010
0000
0000
0010
,
0100
0000
0100
0000
0001
0000
0000
0001
1000
0000
1000
0000
0100
0000
0000
0100
,
0010
0000
0010
0000
0001
0000
0000
0001
0100
0000
0100
0000
0010
0000
0000
0010
,
1000
0100
0001
0100
1000
0010
0001
0010
,
0100
0001
0010
0001
1000
0100
1000
0010
,
0220
0000
0000
0330
,
0100
0001
0000
1000
0000
0100
0000
0010
0000
0001
0000
1000
0010
0000
0100
0000
,
0110
0000
0000
0010
1000
0000
0001
0000
0010
0000
0100
0000
0010
0000
0001
0000
,
0100
0000
0010
1000
0010
0000
0100
0000
0001
0000
0010
0000
0100
0000
1000
0000
,
1010
0010
0110
0100
0101
0001
1001
1000
,
0100
0010
0000
0001
0000
0100
0010
0000
1000
0100
0000
1000
0010
0000
0100
0000
,
0110
0000
0000
0100
0001
0000
0010
0000
0100
0000
0010
0000
0001
0000
0100
0000
,
0010
0000
1000
0100
1000
0000
0010
0000
1000
0000
0100
0000
0001
0000
0100
0000
,
0010
0001
0101
0000
0010
1000
1100
0000
,
1000
0000
0000
0001
0000
0000
0000
0000
0000
0100
0000
0000
0000
0000
0000
0010
0000
0000
1000
0000
0000
0000
0000
0000
0001
0000
0000
0000
0010
0000
0000
0000
0001
0000
0000
0000
0010
0000
0000
0000
0001
0000
0000
0000
0000
0000
0000
0000
,
0100
0000
0100
0001
0000
0000
1000
0010
0000
1000
0100
0000
0010
0000
0001
0000
,
0100
0001
0100
0000
0010
1000
0010
0000
1000
0100
1000
0000
0001
0010
0001
0000
,
0100
0010
0000
1000
0001
0000
0010
0100
0000
1000
0001
0000
0100
0000
0010
0000
,
1000
0000
0100
0000
0001
0000
0100
0000
0010
0001
0010
0001
0010
0000
0000
0000
,
2000
0000
0000
3000
0002
0000
0000
0003
,
0100
0010
0000
1000
0000
1100
0000
0000
0100
0010
0000
0001
0000
0101
0000
0000
,
0100
0010
0000
1000
0000
1001
0000
0000
0100
0010
0000
0001
0000
1001
0000
0000
,
1000
0100
0000
0010
0000
0011
0000
0000
0001
0100
0000
0010
0000
1010
0000
0000
,
1000
0001
0000
0010
0000
0110
0000
0000
0001
1000
0000
0010
0000
0110
0000
0000
,
2002
0000
0000
0000
0000
0000
0000
0000
0000
0000
0000
0000
0000
3003
0000
0000
,
1000
0100
0000
1000
0000
1010
0000
0001
0000
0011
0000
0100
0001
0000
1001
0000
;

//--------------- dance-single - forcednature ----------------
#NOTEDATA:;
#STEPSTYPE:dance-single;
#DESCRIPTION:forcednature;
#DIFFICULTY:Hard;
#METER:17;
#RADARVALUES:0,0,0,0,0;
#CREDIT:forcednature;
#NOTES:
0000
0000
0000
0000
,
0000
0000
0000
0000
,
0000
0000
0000
0000
,
0000
0000
0000
0000
,
0000
0000
0000
0000
,
0000
0000
0000
0001
1001
0000
1000
0010
,
1000
0000
1000
0100
0010
0000
0001
0010
,
0001
0000
0001
0100
0010
1000
0001
0010
,
0100
0000
1000
0000
0001
0100
0001
0100
0010
1000
0010
1000
0001
0000
0000
0001
,
0010
0000
0000
0010
0100
1000
0002
0000
0003
0000
0100
0001
0100
0010
0100
0010
,
1000
0000
0100
0010
0001
0000
1000
0000
0001
0000
0100
0010
1000
0000
0001
0000
,
1000
0000
0100
0010
0001
0000
1000
0000
0001
0000
0100
0010
1000
0001
1000
0000
,
0010
0000
0100
0001
0010
0000
0001
0000
0100
0000
0010
1000
0100
0000
1000
0000
,
0010
0000
0100
0001
0010
0000
0001
0000
0100
0010
0000
0010
1000
0001
0010
0000
,
0100
0000
0110
0000
0010
0000
0001
1000
0000
0001
0100
0000
0010
0000
1000
0000
,
0001
0000
1001
0000
1000
0010
0000
0100
0000
0001
0010
0000
0100
0000
1000
0000
,
0010
0000
0110
0000
0100
0001
0000
0010
0000
0001
0000
1000
0010
0000
0100
0000
,
0001
0000
0000
0000
0000
0000
0101
0000
0000
0000
0000
0000
0100
0000
0000
0010
0000
0000
1000
0000
0000
0000
0000
0000
0001
0000
0000
0000
0010
0000
0000
0000
0001
0000
0000
0000
1000
0000
0000
0000
0010
0000
0000
0000
0100
0000
0000
0000
,
0002
0000
0023
0230
,
2300
3002
0203
0320
,
2030
3200
0320
0032
,
0203
0000
0000
0000
0000
0000
0000
0000
0320
0000
0000
0000
0000
0030
0000
0000
,
2002
0000
0000
0000
0000
3003
0000
0000
1000
0100
0010
0001
0010
0100
1000
0000
,
0001
0000
1000
0010
0100
0000
0001
0000
1000
0000
0001
0010
0100
0000
1000
0000
,
0001
0000
1000
0010
0100
0000
0001
0000
1000
0000
0001
0010
0100
0000
1000
0000
,
0001
0000
1000
0010
0100
0001
0000
0001
1000
0000
0001
0010
0100
1000
0000
1000
,
0001
0000
1000
0010
0100
0001
0100
0000
0010
1000
0001
1000
0100
0010
0001
0000
,
0012
0000
0000
0000
0000
0003
0100
0001
1000
0000
0100
0000
0010
0000
0100
0000
,
0021
0000
0000
0000
0000
0030
0100
1000
0001
0000
0100
0000
0010
0000
1000
0000
,
0012
0000
0000
0000
0000
0003
0100
0010
2000
0000
0000
0000
0000
3000
0001
0010
,
0200
0000
0000
0000
0000
0300
0010
0001
1000
0000
0010
0000
0001
0000
0010
0000
,
0201
0000
0000
0000
0000
0300
0010
1000
0002
0000
0000
0000
0000
0003
0100
0010
,
2000
0000
0000
0000
0000
3000
0100
0010
0001
0000
0100
0000
0010
0000
1000
0000
,
0012
0000
0000
0000
0000
0003
0100
0010
2000
0000
0000
0000
0000
3000
0001
0010
,
0100
0000
0010
0100
1000
0001
1000
0000
0001
0100
0010
1000
0010
0100
0001
0000
,
1000
0100
0000
0010
0100
0000
0001
0100
0000
0010
0100
0000
0010
0001
1000
0000
,
0001
0100
0000
0010
0100
0000
1000
0100
0000
0010
0100
0000
0010
1000
0001
0000
,
1000
0100
0000
0001
0100
0000
0010
0001
0000
0001
0100
0010
1000
0001
1000
0000
,
0001
0010
0000
0100
0001
0000
0100
1000
0000
0010
0100
0000
0001
1000
0010
0000
,
0100
0000
0001
0010
0001
0100
0010
0000
1000
0001
0000
1000
0100
0010
0001
0000
,
0100
0000
0010
1000
0100
1000
0010
0000
0100
0001
0000
0010
0001
0000
1000
0000
,
0010
0000
0100
0001
0010
0100
1000
0010
0100
0001
1000
0100
0010
0000
0001
1000
,
0100
0001
0000
0100
1000
0000
0010
0001
0000
0010
1000
0000
0100
0010
0100
0010
,
0002
0000
0000
1000
0000
0000
0010
0000
,
0203
0000
0000
0001
0000
0000
0000
0000
,
0320
0000
0000
0001
0000
0000
1000
0000
,
0230
0000
0000
0001
0000
0000
0010
0000
,
0302
0010
1000
0100
,
0023
0000
0000
0230
0000
0000
2300
0000
,
3020
0000
0000
0230
0000
0000
0302
0000
,
0013
0001
0000
0100
0010
0000
1000
0100
0000
0010
0001
0000
0110
0000
1001
0000
,
0001
0100
0002
0000
0000
0003
1000
0010
2000
0000
0000
3000
0100
0000
0010
0000
,
0001
0100
0001
0000
0001
0010
0001
0000
1000
0010
0100
0000
0001
0010
0100
0000
,
0010
0001
2000
0000
3000
0000
0020
0000
0000
0000
0001
0000
2030
0000
3000
0000
,
0010
1000
0010
0000
0100
0010
0100
0000
0001
1000
0100
0000
0010
0001
0100
0000
,
0010
2000
0100
0000
0000
0000
0010
0000
0010
0000
0001
0000
3100
0000
0000
0000
,
1000
0100
0001
0100
0010
0001
1000
0010
0001
1000
0100
0010
,
1000
1100
0000
0000
0001
0101
0000
0000
,
1000
0000
0010
1000
0000
0000
0000
0000
0001
0010
0001
0010
0000
0000
0000
0000
,
0100
1000
0100
0000
0000
0000
0000
0000
0010
0000
0011
0000
0000
0000
0000
0000
,
1000
0010
1000
0100
0000
0000
0000
0000
0010
0001
0000
0001
0000
0001
0000
0000
,
1000
0100
0000
1000
0001
0100
0000
0001
1000
0010
0000
1000
0001
0010
0000
0001
,
0100
0010
0000
1000
0100
1000
0000
0010
0100
0001
0000
0010
0001
0010
0000
0001
,
1000
0100
0000
0100
1000
0010
0000
1000
0001
0100
0000
0100
0001
0010
0000
0001
,
1000
0010
0000
0010
1000
0100
0000
1000
0001
0010
0000
0010
0001
0100
0000
0001
,
1000
0000
0010
1000
0001
0000
0010
0001
1000
0000
0100
1000
0001
0000
0100
0001
,
1000
0010
1000
0100
0010
0001
0100
0001
0010
0100
1000
0001
0100
0010
1000
0001
,
0010
0000
0010
0100
1000
0001
0100
0010
1000
0001
0010
0001
,
0100
0010
0000
1010
0000
1100
0000
0011
0000
0101
0000
0010
0100
0000
1001
0000
,
0001
0100
0010
1000
0001
0010
0100
1000
0100
0000
0010
0001
0010
0000
0001
1000
,
0100
0010
0001
0100
0010
1000
0001
0000
0010
0000
0001
0100
1000
0000
0100
0001
,
0010
0100
1010
0100
0011
0100
1001
0010
,
0100
0010
0000
1001
0000
1000
0100
0000
1000
0010
0000
0001
0010
0000
0100
0000
,
0010
1000
0001
0010
0100
0010
0001
1000
0010
0000
0100
0001
0100
0000
0010
1000
,
0001
0010
0001
0100
0010
1000
0100
0000
0010
0000
1000
0010
0001
0000
0100
0001
,
1000
0100
0011
1000
0001
0100
1010
0001
,
0100
0000
0000
0010
0000
0000
0000
0000
0000
0001
0000
0000
0000
0000
0000
0010
0000
0000
1000
0000
0000
0000
0000
0000
0100
0000
0000
0000
0100
0000
0000
0000
0100
0000
0000
0000
0100
0000
0000
0000
0100
0000
0000
0000
0000
0000
0000
0000
,
0010
0001
0100
0001
1000
0000
0010
0100
0000
0001
0010
0000
0110
0000
0100
0000
,
1000
0010
0100
0000
1000
0100
0001
0000
0010
0001
0100
0001
0010
0100
1000
0000
,
0001
0010
0001
0100
0010
0000
1000
0100
0000
0001
0100
0010
0100
1000
0001
0000
,
0100
0010
1000
0000
0100
0010
0001
0000
0100
0010
1000
0100
0010
0001
0100
0010
,
2000
0000
0000
3000
0002
0000
0000
0003
,
1000
0100
0000
0011
0000
0001
0010
0000
0001
0100
0000
1010
0000
1000
0010
0000
,
0100
0001
0000
0110
0000
0010
1000
0000
0100
1000
0000
0110
0000
0010
0001
0000
,
1000
0001
0000
0110
0000
1000
0010
0100
0001
1000
0000
0110
0000
0001
0010
0100
,
1000
0001
0000
0110
0000
1000
0100
0001
0100
0010
0000
0110
0000
0001
0100
1000
,
0200
0000
0000
0000
0000
0000
0000
0000
0000
0000
0000
0000
0000
0300
0000
0000
,
0010
1000
0000
1100
0000
0101
0000
0011
0000
1010
0000
0100
0010
0000
1001
0000
;

//--------------- dance-double - forcednature ----------------
#NOTEDATA:;
#STEPSTYPE:dance-double;
#DESCRIPTION:forcednature;
#DIFFICULTY:Easy;
#METER:10;
#RADARVALUES:0,0,0,0,0;
#CREDIT:forcednature;
#NOTES:
00000000
00000000
00000000
00000000
,
00000000
00000000
00000000
00000000
,
00000000
00000000
00000000
00000000
,
00000000
00000000
00000000
00000000
,
00000000
00000000
00000000
00000000
,
00000000
00000000
00001000
00010000
,
00001000
00010000
00000100
00001000
,
00000100
00001000
00000001
00000100
,
00000010
00001000
00010000
01000000
,
00100000
00000000
20000000
00000000
00000000
30000000
00000000
00000000
,
10010000
00000000
10000000
01000000
,
00100000
00001000
00010000
00000010
,
00001000
00000000
00000100
00000010
,
00000001
00000100
00000001
00000010
,
00000100
00001000
00000000
00000000
00000010
00000000
00010000
00000000
,
00001000
00100000
00000000
00000000
00010000
00000000
10000000
00000000
,
00100000
01000000
00000000
00000000
00001000
00000000
00010000
00000000
,
00000100
00001000
00000000
00000000
00000001
00000000
00000100
00000000
,
00000020
00000000
00000000
00000000
,
00020030
00000000
00032000
00000000
,
00203000
00000000
00320000
00000000
,
20030000
00000000
30200000
00000000
,
02300000
00000000
00000000
00000000
00000000
00000000
00000000
00000000
00002000
00000000
00000000
00000000
00000000
03003000
00000000
00000000
,
00001000
00010000
00001000
00000000
00010000
00000000
00000100
00000000
,
00001000
00000100
00001000
00000000
00000001
00000000
00000100
00000000
,
00000010
00001000
00000010
00000000
00010000
00000000
00001000
00000000
,
00100000
00010000
00100000
00000000
01000000
00000000
10000000
00000000
,
20010000
00000000
30010000
01000000
,
00002000
00000000
00013000
00000100
,
00002000
00000000
00003002
00000000
,
00000023
00000000
00000130
00010000
,
00012000
00000000
02003000
00000000
,
03020000
00000000
10030000
01000000
,
01200000
00000000
00302000
00000000
,
00013000
00000010
00001000
00000001
,
00000010
00000000
00000100
00000000
00001000
00000010
00001000
00000000
,
00000100
00000000
00010000
00000000
00001000
01000000
00001000
00000000
,
00100000
00000000
00010000
00000000
10000000
00100000
10000000
00000000
,
01000000
00000000
00100000
00000000
00001000
00010000
00001000
00000000
,
00000100
00000000
00000010
00001000
00000010
00000000
00000100
00000000
,
00000001
00000000
00001000
00000100
00001000
00000000
00000010
00000000
,
00020000
00000100
00001000
00030010
,
00010000
00000000
00000000
00001000
00000000
00000000
01000000
00000000
00000000
00001000
00000000
00000000
00200000
00000000
00000000
00000000
,
00320000
00000000
00000000
00000000
,
02030000
00000000
00000000
00000000
,
03002000
00000000
00000000
00000000
,
00023000
00000000
00000000
00000000
,
00030200
00000000
00000000
00000000
,
00002300
00000000
00000000
00000000
,
00003002
00000000
00000000
00000000
,
00000103
00000000
00000000
00000100
00000000
00000000
00000010
00000000
00000000
00000010
00000000
00000000
00010000
00000000
00000000
00000000
,
00002000
00000000
00003000
00200000
00000000
00300000
02000000
00000000
,
13000000
00010000
01000000
00010000
,
00200000
00000000
00300000
00002000
00000000
00003000
00020000
00000000
,
00030010
00001000
00000100
00001000
,
00000002
00000000
00000103
00001000
,
00010000
01000000
10000000
00010000
,
00100000
00000000
00001000
00000000
,
00010000
00000000
00000010
00000000
,
00001000
00000000
00000100
00000000
,
00010000
00000000
00001000
00000000
,
01000000
00010000
00100000
00001000
,
00010000
00000010
00001000
00000100
,
00010000
00001000
01000000
00010000
,
00100000
00001000
00010000
00000010
,
00001000
00001100
00010000
00011000
,
01000000
01000000
00010000
00010000
,
20000000
00000000
00000000
30000000
,
01000000
00000000
00100000
00010000
00100000
00010000
00100000
00000000
,
00011000
00000000
00000010
00000000
00001000
00000010
00001000
00000000
,
00000100
00000000
00010000
00000000
00001000
01000000
00001000
00000000
,
00010000
00100000
01000000
00100000
,
10000000
00010000
10000000
00000000
00010000
10000000
00010000
00000000
,
00110000
00000000
00100000
00000000
00001000
00010000
00001000
00000000
,
00010000
00000100
00010000
00000000
00001000
00000000
00000010
00000000
,
00000100
00010000
00001000
00010000
,
00100000
00000000
00000000
01000000
00000000
00000000
02200000
00000000
00000000
00000000
03300000
00000000
,
00100000
00000000
00000000
00000000
10000000
00000000
00100000
00000000
00000000
10000000
00000000
00000000
00100000
00000000
00000000
00000000
,
01000000
00010000
01000000
00000000
00001000
00010000
00001000
00000000
,
00010000
00000000
00000000
00000100
00000000
00000000
00010000
00000000
00000000
00000100
00000000
00000000
00010000
00000000
00000000
00000000
,
00000010
00001000
00002002
00003003
,
00002000
00003000
00000200
00000300
,
00010100
00000000
00101000
00000000
,
00010010
00000000
01001000
00000000
,
00101000
00001000
00010010
00010000
,
01001000
00001000
00010100
00010000
,
00022000
00000000
00000000
00000000
00000000
00000000
00000000
00000000
00000000
00000000
00000000
00000000
00000000
00033000
00000000
00000000
,
01001000
00000000
01000000
00010000
10000000
00010000
00100000
00010000
;

//--------------- dance-double - forcednature ----------------
#NOTEDATA:;
#STEPSTYPE:dance-double;
#DESCRIPTION:forcednature;
#DIFFICULTY:Medium;
#METER:15;
#RADARVALUES:0,0,0,0,0;
#CREDIT:forcednature;
#NOTES:
00000000
00000000
00000000
00000000
,
00000000
00000000
00000000
00000000
,
00000000
00000000
00000000
00000000
,
00000000
00000000
00000000
00000000
,
00000000
00000000
00000000
00000000
,
00000000
00000000
00000000
00001000
00010000
00000000
00000100
00001000
,
00000010
00000000
00010000
00001000
01000000
00000000
00100000
10000000
,
00010000
00000000
00100000
01000000
00100000
00001000
00010000
00000010
,
00000100
00000000
00000010
00000000
00001000
00000000
00001000
00000000
00000001
00000000
00000010
00000000
00000100
00000000
00000000
00000100
,
00010000
00000000
00000000
00010000
00001000
00000000
01000000
00000000
00000000
00000000
00200000
00000000
00000000
00000000
00000000
00000000
,
01300000
10000000
01000000
00010000
00100000
00001000
00010000
00001000
,
00000100
00000001
00000010
00000001
00000100
00001000
00001000
00010000
,
01000000
00100000
01100000
00000000
00010000
10000000
10010000
00000000
,
01000000
00000000
00001000
00000000
01001000
00000000
00000000
00000000
00010000
00000100
00000000
00000100
00002000
00000000
00000000
00000000
,
00003010
00000000
00000110
00000000
00000000
00000000
00010000
00000000
00000000
00001000
00000000
00000000
00100000
00000000
01000000
00000000
,
10000000
00000000
10100000
00000000
00000000
00100000
00000000
01000000
00000000
00010000
00000000
00000000
00100000
00000000
00001000
00000000
,
00010000
00000000
00010100
00000000
00000000
00000100
00000000
00001000
00000000
00000010
00000000
00000000
00000100
00000000
00000001
00000000
,
00000010
00000000
00000000
00000110
00000000
00000000
00000100
00000000
00000000
00000000
00000000
00000000
00010000
00000000
00001000
00000000
01000000
00000000
00010000
00000000
01000000
00000000
00100000
00000000
,
20000000
00000000
32000000
03020000
,
00032000
00003200
00000302
00000023
,
00000230
00020300
00032000
02003000
,
03020000
00000000
00000000
00000000
00000000
00000000
00000000
00000000
00230000
00000000
00000000
00000000
00000000
00300000
00000000
00000000
,
20020000
00000000
00000000
00000000
00000000
30030000
00000000
00000000
02200000
00000000
00000000
00000000
00000000
03300000
00000000
00000000
,
10000000
01000000
00010000
00001000
00010000
00100000
01000000
00010000
,
10000000
01000000
00010000
00001000
00010000
00100000
01000000
00001000
,
00100000
00010000
00001000
00000100
00001000
00000010
00010000
00001000
,
00100000
00000000
00010000
00000000
00001000
00000100
00001000
00000000
00000100
00000010
00000100
00000000
00000010
00000001
00000010
00000000
,
00000002
00000000
00000000
00000000
00000000
00000003
00000100
00000001
00000100
00000000
00000010
00000000
00001000
00000000
00000010
00000000
,
00020000
00000000
00000000
00000000
00000000
00030000
00001000
00100000
00001000
00000000
01000000
00000000
00010000
00000000
01000000
00000000
,
00200000
00000000
00000000
00000000
00000000
00300000
10000000
01000000
20000000
00000000
00000000
00000000
00000000
30000000
00010000
01000000
,
00020000
00000000
00000000
00000000
00000000
00030000
00100000
01000000
00100000
00000000
00001000
00000000
00010000
00000000
00000010
00000000
,
00002000
00000000
00000000
00000000
00000000
00003000
00000100
00000010
00000200
00000000
00000000
00000000
00000000
00000300
00010000
00001000
,
00020000
00000000
00000000
00000000
00000000
00030000
00001000
01000000
00001000
00000000
00010000
00000000
00100000
00000000
00010000
00000000
,
00200000
00000000
00000000
00000000
00000000
00300000
10000000
00010000
20000000
00000000
00000000
00000000
00000000
30000000
01000000
00100000
,
01000000
00000000
00010000
00000000
00000000
00001000
00000000
00000000
00000200
00000000
00000000
00000000
00000302
00000000
00000000
00000000
,
00000013
00000100
00000000
00000010
00000100
00000000
00001000
00000100
00000000
00001000
00000100
00000000
00010000
00000000
00000000
00000000
,
00001000
01000000
00000000
00001000
01000000
00000000
00010000
01000000
00000000
00010000
01000000
00000000
00100000
00000000
00000000
00000000
,
10000000
01000000
00000000
10000000
01000000
00000000
00100000
00010000
00000000
00100000
00010000
00000000
01000000
00000000
00000000
00000000
,
00001000
00010000
00000000
00000100
00001000
00000000
00000001
00000100
00000000
00000010
00001000
00000000
00000100
00000000
00000000
00000000
,
00010000
00000000
00001000
00010000
00001000
00000000
01000000
00000000
00000000
00010000
00000000
00000000
10000000
00000000
01000000
00000000
,
00100000
00000000
00010000
00100000
00010000
00000000
01000000
00000000
00000000
00001000
00000000
00000000
00010000
00000000
00000100
00000000
,
00001000
00000010
00000001
00000010
00000100
00000100
00000001
00000001
,
00000010
00000100
00000000
00001000
00000100
00000000
00010000
00001000
00000000
01000000
00010000
00000000
00100000
00000000
01000000
00000000
,
20000000
00000000
00000000
30020000
00000000
00000000
02030000
00000000
,
03002000
00000000
00000000
00023000
00000000
00000000
00000000
00000000
,
00030200
00000000
00000000
00002300
00000000
00000000
00003002
00000000
,
00000203
00000000
00000000
00000320
00000000
00000000
00002030
00000000
,
00003200
00000000
00000000
00000000
,
00020300
00000000
00000000
00032000
00000000
00000000
02003000
00000000
,
03020000
00000000
00000000
20030000
00000000
00000000
31000000
00000000
,
01100000
00000000
00000000
00101000
00000000
00000000
00011000
00000000
00000000
00010010
00000000
00000000
00000010
00000000
00001000
00000000
,
00000001
00000100
00000001
00000000
00000000
00000000
00001000
00000100
00001000
00000000
00000000
00000000
00000010
00000000
00010000
00000000
,
00001000
00100000
00001000
00000000
00100000
00010000
00100000
00000000
01000000
00100000
01000000
00000000
10000000
01000000
10000000
00000000
,
00010000
10000000
00010000
00000000
00000000
00000000
01001000
00000000
00000000
00000000
00000000
00000000
00010100
00000000
00000000
00000000
,
00000100
00001000
00000100
00000000
00000010
00000100
00000010
00000000
00000001
00000010
00000001
00000000
00001000
00000001
00001000
00000000
,
00000010
00000000
00000000
00000000
00000000
00000000
00010000
00001000
01000000
00000000
00000000
00000000
00000000
00000000
00000000
00000000
,
00010000
00100000
01000000
10000000
01000000
00000000
00100000
00001000
00010000
00000010
00001000
00000000
,
00000100
00000100
00000000
00000000
00010000
00010000
00000000
00000000
,
00001000
00001000
00000000
00000000
01000000
01000000
00000000
00000000
,
00010000
00010000
00000000
00000000
00100000
00100000
00000000
00000000
,
00001000
00001000
00000000
00000000
00010000
00010000
00000000
00000000
,
00000010
00000000
00000000
00000010
00001000
00000000
00000000
00001000
00000100
00000000
00000000
00000100
00010000
00000000
00000000
00010000
,
00001000
00000000
00000000
00001000
01000000
00000000
00000000
01000000
00010000
00000000
00000000
00010000
00100000
00000000
00000000
00100000
,
00001000
00000000
00001000
00000000
00010000
00000000
00000000
00010000
00000010
00000000
00000010
00000000
00001000
00000000
00000000
00001000
,
00000100
00000000
00000100
00000000
00010000
00000000
00000000
00010000
00001000
00000000
00001000
00000000
01000000
00000000
00000000
01000000
,
00010000
00100000
01000000
00100000
00001000
00010000
01000000
00010000
,
00001000
00010000
00000010
00001000
00010000
01000000
00010000
00100000
,
02200000
00000000
00000000
03300000
,
01000000
10000000
00000000
01000000
00000000
00010000
00000000
00001000
00000000
00000100
00000000
00000001
00001000
00000000
00000010
00000000
,
00000110
00000000
00000100
00000001
00000010
00000001
00000100
00001000
,
00010000
00000000
00001000
01000000
00001000
00000000
00010000
00000000
00100000
00000000
01000000
00000000
00100000
00000000
10000000
00000000
,
10000000
01000000
00100000
00010000
00001000
00000100
00000010
00000001
,
00000100
00000001
00000000
00001000
00000000
00000001
00000010
00000000
00000100
00010000
00000000
00001000
00100000
00000000
00010000
00000000
,
10010000
00000000
10000000
00100000
01000000
00100000
00010000
00001000
,
00100000
00000000
00010000
01000000
00010000
00000000
00100000
00000000
00001000
00000000
00010000
00000000
00100000
00000000
00010000
00000000
,
00001000
00000010
00000110
00000000
00000100
00010000
00011000
00000000
,
00001000
00000000
00000000
01000000
00000000
00000000
00000000
00000000
00000000
00010000
00000000
00000000
00000000
00000000
00000000
00100000
00000000
00000000
01000000
00000000
00000000
00000000
00000000
00000000
10000000
00000000
00000000
00000000
00010000
00000000
00000000
00000000
10000000
00000000
00000000
00000000
00010000
00000000
00000000
00000000
10000000
00000000
00000000
00000000
00000000
00000000
00000000
00000000
,
00100000
00000000
00100000
01000000
00000000
00000000
00010000
01000000
00000000
00001000
00010000
00000000
00000100
00000000
00001000
00000000
,
00000001
00000100
00000001
00000000
00000100
00000010
00000100
00000000
00000010
00010000
00000010
00000000
00010000
00001000
00010000
00000000
,
00001000
00100000
00000000
00010000
00100000
00000000
01000000
10000000
00000000
00010000
10000000
00000000
00100000
00000000
01000000
00000000
,
00100000
00000000
00010000
00000000
00001000
00000000
00010000
00000000
00000100
00001000
00000100
00001000
00000100
00000000
00000000
00000000
,
00020000
00000000
00000000
00030000
00002000
00000000
00000000
00003000
,
01000000
00001000
00000000
00010000
00000000
00010010
00000000
00000000
00000100
00010000
00000000
00001000
00000000
00101000
00000000
00000000
,
00100000
00001000
00000000
00010000
00000000
00010100
00000000
00000000
00000010
00010000
00000000
00001000
00000000
01001000
00000000
00000000
,
01000000
00001000
00000000
00010000
00000000
00000010
00001000
00000000
00000100
00010000
00000000
00001000
00000000
00100000
00010000
00000000
,
01000000
00001000
00000000
00010000
00000000
00000010
00001000
00000000
00000100
00010000
00000000
00001000
00000000
00100000
00010000
00000000
,
02000000
00000000
00000000
00000000
00000000
00000000
00000000
00000000
00000000
00000000
00000000
00000000
00000000
03000000
00000000
00000000
,
00100000
10000000
00000000
01000000
00000000
00010000
00000000
00001000
00000000
00000100
00000000
00000001
00000010
00000000
00000110
00000000
;

//--------------- dance-double - forcednature ----------------
#NOTEDATA:;
#STEPSTYPE:dance-double;
#DESCRIPTION:forcednature;
#DIFFICULTY:Hard;
#METER:17;
#RADARVALUES:0,0,0,0,0;
#CREDIT:forcednature;
#NOTES:
00000000
00000000
00000000
00000000
,
00000000
00000000
00000000
00000000
,
00000000
00000000
00000000
00000000
,
00000000
00000000
00000000
00000000
,
00000000
00000000
00000000
00000000
,
00000000
00000000
00000000
00010000
00011000
00000000
00001000
00100000
,
00001000
00000000
00010000
00100000
10000000
00000000
01000000
00100000
,
01000000
00000000
00010000
00001000
00000010
00000100
00010000
00001000
,
00000100
00000000
00000010
00000000
00001000
00000100
00001000
00000100
00000010
00000001
00000010
00000001
00000100
00000000
00000000
00000100
,
00001000
00000000
00000000
00001000
00010000
00001000
02000000
00000000
03000000
00000000
00010000
00100000
01000000
00100000
01000000
10000000
,
00010000
00000000
01000000
00001000
00010000
00000000
00000100
00000000
00001000
00000000
00000100
00000010
00000001
00000000
00001000
00000000
,
00000001
00000000
00000100
00000010
00001000
00000000
00000010
00000000
00010000
00000000
00001000
00100000
00010000
00100000
01000000
00000000
,
10000000
00000000
00010000
01000000
00001000
00000000
00010000
00000000
00001000
00000000
00100000
00010000
10000000
00000000
00100000
00000000
,
01000000
00000000
00010000
01000000
00001000
00000000
00010000
00000000
00000100
00001000
00000000
00001000
00000010
00000100
00000001
00000000
,
00000010
00000000
00000010
00000000
00000100
00000000
00010000
00001000
00000000
00010000
00100000
00000000
10000000
00000000
00010000
00000000
,
01000000
00000000
01000000
00000000
00001000
00010000
00000000
00001000
00000000
00000010
00000100
00000000
00001000
00000000
00000001
00000000
,
00000100
00000000
00000100
00000000
00000010
00010000
00000000
00001000
00000000
00010000
00000000
00100000
01000000
00000000
00010000
00000000
,
10000000
00000000
00000000
00000000
00000000
00000000
10000000
00000000
00000000
00000000
00000000
00000000
01000000
00000000
00000000
00100000
00000000
00000000
00010000
00000000
00000000
00000000
00000000
00000000
01000000
00000000
00000000
00000000
00001000
00000000
00000000
00000000
00010000
00000000
00000000
00000000
00000100
00000000
00000000
00000000
00010000
00000000
00000000
00000000
00001000
00000000
00000000
00000000
,
00000020
00000000
00000230
00020300
,
00032000
00203000
00320000
02030000
,
03200000
20300000
32000000
03020000
,
00032000
00000000
00000000
00000000
00000000
00000000
00000000
00000000
00003200
00000000
00000000
00000000
00000000
00000300
00000000
00000000
,
00002002
00000000
00000000
00000000
00003003
00000000
00000000
00000000
00001000
00000100
00010000
00001000
00100000
00010000
10000000
00000000
,
00100000
00000000
01000000
00010000
10000000
00000000
01000000
00000000
00100000
00000000
00001000
00010000
00000100
00000000
00000010
00000000
,
00000001
00000000
00001000
00000010
00010000
00000000
00000100
00000000
00010000
00000000
00001000
01000000
00010000
00000000
10000000
00000000
,
00010000
00000000
00100000
01000000
10000000
01000000
00000000
01000000
00100000
00000000
00001000
00010000
00000010
00001000
00000000
00001000
,
00000100
00000000
00000010
00000001
00001000
00000010
00001000
00000000
00000100
00010000
00001000
01000000
00010000
10000000
00010000
00000000
,
00210000
00000000
00000000
00000000
00000000
00000000
01300000
10000000
00010000
00000000
01000000
00000000
00001000
00000000
00010000
00000000
,
00010200
00000000
00000000
00000000
00000000
00000000
00000310
00000001
00001000
00000000
00000010
00000000
00010000
00000000
00001000
00000000
,
02001000
00000000
00000000
00000000
00000000
00000000
03010000
10000000
00200000
00000000
00000000
00000000
00000000
00000000
01300000
00001000
,
00020000
00000000
00000000
00000000
00000000
00000000
00030100
00001000
00000010
00000000
00000001
00000000
00000010
00000000
00001000
00000000
,
00001200
00000000
00000000
00000000
00000000
00000000
00000310
00000001
00002000
00000000
00000000
00000000
00000000
00000000
00003010
00010000
,
00002000
00000000
00000000
00000000
00000000
00000000
00103000
00010000
01000000
00000000
00100000
00000000
00010000
00000000
00100000
00000000
,
20100000
00000000
00000000
00000000
00000000
00000000
31000000
00100000
00002000
00000000
00000000
00000000
00000000
00000000
00013000
00000010
,
00001000
00000000
00000100
00000010
00000001
00000010
00000001
00000000
00001000
00000100
00010000
00001000
01000000
00010000
01000000
00000000
,
00100000
10000000
00000000
10000000
01000000
00000000
01000000
00010000
00000000
00010000
00001000
00000000
00100000
00010000
00100000
00000000
,
00001000
00010000
00000000
00010000
00000010
00000000
00000010
00000100
00000000
00000100
00001000
00000000
00010000
00000100
00001000
00000000
,
00000010
00000001
00000000
00000010
00001000
00000000
00000100
00000010
00000000
00000100
00001000
00000100
00010000
00001000
00010000
00000000
,
00001000
01000000
00000000
01000000
00010000
00000000
00010000
00100000
00000000
00100000
01000000
00000000
10000000
00010000
01000000
00000000
,
00100000
00000000
01000000
00010000
01000000
00010000
00100000
00000000
00001000
00010000
00000000
00010000
00000010
00000000
00001000
00000000
,
00000100
00000000
00000010
00000001
00000010
00000001
00000100
00000000
00000010
00010000
00000000
00010000
00001000
00000000
00100000
00000000
,
01000000
00000000
10000000
00100000
10000000
00010000
01000000
00001000
00010000
00000010
00001000
00000010
00000100
00000000
00000001
00000000
,
00000010
00000100
00000000
00010000
00001000
00000000
00100000
01000000
00000000
10000000
00010000
00000000
01000000
00100000
01000000
00100000
,
20000000
00000000
00000000
01000000
00000000
00000000
00100000
00000000
,
32000000
00000000
00000000
00010000
00000000
00000000
00000000
00000000
,
03200000
00000000
00000000
01000000
00000000
00000000
00010000
00000000
,
00302000
00000000
00000000
00000100
00000000
00000000
00010000
00000000
,
00003020
00000001
00000100
00001000
,
00000230
00000000
00000000
00020300
00000000
00000000
00032000
00000000
,
02003000
00000000
00000000
03020000
00000000
00000000
00230000
00000000
,
01300000
10000000
00000000
00010000
01000000
00000000
00001000
00010000
00000000
00000100
00001000
00000000
00000010
00000000
00000100
00000000
,
00000001
00000010
00000002
00000000
00000000
00000003
00001000
00000100
00002000
00000000
00000000
00003000
00000010
00000000
00010000
00000000
,
00001000
01000000
00001000
00000000
00001000
00100000
00001000
00000000
00010000
00001000
01000000
00000000
00010000
10000000
00100000
00000000
,
10000000
01000000
00200000
00000000
00300000
00000000
00002000
00000000
00000000
00000000
00000100
00000000
00023000
00000000
00030000
00000000
,
00000100
00001000
00000100
00000000
00000010
00000100
00000010
00000000
00000001
00001000
00000010
00000000
00001000
00000100
00010000
00000000
,
00001000
02000000
00010000
00000000
00000000
00000000
00100000
00000000
00100000
00000000
10000000
00000000
03100000
00000000
00000000
00000000
,
01000000
10000000
01000000
00010000
00100000
00010000
00001000
00000100
00000010
00001000
00000010
00000001
,
00000100
00001000
00000000
00000000
00010000
01000000
00000000
00000000
,
00100000
00000000
00010000
00100000
00000000
00000000
00000000
00000000
00001000
00010000
00001000
00010000
00000000
00000000
00000000
00000000
,
00000010
00001000
00000010
00000000
00000000
00000000
00000000
00000000
00100000
00000000
00110000
00000000
00000000
00000000
00000000
00000000
,
00000100
00001000
00000100
00010000
00000000
00000000
00000000
00000000
00001000
01000000
00000000
01000000
00000000
01000000
00000000
00000000
,
00010000
00100000
00000000
00001000
00010000
00000010
00000000
00001000
00000100
00010000
00000000
00001000
01000000
00010000
00000000
00100000
,
00001000
00010000
00000000
00000010
00001000
00000100
00000000
00010000
00001000
01000000
00000000
00010000
00100000
00001000
00000000
00010000
,
00000010
00001000
00000000
00001000
00000100
00010000
00000000
00001000
01000000
00010000
00000000
00010000
00100000
00001000
00000000
00010000
,
00000010
00001000
00000000
00001000
00000100
00010000
00000000
00001000
01000000
00010000
00000000
00010000
00100000
00001000
00000000
00010000
,
00000010
00000000
00001000
00000100
00010000
00000000
00001000
01000000
00010000
00000000
00100000
00001000
00010000
00000000
00000010
00001000
,
00000001
00000010
00000100
00001000
00000100
00010000
00001000
00100000
00010000
00100000
01000000
10000000
00010000
10000000
00100000
01000000
,
00020000
00000000
00000000
00030000
,
00100000
01000000
00000000
01010000
00000000
00011000
00000000
00001010
00000000
00000110
00000000
00000100
00001000
00000000
00000001
00000000
,
00001000
00000010
00000100
00000010
00001000
00000010
00010000
00001000
00100000
00000000
01000000
10000000
01000000
00000000
00100000
00010000
,
10000000
00010000
01000000
00001000
00100000
00001000
00010000
00000000
00000010
00000000
00001000
00000100
00000001
00000000
00000100
00001000
,
00000010
00010000
00100000
00010000
00000100
00001000
01000000
00001000
,
00000100
00010000
00000000
00011000
00000000
00001000
01000000
00000000
00100000
00010000
00000000
00100000
10000000
00000000
01000000
00000000
,
00100000
00010000
00100000
00001000
00010000
00000010
00001000
00000010
00000100
00000000
00001000
00000100
00001000
00000000
00010000
00001000
,
00010000
00000010
00001000
00000010
00000100
00000001
00001000
00000000
00000010
00000000
00000100
00001000
00010000
00000000
00100000
10000000
,
00010000
00100000
00001000
00000010
00000100
00010000
01000000
00001000
,
00000100
00000000
00000000
00010000
00000000
00000000
00000000
00000000
00000000
00011000
00000000
00000000
00000000
00000000
00000000
00001000
00000000
00000000
01000000
00000000
00000000
00000000
00000000
00000000
00100000
00000000
00000000
00000000
00010000
00000000
00000000
00000000
00100000
00000000
00000000
00000000
10000000
00000000
00000000
00000000
00100000
00000000
00000000
00000000
00000000
00000000
00000000
00000000
,
01000000
00010000
00100000
00010000
10000000
00000000
01000000
00010000
00000000
00001000
00010000
00000000
00000100
00000000
00001000
00000000
,
00000010
00000100
00001000
00000000
00001000
00000100
00000001
00000000
00000010
00000100
00001000
00000100
00010000
00001000
01000000
00000000
,
00010000
00100000
00010000
01000000
00100000
00000000
10000000
01000000
00000000
00010000
01000000
00100000
00010000
00100000
00001000
00000000
,
00010000
00000010
00001000
00000000
00000100
00010000
00001000
00000000
01000000
00010000
00100000
00010000
01000000
00010000
10000000
01000000
,
00200000
00000000
00000000
00300000
00002000
00000000
00000000
00003000
,
00010000
00000010
00000000
00000100
00000000
00001000
00010000
00000000
00001000
00100000
00000000
01000000
00000000
00010000
00001000
00000000
,
00010000
00000100
00000000
00000010
00000000
00001000
00010000
00000000
00001000
01000000
00000000
00100000
00000000
00010000
00001000
00000000
,
00010000
00000100
00000000
00000110
00000000
00000010
00000100
00010000
00001000
01000000
00000000
01100000
00000000
00100000
01000000
00001000
,
00010000
00000010
00000000
00000110
00000000
00000100
00000010
00010000
00001000
00100000
00000000
01100000
00000000
01000000
00100000
00001000
,
00020000
00000000
00000000
00000000
00000000
00000000
00000000
00000000
00000000
00000000
00000000
00000000
00000000
00030000
00000000
00000000
,
00000010
00001000
00000000
00001100
00000000
00000110
00000000
00001010
00000000
00011000
00000000
00010000
00100000
00000000
01100000
00000000
;
