#VERSION:0.83;
#TITLE:Archangelio;
#SUBTITLE:;
#ARTIST:Juggernaut.;
#TITLETRANSLIT:;
#SUBTITLETRANSLIT:;
#ARTISTTRANSLIT:;
#GENRE:;
#CREDIT:;
#MUSIC:Archangelio.ogg;
#BANNER:Archangelio.png;
#BACKGROUND:Archangelio-bg.png;
#CDTITLE:./CDTitles/SDVX EXCEED GEAR.png;
#SAMPLESTART:77.183;
#SAMPLELENGTH:15.000;
#SELECTABLE:YES;
#OFFSET:0.801;
#BPMS:0.000=150.000
,82.375=149.500
,83.000=150.000
;
#STOPS:82.375=0.400;
#TIMESIGNATURES:0.000=4=4,
80.000=3=4,
83.000=4=4
;
#DISPLAYBPM:150.000;
#BGCHANGES:0.000=../BGAs/28bk.mp4=1.000=0=0=0=StretchNoLoop====,
99999.000=-nosongbg-=1.000=0=0=0=StretchNoLoop====
;
#FGCHANGES:;

//--------------- dance-single - forcednature ----------------
#NOTEDATA:;
#STEPSTYPE:dance-single;
#DESCRIPTION:forcednature;
#DIFFICULTY:Beginner;
#METER:3;
#RADARVALUES:0,0,0,0,0;
#CREDIT:forcednature;
#NOTES:
0000
0000
0000
0000
,
0000
0000
0000
0000
,
0000
0000
0000
0000
,
0000
0000
0000
0000
,
0000
0000
0010
0000
,
1000
0000
1001
0000
,
0000
0000
0001
0000
,
0010
0000
1001
0000
,
0000
0000
0100
0000
,
0010
0000
0000
0000
,
1000
0000
0000
0000
,
0001
0000
0000
0000
,
0010
0000
0000
0000
,
0100
0000
0000
0000
,
1000
0000
0000
0000
,
0001
0000
0000
0000
,
0100
0000
0000
0000
,
0010
0000
0010
0000
,
1000
0000
1000
0000
,
0100
0000
0010
0000
,
0000
0000
0000
0001
,
0000
0100
0000
0000
,
0000
0010
0000
1000
,
0000
0001
0000
0000
,
0000
0010
0000
0100
,
0000
1000
0000
0010
,
0000
1000
0000
0001
,
0000
0010
0000
0100
,
0000
1000
0000
0001
,
0000
0100
0000
0000
,
0000
0110
0000
0000
,
0000
1001
0000
0000
,
0000
1000
0000
0100
,
0000
0010
0000
0001
,
0000
0010
0000
0100
,
0000
1000
0000
0001
,
0000
0000
0000
0100
,
0000
0000
0000
0010
,
0000
0000
0000
1000
,
0000
0000
0000
0001
,
0000
0000
0000
0010
,
0000
0000
0000
0000
,
0000
0000
0000
0100
,
0000
0000
0000
1000
,
0000
0000
0000
0001
,
0000
0100
0000
0001
,
0000
0010
0000
0100
,
0000
1000
0000
0010
,
0000
0000
0000
0100
,
0000
0001
0000
0100
,
0000
0001
0000
1000
,
0000
0010
0000
1000
,
0000
0000
0000
0100
,
0000
1000
0000
0100
,
0000
1000
0000
0001
,
0000
0010
0000
0001
,
0000
0100
0000
0000
,
0010
0000
0010
0000
,
1000
0000
1000
0000
,
0001
0000
0001
0000
,
0010
0000
0010
0000
,
0100
0000
0100
0000
,
1000
0000
1000
0000
,
0001
0000
0001
0000
,
0100
0000
0000
0110
,
0000
1000
0000
0000
,
0000
0001
0000
0010
,
0000
0001
0000
0000
,
0000
1000
0000
0000
,
0010
0000
0010
0000
,
0100
0000
0100
0000
,
0001
0000
0001
1000
,
0000
0100
0000
1001
;

//--------------- dance-single - forcednature ----------------
#NOTEDATA:;
#STEPSTYPE:dance-single;
#DESCRIPTION:forcednature;
#DIFFICULTY:Easy;
#METER:8;
#RADARVALUES:0,0,0,0,0;
#CREDIT:forcednature;
#NOTES:
0000
0000
0000
0000
,
0000
0000
0000
0000
,
0000
0000
0000
0000
,
0000
0000
0000
0000
,
0000
0000
0000
0000
0100
0100
0100
0000
,
1001
1000
0002
0003
,
0100
0001
0010
0100
,
1100
1000
0002
0003
,
0100
0010
0200
0300
,
2001
0000
0000
0000
,
3200
0000
0000
0000
,
0320
0000
0000
0000
,
0032
0000
0000
0000
,
0203
0000
0320
0000
,
2030
0000
3020
0000
,
0230
0000
0302
0000
,
0013
0010
0010
0000
,
0001
1000
0000
0000
0001
1000
0000
0000
,
1000
0001
0000
0000
1000
0001
0000
0000
,
0100
0000
0100
0000
0001
1000
0001
1000
,
0000
0000
0000
0110
,
1000
2200
3300
0001
,
0001
0000
0100
0010
0100
0000
0001
0000
,
1000
2020
3030
0100
,
0100
0110
0001
1001
,
0100
0000
0011
0000
1000
1000
1000
0000
,
0001
0001
0001
0000
0010
0000
0110
0000
,
0001
0000
1100
0000
0001
0000
0010
0100
,
0010
0100
1001
0110
,
1000
0000
0101
0000
0001
0001
0001
0000
,
1000
1100
0001
1000
,
0001
0000
0110
0000
1000
0000
0010
0010
,
0010
0000
0000
0000
0100
0000
0000
0100
0000
0000
0100
0000
0002
0000
0000
0000
,
0003
1002
1000
0100
,
0100
0010
0103
1001
,
0001
0100
0010
1001
,
2000
3200
0320
0032
,
0000
0000
0000
0203
,
0000
0000
0000
0320
,
0000
0000
0000
2030
,
0000
0000
0000
3001
,
0000
0001
0000
0001
,
0000
0001
0000
0200
,
0000
0302
0000
1003
,
0100
0000
1000
0000
0010
0000
0100
0001
,
0000
0000
0100
0001
0000
0000
1000
0100
,
0000
0000
1000
0100
0000
0000
0010
0010
,
0010
0000
0100
0100
0100
0000
2000
0000
,
0000
0000
3001
0100
,
0010
0000
1000
0000
0001
0010
0001
0000
,
0100
0010
1000
0100
,
0010
0000
0001
0000
1000
0010
1000
0000
,
0100
0000
0000
0010
0000
0010
0001
0000
0000
1001
0000
0000
,
1000
0010
0100
0001
,
0010
0000
0100
1000
0100
0000
0010
0000
,
0001
1000
0010
0100
,
0001
0000
0010
0100
0010
0000
1001
0000
,
1000
0000
0010
0100
0010
0000
1000
0000
,
0001
0000
0010
0100
0010
0000
0001
0000
,
1000
0000
0100
0010
0100
0000
1000
0000
,
0001
0000
0100
0010
0100
0000
1001
0000
,
1000
0000
0100
0001
0100
0000
1000
0000
,
0001
0000
0100
1000
0100
0000
0010
0000
,
1000
0000
0001
0010
0001
0000
0100
0000
,
0001
0001
1000
0000
0010
0000
1001
0000
,
0100
0000
0011
0000
1000
0000
0010
0100
,
0010
1001
0001
1000
,
0010
0000
0110
0000
0100
0000
0001
0010
,
0001
0000
0000
0000
0100
0000
0000
0100
0000
0000
0100
0000
0010
0000
0000
0000
,
2000
0000
3000
0001
0001
0000
0000
1000
,
1000
0000
0000
0010
0000
0000
0010
0000
0100
0000
0000
0000
0010
0000
0000
0000
,
1010
0000
0100
0001
0010
0000
0220
0000
,
0000
0330
0000
1000
1000
0001
0200
0000
,
0300
0000
0000
0000
;

//--------------- dance-single - forcednature ----------------
#NOTEDATA:;
#STEPSTYPE:dance-single;
#DESCRIPTION:forcednature;
#DIFFICULTY:Medium;
#METER:12;
#RADARVALUES:0,0,0,0,0;
#CREDIT:forcednature;
#NOTES:
0000
0000
0000
0000
,
0000
0000
0000
0000
,
0000
0000
0000
0000
,
0000
0000
0000
0000
,
0000
0000
0000
0000
0000
0000
0000
0000
0100
0010
0100
0010
0100
0000
0000
0000
,
1001
0000
0000
1000
0000
0000
0100
0000
0220
0000
0000
0000
0330
0000
0010
0000
,
0000
0000
0001
0000
0000
1000
0000
0000
0001
0000
0100
0000
0010
0000
0000
0000
,
1001
0000
0000
0001
0000
0000
0100
0000
0220
0000
0000
0000
0330
0000
0010
0000
,
0000
0000
1000
0000
0000
0100
0000
0000
0020
0000
0000
0000
0130
0000
1000
0000
,
0002
0000
0203
0000
,
0320
0000
2030
3002
,
2003
0000
3200
0000
,
0320
0000
0032
2003
,
3020
0000
0230
0000
,
0302
0000
2003
3200
,
2300
0000
3020
0000
,
0230
0302
2003
3002
,
0013
0110
0000
0000
0100
0110
0000
0000
,
1000
1001
0000
0000
0001
1001
0000
0000
,
1000
0010
1000
0100
0010
0001
0100
0001
,
0020
0000
0000
0000
0000
0000
0000
0000
0000
0000
0000
0000
0000
0000
0000
0000
0000
0000
0000
0000
0000
0000
0000
0000
0000
0000
0000
0000
0000
0000
0000
0000
0000
0000
0000
0000
0000
0000
0000
0030
0000
0000
0000
0000
0000
0000
0000
0000
2002
0000
0000
0000
0000
0000
0000
0000
0000
0000
0000
0000
0000
0000
0000
0000
,
0000
0000
3003
0000
1000
0000
0100
1000
0000
0100
0010
0000
0000
0000
0001
0000
,
0000
0100
0000
0000
0010
0000
1000
0001
0000
1000
0001
0000
0101
0000
0000
0000
,
0010
0000
0000
0000
1001
0000
0000
0100
0000
0000
1001
0000
0000
0010
0000
0000
,
1000
0001
0100
1000
0200
0000
0020
0000
,
0330
0000
1001
0000
1000
0100
0001
0100
,
1000
0010
0001
0000
0010
0100
0001
0000
,
0010
0000
0100
0000
1000
0000
0001
0100
0000
0000
0010
0000
1000
0000
0100
0000
,
0011
1010
0110
1001
,
0010
0000
0000
0000
1001
0000
0000
0000
1000
0000
0100
0000
0010
0000
0000
0001
,
0000
0000
0100
0000
0110
0000
0000
0000
0010
0000
1000
0000
0001
0000
0000
1000
,
0000
0000
0001
0000
1001
0000
0000
0000
1000
0000
0100
0000
0010
0000
0000
0100
,
0000
0000
1000
0000
1001
0000
0001
0100
0000
0001
0100
0000
0010
0000
0000
0000
,
1000
0000
1001
0000
0001
0010
1000
0010
,
0001
0100
1000
0000
0100
0010
2000
0000
,
3100
0000
0010
0000
0001
0000
0000
0100
0000
0000
0010
0000
0110
0000
0000
0000
,
1000
0000
0100
0000
0010
0001
0020
0000
,
0000
0230
0000
2300
,
0000
3002
0203
0320
,
0000
2030
0000
3002
,
0000
0023
0230
1300
,
0000
1000
0000
1000
,
0000
1000
0000
2002
,
3003
0220
0330
2000
,
3200
0000
0320
0000
0032
0000
0103
0101
,
0000
0000
0100
1100
0000
0000
0010
0011
,
0000
0000
0010
1010
0000
0000
0001
0010
,
0001
0000
0100
0000
0010
0000
1000
0000
0100
0000
1000
0000
0010
0000
0000
0100
,
0000
0001
1000
0000
0100
0010
0100
1000
,
0010
0100
0010
0000
1000
0001
0010
0100
,
0010
0001
0100
0010
1000
0000
0001
0010
,
0100
0010
0001
0000
0100
0010
1000
0001
,
1000
0000
0000
0100
0000
0000
0010
0000
0001
0000
0010
0000
0001
0000
0000
0100
0000
0000
0010
0000
0000
1000
0000
0000
,
0001
1000
0100
0000
0010
0100
1000
0010
,
0100
0001
0010
0001
0100
0000
0010
1000
,
0001
0000
0000
1000
0000
0000
0100
0000
0000
0010
0000
0000
0100
0000
0000
1000
0000
0000
0010
0000
0100
0000
0001
0000
,
0100
0010
1000
0100
0001
0100
0000
0010
,
0001
0000
1000
0000
0001
0000
0100
0001
0000
0100
0000
0010
0000
0000
1000
0000
,
0001
0000
1000
0000
0100
0000
0010
0100
0000
1000
0000
0001
0000
0000
1000
0000
,
0010
0000
0100
0000
0001
0000
0010
0001
0000
0100
0000
0010
0000
0000
1000
0000
,
0100
0000
1000
0000
0001
0000
0100
0001
0000
1000
0000
0010
0000
0000
1000
0000
,
0100
0000
0010
0000
0001
0000
0010
0100
0000
1000
0000
0001
0000
0000
1000
0000
,
0010
0000
0100
0000
0001
0000
0010
0001
0000
0100
0000
0010
0000
0000
1000
0000
,
0100
0000
1000
0000
0001
0000
0100
0010
0000
1000
0000
0001
0000
0000
1000
0000
,
0100
0000
0010
0000
0001
0000
0100
0010
0000
1000
0000
0001
0010
0000
0000
0000
,
0110
0000
0000
0000
1001
0000
0000
0000
1000
0000
0010
0000
0100
0001
0000
1000
,
0000
0100
0110
0000
1000
0001
0100
0000
,
0010
0000
0000
0000
1001
0000
0000
0000
1000
0000
0010
0000
0100
0001
0000
0010
,
0000
0000
0100
0000
0010
0000
0001
1000
0000
0001
1000
0000
1010
0000
0000
0000
,
0101
0000
1000
0100
0001
0100
1000
0010
,
0001
0010
0100
0001
0010
0100
1100
0000
,
0010
0000
0100
0000
0001
0000
0000
0001
0000
0000
1000
0000
0220
0000
0000
0000
,
0000
0330
1000
0001
0100
1000
0220
0000
,
0330
0000
0000
0000
;

//--------------- dance-single - forcednature ----------------
#NOTEDATA:;
#STEPSTYPE:dance-single;
#DESCRIPTION:forcednature;
#DIFFICULTY:Hard;
#METER:15;
#RADARVALUES:0,0,0,0,0;
#CREDIT:forcednature;
#NOTES:
0000
0000
0000
0000
,
0000
0000
0000
0000
,
0000
0000
0000
0000
,
0000
0000
0000
0000
,
0000
0000
0000
0000
0000
0000
0000
0000
1000
0010
0100
0001
1000
0100
0010
0001
,
0100
0000
0100
0001
0000
1000
0010
0000
2002
0000
0000
0000
3003
0000
0001
0010
,
0000
0000
0100
1000
0000
1000
0010
0000
0110
0000
0100
0000
0001
0000
0000
0000
,
1000
0000
0001
0010
0000
0100
1000
0000
2002
0000
0000
0000
3003
0000
0001
0100
,
0000
0000
0010
1000
0000
0001
0010
0001
0200
0000
0000
0000
0310
0000
1000
0000
,
0200
0000
0000
0000
,
0320
0000
0000
0000
,
0032
0000
0000
0000
,
2003
0000
0000
0000
,
3020
0001
0230
1000
,
0302
0010
2003
0100
,
3002
0203
0320
2030
,
3200
0000
0000
0310
0000
0000
0100
1000
0001
0100
0000
0000
,
0101
0101
0000
0000
1100
1100
0000
0000
,
0011
0011
0000
0000
1010
1010
0000
0000
,
1000
0100
1000
0000
0001
0100
0001
0000
1000
0010
1000
0000
0001
0010
0001
0000
,
0200
0000
0000
0000
0000
0000
0000
0000
0000
0000
0000
0000
0000
0000
0000
0000
0000
0000
0000
0000
0000
0000
0000
0000
0000
0000
0000
0000
0000
0000
0000
0000
0000
0000
0000
0000
0000
0000
0000
0300
0000
0000
0000
0000
0000
0000
0000
0000
2002
0000
0000
0000
0000
0000
0000
0000
0000
0000
0000
0000
0000
0000
0000
0000
,
0000
0000
3003
0000
1000
0000
0100
0010
0000
0001
0020
0000
0000
0000
0130
0000
,
1000
0001
0000
0000
0100
0000
0010
1000
0000
0001
1000
0000
1002
0000
0000
0000
,
1003
0000
0000
0000
0110
0000
0000
0001
0000
0000
0110
0000
0000
1000
0000
0000
,
0001
0100
1000
0100
0020
0030
0220
0000
,
0000
0000
0330
0000
1001
0000
0000
0000
0001
0100
0001
0100
0010
1000
0001
1000
,
0100
0010
0001
1000
0002
0000
0003
0000
0100
0010
0100
0010
0200
0000
0000
0000
,
0301
0010
0100
1000
0010
0000
1000
0001
0000
0000
0010
0000
0100
0000
1000
0000
,
1100
0011
1001
0101
,
0010
0000
0000
0000
2002
0000
3003
0000
1000
0000
0100
0000
0010
0001
0000
0100
,
0000
0010
1000
0000
2002
0000
3003
0000
0001
0000
0010
0000
0001
0000
0100
0010
,
0000
0000
0100
0000
2002
0000
3003
0000
1000
0000
0010
0000
1000
0100
0000
1000
,
0000
0010
0100
0000
0101
0000
0001
0010
0000
0100
1000
0000
2001
0000
0000
0000
,
3010
0000
0000
0000
0110
0000
0000
0000
0001
0100
0010
1000
0100
1000
0100
1000
,
0001
0100
0001
0100
0010
0000
0000
0000
1000
0001
1000
0001
0200
0000
0000
0000
,
0310
1000
0001
0010
0100
0000
1000
0100
0000
0000
0010
0000
0110
0000
0000
0000
,
1000
0000
0000
0000
0001
0010
0001
0010
0100
1000
0010
0100
0002
0000
0000
0000
,
0000
0000
0000
0203
,
0000
0000
0000
0320
,
0000
0000
0000
2030
,
0000
0000
0000
3200
,
0000
0010
0000
0010
,
0000
0000
0000
0000
0010
0000
0000
0000
0300
0000
0000
0000
0110
0000
0001
1000
,
0000
0000
0001
0000
0100
0000
0000
0010
0000
0000
1000
0000
1001
0000
0000
0000
,
0110
0000
0000
0000
0000
0000
0001
0000
0100
0000
0010
0000
1000
0000
0000
0000
0000
0000
1100
0000
0000
1010
0000
0000
,
0000
0000
0110
1001
0000
0000
0101
0011
,
0000
0000
0000
0000
0110
0000
1001
0000
0000
0000
0000
0000
0001
0010
0001
0000
,
1000
0010
1000
0000
0001
0100
0001
0000
1000
0100
1000
0000
0010
0000
0000
0100
,
0000
0000
0100
0000
0010
0000
1000
0000
0001
0000
0001
0000
0010
0000
0100
0010
,
0000
0001
1000
0000
0010
0000
0010
0000
0100
0000
0001
0000
1000
0000
0100
1000
,
0000
0010
0100
0000
1000
0000
0100
0000
0001
0000
0100
0010
1000
0000
0001
1000
,
0000
0100
0010
0000
0001
0000
0001
0000
1000
0000
0010
0000
0100
0000
0001
0010
,
0000
0000
0000
0100
0000
0000
1000
0000
0000
0001
0000
0000
1000
0000
0000
0000
0010
0000
0000
0000
0100
0000
0000
0000
0001
0000
0000
1000
0000
0000
0001
0000
0000
0000
0000
0000
0010
0000
0000
0000
0000
0000
0100
0000
0000
1000
0000
0000
,
0000
0010
0100
0000
0001
0000
0001
0000
0010
0000
0100
0000
0010
0000
0001
1000
,
0000
0010
0100
0000
0001
0000
0010
0000
1000
0000
0010
0000
0100
0000
1000
0001
,
0000
0000
0000
1000
0000
0000
0010
0000
0000
0000
0000
0000
0100
0000
0000
0000
0000
0000
0001
0000
0000
1000
0000
0000
0000
0000
0000
0001
0000
0000
0010
0000
0000
0000
0000
0000
0100
0000
0000
0000
1000
0000
0000
0000
0100
0000
0000
0000
,
0010
0000
0001
0000
0010
0000
0100
0000
0000
0110
0000
0000
0010
0000
0000
0110
0000
0000
1001
0000
0000
1000
0000
0000
,
0010
0000
0001
0000
0010
0000
0100
0001
0000
1000
0000
0100
0000
0010
0100
0000
,
1000
0000
0001
0000
1000
0000
0010
0100
0000
1000
0000
0100
0000
0010
1000
0000
,
0001
0000
0010
0000
0100
0000
0001
0100
0000
0010
0000
0001
0000
1000
0010
0000
,
0100
0000
0001
0000
0010
0000
1000
0010
0000
0100
0000
1000
0000
0001
1000
0000
,
0010
0000
0100
0000
0001
0000
1000
0100
0000
0010
0000
1000
0000
0010
0001
0000
,
1000
0000
0010
0000
0100
0000
0010
0001
0000
0010
0000
0100
0000
0001
1000
0000
,
0100
0000
0010
0000
0100
0000
1000
0001
0000
0100
0000
0010
1000
0000
1000
0000
,
0001
0000
0001
0000
1000
0000
0100
0010
0000
0001
0000
0100
0020
0000
0000
0000
,
0130
0000
0000
0000
0202
0000
0303
0000
0001
0000
1000
0000
0100
0010
0000
0100
,
0000
1000
0010
0000
0220
0000
0330
0000
0100
0000
0001
0000
0010
0000
0000
0000
,
0110
0000
0000
0000
2002
0000
3003
0000
1000
0000
0010
0000
0100
0001
0000
1000
,
0000
0100
1000
0000
0010
0000
0100
0001
0000
0100
0001
0000
0011
0000
0000
0000
,
1200
0000
0000
0000
1300
0000
0010
0000
0100
0001
0100
0001
1000
0100
1000
0100
,
0010
0001
0010
0001
0100
0010
1000
0001
1000
0100
0010
0001
0200
0000
0000
0000
,
0310
1000
0001
1000
0200
0000
0000
0010
0000
0000
0310
0000
2002
0000
0000
0000
,
0000
0000
3003
0000
1000
0010
1000
0100
0010
0001
0100
0001
0020
0000
0000
0000
,
0030
0000
0000
0000
;

//--------------- dance-single - forcednature (BPM 75-300) ----------------
#NOTEDATA:;
#STEPSTYPE:dance-single;
#DESCRIPTION:forcednature (BPM 75-300);
#DIFFICULTY:Challenge;
#METER:17;
#RADARVALUES:0,0,0,0,0;
#OFFSET:0.801;
#BPMS:0.000=150.000
,80.000=75.000
,113.000=150.000
,157.000=75.000
,158.000=300.000
,288.000=150.000
;
#STOPS:80.750=0.800
,158.000=0.400
;
#TIMESIGNATURES:80.000=1=4,
81.000=4=4,
157.000=3=4,
160.000=4=4
;
#CREDIT:forcednature (BPM 75-300);
#NOTES:
0000
0000
0000
0000
,
0000
0000
0000
0000
,
0000
0000
0000
0000
,
0000
0000
0000
0000
,
0000
0000
0000
0000
0000
0000
0000
0000
1000
0010
0100
0010
1000
0001
0100
0001
,
1000
0000
0100
0001
0000
0100
1000
0000
1020
0000
0000
0000
0000
0000
0031
0010
,
0000
0000
0100
0001
0100
0010
1000
0001
0010
0000
0100
1000
0100
0010
0001
1000
,
0010
0000
0100
0001
0000
0010
1000
0000
1020
0000
0000
0000
0000
0000
0031
0100
,
0000
0000
0010
1000
0001
0100
0001
1000
0200
0000
0000
0000
0310
0000
0001
0000
,
2000
0000
3020
0000
,
0230
0000
0302
0000
,
2003
0000
3200
0000
,
0320
0000
0032
0103
,
1001
0000
0000
0001
1000
0000
0100
0000
0010
0000
0000
0010
0001
0000
0100
0000
,
0010
0000
0000
0010
1000
0000
0001
0000
0010
0000
1000
0000
0010
0000
0001
0000
,
1000
0000
0010
1000
0010
0000
0100
0000
0001
0000
0000
0001
0010
0000
0100
0000
,
1100
0000
0000
0001
0100
0001
0100
0010
1000
0200
0000
0000
,
0310
0011
0000
0000
0100
1100
0000
0000
,
1000
1010
0000
0000
0001
0101
0100
0100
,
0001
0010
0100
0010
0001
1000
0100
1000
0001
0100
0010
1000
0010
0100
0001
2000
,
0000
0000
0000
0000
0000
0000
3000
0000
0102
0000
0000
0000
0000
0000
0000
0000
0013
0000
0100
1000
0000
0100
0002
0000
0000
0000
0103
0000
0100
1000
0000
1000
,
0010
0000
0100
1000
0000
0100
0001
0000
2010
0000
0000
0000
3002
0000
0000
0000
0013
0001
0000
0100
0010
0000
1000
0100
0000
1000
0010
0000
0100
0001
0010
0000
,
0100
1000
0010
0000
0200
0000
0000
0300
0102
0000
0000
0000
0013
0000
0100
0000
2100
0000
0000
0000
3010
1000
0001
0100
0010
0100
0001
1000
0100
0010
0001
0010
,
0200
0000
0000
0000
0000
0000
0000
0000
0000
0000
0000
0000
1300
0000
0001
0000
1000
0000
0001
0000
1000
0000
0001
0000
2000
0000
0000
0000
0000
0000
0000
0000
0000
0000
0000
0000
3010
0000
0000
0100
0000
0000
0001
0000
0000
0010
0000
0000
0001
0000
0000
0000
0000
0000
0010
0000
0000
0100
0000
0000
0000
0000
0000
1000
0000
0000
0100
0000
0000
0000
0000
0000
0110
0000
0000
0000
0000
0000
0010
0000
0000
0000
0000
0000
2002
0000
0000
0000
0000
0000
3003
0000
0000
0000
0000
0000
,
0202
0000
0303
0000
2200
0000
3300
0000
0210
0000
0000
0000
0310
0000
0000
0000
1000
0100
0000
0001
0100
0000
1000
0000
0001
0010
0000
0001
0000
1000
0010
0000
,
0100
1000
0000
0100
0001
0000
0001
0000
0010
0000
0100
0010
0000
0100
1000
0000
0010
0001
0000
0010
1000
0000
0001
0000
0100
0010
0000
1000
0000
0100
0010
0000
,
0001
0000
0001
0100
0000
0100
1000
0000
0200
0000
0000
0000
0020
0000
0330
0000
1002
0000
0000
0000
1003
0100
1000
0100
0010
0001
0100
0001
0010
0001
0100
0001
,
0010
0000
0000
0000
0000
0000
0000
0000
0000
0000
0000
0000
0001
0000
1000
0000
0001
0000
1000
0000
0001
0000
1000
0000
0002
0000
0000
0000
0000
0000
0000
0000
0000
0000
0000
0000
0103
0000
0000
0010
0000
0000
1000
0000
0000
0100
0000
0000
0010
0000
0000
0000
0000
0000
0100
0000
0000
0001
0000
0000
0000
0000
0000
0100
0000
0000
1000
0000
0000
0000
0000
0000
1010
0000
0000
0000
0000
0000
0000
0000
0000
0000
0000
0000
0002
0000
0000
0000
0000
0000
0000
0000
0000
0000
0000
0000
,
0023
0000
0130
1000
0002
0000
0000
0000
0000
0000
0000
0000
0203
0000
0000
0000
,
0000
0320
0000
2030
,
0000
3002
0000
0023
,
0000
0230
0000
2300
,
0000
0000
3001
0100
1000
0000
1000
0100
,
0001
0000
0001
0010
1000
0000
1000
0010
,
0001
0000
0000
0000
1000
0000
1000
0010
0000
0010
0100
0000
0001
0000
0001
0010
,
0000
0000
0000
0010
0000
0000
0100
0000
0000
0000
0000
0000
1100
0000
0000
0000
0000
0000
0000
0000
0000
0000
0000
0000
1000
0000
0000
0000
0010
0000
0000
0000
1000
0000
0000
0000
0001
0000
0000
0000
0100
0000
0000
0000
0001
0000
0000
0000
,
0010
0000
0011
0011
0000
0000
1100
1100
,
0000
0000
1010
1010
0000
0000
0101
0101
,
0001
0000
0000
0000
1000
0010
0100
0010
1000
0001
0100
0001
1000
0100
0010
0001
,
0010
0000
0100
0000
1000
0000
0001
0000
0200
0000
0000
0010
0000
0000
0010
0000
0300
0000
0000
0000
0000
0000
0000
0000
0000
0000
0000
0000
0000
0000
0000
0000
,
0001
0100
0010
0100
0001
1000
0010
1000
,
0001
0010
0100
1000
0001
0000
0011
0000
,
1000
0100
0010
0100
1000
0001
0010
0001
,
1000
1010
0110
0101
,
0001
0010
0001
0100
0010
0100
0001
1000
,
0010
0100
0001
1000
0100
0000
0110
0000
,
0010
0001
1000
0001
1000
0010
0001
0010
,
0200
0000
0001
0000
0001
0000
0310
0000
0000
1001
0000
0000
,
1000
0100
0010
0100
1000
0001
0010
0001
,
1000
0010
0100
0001
1000
0000
1010
0000
,
0001
0010
0100
0010
0001
1000
0100
1000
,
0001
0101
0110
1010
,
1000
0100
1000
0010
0100
0001
1000
0000
,
0001
0010
0001
0100
0010
1000
0001
0000
,
0010
0000
0100
0000
1000
0000
0010
0000
0100
0000
0001
0000
,
0010
0011
1001
1100
,
1001
0000
0001
0100
0010
0100
0001
1000
,
0010
1000
0001
0010
0000
0110
0000
1100
,
0000
1000
0001
0100
0001
1000
0100
1000
,
0010
0100
0001
0010
0000
0011
0000
1100
,
0000
1000
0010
0100
0010
1000
0001
0100
,
0001
1000
0100
1000
0000
0110
0000
0011
,
0000
1000
0010
0100
0001
0010
0001
0100
,
0010
1000
0100
0010
0000
0011
0000
1100
,
0000
1000
0100
0001
0100
1000
0001
0010
,
0001
1000
0010
0100
0000
0101
0000
0011
,
0000
0001
0100
1000
0100
0001
1000
0010
,
1000
0001
0010
0100
0000
1100
0000
1010
,
0000
0010
0100
0001
0010
0100
1000
0010
,
0001
0010
1000
0001
0000
0101
0000
1010
,
0000
1000
0100
0000
0001
0000
1000
0000
,
0010
0000
0001
1000
0001
0100
0010
1000
,
0001
0000
0011
0000
1200
0000
1300
0010
,
0100
1000
0000
0100
0000
0001
1000
0000
2010
0000
0000
0000
3001
0000
0010
0000
,
0002
0100
0000
0000
2003
0100
0000
3000
1020
0000
0000
0000
0130
0000
0001
0000
,
0010
0100
0000
0001
0000
0100
1000
0000
0010
0000
0010
0100
0000
0100
1000
0000
,
1200
0000
0000
0000
0302
0000
0000
0000
0023
0000
0000
0000
0130
1000
0010
0100
,
0010
1000
0100
0010
0001
0100
0010
0100
0001
0010
0100
1000
0010
0100
0001
0010
,
0200
0000
0000
0000
0301
0100
1000
0001
0010
0000
0001
0100
0000
1000
0100
0000
,
0120
0000
0000
0000
0000
0000
0000
0000
1030
0010
0100
0001
0010
0001
0100
0010
,
2000
3000
0000
0000
;

//--------------- dance-double - forcednature ----------------
#NOTEDATA:;
#STEPSTYPE:dance-double;
#DESCRIPTION:forcednature;
#DIFFICULTY:Easy;
#METER:8;
#RADARVALUES:0,0,0,0,0;
#CREDIT:forcednature;
#NOTES:
00000000
00000000
00000000
00000000
,
00000000
00000000
00000000
00000000
,
00000000
00000000
00000000
00000000
,
00000000
00000000
00000000
00000000
,
00000000
00000000
00001000
00010000
,
00011000
00001000
02000000
03000000
,
00010000
10000000
00010000
00100000
,
01100000
01000000
20000000
30000000
,
00010000
01000000
00002000
00003000
,
00021000
00000000
00000000
00000000
,
00030200
00000000
00000000
00000000
,
00002300
00000000
00000000
00000000
,
00003002
00000000
00000000
00000000
,
00000203
00000000
00002300
00000000
,
00023000
00000000
02030000
00000000
,
23000000
00000000
30200000
00000000
,
01300000
01000000
01000000
00000000
,
00010000
00010000
00000000
00000000
00100000
00100000
00000000
00000000
,
00001000
00001000
00000000
00000000
00010000
00010000
00000000
00000000
,
00000100
00000000
00000100
00000000
00001000
00000001
00001000
00000002
,
00000000
00000000
00000000
00000000
00000000
00000000
00000000
00000000
00000000
00000000
00000000
00000000
00000000
00000000
00000000
00000000
00000000
00000000
00000000
00000003
00000000
00000000
00000000
00000000
00000110
00000000
00000000
00000000
00000000
00000000
00000000
00000000
,
00001000
00000002
00000003
00000100
,
00001000
00000000
00010000
00001000
00010000
00000000
01000000
00000000
,
10000000
00200000
00300000
01000000
,
01000000
01100000
00010000
10010000
,
10000000
00000000
01000000
00000000
00010000
00010000
00010000
00000000
,
00001000
00001000
00001000
00000000
00000100
00000000
00000110
00000000
,
00000001
00000000
00001000
00000000
00000100
00000000
00010000
00001000
,
00010000
00001000
01000000
01100000
,
00100000
00000000
10010000
00000000
10000000
10000000
10000000
00000000
,
01000000
01100000
00010000
01000000
,
00001000
00000000
00011000
00000000
00000100
00000000
00000010
00000010
,
00000010
00000000
00000000
00000000
00000001
00000000
00000000
00001000
00000000
00000000
00000001
00000000
00000200
00000000
00000000
00000000
,
00000300
00020010
00000010
00001000
,
00001000
00000100
00031000
00011000
,
00001000
01000000
00010000
10010000
,
20000000
32000000
03200000
00320000
,
00000000
00000000
00000000
02030000
,
00000000
00000000
00000000
03002000
,
00000000
00000000
00000000
00023000
,
00000000
00000000
00000000
00030100
,
00000000
00000100
00000000
00000100
,
00000000
00000100
00000000
00002000
,
00000000
00003002
00000000
00000103
,
00000010
00000000
00000100
00000000
00001000
00000000
00010000
00001000
,
00000000
00000000
00010000
00001000
00000000
00000000
00010000
00001000
,
00000000
00000000
00010000
00001000
00000000
00000000
01000000
01000000
,
01000000
00000000
00100000
00100000
00100000
00000000
20000000
00000000
,
00000000
00000000
31000000
00100000
,
00010000
00000000
00100000
00000000
00001000
00010000
00001000
00000000
,
00010000
00000010
00001000
00000010
,
00000100
00000000
00000001
00000000
00001000
00000100
00001000
00000000
,
00000010
00000000
00000000
00010000
00000000
00010000
00001000
00000000
00000000
00011000
00000000
00000000
,
00001000
00000000
01000000
00000000
00010000
10000000
00010000
00000000
,
00100000
01000000
10000000
00100000
,
01000000
00010000
01000000
00001000
,
00010000
00000000
00000100
00001000
00000100
00000000
00000110
00000000
,
00000010
00000000
00000001
00000100
00000001
00000000
00000010
00000000
,
00001000
00000000
00010000
00001000
00010000
00000000
00100000
00000000
,
10000000
00000000
01000000
00100000
01000000
00000000
10000000
00000000
,
00010000
00000000
01000000
00001000
01000000
00000000
00011000
00000000
,
00000100
00000000
00001000
00000001
00001000
00000000
00000010
00000000
,
00010000
00000000
00001000
00010000
00001000
00000000
01000000
00000000
,
00010000
00000000
10000000
01000000
10000000
00000000
00100000
00000000
,
01000000
01000000
00010000
00000000
00100000
00000000
01100000
00000000
,
10000000
00000000
00010000
00000000
01000000
00000000
00001000
00010000
,
00001000
00000100
00000010
00001000
,
00000001
00000000
00001001
00000000
00001000
00000000
00000100
00001000
,
00000100
00000000
00000000
00000000
00010000
00000000
00000000
00001000
00000000
00000000
00010000
00000000
00002000
00000000
00000000
00000000
,
01003000
00000000
00000000
00010000
00010000
00000000
00000000
10000000
,
10000000
00000000
00000000
10000000
00000000
00000000
10000000
00000000
01000000
00000000
00000000
00000000
00100000
00000000
00000000
00000000
,
01100000
01000000
00010000
00022000
,
00000000
00033000
00000000
00001000
00010000
00010000
00002000
00000000
,
00003000
00000000
00000000
00000000
;

//--------------- dance-double - forcednature ----------------
#NOTEDATA:;
#STEPSTYPE:dance-double;
#DESCRIPTION:forcednature;
#DIFFICULTY:Medium;
#METER:13;
#RADARVALUES:0,0,0,0,0;
#CREDIT:forcednature;
#NOTES:
00000000
00000000
00000000
00000000
,
00000000
00000000
00000000
00000000
,
00000000
00000000
00000000
00000000
,
00000000
00000000
00000000
00000000
,
00000000
00000000
00000000
00000000
00001000
00010000
00100000
00000000
,
01100000
00000000
00000000
01000000
00000000
00000000
00010000
00000000
20020000
00000000
00000000
00000000
30030000
00000000
10000000
00000000
,
00000000
00000000
01000000
00000000
00000000
00010000
00000000
00000000
00001000
00000000
00000010
00000000
00000100
00000000
00000000
00000000
,
00001001
00000000
00000000
00000001
00000000
00000000
00000100
00000000
00000020
00000000
00000000
00000000
00000030
00000000
00001000
00000000
,
00000000
00000000
00010000
00000000
00000000
01000000
00000000
00000000
00200000
00000000
00000000
00000000
10300000
00000000
01000000
00000000
,
00200000
00000000
00302000
00000000
,
00023000
00000000
00030020
00002030
,
00003200
00000000
00000320
00000000
,
00000032
00000000
00000203
00002300
,
00023000
00000000
00230000
00000000
,
02300000
00000000
03020000
20030000
,
32000000
00000000
03200000
00000000
,
00302000
00023000
00030200
00002300
,
00003010
00001000
00000000
00000000
00010000
01000000
00000000
00000000
,
00100000
00010000
00000000
00000000
00001000
00000100
00000000
00000000
,
00000001
00000100
00001000
00010000
01000000
01000000
10000000
10000000
,
00200000
00000000
00000000
00000000
00000000
00000000
00000000
00000000
00000000
00000000
00000000
00000000
00000000
00000000
00000000
00000000
00000000
00000000
00000000
00000000
00000000
00000000
00000000
00000000
00000000
00000000
00000000
00000000
00000000
00000000
00000000
00000000
00000000
00000000
00000000
00000000
00000000
00000000
00000000
00300000
00000000
00000000
00000000
00000000
00000000
00000000
00000000
00000000
20020000
00000000
00000000
00000000
00000000
00000000
00000000
00000000
00000000
00000000
00000000
00000000
00000000
00000000
00000000
00000000
,
00000000
00000000
30030000
00000000
10000000
00000000
10000000
01000000
00000000
01000000
00200000
00000000
00000000
00000000
00301000
00000000
,
00000000
00010000
00000000
00000000
00000010
00000000
00000100
00000001
00000000
00000100
00000001
00000000
00002001
00000000
00000000
00000000
,
00003100
00000000
00000000
00000000
00011000
00000000
00000000
01000000
00000000
00000000
00011000
00000000
00000000
00100000
00000000
00000000
,
00001000
00010000
00100000
10000000
02000000
00000000
03020000
00000000
,
00030000
00000000
00000110
00000000
00000001
00000100
00001000
00010000
,
01000000
10000000
00200000
00000000
01300000
00010000
00200000
00000000
,
01300000
00000000
00010000
00000000
00001000
00000000
00010000
00001000
00000000
00000000
00000100
00000000
00000010
00000000
00000100
00000000
,
00000101
00010010
00101000
20010000
,
31000000
00000000
00000000
00000000
00110000
00000000
00000000
00000000
00010000
00000000
01000000
00000000
00001000
00000000
00000000
00010000
,
00000000
00000000
00000100
00000000
00001100
00000000
00000000
00000000
00001000
00000000
00000100
00000000
00010000
00000000
00000000
00001000
,
00000000
00000000
01000000
00000000
01010000
00000000
00000000
00000000
00010000
00000000
00100000
00000000
00001000
00000000
00000000
00010000
,
00000000
00000000
00000010
00000000
00000100
00000000
00000001
00001000
00000000
00000001
00001000
00000000
00000200
00000000
00000000
00000000
,
00010300
00000000
00011000
00000000
00001000
00010000
00100000
01000000
,
00100000
10000000
02000000
00000000
03010000
00001000
00020000
00000000
,
00030010
00000000
00010000
00000000
00001000
00000000
00001000
00000010
00000000
00000000
00000001
00000000
00001001
00000000
00000000
00000000
,
00000002
00000000
00000203
00000000
00001300
00010000
00200000
00000000
,
00000000
02300000
00000000
03020000
,
00000000
20030000
32000000
03200000
,
00000000
00302000
00000000
00023000
,
00000000
00030020
00002030
00003001
,
00000000
00000001
00000000
00000001
,
00000000
00000001
00000000
00002002
,
00003003
00000220
00000330
00000002
,
00000203
00000000
00002300
00000000
00023000
00000000
00130000
01000000
,
00000000
00000000
00100000
00010000
00000000
00000000
00001000
00000010
,
00000000
00000000
00000100
00000010
00000001
00000000
00000100
00001000
,
00010000
00000000
00001000
00000000
00100000
00000000
00001000
00000000
00010000
00000000
00001000
00000000
01000000
00000000
00000000
00010000
,
00000000
10000000
01000000
00010000
01000000
00100000
00001000
00010000
,
00000010
00000100
00001000
00000000
00000100
00000001
00001000
00000100
,
00000010
00001000
00010000
00100000
01000000
00010000
10000000
01000000
,
00010000
01000000
00100000
00000000
00001000
00010000
00100000
10000000
,
01000000
00000000
00000000
00100000
00000000
00000000
00001000
00000000
00010000
00000000
00001000
00000000
00010000
00000000
00000000
00000010
00000000
00000000
00000100
00000000
00000000
00001000
00000000
00000000
,
00000100
00000001
00001000
00000000
00000100
00000010
00001000
00010000
,
00100000
01000000
00010000
10000000
01000000
00010000
01000000
00100000
,
00001000
00000000
00000000
00010000
00000000
00000000
00100000
00000000
00000000
01000000
00000000
00000000
00001000
00000000
00000000
00010000
00000000
00000000
00000100
00000000
00001000
00000000
00000100
00000000
,
00000010
00000001
00001000
00000001
00000100
00001000
00010000
00100000
,
01000000
00000000
00100000
00000000
10000000
00000000
01000000
00100000
00000000
00010000
00000000
00100000
00000000
00000000
00001000
00000000
,
00010000
00000000
00000010
00000000
00001000
00000000
00000100
00000010
00000000
00000001
00000000
00000010
00000000
00000000
00001000
00000000
,
00010000
00000000
00001000
00000000
01000000
00000000
00010000
10000000
00000000
01000000
00000000
10000000
00000000
00000000
00100000
00000000
,
00010000
00000000
00100000
00000000
01000000
00000000
00001000
00010000
00000000
00000100
00000000
00001000
00000000
00000000
00000010
00000000
,
00000001
00000000
00000010
00000000
00000100
00000000
00000001
00001000
00000000
00000100
00000000
00010000
00000000
00000000
00001000
00000000
,
00100000
00000000
01000000
00000000
00100000
00000000
00010000
10000000
00000000
00100000
00000000
01000000
00000000
00000000
00010000
00000000
,
00100000
00000000
00010000
00000000
01000000
00000000
00001000
00010000
00000000
00000100
00000000
00001000
00000000
00000000
00000010
00000000
,
00000001
00000000
00000010
00000000
00001000
00000000
00000100
00000010
00000000
00001000
00000000
00010000
00002000
00000000
00000000
00000000
,
01003000
00000000
00000000
00000000
10100000
00000000
00000000
00000000
10000000
00000000
10000000
00000000
01000000
00010000
00000000
00001000
,
00000000
00010000
01000000
00000000
01100000
00000000
00000000
00000000
00100000
00000000
00001000
00000000
00020000
00000000
00000000
00000000
,
00030010
00000000
00000000
00000000
00001010
00000000
00000000
00000000
00001000
00000000
00000001
00000000
00000010
00000100
00000000
00001000
,
00000000
00000001
00000100
00000000
00000010
00000000
00010000
00001000
00000000
00010000
00001000
00000000
00100000
00000000
00000000
00000000
,
01100000
00000000
10000000
01000000
00010000
00001000
00000100
00000001
,
00000010
00001000
00010000
00100000
10000000
00010000
10010000
00000000
,
10000000
00000000
01000000
00000000
00010000
00000000
00000000
00001000
00000000
00000000
00000100
00000000
00000220
00000000
00000000
00000000
,
00000000
00000330
00000010
00001000
00010000
01000000
00200000
00000000
,
00300000
00000000
00000000
00000000
;

//--------------- dance-double - forcednature ----------------
#NOTEDATA:;
#STEPSTYPE:dance-double;
#DESCRIPTION:forcednature;
#DIFFICULTY:Hard;
#METER:15;
#RADARVALUES:0,0,0,0,0;
#CREDIT:forcednature;
#NOTES:
00000000
00000000
00000000
00000000
,
00000000
00000000
00000000
00000000
,
00000000
00000000
00000000
00000000
,
00000000
00000000
00000000
00000000
,
00000000
00000000
00000000
00000000
00000000
00000000
00000000
00000000
00001000
00010000
00000100
00001000
00000100
00000010
00000001
00001000
,
00000001
00000000
00000001
00000100
00000000
00000100
00000010
00000000
00002020
00000000
00000000
00000000
00003030
00000000
00001000
00000100
,
00000000
00000000
00010000
00001000
00000000
00001000
01000000
00000000
01010000
00000000
00010000
00000000
10000000
00000000
00000000
00000000
,
01000000
00000000
00100000
00010000
00000000
00010000
01000000
00000000
02200000
00000000
00000000
00000000
03300000
00000000
00100000
10000000
,
00000000
00000000
01000000
00100000
00000000
00100000
00010000
00100000
00002000
00000000
00000000
00000000
00013000
00000000
00000010
00000000
,
00002000
00000000
00000000
00000000
,
00003200
00000000
00000000
00000000
,
00020300
00000000
00000000
00000000
,
00032000
00000000
00000000
00000000
,
02003000
00010000
03200000
10000000
,
00320000
00001000
00030200
00000010
,
00002300
00003002
00000203
00002300
,
00023000
00000000
00000000
00130000
00000000
00000000
00010000
00001000
00010000
00001000
00000000
00000000
,
01001000
01001000
00000000
00000000
00010010
00010010
00000000
00000000
,
00101000
00101000
00000000
00000000
00010100
00010100
00000000
00000000
,
00001000
00000000
00001000
00000000
00010000
00000000
00010000
00000000
00000100
00001000
00000100
00001000
00000001
00000100
00000001
00000100
,
00000020
00000000
00000000
00000000
00000000
00000000
00000000
00000000
00000000
00000000
00000000
00000000
00000000
00000000
00000000
00000000
00000000
00000000
00000000
00000000
00000000
00000000
00000000
00000000
00000000
00000000
00000000
00000000
00000000
00000000
00000000
00000000
00000000
00000000
00000000
00000000
00000000
00000000
00000000
00000030
00000000
00000000
00000000
00000000
00000000
00000000
00000000
00000000
00002002
00000000
00000000
00000000
00000000
00000000
00000000
00000000
00000000
00000000
00000000
00000000
00000000
00000000
00000000
00000000
,
00000000
00000000
00003003
00000000
00000001
00000000
00000100
00000010
00000000
00000100
00002000
00000000
00000000
00000000
00013000
00000000
,
01000000
00100000
00000000
00000000
01000000
00000000
10000000
00010000
00000000
00010000
01000000
00000000
10200000
00000000
00000000
00000000
,
00310000
00000000
00000000
00000000
01100000
00000000
00000000
10000000
00000000
00000000
00010000
00000000
00000000
00001000
00000000
00000000
,
00000001
00000100
00000001
00000010
00000200
00000300
00002002
00000000
,
00003003
00000000
00000000
00000000
00011000
00000000
00000000
00000000
00010000
00001000
00010000
00001000
01000000
00010000
10000000
00010000
,
00100000
01000000
10000000
00010000
02000000
00000000
03000000
00000000
00100000
10000000
00100000
10000000
02000000
00000000
00000000
00000000
,
03100000
00010000
00100000
00001000
00010000
00000000
00010000
00001000
00000000
00000000
00001000
00000000
00000010
00000000
00000100
00000000
,
00000110
00000011
00000101
00001010
,
00000100
00000000
00000000
00000000
00022000
00000000
00033000
00000000
00001000
00000000
00001000
00000000
01000000
00010000
00000000
00010000
,
00000000
10000000
01000000
00000000
02200000
00000000
03300000
00000000
00100000
00000000
00010000
00000000
00100000
00000000
00001000
00010000
,
00000000
00000000
00000010
00000000
00000220
00000000
00000330
00000000
00000100
00000000
00000001
00000000
00001000
00000100
00000000
00000100
,
00000000
00000010
00000001
00000000
00000100
00000000
00001000
00010000
00000000
00001000
00100000
00000000
00020000
00000000
00000000
00000000
,
01030000
00000000
00000000
00000000
01100000
00000000
00000000
00000000
00100000
10000000
00010000
10000000
01000000
00100000
01000000
00100000
,
00010000
10000000
00010000
10000000
00100000
00000000
00000000
00000000
01000000
00010000
01000000
00001000
00020000
00000000
00000000
00000000
,
00030100
00001000
00000100
00000010
00000001
00000000
00001000
00000001
00000000
00000000
00000100
00000000
00000110
00000000
00000000
00000000
,
00000020
00000000
00000000
00000000
00001030
00000001
00001000
00000001
00001000
00000100
00010000
00001000
00020000
00000000
00000000
00000000
,
00000000
00000000
00000000
02030000
,
00000000
00000000
00000000
03200000
,
00000000
00000000
00000000
00302000
,
00000000
00000000
00000000
00003020
,
00000000
00000100
00000000
00000100
,
00000000
00000000
00000000
00000000
00000100
00000000
00000000
00000000
00000030
00000000
00000000
00000000
00000110
00000000
00000001
00001000
,
00000000
00000000
00000010
00000000
00001000
00000000
00000000
00010000
00000000
00000000
01000000
00000000
01100000
00000000
00000000
00000000
,
10010000
00000000
00000000
00000000
00000000
00000000
10000000
00000000
01000000
00000000
10000000
00000000
00100000
00000000
00000000
00000000
00000000
00000000
10000000
00000000
00000000
00010000
00000000
00000000
,
00000000
00000000
00001000
00000001
00000000
00000000
00000001
00001000
,
00000000
00000000
00010000
10000000
00000000
00000000
01000000
01000000
,
00100000
00000000
00100000
00000000
00010000
01000000
00010000
01000000
00001000
00010000
00001000
00010000
00000100
00000000
00000000
00000100
,
00000000
00000000
00001000
00000000
00000010
00000000
00000100
00000000
00000001
00000000
00000001
00000000
00000010
00000000
00000100
00001000
,
00000000
00000100
00010000
00000000
00001000
00000000
00001000
00000000
01000000
00000000
00010000
00000000
10000000
00000000
01000000
00100000
,
00000000
00010000
00100000
00000000
00001000
00000000
00010000
00000000
00000010
00000000
00000100
00000001
00001000
00000000
00000100
00000010
,
00000000
00000001
00000010
00000000
00001000
00000000
00001000
00000000
00010000
00000000
00100000
00000000
01000000
00000000
00010000
10000000
,
00000000
00000000
00000000
01000000
00000000
00000000
00100000
00000000
00000000
00010000
00000000
00000000
00100000
00000000
00000000
00000000
00001000
00000000
00000000
00000000
00010000
00000000
00000000
00000000
00001000
00000000
00000000
01000000
00000000
00000000
00001000
00000000
00000000
00000000
00000000
00000000
00010000
00000000
00000000
00000000
00000000
00000000
00000100
00000000
00000000
00001000
00000000
00000000
,
00000000
00000100
00000010
00000000
00000001
00000000
00000001
00000000
00000100
00000000
00001000
00000000
00010000
00000000
00001000
01000000
,
00000000
00010000
01000000
00000000
00100000
00000000
10000000
00000000
01000000
00000000
10000000
00000000
00100000
00000000
00010000
00001000
,
00000000
00000000
00000000
00010000
00000000
00000000
00000100
00000000
00000000
00000000
00000000
00000000
00001000
00000000
00000000
00000000
00000000
00000000
00000010
00000000
00000000
00010000
00000000
00000000
00000000
00000000
00000000
00001000
00000000
00000000
00010000
00000000
00000000
00000000
00000000
00000000
00100000
00000000
00000000
00000000
01000000
00000000
00000000
00000000
10000000
00000000
00000000
00000000
,
01000000
00000000
00010000
00000000
00100000
00000000
01000000
00000000
00000000
00010000
00000000
00000000
00001000
00000000
00000000
00000010
00000000
00000000
00000110
00000000
00000000
00000100
00000000
00000000
,
00001000
00000000
00000001
00000000
00000100
00000000
00001000
00010000
00000000
00100000
00000000
01000000
00000000
00010000
10000000
00000000
,
01000000
00000000
00010000
00000000
01000000
00000000
00100000
00001000
00000000
00010000
00000000
00000010
00000000
00001000
00000001
00000000
,
00000010
00000000
00001000
00000000
00000010
00000000
00000100
00010000
00000000
00001000
00000000
01000000
00000000
00010000
10000000
00000000
,
01000000
00000000
00010000
00000000
01000000
00000000
00100000
00001000
00000000
00010000
00000000
00100000
00000000
01000000
00010000
00000000
,
00100000
00000000
00001000
00000000
00010000
00000000
00000010
00001000
00000000
00000100
00000000
00000001
00000000
00000100
00000010
00000000
,
00000001
00000000
00000100
00000000
00001000
00000000
00010000
00100000
00000000
01000000
00000000
00100000
00000000
10000000
00010000
00000000
,
10000000
00000000
01000000
00000000
00100000
00000000
01000000
00010000
00000000
00001000
00000000
00000100
00000010
00000000
00001000
00000000
,
00000010
00000000
00000001
00000000
00000010
00000000
00000100
00000001
00000000
00001000
00000000
00000100
00020000
00000000
00000000
00000000
,
00130000
00000000
00000000
00000000
02200000
00000000
03300000
00000000
01000000
00000000
00010000
00000000
10000000
01000000
00000000
00100000
,
00000000
01000000
00010000
00000000
00022000
00000000
00033000
00000000
00001000
00000000
00000100
00000000
00000002
00000000
00000000
00000000
,
00000013
00000000
00000000
00000000
00002200
00000000
00003300
00000000
00000100
00000000
00010000
00000000
00001000
01000000
00000000
00010000
,
00000000
10000000
01000000
00000000
00100000
00000000
00001000
00010000
00000000
00001000
00010000
00000000
00010010
00000000
00000000
00000000
,
00001200
00000000
00000000
00000000
00000301
00000000
00000100
00000000
00001000
00000010
00001000
00000010
00010000
00001000
00010000
00001000
,
00100000
00010000
00100000
00010000
01000000
00100000
10000000
00010000
10000000
01000000
00100000
00010000
02000000
00000000
00000000
00000000
,
03010000
01000000
00001000
00010000
00002000
00000000
00000000
00000010
00000000
00000000
00013000
00000000
00020200
00000000
00000000
00000000
,
00000000
00000000
00030300
00000000
00000100
00001000
00000001
00001000
00000010
00010000
00001000
00010000
00200000
00000000
00000000
00000000
,
00300000
00000000
00000000
00000000
;

//--------------- dance-double - forcednature (BPM 75-300) ----------------
#NOTEDATA:;
#STEPSTYPE:dance-double;
#DESCRIPTION:forcednature (BPM 75-300);
#DIFFICULTY:Challenge;
#METER:17;
#RADARVALUES:0,0,0,0,0;
#OFFSET:0.801;
#BPMS:0.000=150.000
,80.000=75.000
,113.000=150.000
,157.000=75.000
,158.000=300.000
,288.000=150.000
;
#STOPS:80.750=0.800
,158.000=0.400
;
#TIMESIGNATURES:80.000=1=4,
81.000=4=4,
157.000=3=4,
160.000=4=4
;
#DISPLAYBPM:150.000;
#CREDIT:forcednature (BPM 75-300);
#NOTES:
00000000
00000000
00000000
00000000
,
00000000
00000000
00000000
00000000
,
00000000
00000000
00000000
00000000
,
00000000
00000000
00000000
00000000
,
00000000
00000000
00000000
00000000
00000000
00000000
00000000
00000000
00001000
00010000
00001000
00000000
00010000
00001000
00010000
00000000
,
00000100
00000000
00001000
00000001
00000000
00000010
00000001
00000000
00000201
00000000
00000000
00000000
00000000
00000000
00001300
00000100
,
00000000
00000000
00001000
00010000
00001000
00000000
01000000
00010000
01000000
00000000
00100000
10000000
00010000
00100000
01000000
00000000
,
10000000
00000000
01000000
00010000
00000000
00001000
00010000
00000000
00012000
00000000
00000000
00000000
00000000
00000000
00003010
00000100
,
00000000
00000000
00001000
00000001
00000010
00000100
00000010
00000001
00002000
00000000
00000000
00000000
00003010
00000000
00010000
00000000
,
00002000
00000000
02003000
00000000
,
03020000
00000000
00230000
00000000
,
00302000
00000000
00023000
00000000
,
00030200
00000000
00002300
00003010
,
00001001
00000000
00000000
00000001
00000100
00000000
00001000
00000000
00020000
00000000
00000000
00000000
00130000
00000000
01000000
00000000
,
00010000
00000000
00000000
00010000
01000000
00000000
00100000
00000000
10000000
00000000
01000000
00000000
00010000
00000000
00001000
00000000
,
00000010
00000000
00000001
00000010
00000001
00000000
00000100
00000000
00001000
00000000
00000000
00001000
00010000
00000000
00100000
00000000
,
01100000
00000000
00000000
01000000
00010000
10000000
01000000
10000000
00010000
00200000
00000000
00000000
,
00301000
00011000
00000000
00000000
00010000
00010100
00000000
00000000
,
00001000
01001000
00000000
00000000
00010000
00010010
00000010
00000000
,
00000010
00001000
00000001
00000100
00000001
00001000
00000100
00010000
00001000
00010000
00001000
01000000
00010000
10000000
00100000
02000000
,
00000000
00000000
00000000
00000000
00000000
00000000
03000000
00000000
20010000
00000000
00000000
00000000
00000000
00000000
00000000
00000000
31000000
00000000
00100000
00010000
00000000
00100000
00002000
00000000
00000000
00000000
00013000
00000000
00000010
00001000
00000000
00000001
,
00000100
00000000
00001000
00000100
00000000
00000001
00001000
00000000
00001020
00000000
00000000
00000000
00020030
00000000
00000000
00000000
00031000
00010000
00000000
00001000
00100000
00000000
00010000
01000000
00000000
00100000
10000000
00000000
01000000
00010000
00001000
00000000
,
00010000
01000000
10000000
00000000
00020000
00000000
00000000
00030000
00102000
00000000
00000000
00000000
01003000
00000000
00001000
00000000
00021000
00000000
00000000
00000000
00030100
00001000
00000100
00000010
00000001
00000010
00000100
00001000
00000100
00010000
00001000
00100000
,
00020000
00000000
00000000
00000000
00000000
00000000
00000000
00000000
00000000
00000000
00000000
00000000
01030000
00000000
00010000
00000000
01000000
00000000
00010000
00000000
01000000
00000000
00010000
00000000
20000000
00000000
00000000
00000000
00000000
00000000
00000000
00000000
00000000
00000000
00000000
00000000
31000000
00000000
00000000
00010000
00000000
00000000
00001000
00000000
00000000
00100000
00000000
00000000
00001000
00000000
00000000
00000000
00000000
00000000
00010000
00000000
00000000
00000100
00000000
00000000
00000000
00000000
00000000
00000010
00000000
00000000
00000100
00000000
00000000
00000000
00000000
00000000
00000110
00000000
00000000
00000000
00000000
00000000
00000010
00000000
00000000
00000000
00000000
00000000
00002002
00000000
00000000
00000000
00000000
00000000
00003003
00000000
00000000
00000000
00000000
00000000
,
00022000
00000000
00033000
00000000
20020000
00000000
30030000
00000000
02100000
00000000
00000000
00000000
03100000
00000000
00000000
00000000
10010000
00000000
00000000
10000000
01000000
00000000
00010000
00000000
00001000
00100000
00000000
00001000
00000000
00010000
00000100
00000000
,
00001000
00000010
00000000
00001000
00000100
00000000
00000100
00000000
00000010
00000000
00000001
00000100
00000000
00000010
00000100
00000000
00001000
00000100
00000000
00001000
00010000
00000000
00100000
00000000
01000000
00010000
00000000
10000000
00000000
00010000
00100000
00000000
,
01000000
00000000
01000000
00010000
00000000
00010000
00001000
00000000
00000020
00000000
00000000
00000000
00000200
00000000
00000330
00000000
00001002
00000000
00000000
00000000
00001003
00000100
00001000
00000100
00010000
00001000
00100000
00001000
00010000
00001000
01000000
00001000
,
00010000
00000000
00000000
00000000
00000000
00000000
00000000
00000000
00000000
00000000
00000000
00000000
00001000
00000000
00010000
00000000
00001000
00000000
00010000
00000000
00001000
00000000
00010000
00000000
00002000
00000000
00000000
00000000
00000000
00000000
00000000
00000000
00000000
00000000
00000000
00000000
01003000
00000000
00000000
00010000
00000000
00000000
10000000
00000000
00000000
00010000
00000000
00000000
00100000
00000000
00000000
00000000
00000000
00000000
01000000
00000000
00000000
00010000
00000000
00000000
00000000
00000000
00000000
01000000
00000000
00000000
10000000
00000000
00000000
00000000
00000000
00000000
10100000
00000000
00000000
00000000
00000000
00000000
00000000
00000000
00000000
00000000
00000000
00000000
00200000
00000000
00000000
00000000
00000000
00000000
00000000
00000000
00000000
00000000
00000000
00000000
,
00320000
00000000
00031000
00000100
00000002
00000000
00000000
00000000
00000000
00000000
00000000
00000000
00000023
00000000
00000000
00000000
,
00000000
00002030
00000000
00023000
,
00000000
02030000
00000000
23000000
,
00000000
30200000
00000000
00320000
,
00000000
00000000
00031000
00000010
00000001
00000000
00000001
00000100
,
00001000
00000000
00010000
00100000
10000000
00000000
10000000
01000000
,
00010000
00000000
00000000
00000000
00001000
00000000
00000010
00000100
00000000
00000100
00000010
00000000
00000001
00000000
00000100
00000010
,
00000000
00000000
00000000
00000010
00000000
00000000
00000100
00000000
00000000
00000000
00000000
00000000
00001001
00000000
00000000
00000000
00000000
00000000
00000000
00000000
00000000
00000000
00000000
00000000
00001000
00000000
00000000
00000000
00000100
00000000
00000000
00000000
00010000
00000000
00000000
00000000
00001000
00000000
00000000
00000000
01000000
00000000
00000000
00000000
00010000
00000000
00000000
00000000
,
00100000
00000000
01100000
01100000
00000000
00000000
00011000
00011000
,
00000000
00000000
00000110
00000110
00000000
00000000
00011000
00011000
,
00000000
00000000
00000000
00000000
01000000
00010000
00100000
00001000
00010000
00000010
00001000
00000100
00010000
00001000
01000000
00010000
,
01000000
00000000
00001000
00000000
00010000
00000000
00001000
00000000
00200000
00000000
00000000
01000000
00000000
00000000
01000000
00000000
00300000
00000000
00000000
00000000
00000000
00000000
00000000
00000000
00000000
00000000
00000000
00000000
00000000
00000000
00000000
00000000
,
00010000
01000000
00001000
00010000
00000100
00001000
00000100
00010000
,
00001000
00000010
00000100
00000010
00000001
00000000
00001001
00000000
,
00001000
00000010
00010000
00001000
00010000
00000100
00001000
00000100
,
00010000
00011000
01001000
01010000
,
00010000
00100000
01000000
10000000
00100000
01000000
00010000
00100000
,
00001000
00010000
00000010
00001000
00000100
00000000
00000110
00000000
,
00000010
00000001
00001000
00000001
00000100
00001000
00000100
00000001
,
00001000
00000000
00000010
00000000
00010000
00000000
00001000
00000000
00000000
00011000
00000000
00000000
,
00010000
00100000
01000000
00100000
10000000
00010000
01000000
00010000
,
10000000
01000000
00010000
00001000
00100000
00000000
00110000
00000000
,
00010000
01000000
00001000
00010000
00001000
00100000
00010000
00100000
,
00001000
00011000
00010100
00001100
,
00001000
00000010
00001000
00000100
00010000
00001000
00100000
00000000
,
00010000
01000000
00010000
00100000
00001000
00010000
00000100
00000000
,
00001000
00000000
00000010
00000000
00000100
00000000
00001000
00000000
00010000
00000000
00100000
00000000
,
01000000
01010000
10010000
11000000
,
01100000
00000000
00100000
00001000
00010000
00001000
01000000
00010000
,
01000000
00001000
00010000
00000010
00000000
00001010
00000000
00001100
,
00000000
00000100
00000010
00000001
00000100
00000001
00000010
00000100
,
00001000
00000100
00010000
00001000
00000000
00101000
00000000
00110000
,
00000000
00010000
10000000
00100000
10000000
00010000
01000000
00010000
,
10000000
01000000
00010000
00001000
00000000
00101000
00000000
00110000
,
00000000
00010000
10000000
00100000
10000000
01000000
00010000
01000000
,
00100000
00001000
00010000
00000100
00000000
00001100
00000000
00001010
,
00000000
00000010
00000100
00000001
00000010
00000100
00000010
00000001
,
00001000
00000010
00010000
00001000
00000000
00011000
00000000
00101000
,
00000000
00100000
01000000
00010000
01000000
10000000
00010000
00100000
,
00010000
10000000
00100000
00010000
00000000
00011000
00000000
00010100
,
00000000
00000100
00001000
00000010
00000100
00000001
00000010
00000100
,
00010000
00001000
00100000
01000000
00000000
01100000
00000000
00110000
,
00000000
00010000
01000000
00000000
10000000
00000000
00010000
00000000
,
00100000
00000000
10000000
00010000
00000000
10000000
01000000
00010000
,
00001000
00000000
00011000
00000000
00010200
00000000
00001300
00000001
,
00000100
00001000
00000000
00010000
00000000
00001000
00010000
00000000
00200000
00000000
00000000
00000000
10300000
00000000
00010000
00000000
,
00200000
00000000
00302000
00000000
00003020
00000000
00000130
00010000
,
00001000
00000010
00000000
00000001
00000000
00000010
00001000
00000000
00010000
00000000
00010000
00100000
00000000
00100000
10000000
00000000
,
12000000
00000000
00000000
00000000
03020000
00000000
00000000
00000000
00032000
00000000
00000000
00000000
00103000
00010000
01000000
00001000
,
00010000
00000100
00001000
00000010
00001000
00000100
00010000
00001000
01000000
00010000
00100000
01000000
10000000
00100000
01000000
00010000
,
00200000
00000000
00000000
00000000
01300000
00010000
00001000
00100000
00010000
00000000
00100000
00001000
00000000
00010000
00000010
00000000
,
00002010
00000000
00000000
00000000
00000000
00000000
00000000
00000000
00003100
00000001
00000100
00001000
00000010
00001000
00010000
01000000
,
00200000
00300000
00000000
00000000
;
