#VERSION:0.83;
#TITLE:Ancient Scapes;
#SUBTITLE:;
#ARTIST:Durandal;
#TITLETRANSLIT:;
#SUBTITLETRANSLIT:;
#ARTISTTRANSLIT:;
#GENRE:DYNASTIC FREEFORM;
#CREDIT:;
#MUSIC:Ancient Scapes.ogg;
#BANNER:Ancient Scapes.png;
#BACKGROUND:Ancient Scapes-bg.png;
#CDTITLE:./CDTitles/bm IIDX 21 SPADA.png;
#SAMPLESTART:98.916;
#SAMPLELENGTH:15.000;
#SELECTABLE:YES;
#OFFSET:0.848;
#BPMS:0.000=178.000;
#STOPS:;
#TIMESIGNATURES:0.000=4=4;
#BGCHANGES:0.000=../BGAs/20te.mp4=1.000=0=0=0=StretchNoLoop====,
99999.000=-nosongbg-=1.000=0=0=0=StretchNoLoop====
;
#FGCHANGES:;

//--------------- dance-single - forcednature ----------------
#NOTEDATA:;
#STEPSTYPE:dance-single;
#DESCRIPTION:forcednature;
#DIFFICULTY:Beginner;
#METER:5;
#RADARVALUES:0,0,0,0,0;
#CREDIT:forcednature;
#NOTES:
0000
0000
0000
0000
,
0000
0000
0000
0000
,
0000
0000
0000
0000
,
0000
0000
0000
0000
,
0000
0000
0000
0000
,
0000
0000
0000
0000
,
2000
0000
0000
0000
,
3000
0000
0000
0000
,
0002
0000
0000
0000
,
0003
0000
0100
0000
,
0010
0000
1000
0000
,
1000
0000
0001
0000
,
0010
0000
0001
0000
,
0001
0000
1000
0000
,
0100
0000
0010
0000
,
0010
0000
0001
0000
,
0100
0000
0010
0000
,
0220
0000
0330
0000
,
1001
0000
1000
0000
,
0100
0000
1000
0000
,
0001
0000
0100
0000
,
0001
0000
0010
0000
,
0100
0100
0100
0000
,
1000
1000
1000
0000
,
0010
0100
0010
0000
,
0220
0000
0330
0000
,
0001
0000
0100
0000
,
0001
0000
0010
0000
,
0100
0100
0100
0000
,
1000
0000
0000
0000
,
0010
0000
0100
0000
,
0001
0000
0010
0000
,
0100
0100
0100
0000
,
1000
0000
0000
0000
,
1001
0000
0001
0000
,
0010
0000
0001
0000
,
1000
1000
1000
0000
,
0010
0000
0000
0000
,
0110
0000
1000
0000
,
0001
0000
0010
0000
,
0001
0001
0001
0000
,
0100
0000
0000
0000
,
1001
0000
0000
0000
,
1000
0000
0100
0000
,
0010
0000
0001
0000
,
0100
0000
0000
0000
,
1001
0000
0000
0000
,
0001
0000
0100
0000
,
0010
0000
1000
0000
,
0100
0100
0100
0000
,
0010
0000
0001
0000
,
0010
0000
0001
0000
,
1000
0000
0010
0000
,
0100
0000
0001
0000
,
1000
0000
0100
0000
,
1000
0000
0100
0000
,
0010
0010
0010
0000
,
1001
0000
0000
0000
,
0002
0000
0000
0000
,
0003
0000
0000
0000
,
0200
0000
0000
0000
,
0300
0000
0000
0000
,
0020
0000
0000
0000
,
0030
0000
0000
0000
,
2000
0000
0000
0000
,
0001
0000
3000
0000
,
0001
0001
0001
0000
,
0010
0010
0010
0000
,
0100
0100
0100
0000
,
1000
1000
1000
0000
,
0001
0001
0000
0100
,
0010
0010
0000
1000
,
0001
0010
0100
1000
,
0020
0000
0030
0000
,
1000
0100
1000
0000
,
0100
0010
0100
0000
,
0010
0001
1000
0000
,
0010
1000
0001
0000
,
0100
0001
0100
0000
,
0010
0100
0010
0000
,
1000
0001
0010
0000
,
0110
0000
1000
0000
,
1001
0000
0001
0100
,
0001
1000
0010
0000
,
1001
0000
1000
0100
,
1000
0001
0010
0000
,
0100
0100
1000
0000
,
0010
0010
1000
0000
,
0001
0100
0001
0100
,
0010
0000
0000
0000
,
2002
0000
0000
0000
,
0000
0000
0000
0000
,
3003
0000
0000
0000
;

//--------------- dance-single - forcednature ----------------
#NOTEDATA:;
#STEPSTYPE:dance-single;
#DESCRIPTION:forcednature;
#DIFFICULTY:Easy;
#METER:9;
#RADARVALUES:0,0,0,0,0;
#CREDIT:forcednature;
#NOTES:
0000
0000
0000
0000
,
0000
0000
0000
0000
,
0000
0000
0000
0000
,
0000
0000
0000
0000
,
0000
0000
0000
0000
,
0000
0000
0000
0000
,
2000
0000
0000
3200
0000
0000
0320
0000
,
0000
0000
0000
0030
,
0002
0000
0000
0203
0000
0000
0320
0000
,
1000
0000
1000
1000
1030
0000
0000
0000
,
0001
0100
0001
0010
,
0100
0100
1000
0010
,
1000
0100
1000
0010
,
0100
0000
0100
0000
0001
1000
0001
0000
,
0010
0100
1000
0001
,
0100
0100
0001
1000
,
0010
0100
0001
1000
,
2002
0000
3003
0000
,
1000
0100
0010
0110
,
0100
1000
0001
0010
,
0001
0100
0010
0110
,
0100
0000
0001
0000
1000
0001
1000
0000
,
0010
0000
0100
0010
0100
0000
0001
0000
,
0010
0000
0100
0010
0100
0000
1000
0000
,
0001
1000
0001
0000
1000
0001
1000
0000
,
0000
0000
0010
0000
0000
0010
0000
0000
0100
0000
0000
0001
0000
0000
1000
0000
,
0000
0000
0010
0000
0100
0010
0100
0000
,
0001
0000
1000
0000
0100
1000
0100
0000
,
0010
0001
1000
0010
,
1000
0001
0010
0100
,
1000
0000
0001
0000
0100
0001
0100
0000
,
0010
0000
1000
0000
0100
1000
0100
0000
,
0010
0001
1000
0010
,
0100
0000
0110
0000
1001
0000
0001
1000
,
0001
0000
0010
0000
0100
0000
1000
0001
,
1000
0000
0010
0000
0100
0000
0001
0010
,
0001
0100
0010
0110
,
1000
0100
0010
0110
,
0001
0000
1000
0000
0100
1000
0100
0000
,
1000
0000
0001
0000
0100
0001
0100
0000
,
0010
1000
0010
0000
0100
0001
0100
0000
,
2002
0000
3003
0000
,
1000
0100
0001
0100
,
1000
1000
0001
0010
,
0001
0100
1000
0100
,
0001
0001
1000
0010
,
1001
1000
0100
0001
,
0100
0100
1000
0001
,
0010
0001
0100
0010
,
1000
0001
1000
0000
0010
0100
0010
0000
,
1000
0100
0010
0100
,
1000
0100
0010
0000
0001
0000
1000
0000
,
0001
0100
0010
0100
,
0001
0100
0010
0000
1000
0000
0001
0000
,
0010
0100
0010
0000
0100
0000
1000
0000
,
0010
0100
0010
0000
0100
0000
0001
0000
,
1000
0100
1000
0000
0001
0100
0001
0000
,
2002
0000
3003
0000
,
2000
0000
0000
3200
0000
0000
0320
0000
,
0000
0000
0000
0030
,
0002
0000
0000
0203
0000
0000
0320
0000
,
0000
0000
0000
0030
,
2000
0000
0000
3002
0000
0000
0023
0000
,
0000
0000
0000
0030
,
0200
0000
0000
2300
0000
0000
3010
0000
,
2002
0000
3003
0000
,
0001
0100
0001
0000
0100
0000
0001
0000
,
1000
0100
1000
0000
0100
0000
1000
0000
,
0001
0010
0001
0000
0010
0000
0001
0000
,
1000
0010
1000
0000
0010
0000
1000
0000
,
0100
0010
0100
0000
1000
0001
1000
0000
,
0010
0100
0010
0000
1000
0001
1000
0000
,
0001
0100
0000
0100
0000
0010
0000
0010
,
2000
0000
3000
0000
,
0001
0010
0001
0000
0010
0000
0100
0000
,
1000
0010
1000
0000
0010
0000
0100
0000
,
0001
0011
1000
0100
,
1000
1010
0001
0100
,
0001
1000
0001
0000
0100
0000
0010
0000
,
1000
0001
1000
0000
0100
0000
0010
0000
,
0001
0100
0101
0010
,
1000
0000
0100
0000
1100
0000
0001
0010
,
0001
0000
1000
0000
0001
0100
0001
0000
,
1000
0000
0010
0000
1000
0100
1000
0000
,
0010
0100
0110
0001
,
0010
0100
0110
1000
,
0001
0100
0001
0000
1000
0100
1000
0000
,
0001
0010
0001
0000
1000
0010
1000
0000
,
0100
0010
0001
0000
0100
0010
1000
0000
,
2002
0000
3003
0000
,
0220
0000
0000
0000
,
0000
0000
0000
0000
,
0330
0000
0000
0000
;

//--------------- dance-single - forcednature ----------------
#NOTEDATA:;
#STEPSTYPE:dance-single;
#DESCRIPTION:forcednature;
#DIFFICULTY:Medium;
#METER:13;
#RADARVALUES:0,0,0,0,0;
#CREDIT:forcednature;
#NOTES:
0000
0000
0000
0000
,
0000
0000
0000
0000
,
0000
0000
0000
0000
,
0000
0000
0000
0000
,
0000
0000
0000
0000
,
0000
0000
0000
0000
,
0002
0000
0000
0203
0000
0000
0320
0000
,
0000
0000
0000
0000
0000
0000
0000
0000
0000
0000
1030
0000
0000
1000
0000
0000
,
0002
0000
0000
0023
0000
0000
0230
0000
,
1300
0000
0000
1000
0000
0000
0001
0000
0100
0000
0010
0000
1000
0000
0000
0000
,
0001
0010
0100
0000
0010
0001
0100
0000
,
0010
1000
0001
0100
,
0010
1000
0100
0000
0010
0100
1000
0000
,
0001
0000
0000
0001
0000
0000
0100
0000
0010
0000
1000
0000
0001
0000
0000
0000
,
0010
0100
1000
0000
0010
0100
0001
0000
,
0010
0001
1000
0010
,
0100
0001
0010
0000
0100
1000
0010
0000
,
0220
0000
0000
0330
,
1001
0000
1100
0000
0001
0010
0100
0000
,
0010
0001
1000
0000
0010
0100
0001
0000
,
1001
0000
0101
0000
1000
0010
0100
0000
,
0001
0000
1000
0000
0100
0000
0000
0000
0010
0001
0000
0010
0001
0000
0000
0000
,
1000
0010
0100
0010
1000
0001
0100
0000
,
0001
0000
0010
0000
0100
0000
0010
0000
0001
1000
0000
0001
1000
0000
0000
0000
,
0010
0100
0010
0100
0001
1000
0010
0100
,
0000
0000
0110
0000
0000
0101
0000
0000
0011
0000
0000
1100
0000
0000
1001
0000
,
0000
0001
0100
0010
0100
0001
1000
0010
,
0000
1000
0100
0010
0100
1000
0001
0010
,
0000
0000
0001
0000
0100
0001
0000
0100
0010
0000
0000
1000
0010
0000
1000
0000
,
0000
0000
0100
0000
1000
0100
0000
0010
0100
0000
0000
0010
0001
0000
1000
0000
,
0000
0010
0100
0001
0010
0100
1000
0010
,
0000
1000
0100
0010
0001
0100
0010
1000
,
0000
0000
0001
0000
0010
0001
0000
0010
0100
0000
0000
1000
0010
0000
0100
0000
,
0000
0000
0001
0000
1000
0010
0000
0100
0010
0000
0000
0100
0001
0000
0010
0000
,
0000
0100
1000
0001
0100
1000
0100
0001
,
0000
1000
0010
1000
0100
0001
0100
1000
,
0000
0000
0001
0000
0010
0001
0000
0010
0100
0000
0000
1000
0010
0000
0100
0000
,
0000
0000
0001
0000
1000
0100
0000
1000
0010
0000
0000
0100
0001
0000
0010
0000
,
0000
0100
1000
0010
1000
0100
1000
0001
,
0000
0000
0100
0000
0001
0000
0010
0000
0001
1000
0000
0001
1000
0000
0010
0000
,
0100
0001
0010
0001
1000
0010
1000
0100
,
0220
0000
0000
0330
,
0010
0001
0100
0001
0000
0010
1000
0000
,
0010
0001
0100
0000
0010
1000
0100
0000
,
1000
0010
1000
0100
0000
0010
0001
0000
,
1000
0010
0100
0000
0001
0010
0100
0000
,
1000
0001
0100
0001
0000
1000
0010
0000
,
1000
0100
0001
0000
0100
1000
0001
0000
,
0010
0100
1000
0100
0000
0010
0001
0000
,
0100
0100
0100
0000
0110
0000
1001
0000
,
1000
0100
0010
0100
1000
0001
1000
0010
,
0100
0010
1000
0001
1000
0100
0010
0000
,
0001
0100
0010
0100
0001
1000
0001
0010
,
0100
0010
0001
1000
0001
0100
0010
0000
,
1000
1000
0100
1000
0001
0010
0100
1000
,
0001
0001
0100
0001
1000
0010
0100
0001
,
0010
0010
0100
0100
0010
0001
1000
0000
,
0220
0000
0000
0330
,
2000
0000
0000
3002
0000
0000
0023
0000
,
0000
0000
0000
0000
0000
0000
0000
0000
0000
0000
0031
0000
0000
1000
0000
0000
,
0002
0000
0000
0203
0000
0000
0320
0000
,
0000
0000
0000
0000
0030
0000
1000
0001
1000
0000
0000
0001
0000
0000
0010
0000
,
0200
0000
0000
2300
0000
0000
3002
0000
,
0000
0000
0000
0000
0000
0000
0000
0000
0000
0000
0103
0000
0000
0010
0000
0000
,
0200
0000
0000
0302
0000
0000
1003
0000
,
0220
0000
0000
0330
,
0001
0100
1000
0100
0001
1000
0010
0010
,
1000
0100
0001
0100
1000
0001
0010
0010
,
0001
0100
1000
0100
0001
1000
0010
0010
,
1000
0100
0001
0100
1000
0001
0010
0000
,
0100
0100
1000
0100
1000
1000
0010
1000
,
0010
0010
0001
0010
0001
0001
0100
0001
,
0100
1000
0010
0100
0001
0010
0100
1000
,
2002
0000
0000
3003
,
1000
0000
0100
0000
0010
0000
0100
0000
1000
0000
0000
0001
0010
0000
0001
0000
,
1000
0000
0010
0000
0100
0000
0010
0000
1000
0000
0000
0001
0010
0000
0100
0000
,
0000
0000
0010
0000
0001
0010
0000
0001
0010
0000
0100
1000
0000
0100
1000
0000
,
0000
0000
0001
0000
0100
0001
0000
0100
0001
0000
1000
0010
0000
1000
0010
0000
,
0000
0000
1000
0000
0100
0000
0010
0000
0100
0000
0000
1000
0001
0000
0010
0000
,
0001
0000
1000
0000
0010
0000
1000
0000
0001
0000
0000
0010
0100
0000
1000
0000
,
0000
0000
0001
0000
0100
0001
0000
0100
0001
0000
1000
0010
0000
1000
0010
0000
,
0000
0000
1000
0000
0100
1000
0000
0100
0010
0000
0001
0010
0000
0100
0010
0000
,
0000
0000
0100
0000
1000
0000
0001
0000
0100
0000
0000
0010
1000
0000
0001
0000
,
0010
0000
0001
0000
0100
0000
0010
0000
1000
0000
0000
0100
0010
0000
0001
0000
,
0000
0000
1000
0000
0010
1000
0000
0010
0100
0000
0001
0100
0000
0010
1000
0000
,
0000
0000
0001
0000
0010
0001
0000
0010
0100
0000
1000
0100
0000
0010
0001
0000
,
1000
1000
0010
0100
0010
1000
0100
0010
,
0001
0001
0010
0100
0010
0001
0100
0010
,
1000
1000
0100
0100
0010
0001
0100
0010
,
1002
0000
0100
0100
0100
0000
0013
0000
,
0220
0000
0000
0000
,
0000
0000
0000
0000
,
0330
0000
0000
0000
;

//--------------- dance-single - forcednature ----------------
#NOTEDATA:;
#STEPSTYPE:dance-single;
#DESCRIPTION:forcednature;
#DIFFICULTY:Hard;
#METER:17;
#RADARVALUES:0,0,0,0,0;
#CREDIT:forcednature;
#NOTES:
0000
0000
0000
0000
,
0000
0000
0000
0000
,
0000
0000
0000
0000
,
0000
0000
0000
0000
,
0000
0000
0000
0000
,
0000
0000
0000
0000
,
2000
0000
0000
3200
0000
0000
0320
0000
,
0000
0000
0000
0000
0000
0000
0000
0000
0000
0000
0031
0000
0000
1000
0000
0000
,
0002
0000
0000
0203
0000
0000
0320
0000
,
1000
0000
0000
1000
0000
0000
1030
0000
0010
0000
0100
0000
0001
0000
0000
0000
,
1000
0100
0010
1000
0010
0100
1000
0000
,
0001
0100
0010
0000
1000
0100
0010
0000
,
0001
0100
0010
0001
0010
0100
0001
0000
,
0010
0000
0100
0010
0000
0100
1000
0000
0001
0000
0010
0001
0010
0000
0000
0000
,
0001
0100
0010
0001
0010
0100
0001
0000
,
1000
0010
0100
0000
0001
0010
0100
0000
,
1000
0100
0010
1000
0010
0100
1000
0000
,
2002
0000
0000
3003
,
0001
0000
0100
0000
0010
0000
0100
0000
0001
0000
0000
0001
1000
0000
0010
0000
,
1000
0000
0100
0000
0010
0000
0100
0000
1000
0000
0000
1000
0001
0000
0010
0000
,
0011
0000
1000
0000
0010
0000
0100
0000
0001
0000
0000
0001
1000
0000
0100
0000
,
0010
0000
0001
0000
1000
0000
0010
0000
0100
0001
0000
0100
0001
0000
0100
0000
,
0110
0000
0001
0000
1000
0000
0100
0000
0001
0000
0100
0000
1000
0000
0001
0010
,
0001
0000
1000
0000
0100
0000
1000
0010
1000
0010
0000
0100
0010
0000
0100
0001
,
1000
0000
0100
0000
1000
0100
0010
0000
0001
0000
1000
0010
1000
0000
0010
0100
,
0000
0000
0101
0000
0000
0011
0000
0000
1100
0000
0000
1010
0000
0000
0001
1000
,
0001
0000
0010
0000
0100
0000
0010
0000
0001
0000
1000
0100
1000
0000
0010
0000
,
0100
0000
0001
0000
1000
0000
0010
0000
1000
0000
0001
0010
0100
0000
0010
0000
,
0001
0000
1000
0000
0001
0100
0000
0001
0100
0000
0010
1000
0000
0010
1000
0000
,
0001
0000
0010
0000
0100
1000
0000
0100
1000
0000
0001
0100
0000
0001
0100
0000
,
0010
0000
1000
0000
0001
0000
0010
0000
0001
0000
1000
0100
1000
0000
0001
0000
,
0100
0000
0010
0000
1000
0000
0010
0000
0100
0000
0001
1000
0001
0000
0010
0000
,
0100
0000
1000
0000
0001
0100
0000
0001
0100
0000
0010
1000
0000
0010
1000
0000
,
0001
0000
0010
0000
0100
0010
0000
0100
1000
0000
0001
0010
0000
0100
0010
0100
,
1000
0000
0001
0000
0100
0000
0010
0000
0100
0000
0001
0010
0001
0000
1000
0000
,
0010
0000
1000
0000
0100
0000
0010
0000
0001
0000
0100
0001
0100
0000
0010
0000
,
1000
0000
0001
0000
0010
0100
0000
1000
0100
0000
0010
0001
0000
1000
0001
0000
,
0100
0000
0010
0000
1000
0010
0000
0100
0001
0000
1000
0001
0000
0100
0010
0000
,
1000
0000
1000
0000
0100
0000
1000
0000
0001
0000
0001
0000
0010
0000
0001
1000
,
0010
0000
0010
0000
0100
0000
0001
1000
0010
1000
0000
0010
0100
0000
0001
0100
,
0001
0000
0001
0000
0010
0001
0010
0000
0100
0000
0010
0001
1000
0000
0100
1000
,
0002
0000
0000
0000
0010
0000
0010
0000
0010
0000
0000
1000
0000
0000
0103
0000
,
0001
0010
0100
1000
0010
0100
0001
0010
,
0100
1000
0010
0100
0001
0010
1000
0010
,
0001
0100
0010
1000
0100
0010
0001
0100
,
0010
0000
1000
0000
0100
0000
0010
0000
0001
0000
0100
0000
1000
0000
0100
0001
,
1000
0100
0010
0001
0100
0010
1000
0100
,
0010
0001
0100
0010
1000
0100
0001
0100
,
1000
0010
0100
0001
0010
0100
1000
0010
,
0100
0001
0100
0001
1000
0010
1000
0010
0100
0000
0001
1000
0010
0000
1000
0001
,
0010
0001
0100
0010
0100
0001
0010
0100
,
0001
0100
0010
0001
1000
0100
1000
0001
,
0100
0010
1000
0100
0010
0100
1000
0010
,
0100
0000
1000
0000
0100
0000
0010
0000
1000
0000
0001
0000
0100
0010
0100
0010
,
1000
0000
1000
0000
0100
0000
1000
0100
1000
0000
0001
0000
0010
0000
0001
0010
,
0100
0000
1000
0000
0001
0000
1000
0010
1000
0010
0000
0100
0010
0000
0100
0001
,
1000
0000
0100
1000
0100
0000
0010
0100
0010
0000
0001
0010
0001
0000
1000
0001
,
0200
0000
0000
0300
,
2001
0000
0000
3200
0000
0000
0320
0000
,
0000
0000
0000
0000
0000
0000
0000
0000
0000
0000
0031
0000
0000
1000
0000
0000
,
0002
0000
0000
0203
0000
0000
0320
0000
,
0000
0000
0000
0000
0030
0000
1000
0100
1000
0000
0000
0001
0000
0000
0010
0000
,
0200
0000
0000
2300
0000
0000
3002
0000
,
0000
0000
0000
0000
0000
0000
0000
0000
0000
0000
0103
0000
0000
0010
0000
0000
,
2000
0000
0000
3002
0000
0000
0013
0000
,
0220
0000
0000
0330
,
1000
0000
0001
0000
0100
0001
0100
0001
0100
0010
0000
0100
0010
0000
1000
0000
,
0001
0000
1000
0000
0100
1000
0100
1000
0100
0010
0000
0100
0010
0000
0001
0000
,
1000
0000
0010
0000
0100
0010
0100
0010
0100
0010
0000
0100
0001
0000
1000
0000
,
0001
0000
0010
0000
0100
0010
0100
0010
0100
0010
0000
0100
1000
0000
0000
0000
,
0001
0000
0100
0000
0010
0100
0010
0100
0010
0000
1000
0000
0001
1000
0001
1000
,
0001
0000
0010
0000
0100
0010
0100
0010
0100
0000
1000
0000
0001
1000
0001
1000
,
0001
0000
0100
0010
1000
0000
0100
0010
0001
0000
1000
0001
0100
0000
0001
1000
,
0020
0000
0000
0030
,
0100
0000
0001
0000
0100
0000
0010
0000
1000
0000
0001
0010
0000
0100
0010
0100
,
1000
0000
0001
0000
0100
0000
0010
0000
0100
0000
0010
1000
0000
0001
0100
0001
,
0000
1000
0100
0000
1000
0001
0000
0100
0001
0000
1000
0010
0000
0100
0010
0100
,
0000
0001
1000
0000
0100
1000
0000
0001
0010
0000
0100
0010
0000
0001
1000
0001
,
0100
0000
0010
0000
1000
0000
0001
0000
0010
0000
0100
0010
0000
0100
1000
0001
,
1000
0000
0010
0000
0100
0000
0001
0000
0010
0000
0001
1000
0000
0001
0100
0001
,
0000
0100
0010
0000
1000
0001
0000
1000
0010
0000
1000
0001
0000
0010
0001
0010
,
0000
0001
0100
0000
0010
0100
0000
0001
1000
0000
0010
1000
0000
0001
0100
0010
,
0000
0000
1000
0000
0100
0010
0000
0100
1000
0000
0001
0010
0000
0001
1000
0001
,
0000
0000
0100
0000
0010
1000
0000
0010
0100
0000
0001
1000
0000
0001
0100
0001
,
0000
1000
0100
0000
0010
0100
0000
0010
0001
0000
1000
0010
0000
1000
0001
1000
,
0000
0001
0100
0000
0010
0100
0000
0001
1000
0000
0010
1000
0000
0001
0010
0001
,
0010
0000
0010
0000
0100
0000
1000
0000
0001
0000
0001
0000
0100
0000
0010
1000
,
0010
0000
0100
0000
0001
0000
1000
0100
1000
0100
0000
0010
0100
0000
0010
0001
,
1000
0010
1000
0010
1000
0010
1000
0010
0100
0000
0001
1000
0100
0000
1000
0001
,
0020
0000
0000
0000
0100
0000
0100
0000
0130
0000
0000
0010
0000
0000
0100
0000
,
2002
0000
0000
0000
,
0000
0000
0000
0000
,
3003
0000
0000
0000
;

//--------------- dance-double - forcednature ----------------
#NOTEDATA:;
#STEPSTYPE:dance-double;
#DESCRIPTION:forcednature;
#DIFFICULTY:Easy;
#METER:9;
#RADARVALUES:0,0,0,0,0;
#CREDIT:forcednature;
#NOTES:
00000000
00000000
00000000
00000000
,
00000000
00000000
00000000
00000000
,
00000000
00000000
00000000
00000000
,
00000000
00000000
00000000
00000000
,
00000000
00000000
00000000
00000000
,
00000000
00000000
00000000
00000000
,
00002000
00000000
00000000
00023000
00000000
00000000
00230000
00000000
,
00000000
00000000
00000000
00000000
00000000
00300000
00000000
00000000
,
20000000
00000000
00000000
32000000
00000000
00000000
03200000
00000000
,
00320000
01000000
01000000
00130000
,
00010000
10000000
01000000
00010000
,
00001000
00000010
00000100
00000100
,
00001000
00000001
00000100
00001000
,
00010000
00000000
00100000
00000000
01000000
00100000
01000000
00000000
,
00010000
10000000
01000000
00010000
,
00001000
00000010
00000100
00000100
,
00001000
00000001
00000100
00001000
,
00022000
00000000
00033000
00000000
,
00001000
00010000
00100000
10000000
,
00010000
00000000
00100000
00000000
01000000
00000000
00010000
00001000
,
00010000
00001000
00000010
00000001
,
00001000
00000000
00000010
00000000
00000100
00000010
00000100
00000000
,
00000001
00000000
00000010
00000000
00001000
00000000
00010000
00001000
,
00010000
00000000
00000000
00000000
00100000
00000000
00000000
00000000
10000000
00000000
00000000
10000000
00000000
00000000
00010000
00000000
,
10000000
00000000
01000000
10000000
01000000
00000000
00010000
01000000
,
00000000
00000000
00010000
00000000
00000000
00010000
00000000
00000000
00001000
00000000
00000000
00001000
00000000
00000000
00000010
00000000
,
00000000
00000100
00000010
00000000
00000100
00001000
00000100
00000000
,
00010000
00000000
00001000
00000000
01000000
00010000
01000000
00000000
,
00100000
10000000
01000000
00010000
,
00001000
00000100
00000001
00000010
,
00000100
00000000
00001000
00000000
00000010
00000100
00000010
00000000
,
00010000
00000000
00001000
00000000
00100000
00010000
00100000
00000000
,
01000000
10000000
00100000
00010000
,
00001000
00000000
00000000
00000000
00000010
00000000
00000000
00000000
00000001
00000000
00000000
00001000
00000000
00000000
00000100
00000000
,
00000000
00010000
00001000
00000000
00100000
00010000
00100000
00000000
,
00001000
00000000
00010000
00000000
00000010
00001000
00000010
00000000
,
00000100
00000001
00000010
00001000
,
00010000
00100000
10000000
01000000
,
10000000
00000000
10000000
00100000
10000000
00000000
01000000
00000000
,
00010000
00000000
00010000
00001000
00010000
00000000
00000100
00000000
,
00001000
00000010
00001000
00000000
00000010
00000100
00000010
00000000
,
00002002
00000000
00003003
00000000
,
00000001
00000100
00000010
00001000
,
00000001
00000010
00001000
00010000
,
01000000
10000000
00010000
00100000
,
00001000
00010000
00001000
01000000
,
00010000
10000000
00100000
00010000
,
00001000
00000100
00000001
00001000
,
00000001
00000010
00001000
00010000
,
00000100
00001000
00000100
00000000
00000010
00000000
00000110
00000000
,
00001000
00000000
00001000
00000001
00000000
00000001
00000100
00000000
,
00001000
00010000
00100000
10000000
,
00010000
00000000
00010000
10000000
00000000
10000000
01000000
00000000
,
00010000
00001000
00000010
00000001
,
00001000
00000000
00001000
00000100
00001000
00000000
00000010
00000000
,
00010000
00000000
00010000
00001000
00010000
00000000
00100000
00000000
,
01000000
00010000
01000000
00000000
00100000
10000000
00100000
00000000
,
20020000
00000000
30030000
00000000
,
20000000
00000000
00000000
32000000
00000000
00000000
03020000
00000000
,
00000000
00000000
00000000
00030000
,
00002000
00000000
00000000
00003020
00000000
00000000
00000032
00000000
,
00000000
00000000
00002003
00003000
,
00000002
00000000
00000000
00000203
00000000
00000000
00002300
00000000
,
00000000
00000000
00000000
00003000
,
00020000
00000000
00000000
00230000
00000000
00000000
10300000
00000000
,
20020000
00000000
30030000
00000000
,
10000000
00000000
01000000
00100000
01000000
00000000
00010000
00000000
,
00001000
00000000
00000010
00000100
00000010
00000000
00000001
00000000
,
00000001
00000000
00000100
00000010
00000100
00000000
00001000
00000000
,
00010000
00000000
00100000
01000000
00100000
00000000
10000000
00000000
,
01000000
10000000
01000000
00000000
00100000
00010000
00100000
00000000
,
00001000
00010000
00001000
00000000
00010000
00000100
00001000
00000000
,
00000010
00000100
00000000
00000100
00000000
00000001
00000010
00000000
,
00002002
00000000
00003003
00000000
,
00000001
00000000
00000100
00000010
00001000
00000000
00000100
00000000
,
00010000
00000000
00001000
01000000
00010000
00000000
00100000
00000000
,
01000000
10000000
01000000
00010000
,
00001000
00000100
00000001
00000100
,
00001000
00000000
00010000
00000010
00001000
00000000
00000010
00000000
,
00010000
00000000
00001000
00100000
00010000
00000000
01000000
00000000
,
00010000
00100000
10000000
00100000
,
00110000
00000000
00101000
00000000
00001000
00010000
00001000
00000000
,
00010000
00000000
00000100
00000000
00001000
00000010
00000100
00000000
,
00000001
00000000
00000010
00000000
00000100
00001000
00000001
00000000
,
00000100
00001000
00010000
01000000
,
00010000
00000000
00001000
00000000
00000100
00000000
00000010
00000100
,
00000001
00000000
00001000
00000000
00000100
00000000
00000010
00000100
,
00000010
00000000
00000100
00010000
00001000
00000000
00011000
00000000
,
00100000
00001000
00010000
00000000
00000010
00010000
00001000
00000000
,
00022000
00000000
00033000
00000000
,
02200000
00000000
00000000
00000000
,
00000000
00000000
00000000
00000000
,
03300000
00000000
00000000
00000000
;

//--------------- dance-double - forcednature ----------------
#NOTEDATA:;
#STEPSTYPE:dance-double;
#DESCRIPTION:forcednature;
#DIFFICULTY:Medium;
#METER:13;
#RADARVALUES:0,0,0,0,0;
#CREDIT:forcednature;
#NOTES:
00000000
00000000
00000000
00000000
,
00000000
00000000
00000000
00000000
,
00000000
00000000
00000000
00000000
,
00000000
00000000
00000000
00000000
,
00000000
00000000
00000000
00000000
,
00000000
00000000
00000000
00000000
,
00020000
00000000
00000000
00032000
00000000
00000000
00003020
00000000
,
00000000
00000000
00000000
00000000
00000000
00000000
00000000
00000000
00000030
00000000
00000001
00000000
00000000
00001000
00000000
00000000
,
00000002
00000000
00000000
00000203
00000000
00000000
00002300
00000000
,
00013000
00000000
00000000
00010000
00000000
00000000
00010000
00000000
00001000
00000000
00000000
00100000
00000000
00000000
00010000
00000000
,
01000000
00000000
01000000
00100000
00000000
00100000
10000000
00000000
,
01000000
00010000
00001000
00000010
,
00000001
00000000
00000001
00001000
00000000
00001000
00000010
00000000
,
00000100
00001000
00010000
00100000
,
01000000
00000000
01000000
00010000
00000000
00010000
10000000
00000000
,
01000000
00010000
00001000
00000010
,
00000001
00000000
00000001
00001000
00000000
00001000
00000010
00000000
,
00000220
00000000
00000000
00000330
,
00000001
00000000
00001000
00000000
00000010
00000000
00000100
00001000
,
00010000
00000000
00000000
00000000
00100000
00000000
00000000
00000000
01000000
00000000
00000000
01000000
00010000
00000000
00010000
00000000
,
10000000
00000000
00010000
00000000
00100000
00000000
01000000
00010000
,
00001000
00000000
00000000
00000000
00000010
00000000
00000000
00000000
00000100
00000000
00000000
00000100
00001000
00000000
00000001
00000000
,
00000010
00000001
00000100
00000001
00000010
00001000
00010000
00000000
,
00100000
00000000
01000000
00000000
00010000
00000000
01000000
00000000
00100000
00000000
00000000
00100000
10000000
00000000
00000000
00000000
,
00010000
00100000
01000000
00010000
00001000
00000010
00000100
00001000
,
00000000
00000000
00000001
00000000
00000000
00000100
00000000
00000000
00001000
00000000
00000000
00010000
00000000
00000000
00100000
00000000
,
00000000
01000000
00010000
00100000
01000000
00010000
00001000
00100000
,
00000000
00001000
00010000
00000010
00001000
00000001
00000100
00001000
,
00000000
00000000
00010000
00000000
00000000
00100000
00000000
00000000
01000000
00000000
00000000
00100000
00000000
00000000
10000000
00000000
,
00000000
00000000
01000000
00000000
00000000
00010000
00000000
00000000
00001000
00000000
00000000
00010000
00000000
00000000
00000100
00000000
,
00000000
00001000
00000010
00000100
00000001
00000010
00001000
00010000
,
00000000
00000010
00000100
00001000
00010000
00100000
01000000
00010000
,
00000000
00000000
10000000
00000000
00000000
01000000
00000000
00000000
00010000
00000000
00000000
00001000
00000000
00000000
00100000
00000000
,
00000000
00000000
00001000
00000000
00000000
00000010
00000000
00000000
00000001
00000000
00000000
00000001
00000000
00000000
00001000
00000000
,
00000000
00000100
00010000
00000010
00001000
00000010
00010000
00001000
,
00000000
00100000
00010000
01000000
00100000
10000000
01000000
00010000
,
00000000
00000000
00001000
00000000
00000000
00000010
00000000
00000000
00000001
00000000
00000000
00000100
00000000
00000000
00001000
00000000
,
00000000
00000000
00010000
00000000
00000000
00100000
00000000
00000000
10000000
00000000
00000000
01000000
00000000
00000000
00010000
00000000
,
00000000
00001000
00100000
00010000
01000000
00100000
00010000
00001000
,
00000000
00000000
00010000
00000000
00000010
00000000
00001000
00000000
00000010
00000100
00000000
00000010
00000100
00000000
00000001
00000000
,
00000010
00000000
00000100
00000000
00001000
00000000
00000100
00000000
00000010
00000000
00001000
00010000
00000000
00000000
00001000
00010000
,
00002000
00000000
00000000
00003000
,
00010000
00100000
01000000
00100000
10000000
00010000
01000000
00000000
,
01010000
00110000
00101000
00110000
,
00001000
00010000
00000010
00010000
00001000
00000010
00000001
00000000
,
00000011
00000101
00000110
00000101
,
00000001
00000010
00001000
00010000
00000010
00001000
00000100
00000000
,
00011000
00101000
01010000
00101000
,
00001000
00010000
00000010
00010000
00001000
00000010
00000100
00000000
,
00001000
00000000
00001000
00000000
00000001
00000000
00000001
00000000
00001000
00000000
00000010
00000100
00000000
00000000
00000010
00000100
,
00000010
00001000
00000001
00000100
00001000
00010000
00100000
01000000
,
00001000
00010000
00100000
10000000
00010000
10000000
01000000
00000000
,
00100000
00010000
10000000
01000000
00010000
00001000
00000010
00000100
,
00010000
00001000
00000010
00000001
00001000
00000001
00000100
00000000
,
00000010
00001000
00010000
01000000
00001000
00010000
01000000
00000000
,
00100000
00000000
00010000
00000000
00001000
00000000
00000100
00000000
00001000
00000001
00000000
00001000
00000001
00000000
00000000
00000000
,
00000100
00001000
00010000
00001000
00010000
00100000
10000000
00010000
,
02000000
00000000
00000000
03000000
,
00200000
00000000
00000000
20300000
00000000
00000000
32000000
00000000
,
00000000
00000000
00000000
00000000
00000000
00000000
00000000
00000000
00000000
00000000
03010000
00000000
00000000
00001000
00000000
00000000
,
00000020
00000000
00000000
00000032
00000000
00000000
00000203
00000000
,
00000000
00000000
00000000
00000000
00000300
00000000
00000010
00001000
00000010
00000000
00000000
00000100
00000000
00000000
00000001
00000000
,
00000020
00000000
00000000
00002030
00000000
00000000
00023000
00000000
,
00000000
00000000
00000000
00000000
00000000
00000000
00000000
00000000
00000000
00000000
01030000
00000000
00000000
10000000
00000000
00000000
,
00200000
00000000
00000000
00320000
00000000
00000000
00031000
00000000
,
00021000
00000000
00000100
00000100
00000100
00000000
00030010
00000000
,
00010000
00000000
00001000
00000000
01000000
00000000
00010000
00000000
00100000
00000000
00000000
00100000
01000000
00000000
00010000
00000000
,
00001000
00000000
00010000
00000000
00000100
00000000
00001000
00000000
00000010
00000000
00000000
00000010
00000100
00000000
00001000
00000000
,
00010000
00000000
00001000
00000000
00100000
00000000
00010000
00000000
01000000
00000000
00000000
01000000
00100000
00000000
00010000
00000000
,
00001000
00000000
00010000
00000000
00000010
00000000
00001000
00000000
00000100
00000000
00000000
00000100
00000010
00000000
00000000
00000000
,
00000001
00000100
00000100
00001000
00010000
00100000
00100000
10000000
,
01000000
00010000
00010000
00001000
00000010
00000001
00000001
00000100
,
00001000
00010000
00100000
10000000
01000000
00010000
00001000
00000010
,
00002002
00000000
00000000
00003003
,
00000001
00000000
00000100
00000000
00000010
00000000
00000100
00000000
00001000
00000000
00000000
00001000
00010000
00000000
00000010
00000000
,
00001000
00000000
00000100
00000000
00000001
00000000
00000100
00000000
00001000
00000000
00000000
00001000
00000010
00000000
00010000
00000000
,
00000000
00000000
00001000
00000000
00100000
00010000
00000000
00100000
00010000
00000000
00100000
01000000
00000000
10000000
01000000
00000000
,
00000000
00000000
00010000
00000000
00001000
00010000
00000000
00001000
00010000
00000000
00000010
00001000
00000000
00000010
00000100
00000000
,
00000000
00000000
00000001
00000000
00000010
00000000
00001000
00000000
00010000
00000000
00000000
00010000
00001000
00000000
00000100
00000000
,
00001000
00000000
00010000
00000000
00100000
00000000
01000000
00000000
00010000
00000000
00000000
00010000
10000000
00000000
00100000
00000000
,
00000000
00000000
10000000
00000000
01000000
00100000
00000000
01000000
00100000
00000000
00010000
00100000
00000000
00001000
00010000
00000000
,
00000000
00000000
00000010
00000000
00001000
00000100
00000000
00000010
00000100
00000000
00000010
00000001
00000000
00001000
00000010
00000000
,
00000000
00000000
00000100
00000000
00000001
00000000
00000100
00000000
00001000
00000000
00000000
00001000
00010000
00000000
00100000
00000000
,
01000000
00000000
00001000
00000000
00100000
00000000
01000000
00000000
00010000
00000000
00000000
00010000
00001000
00000000
00000010
00000000
,
00000000
00000000
00000001
00000000
00000100
00000001
00000000
00000100
00000010
00000000
00001000
00000010
00000000
00010000
00001000
00000000
,
00000000
00000000
00100000
00000000
00010000
00100000
00000000
01000000
00100000
00000000
01000000
10000000
00000000
00010000
01000000
00000000
,
00001000
00010000
00100000
00010000
00001000
00010000
00100000
00100000
,
00010000
00000000
00001000
00000000
00000010
00000000
00001000
00000000
00010000
00001000
00000000
00010000
00001000
00000000
00000010
00000000
,
00000001
00000100
00000010
00001000
00010000
01000000
10000000
01000000
,
00020000
00000000
00100000
00100000
00100000
00000000
01030000
00000000
,
00022000
00000000
00000000
00000000
,
00000000
00000000
00000000
00000000
,
00033000
00000000
00000000
00000000
;

//--------------- dance-double - forcednature ----------------
#NOTEDATA:;
#STEPSTYPE:dance-double;
#DESCRIPTION:forcednature;
#DIFFICULTY:Hard;
#METER:16;
#RADARVALUES:0,0,0,0,0;
#CREDIT:forcednature;
#NOTES:
00000000
00000000
00000000
00000000
,
00000000
00000000
00000000
00000000
,
00000000
00000000
00000000
00000000
,
00000000
00000000
00000000
00000000
,
00000000
00000000
00000000
00000000
,
00000000
00000000
00000000
00000000
,
00002000
00000000
00000000
00023000
00000000
00000000
00230000
00000000
,
00000000
00000000
00000000
00000000
00000000
00000000
00000000
00000000
00000000
00000000
10300000
00000000
00000000
00010000
00000000
00000000
,
00200000
00000000
00000000
02300000
00000000
00000000
03020000
00000000
,
00031000
00000000
00000000
00001000
00000000
00000000
00001000
00000000
00010000
00000000
00000000
00000100
00000000
00000000
00001000
00000000
,
00000010
00000100
00000001
00000010
00000100
00001000
00000010
00000000
,
00000100
00001000
00010000
00000000
01000000
00010000
00001000
00000000
,
00100000
00010000
01000000
00100000
10000000
01000000
00100000
00000000
,
00001000
00000000
00000000
00001000
00000000
00000000
00000010
00000000
00000100
00000000
00000000
00010000
00000000
00000000
00001000
00000000
,
00000010
00000001
00000100
00000001
00000010
00000001
00000100
00000000
,
00001000
00010000
00100000
00000000
00010000
00001000
00000010
00000000
,
00001000
00010000
01000000
10000000
00100000
10000000
01000000
00000000
,
02200000
00000000
00000000
03300000
,
10000000
00010000
00100000
00000000
01000000
00000000
00010000
00010000
,
00001000
00000000
00000000
00000000
00000010
00000000
00000100
00000000
00010000
00000000
00000000
00001000
00000000
00000000
00000010
00000000
,
00000001
00000100
00000010
00000000
00010000
00000000
00000100
00000100
,
00001000
00000000
00000000
00000000
00000010
00000000
00000000
00000000
00010000
00001000
00000000
00001000
00010000
00000000
00010000
00000000
,
00100000
00000000
01000000
00000000
00010000
00000000
01000000
00000000
00100000
00000000
10000000
00000000
00010000
00000000
10000000
01000000
,
10000000
00000000
01000000
00000000
00010000
00000000
00001000
00000000
00100000
00010000
00000000
00010000
00100000
00000000
00001000
00000000
,
00010000
00001000
00010000
00000000
00000100
00001000
00000100
00000000
00001000
00000001
00000010
00000000
00000001
00001000
00000010
00000000
,
00000000
00000000
00000110
00000000
00000000
00000101
00000000
00000000
00000011
00000000
00000000
00001100
00000000
00000000
00010000
00001000
,
00100000
00000000
00010000
00000000
01000000
00000000
00100000
00000000
10000000
00000000
01000000
00100000
00000000
01000000
10000000
00000000
,
01000000
00000000
00010000
00000000
00001000
00000000
00100000
00000000
00010000
00000000
00100000
00001000
00000000
00010000
00000100
00000000
,
00010000
00000000
00001000
00000000
00000010
00000000
00000001
00000000
00001000
00000000
00000100
00000010
00000000
00000100
00001000
00000000
,
00000001
00000000
00000100
00000000
00001000
00000000
00010000
00000000
00000010
00000000
00001000
00000100
00000000
00010000
00001000
00000000
,
01000000
00000000
00010000
00000000
00100000
00000000
01000000
00000000
00010000
00000000
00001000
00100000
00000000
00010000
00100000
00000000
,
00001000
00000000
00000010
00000000
00000100
00000000
00010000
00000000
00001000
00000000
00000010
00000001
00000000
00000010
00000100
00000000
,
00001000
00000000
00000001
00000000
00000100
00000000
00001000
00000000
00010000
00000000
00100000
01000000
00000000
00100000
10000000
00000000
,
00010000
00000000
10000000
00000000
01000000
00000000
00010000
00000000
00011000
00000000
00000000
00010010
00000000
00000000
00000010
00001000
,
00000100
00000000
00000010
00000000
00000001
00000100
00000000
00000010
00000100
00000000
00000010
00001000
00000000
00000100
00010000
00000000
,
00001000
00000000
00000010
00000000
00001000
00010000
00000000
00001000
00100000
00000000
00010000
01000000
00000000
00100000
01000000
00000000
,
00010000
00000000
10000000
00000000
01000000
00100000
00000000
01000000
00010000
00000000
00001000
00010000
00000000
00001000
00100000
00000000
,
00001000
00000000
00010000
00000000
00000010
00001000
00000000
00000010
00000100
00000000
00000001
00000010
00000000
00000100
00000010
00000000
,
00000001
00000000
00000100
00000000
00001000
00000000
00010000
00000000
01000000
00000000
10000000
00000000
00100000
00000000
10000000
00010000
,
10000000
00000000
01000000
00000000
00010000
00000000
00001000
00000000
00000100
00000010
00000000
00000100
00000001
00000000
00001000
00000010
,
00001000
00000000
00001000
00000000
00000100
00000000
00000100
00000000
00000010
00000000
00001000
00000010
00001000
00000000
00010000
00001000
,
00020000
00000000
00000000
00000000
00000010
00000000
00000010
00000000
00030010
00000000
00000000
00010000
00000000
00000000
00001000
00000000
,
00000010
00000001
00000100
00000010
00010000
00000100
00000010
00000001
,
00000100
00000010
00010000
00000100
00000010
00001000
00010000
01000000
,
00100000
00001000
01000000
00100000
10000000
01000000
00100000
00001000
,
01000000
00000000
00100000
00000000
10000000
00000000
01000000
00000000
00100000
00000000
00001000
00000000
00010000
00000000
00000100
00001000
,
00000010
00000100
00000001
00000010
00001000
00010000
00000010
00000100
,
00000001
00000010
00001000
00010000
00000010
00000100
00001000
00010000
,
00100000
00000000
01000000
00000000
00001000
00000000
00010000
00000000
00100000
00000000
10000000
00000000
00100000
00000000
01000000
00010000
,
00100000
00010000
00100000
00001000
00010000
00001000
00010000
00000100
00001000
00000000
00000010
00000100
00000001
00000000
00000010
00000100
,
00001000
00000001
00000100
00001000
00010000
01000000
10000000
00100000
,
10000000
00000000
01000000
00000000
00010000
00000000
00001000
00000000
00000100
00000000
00000001
00000000
00000010
00000000
00000001
00001000
,
00000001
00000010
00001000
00010000
00100000
10000000
01000000
10000000
,
00100000
00000000
00010000
00000000
00001000
00000000
00000010
00000000
00000001
00000000
00000100
00000000
00000010
00000000
00001000
00000001
,
00000100
00000000
00001000
00000000
00010000
00000000
00001000
00010000
00100000
00000000
10000000
00000000
00100000
00000000
10000000
01000000
,
00010000
00000000
00001000
00000000
00010000
00000000
00001000
00000010
00000100
00000010
00000000
00000001
00000010
00000000
00000001
00001000
,
00000010
00001000
00000010
00001000
00000010
00010000
00001000
00010000
00001000
00000000
01000000
00010000
00100000
00000000
01000000
10000000
,
00020000
00000000
00000000
00030000
,
00200000
00000000
00000000
02300000
00000000
00000000
03020000
00000000
,
00000000
00000000
00000000
00000000
00000000
00000000
00000000
00000000
00000000
00000000
00031000
00000000
00000000
00000010
00000000
00000000
,
00000002
00000000
00000000
00000203
00000000
00000000
00000320
00000000
,
00000000
00000000
00000000
00000000
00000000
00000000
00000130
00000001
00000100
00000000
00000000
00001000
00000000
00000000
00010000
00000000
,
00200000
00000000
00000000
20300000
00000000
00000000
30020000
00000000
,
00000000
00000000
00000000
00000000
00000000
00000000
00000000
00000000
00000000
00000000
00130000
00000000
00000000
01000000
00000000
00000000
,
00020000
00000000
00000000
00032000
00000000
00000000
00003010
00000000
,
00000210
00000000
00000000
00000000
00001000
00000000
00001000
00000000
00001300
00000000
00000000
00000100
00000000
00000000
00000010
00000000
,
00000001
00000000
00001000
00000000
00000001
00000100
00000001
00000100
00000010
00000100
00000000
00000010
00001000
00000000
00000100
00000000
,
00000010
00000000
00001000
00000000
00010000
00001000
00010000
00001000
00100000
00010000
00000000
00100000
01000000
00000000
10000000
01000000
,
00010000
00000000
00001000
00000000
00100000
00010000
00100000
00010000
00100000
00001000
00000000
00010000
00001000
00000000
00000010
00000000
,
00000100
00000000
00001000
00000000
00000001
00000100
00000001
00000100
00000010
00001000
00000000
00000100
00010000
00000000
00000000
00000000
,
00001000
00000000
01000000
00000000
00010000
01000000
00001000
00010000
00001000
00000000
00010000
00000000
00000010
00001000
00000010
00000100
,
00000001
00000000
00000010
00000000
00000100
00001000
00000100
00010000
00001000
00000000
00100000
00000000
00010000
01000000
00010000
10000000
,
00100000
00000000
01000000
00001000
00010000
00000000
00000100
00010000
00001000
00000000
00100000
00001000
00010000
00000000
00000010
00010000
,
00002000
00000000
00000000
00003000
,
00100000
00000000
00001000
00000000
00010000
00100000
00000000
10000000
00100000
00000000
10000000
01000000
00000000
00100000
01000000
00000000
,
00100000
00000000
00001000
00000000
00010000
00000100
00000000
00000010
00000100
00000000
00001000
00000001
00000000
00000010
00000001
00000000
,
00000100
00000000
00000001
00000000
00000100
00001000
00000000
00010000
00001000
00000000
00010000
00100000
00000000
00100000
10000000
00000000
,
01000000
00000000
10000000
00000000
01000000
00010000
00000000
00001000
00010000
00000000
00001000
00000010
00000000
00000010
00000001
00000000
,
00001000
00000000
00000010
00000000
00000100
00000001
00000000
00000100
00000010
00000000
00001000
00000100
00000000
00010000
00001000
00000000
,
01000000
00000000
00010000
00000000
00100000
01000000
00000000
00100000
00001000
00000000
00010000
00001000
00000000
01000000
00010000
00000000
,
10000000
00000000
01000000
00000000
00010000
01000000
00000000
00010000
00001000
00000000
00000010
00000100
00000000
00000010
00000001
00000000
,
00001000
00000000
00000010
00000000
00000100
00000001
00000000
00000100
00001000
00000000
00010000
00001000
00000000
00100000
00010000
00100000
,
00000000
01000000
10000000
00000000
01000000
00100000
00000000
00010000
00100000
00000000
00001000
00010000
00000000
00000010
00001000
00000010
,
00000000
00000100
00000001
00000000
00001000
00000010
00000000
00010000
00000100
00000000
00000010
00001000
00000000
00010000
00001000
00010000
,
00000000
00100000
01000000
00000000
00010000
01000000
00000000
00100000
10000000
00000000
01000000
00010000
00000000
00001000
00100000
00010000
,
00000000
01000000
00001000
00000000
00010000
00100000
00000000
00010000
00001000
00000000
00000100
00000010
00000000
00001000
00000001
00000000
,
00000010
00000000
00001000
00000000
00010000
00000000
00001000
00000000
00000010
00000000
00001000
00000000
00010000
00000000
00001000
01000000
,
00010000
00000000
10000000
00000000
00100000
00000000
10000000
00010000
01000000
00010000
00000000
00100000
01000000
00000000
00010000
00001000
,
00100000
00010000
00100000
00000000
00001000
00010000
00000010
00010000
00001000
00000000
00000010
00000001
00000100
00000000
00000010
00001000
,
00000200
00000000
00000000
00000000
00010300
00001000
00010000
00001000
01000000
00000000
00000000
00010000
00000000
00000000
00100000
00000000
,
20020000
00000000
00000000
00000000
,
00000000
00000000
00000000
00000000
,
30030000
00000000
00000000
00000000
;
