#VERSION:0.83;
#TITLE:Anathema;
#SUBTITLE:;
#ARTIST:あさき;
#TITLETRANSLIT:;
#SUBTITLETRANSLIT:;
#ARTISTTRANSLIT:Asaki;
#GENRE:;
#CREDIT:;
#MUSIC:Anathema.ogg;
#BANNER:Anathema.png;
#BACKGROUND:Anathema-bg.png;
#CDTITLE:./CDTitles/GITADORA Tri-Boost.png;
#SAMPLESTART:20.175;
#SAMPLELENGTH:15.000;
#SELECTABLE:YES;
#OFFSET:1.280;
#BPMS:0.000=134.000
,44.000=33.500
,45.000=134.000
;
#STOPS:;
#TIMESIGNATURES:0.000=4=4,
44.000=1=4,
45.000=4=4
;
#DISPLAYBPM:134.000;
#BGCHANGES:0.000=Anathema.mp4=1.000=0=0=0=StretchNoLoop====,
99999.000=-nosongbg-=1.000=0=0=0=StretchNoLoop====
;
#FGCHANGES:;

//--------------- dance-single - forcednature ----------------
#NOTEDATA:;
#STEPSTYPE:dance-single;
#DESCRIPTION:forcednature;
#DIFFICULTY:Beginner;
#METER:4;
#RADARVALUES:0,0,0,0,0;
#CREDIT:forcednature;
#NOTES:
0000
0000
0000
0000
,
0000
0000
0000
0000
,
0000
0000
0000
0000
,
1000
0000
0000
0000
,
0001
0000
0000
0000
,
0100
0000
0000
0000
,
0001
0000
0000
0000
,
0000
0010
0000
0010
,
0000
0001
0000
1000
,
0000
0010
0000
0010
,
0000
0000
0100
0000
,
2002
3003
1000
0000
0000
0000
1000
0000
,
0000
0100
0000
1000
,
0000
0000
0001
0001
,
0001
0100
0000
0010
,
0000
1000
0000
0100
,
0000
1000
0000
0001
,
0010
0001
0000
0100
,
0000
0010
1000
0010
,
0000
1000
0000
0000
,
1001
0000
0000
0001
,
0000
0010
0000
0000
,
1001
0000
0000
0010
,
0000
1000
0000
0100
,
0000
1000
0100
1000
,
0000
0001
0100
0001
,
0000
0010
0000
0100
,
0000
1000
0000
0001
,
0001
0100
0000
0010
,
0000
1000
0000
1000
,
0000
0100
0010
0100
,
0000
0010
0010
0000
,
0001
0000
0100
0001
,
0100
0000
0010
0000
,
1000
0100
1000
0001
,
0000
0100
0000
0000
,
0000
0010
0000
0000
,
1000
0000
0001
0000
,
0010
0000
0100
1000
,
0000
0001
0000
0100
,
0000
0010
0000
1000
,
0010
1000
0000
0001
,
0010
0001
0000
0100
,
0000
1001
0000
0110
,
0000
1000
0001
1000
,
0000
0001
0010
0001
,
0000
0100
0010
0100
,
0000
1001
0000
0110
,
0000
0001
1000
0001
,
0000
0110
0000
1000
,
0100
1000
0000
0001
,
0100
0020
0000
0030
,
0000
1000
0000
1000
,
0000
0100
0000
0010
,
0000
0001
0000
0001
,
0000
0100
0000
0010
,
0000
1000
1000
1000
,
0000
0001
0001
0001
,
0000
0010
0100
0010
,
0000
0001
1000
0001
,
0000
2002
0000
0000
,
0000
0000
0000
0000
,
0000
3003
0000
0000
;

//--------------- dance-single - forcednature ----------------
#NOTEDATA:;
#STEPSTYPE:dance-single;
#DESCRIPTION:forcednature;
#DIFFICULTY:Easy;
#METER:9;
#RADARVALUES:0,0,0,0,0;
#CREDIT:forcednature;
#NOTES:
0000
0000
0000
0000
,
0000
0000
0000
0000
,
0000
0000
0000
0000
,
2000
0000
0100
0000
,
0001
0000
3010
0000
,
0002
0000
0100
0000
,
1000
0000
0013
0001
,
0100
0101
0000
1010
,
0000
1100
0000
0011
,
0000
0110
1000
0001
,
0100
0000
0000
0001
0000
0000
1000
0000
0000
0001
0000
0000
0010
0000
0000
0000
,
2002
0000
0000
3003
1000
0000
0100
0000
0000
0000
0100
0000
0000
0000
0100
0000
,
0010
0000
0001
0000
0100
0000
0010
1000
,
0010
0000
0100
0000
0001
0001
0010
0000
,
0001
0000
0000
0000
0100
0000
0000
0010
0000
0000
0100
0000
0000
0010
0000
0000
,
1000
0002
0000
0023
,
0000
0230
0000
2300
,
3002
0203
0000
0001
,
0310
0000
0100
0001
0100
0000
0010
1000
,
0010
1000
0100
0010
,
2002
0000
0000
3003
0001
0000
0100
0001
,
0100
0001
0100
0010
,
2002
0000
0000
3003
1000
0000
0100
1000
,
0100
0000
0010
0000
0001
0000
0100
0001
,
0100
0000
0010
0000
1000
0000
0100
1000
,
0100
0000
0010
0001
0000
0001
0000
0001
,
0100
0000
0020
0000
0000
0000
1030
0001
,
1000
0000
0100
0000
0010
0000
0001
0010
,
0001
0000
0100
0000
0010
0000
1000
0010
,
1000
0000
0001
0000
0010
0000
0100
1000
,
0100
2000
3020
0230
,
0302
0013
0011
0010
,
0011
0001
0100
0010
,
1000
0100
1100
0100
,
1100
0000
1000
0001
1000
0000
2002
0000
,
0000
3003
0001
0000
0000
0000
0101
0000
,
0000
0100
0010
1000
,
0001
0000
0011
0000
,
0010
0000
0100
0000
1000
0000
0001
0100
,
0001
0010
0011
0001
,
0101
0100
0110
0010
,
1010
1000
1100
0001
,
0101
0000
2002
0000
3003
0000
0010
0100
,
0010
0000
0000
0000
0110
0000
0000
0000
0001
0000
0000
1000
0000
0000
0000
0000
,
0100
0000
0000
0010
0000
0000
0000
0000
0001
0000
0000
1001
0000
0000
0000
0000
,
1000
0000
0000
1001
0000
0000
0000
0000
0001
0000
0000
0000
0100
0000
0000
0000
,
0010
0000
0000
0000
1000
0000
0000
0001
0000
0001
0000
0001
0000
0000
0000
0000
,
0100
0000
0000
0110
0000
0000
0000
0000
0010
0000
0000
1001
0000
0000
0000
0000
,
1000
0000
0000
1100
0000
0000
0000
0000
0001
0000
0000
0101
0000
0000
0000
0000
,
0010
0000
0000
1001
0000
0000
1000
0000
0000
0000
1000
0000
0000
0000
1000
0000
,
0100
0010
0000
0010
0000
0010
0000
0001
,
0100
2002
0000
3003
,
0000
0000
1000
0010
1000
0000
0001
0000
,
0010
0000
0100
1000
0100
0000
0010
0100
,
0010
0000
0001
0010
0001
0000
0100
0000
,
0001
1001
1000
0010
,
0100
0000
0000
0000
0001
0000
0000
0001
0000
0000
0010
0000
0000
0001
0000
0000
,
0100
0000
0000
0000
0010
0000
0000
0010
0000
0000
1000
0000
0000
0100
0000
0000
,
1000
0000
0000
0000
0001
0000
0000
0101
0000
0000
1000
0000
0000
1100
0000
0000
,
0010
0000
0000
0000
1000
0000
0000
1010
0000
0000
0001
0000
0000
0011
0000
0000
,
0100
2002
0000
0000
,
0000
0000
0000
0000
,
0000
3003
0000
0000
;

//--------------- dance-single - forcednature ----------------
#NOTEDATA:;
#STEPSTYPE:dance-single;
#DESCRIPTION:forcednature;
#DIFFICULTY:Medium;
#METER:14;
#RADARVALUES:0,0,0,0,0;
#CREDIT:forcednature;
#NOTES:
0000
0000
0000
0000
,
0000
0000
0000
0000
,
0000
0000
0000
0000
,
0002
0100
1000
1000
,
0010
0000
0010
0000
1003
0001
0100
0010
,
2000
0100
0001
0001
,
0010
0000
0000
0000
0010
0000
0000
0000
3001
0000
0001
0000
0000
1000
0000
0000
,
1001
0110
1000
0011
,
0001
1010
0100
1001
,
0010
1100
0010
0101
,
1000
0000
1000
0000
0000
0001
0000
0100
0000
0010
0000
0000
0110
0000
0000
0000
,
2002
0000
0000
3003
1000
0000
0100
0000
0010
0000
0100
0000
1000
0000
0001
0000
,
0010
0001
0010
0000
0100
0000
1000
0000
0001
0000
0100
0000
0010
1000
0010
0000
,
0200
0000
0000
0000
0301
0000
0010
0000
0001
0100
0001
0000
0001
1000
0001
0000
,
0010
0000
0100
0000
1000
0010
0000
1010
0000
0000
0001
0010
0000
0010
0100
0000
,
1000
1000
0002
0000
0100
0000
2003
0000
,
0010
0000
0000
0000
3002
0000
0000
0000
0010
0000
0000
0000
1003
0100
0010
0000
,
0002
0000
0203
0000
0010
0000
0301
0100
,
0010
0000
1000
0000
0100
1000
0100
0000
0010
0000
0001
0000
0100
0001
0100
0000
,
0010
1000
0010
0000
0100
0000
0000
0001
0000
0000
0010
0000
0000
0100
0000
0000
,
2002
0000
0000
0000
0000
0000
3003
0000
1000
0100
0000
0000
0010
0001
0010
0000
,
0001
0100
0001
0000
1000
0010
0000
1000
0100
0000
0010
0001
0000
0100
0001
0000
,
2002
0000
0000
0000
0000
0000
3003
0000
1000
0010
0000
0000
1000
0100
1000
0000
,
0100
0010
0100
0000
0010
0000
0001
0000
0100
0000
0001
0000
0010
0000
1000
0000
,
0010
0000
0001
0000
1000
0010
1000
0000
0010
0100
0010
0000
0100
0000
0001
0000
,
0010
0000
0001
0000
1000
0000
1000
0010
0000
0010
0100
0000
0100
0001
0000
0001
,
1000
0000
0100
0000
0020
0000
0000
0000
0001
0000
0001
0000
0130
0010
0100
0000
,
1000
0100
1000
0000
0010
0000
1000
0001
0000
0001
0010
0000
0010
0001
0000
0001
,
0100
0000
0010
0000
1000
0000
0100
0000
0001
0000
0100
0000
1000
0100
1000
0000
,
0010
0000
1000
0000
1001
0000
0001
0000
0000
0001
0100
0001
0000
0001
0010
0000
,
0001
0000
1000
0000
0100
1000
0100
0000
1000
0010
1000
0000
0001
0010
0001
0000
,
0100
0001
0100
0000
0010
0000
1000
0000
1100
0000
0000
0000
0010
0000
0001
0000
,
0101
0000
0000
0000
1000
0100
1000
0000
0001
0010
0001
0010
0000
0010
0000
0001
,
0100
0001
0100
0000
0010
1000
0000
1000
0100
0000
0010
0001
0000
0001
0100
0000
,
1001
0000
0000
0000
0001
0100
0001
0100
0010
1000
0010
1000
0002
0000
0000
0000
,
0000
0000
0003
0000
0010
0000
0010
0000
0000
0001
0000
0001
0010
0000
0000
0000
,
0200
0000
0000
0000
1300
0000
0000
1000
0000
0001
0100
0000
0010
1000
0000
0001
,
1000
0000
1000
0000
0000
0100
0000
0100
1000
0000
0000
0000
0020
0000
0000
0000
,
0130
0001
0000
0001
0010
0000
0000
0100
1000
0000
1000
0000
0001
0100
0001
0100
,
0010
1000
0000
0000
1200
0000
0000
0000
0301
0000
0000
0000
1020
0000
0000
0000
,
0031
0201
1300
0021
,
2030
3200
0302
2003
,
3020
0000
0000
0000
0031
0010
0000
0010
0100
0000
0100
1000
0000
1000
0001
0000
,
0100
0010
1000
0000
1001
0000
0001
0000
0100
0010
0000
1010
0000
0000
1000
0000
,
0100
0010
0000
0011
0000
0000
0001
0000
0100
1000
0000
1100
0000
0000
0100
0000
,
0001
0010
0000
0011
0000
0000
0001
0000
1000
0010
0000
0100
0000
0001
0100
0000
,
0001
1000
0001
0000
0010
0001
0000
0100
0000
0110
0000
1001
0000
0000
1000
0000
,
0010
1000
0010
0100
0000
0001
1000
0000
0001
0010
0100
1000
0000
0010
1000
0000
,
0001
0010
0001
0010
0000
0100
1000
0000
0001
0100
0001
1000
0000
0010
1000
0000
,
0100
0010
0000
1001
0000
0000
0001
0000
0001
0100
0001
0000
0001
1000
0001
0000
,
0001
0010
0000
1001
0000
0000
1000
0000
1000
0100
1000
0000
1000
0001
1000
0010
,
0100
0000
0100
0001
0020
0000
0000
0000
0000
0000
0000
0000
0130
0000
0100
0000
,
0100
0000
0100
0000
1000
0000
0010
0000
0000
1000
0010
0000
0000
0100
0001
0000
,
0100
0000
0001
0000
0010
0100
0000
0010
0001
0000
1000
0010
0000
1000
0001
0000
,
0010
0000
0100
0000
1000
0010
1000
0000
0001
0010
0001
0000
1000
0100
1000
0000
,
0001
0100
0001
0000
0010
0100
0000
1000
0100
0000
0010
0001
0000
0100
0001
0000
,
0010
0000
0100
0000
1000
0000
0000
1000
0010
0000
0001
0000
0000
0001
0010
0000
,
0100
0001
0100
0000
0001
0000
0000
0001
0010
0000
1000
0000
0000
1000
0010
0000
,
0100
1000
0100
0000
1000
0010
1000
0010
0000
1000
0001
0010
0001
0010
0000
0001
,
1000
0000
0010
0000
0100
0001
0000
0001
0010
0000
0100
1000
0000
1000
0001
0000
,
0100
0000
0010
0100
2002
0000
0000
0000
0000
0000
0000
0000
0000
0000
0000
0000
,
0000
0000
0000
0000
,
0000
3003
0000
0000
;

//--------------- dance-single - forcednature ----------------
#NOTEDATA:;
#STEPSTYPE:dance-single;
#DESCRIPTION:forcednature;
#DIFFICULTY:Hard;
#METER:17;
#RADARVALUES:0,0,0,0,0;
#CREDIT:forcednature;
#NOTES:
0000
0000
0000
0000
,
0000
0000
0000
0000
,
0000
0000
0000
0000
,
2100
0100
0001
0001
,
0010
0000
0010
0000
3001
1000
0100
0010
,
0002
0100
1000
1000
,
0010
0000
0000
0000
0010
0000
0000
0003
1000
0001
1000
0100
0000
0100
0000
0010
,
0001
0100
1001
0000
1000
0000
0011
0000
,
0010
0100
1010
0000
1000
0001
0101
0001
,
1000
0000
0010
0000
1001
0000
0000
0000
1000
0100
0000
0100
0010
0001
1000
0000
,
0001
0100
0001
0100
0000
0010
1000
0001
1000
0100
0010
0000
0110
0000
0000
0000
,
2002
0000
0000
3003
0001
0100
0010
0100
0000
0001
1000
0000
0001
0010
0100
0000
,
0010
0001
0100
0000
0010
1000
0010
1000
0001
0010
0001
0010
0100
1000
0001
0000
,
0100
0020
0000
0000
1030
0010
1000
0001
0000
0001
0010
0000
0100
1000
0001
1000
,
0010
1000
0001
0000
0010
0100
0000
0110
0000
0010
0001
0000
1000
0010
1000
0010
,
0100
0001
1000
0001
0020
0000
0100
0000
0031
0010
0100
0000
2000
0000
0001
0000
,
3010
1000
0001
0000
0200
0000
0010
0000
0301
0100
0010
1000
0001
0010
0100
0010
,
2000
0000
0000
0000
3010
0001
0010
0001
0000
0001
0000
0001
0100
0000
0010
1000
,
0001
1000
0100
0000
0010
0001
0010
0001
0100
0010
0100
0010
1000
0001
1000
0001
,
0100
1000
0100
0010
0100
0001
0000
0010
0001
0000
1000
0010
0000
1000
0100
0000
,
0120
0000
0000
1000
1000
0000
0100
0000
0031
0010
0000
0010
0100
1000
0010
1000
,
0001
0010
0001
0100
0010
1000
0000
1000
0001
0000
0010
0001
0000
1000
0010
0000
,
0120
0000
0000
0001
0001
0000
0100
0000
1030
0010
0100
0001
0010
0100
0010
0100
,
1000
0001
1000
0001
0100
0010
1000
0010
0000
0100
0001
0010
0001
1000
0100
0010
,
0001
0100
0000
0000
0010
1000
0001
0000
0010
0100
1000
0000
0001
1000
0010
0100
,
0001
0100
0010
0000
1000
0100
0010
0002
0000
0103
0020
0000
0130
2000
0000
3100
,
0001
0010
0001
0000
1000
0100
0000
0110
0000
0010
0001
1000
0010
0100
1000
0100
,
0010
0100
0001
0100
0010
0000
1000
0001
0000
0010
0001
0000
1000
0010
0000
1000
,
0100
0010
0001
0000
0100
1000
0100
0000
0010
0100
0010
0000
0100
0001
0100
0001
,
0010
0100
0010
0000
0100
1000
0001
0010
0000
0001
0100
0010
1000
0000
0100
1000
,
0001
1000
0010
0000
0100
0001
0100
0001
0010
0100
0010
0100
1000
0010
1000
0010
,
0100
0001
1000
0000
0001
0100
1000
0000
0110
0000
0100
0001
1000
0000
0110
0000
,
1001
0000
0000
0000
1000
0010
0100
0010
0001
0010
0100
0001
0000
0110
0000
1000
,
0100
0010
0001
0000
1000
0100
0001
0000
0110
0000
0100
1000
0001
0000
0110
0000
,
1001
0000
0000
0000
0000
0000
1000
0100
1000
0100
0010
0001
1000
0001
0100
0010
1000
0001
0020
0000
0000
0000
0000
0000
,
0000
0000
0030
0000
0100
1000
0100
1000
0000
1000
0000
0010
1010
0000
0000
0000
,
0002
0000
0000
0000
0103
0010
0000
1000
0000
0001
0010
0001
0100
1000
0000
1000
,
0100
0000
0100
0001
0000
0001
0000
0010
0011
0000
0000
0000
1000
0000
1000
0000
,
1000
0010
0000
0010
0001
0010
0000
0010
1000
0100
1000
0100
0010
0001
0010
0001
,
1000
0000
0010
0000
0100
0000
0001
0000
1000
0000
0000
0000
0001
0000
0000
0010
0000
0000
0100
0000
0000
0000
0000
0000
1100
0000
0000
0000
0000
0000
1000
0000
0000
0000
0000
0000
0010
0000
0000
0100
0000
0000
1000
0000
0000
0000
0000
0000
,
1100
0000
0100
0000
0001
0010
0100
0000
0110
0000
0010
0000
0001
0100
1000
0000
,
1000
0100
0001
0000
1000
0100
0001
0000
0001
0100
1000
0000
0001
0010
0100
0010
,
1000
0000
0000
0000
0010
0001
0100
0001
0000
1000
0100
1000
0010
0100
0001
1000
,
0100
0010
0001
1000
0100
0000
0001
0100
1000
0010
0000
0110
0000
0100
1000
0100
,
0001
0010
0000
0110
0000
0100
1000
0010
0100
1000
0000
1100
0000
0100
0001
0010
,
1000
0010
0000
0011
0000
0001
1000
0100
1000
0010
0000
0001
0000
0010
0100
0000
,
0010
0000
1000
0000
0001
0000
1000
0000
0000
0100
0000
0000
0010
0000
0000
0001
0000
0000
0000
0000
0000
0101
0000
0000
0000
0000
0000
1100
0000
0000
0000
0000
0000
0110
0000
0000
0000
0000
0000
1000
0000
0000
0001
0000
0000
1000
0000
0000
,
0100
0000
0010
0000
0001
0000
0010
0000
0000
0100
0000
0000
0000
0000
0000
1000
0000
0000
0010
0000
0000
0100
0000
0000
1000
0000
0000
0100
0000
0000
0001
0000
0000
0101
0000
0000
0000
0000
0000
0001
0000
0000
0010
0000
0000
0100
0000
0000
,
0001
0100
1000
1100
0000
1000
0001
0010
1000
0010
0001
0011
0000
0001
1000
0010
,
0001
0010
1000
1010
0000
0010
1000
0010
0100
0010
0001
0010
0100
0001
0010
0001
,
1000
0010
1000
0100
0000
0001
0100
0010
0100
1000
0001
1000
0010
0100
0001
1000
,
0100
0000
0010
0000
0001
0000
0010
0000
0100
0000
1000
0000
0020
0000
0000
0000
0000
0000
0000
0000
0000
0000
0000
0000
0000
0000
0000
0000
0000
0000
0000
0000
0000
0000
0000
0000
0130
0000
0000
0001
0000
0000
0100
0000
0000
0001
0000
0000
,
1000
0100
1000
0100
0010
0001
0100
0001
0000
1000
0010
1000
0000
0001
0010
0000
,
0100
1000
0100
0000
0010
0001
0010
0001
0100
0010
0100
0010
1000
0001
0100
0010
,
1000
0001
0010
0000
0100
1000
0010
0000
0010
0100
0001
0000
0001
0010
1000
0000
,
1000
0000
0000
0010
0000
0000
0001
0000
0000
0000
0000
0000
1000
0000
0000
0100
0000
0000
0000
0000
0000
0001
0000
0000
0100
0000
0000
0000
0000
0000
0010
0000
0000
0001
0000
0000
0000
0000
1000
0000
0010
0000
1000
0000
0010
0000
0100
0000
,
0001
0010
0100
1000
0001
0100
0000
1000
0100
0000
0001
0010
0000
1000
0010
0000
,
0001
0000
0010
0000
0001
0000
0010
0000
0000
0100
0000
0000
1000
0000
0000
0010
0000
0000
0000
0000
0000
0001
0000
0000
0010
0000
0000
0000
0000
0000
1000
0000
0000
0100
0000
0000
0000
0000
0000
0001
0000
0000
0100
0000
0000
0000
0000
0000
,
1000
0000
0010
0000
1000
0000
0010
0000
0000
0000
0000
0000
0100
0000
0000
1000
0000
0000
0100
0000
0000
0001
0000
0000
0000
0000
0000
0001
0000
0000
0010
0000
0000
1000
0000
0000
0010
0000
0000
0001
0000
0000
0000
0000
0000
1000
0000
0000
,
0010
0001
0010
0100
0001
0010
0100
1000
0010
0100
1000
0100
0001
1000
0001
0100
,
0010
0000
0000
1000
0100
0010
0002
0000
0000
0000
0000
0000
0000
0000
0000
0000
0000
0000
0000
0000
0000
0000
0000
0000
,
0000
0000
0000
0000
,
0000
0003
0000
0000
;

//--------------- dance-double - forcednature ----------------
#NOTEDATA:;
#STEPSTYPE:dance-double;
#DESCRIPTION:forcednature;
#DIFFICULTY:Easy;
#METER:9;
#RADARVALUES:0,0,0,0,0;
#CREDIT:forcednature;
#NOTES:
00000000
00000000
00000000
00000000
,
00000000
00000000
00000000
00000000
,
00000000
00000000
00000000
00000000
,
00002000
00000000
01000000
00000000
,
00010000
00000000
00100000
00000000
,
00023000
00000000
00000100
00000000
,
00001000
00000000
00030010
00000010
,
00001000
00000001
00001000
00000000
00000100
00000000
00010000
00000000
,
00010000
01000000
00010000
00100000
,
00010000
10000000
00010000
00000000
01000000
00000000
00001000
00000000
,
00011000
00000000
00010000
00000000
00000100
00001000
00000100
00000000
,
00000020
00000000
00000000
00000030
00000001
00000000
00000000
00000000
00000100
00000000
00000000
00000000
00000001
00000000
00000100
00000000
,
00000010
00000100
00000010
00001000
,
00000100
00000000
00010000
00000000
00001000
00000000
00010000
00001000
,
00010000
00001000
01000000
00010000
,
00100000
01100000
01000000
11000000
,
10000000
00000000
10100000
00000000
00100000
00000000
01000000
00010000
,
01000000
00001000
00010000
00000100
,
00001000
00000000
00000100
00000010
00000100
00000000
00000010
00000000
,
00000001
00000100
00001000
00010000
,
00022000
00000000
00033000
00000000
00001000
00010000
00001000
00000000
,
01000000
00010000
00100000
01000000
,
20020000
00000000
30030000
00000000
10000000
00010000
10000000
00000000
,
00100000
00000000
01100000
00000000
01000000
00000000
00010000
01000000
,
00010000
01000000
00001000
00010000
,
00000100
00000000
00001000
00000100
00001000
00000000
00000001
00000100
,
00000001
00000000
00000020
00000000
00000000
00000000
00000130
00000100
,
00000100
00001000
00000100
00010000
,
00001000
00000000
01000000
00010000
01000000
00000000
00001000
00010000
,
00001000
00100000
00010000
10000000
,
00010000
00000000
01000000
00010000
01000000
00000000
00001000
00010000
,
00001000
00010000
00010100
00000000
,
01001000
00000000
00001000
00010000
,
00000010
00000000
00101000
00000000
,
00010010
00000000
00010000
00001000
00010000
00001000
00020000
00000000
,
00030000
00000100
00001000
00000001
,
00000011
00000000
00001000
00000010
,
00010000
00001000
01000000
10100000
,
00000000
00000000
00010000
00000000
10000000
01000000
00010000
00000000
,
00001000
00011000
00000100
00011000
,
01000000
00011000
00000010
00011000
,
00200000
00302000
00023000
00030200
,
00002300
00000000
00003002
00000000
00000100
00000000
00001003
00000001
,
00001000
00000000
00000110
00000000
00001000
00000100
00010000
00000000
,
00001000
00000000
01000000
00000000
00010000
10000000
00100000
00000000
,
10000000
00000000
01000000
00000000
00100000
00001000
00010000
00000000
,
00000100
00010000
00001000
00000000
00000010
00000000
00000110
00000000
,
00000100
00001000
00000001
00000000
00000100
00000001
00001000
00000000
,
00000010
00010000
00001000
00000000
01000000
00010000
10000000
00000000
,
01000000
00000000
00100000
00100000
00100000
00000000
00001000
00000000
,
00010000
00000000
00000010
00000010
00000010
00000000
00010000
00000000
,
00001000
00022000
00000000
00000000
,
00033000
00000000
00001000
00010000
00001000
00000000
01000000
00000000
,
00010000
00000000
10000000
01000000
00100000
00000000
01000000
00100000
,
00010000
00000000
01000000
00000000
00001000
00000000
00010000
00000010
,
00001000
00000000
00001001
00000000
00000001
00000000
00000010
00000100
,
00001000
00000000
00001100
00000000
00000100
00000000
00010000
00001000
,
01000000
00000000
01010000
00000000
00010000
00000000
01000000
00001000
,
00010000
00000000
00000010
00000100
00000010
00000000
00010000
00000000
,
00001000
00000000
00100000
01000000
00100000
00000000
00001000
00000000
,
00010000
00022000
00000000
00000000
,
00000000
00000000
00000000
00000000
,
00000000
00033000
00000000
00000000
;

//--------------- dance-double - forcednature ----------------
#NOTEDATA:;
#STEPSTYPE:dance-double;
#DESCRIPTION:forcednature;
#DIFFICULTY:Medium;
#METER:14;
#RADARVALUES:0,0,0,0,0;
#CREDIT:forcednature;
#NOTES:
00000000
00000000
00000000
00000000
,
00000000
00000000
00000000
00000000
,
00000000
00000000
00000000
00000000
,
00020000
00000100
00001000
00001000
,
00000010
00000000
00000010
00000000
00031000
01000000
00010000
00100000
,
00002000
01000000
00010000
00010000
,
00100000
00000000
00100000
00000000
00013000
00000100
00001000
00000000
,
00001001
00000000
00000001
00000100
00001000
00000000
00011000
00000000
,
00010000
00100000
10000000
00000000
01000000
10000000
00100000
00000000
,
10010000
00000000
10000000
01000000
00010000
00000000
00011000
00000000
,
00000100
00000100
00001000
00000001
00000100
00001000
00010000
00000000
,
00022000
00000000
00000000
00033000
00010000
00000000
00100000
00000000
01000000
00000000
00100000
00000000
10000000
00000000
00010000
00000000
,
10000000
00000000
01000000
00000000
00010000
00000000
00001000
00000000
00000010
00000000
00000100
00000000
00001000
00000100
00001000
00000000
,
00000002
00000000
00000103
00001000
00010000
00001000
00010000
00100000
,
10000000
00000000
00100000
00000000
10000000
01000000
00000000
10000000
00000000
00000000
01000000
00100000
00000000
01000000
00000000
00000000
,
00100000
00001000
00020000
00000000
00000100
00000000
00032000
00000000
,
01000000
00000000
00000000
00000000
00023000
00000000
00000000
00000000
00000010
00000000
00000000
00000000
00031000
00010000
00001000
00000000
,
00020000
00000000
00032000
00000000
00100000
00000000
00013000
00000100
,
00001000
00000000
00000100
00000000
00001000
00000001
00000010
00000000
00000001
00000000
00001000
00000000
00000010
00000000
00010000
00000000
,
00001000
00010000
00001000
00000000
01000000
00000000
00000000
00010000
00000000
00000000
00100000
00000000
00000000
01000000
00000000
00000000
,
20020000
00000000
00000000
30030000
10000000
01000000
00010000
00001000
,
00010000
00001000
00010000
00000000
00001000
00000000
00000000
00010000
00001000
00000000
00010000
00000000
00000000
00000100
00001000
00000000
,
00000022
00000000
00000000
00000000
00000000
00000000
00000033
00000000
00000001
00001000
00000000
00000000
00000001
00000100
00000001
00000000
,
00000100
00001000
00010000
00100000
01000000
00100000
10000000
00010000
,
10000000
01000000
00010000
00001000
00000010
00000001
00000100
00001000
,
00000200
00000000
00000000
00000000
00000301
00000000
00000010
00000001
00000000
00000010
00000100
00000000
00001000
00000100
00000000
00010000
,
00001000
01000000
00020000
00000000
10000000
10000000
10030000
00010000
,
00100000
00010000
00100000
00000000
00001000
00000000
00010000
00000010
00000000
00001000
00000010
00000000
00010000
00001000
00000000
00010000
,
00000100
00000000
00001000
00000000
00000000
00000000
00000001
00000000
00000100
00000000
00001000
00000000
00010000
00001000
00010000
00000000
,
00001000
00000000
00100000
00000000
01100000
00000000
00000000
00000000
01000000
00000000
10000000
00010000
00000000
00100000
00010000
00000000
,
01000000
00000000
00001000
00000000
00010000
00001000
00010000
00000000
00000100
00000000
00001000
00000000
00000100
00000010
00000100
00000000
,
00000010
00000001
00000100
00000000
00000110
00000000
00000010
00010000
,
00001000
00000000
00000000
00000000
01000000
00010000
01000000
00000000
00100000
00000000
10000000
00000000
01000000
00000000
00010000
00000000
,
00011000
00000000
00000000
00000000
01000000
00100000
00000000
00000000
01100000
00000000
00000000
00000000
10000000
00000000
01000000
00000000
,
00010000
00000000
00001000
00000000
00100000
00010000
00100000
00001000
00010000
00000100
00001000
00000100
00020000
00000000
00000000
00000000
,
00000000
00000000
00030000
00000000
00000010
00000000
00000010
00000000
00000000
00001000
00000000
00001000
00000010
00000000
00000000
00000000
,
00020000
00000000
00000000
00000000
00031000
00000000
00000000
00100000
00000000
00010000
00100000
00000000
01000000
10000000
00000000
00010000
,
10000000
00000000
10000000
00000000
00000000
01000000
00000000
01000000
00010000
00000000
00000000
00000000
00002000
00000000
00000000
00003000
,
00100000
00010000
00000000
00100000
00001000
00000000
00000000
00000000
00010000
00000000
00000010
00000000
00001000
00000001
00001000
00000001
,
00000010
00000000
00000100
00010000
00011000
00000000
01000000
00001000
,
00011000
00000000
00000010
00010000
00011000
00000000
00100000
00001000
,
00010000
00100000
10000000
01000000
00010000
00000100
00002000
00000000
,
00003002
00000000
00000000
00000000
00000103
00000001
00000000
00000100
00001000
00000000
00010000
00001000
00000000
00010000
00100000
00000000
,
10000000
00000000
00010000
00000000
10010000
00000000
00000000
00000000
10000000
01000000
00000000
01010000
00000000
00000000
00010000
00000000
,
00001000
00000010
00000000
00000110
00000000
00000000
00000100
00000000
00001000
00000001
00000000
00000101
00000000
00000000
00000100
00000000
,
00001000
00010000
00000000
00011000
00000000
00000000
00001000
00000000
00100000
00010000
00000000
01000000
00000000
00010000
00100000
00000000
,
01000000
10000000
01000000
00000000
00010000
00001000
00000000
00010000
00000000
00010100
00000000
00001100
00000000
00000000
00001000
00000000
,
00000001
00000100
00000010
00000100
00000000
00000010
00001000
00000000
00000010
00010000
00001000
00010000
00000000
00001000
01000000
00000000
,
00010000
10000000
00100000
10000000
00000000
01000000
00010000
00000000
00001000
00010000
00000100
00001000
00000000
00000100
00000010
00000000
,
00000001
00001000
00000000
00001001
00000000
00000000
00001000
00000000
00000100
00010000
00001000
00000000
00100000
00001000
00010000
00000000
,
00001000
01000000
00000000
10010000
00000000
00000000
00010000
00000000
01000000
00001000
00010000
00000000
00000010
00010000
00001000
00000000
,
00000010
00000110
00002002
00000000
00000000
00000000
00000000
00000000
,
00003003
00000000
00000000
00000000
00000001
00000000
00000100
00000000
00001000
00000000
00010000
00000000
00100000
00000000
01000000
00010000
,
01000000
00000000
00100000
00000000
10000000
01000000
00000000
00100000
01000000
00000000
00100000
00010000
00000000
00100000
00001000
00000000
,
00010000
00000000
00000010
00000000
00001000
00000000
00001100
00000000
00000000
00000000
00000101
00000000
00000000
00000001
00000010
00000000
,
00000100
00000000
00001000
00000000
00000001
00000100
00000000
00001000
00000100
00000000
00001000
00010000
00000000
00100000
00010000
00000000
,
00100000
00000000
10000000
00000000
11000000
00000000
00000000
01010000
00000000
00000000
00011000
00000000
00000000
00100000
00010000
00000000
,
00100000
00001000
00010000
00000000
00000010
00000000
00000000
00001010
00000000
00000000
00000101
00000000
00000000
00000001
00000010
00000000
,
00000100
00000010
00000100
00000000
00001000
00000100
00001000
00000100
00000000
00010000
00001000
00010000
00000000
00001000
00100000
00010000
,
00100000
00000000
00100000
00000000
00010000
01000000
00010000
01000000
00000000
00001000
00010000
00001000
00000000
00010000
00000010
00001000
,
00000010
00000100
00002002
00000000
00000000
00000000
00000000
00000000
,
00000000
00000000
00000000
00000000
,
00000000
00003003
00000000
00000000
;

//--------------- dance-double - forcednature ----------------
#NOTEDATA:;
#STEPSTYPE:dance-double;
#DESCRIPTION:forcednature;
#DIFFICULTY:Hard;
#METER:17;
#RADARVALUES:0,0,0,0,0;
#CREDIT:forcednature;
#NOTES:
00000000
00000000
00000000
00000000
,
00000000
00000000
00000000
00000000
,
00000000
00000000
00000000
00000000
,
01002000
01000000
00010000
00010000
,
00100000
00000000
00100000
00000000
00013000
00000100
00001000
00000010
,
00020000
00000100
00001000
00001000
,
00000010
00000000
00000000
00000000
00000010
00000000
00000000
00030000
00001000
00010000
00001000
01000000
00000000
01000000
00000000
00010000
,
00100000
01000000
11000000
00000000
01000000
00010000
00011000
00000000
,
00001000
00000010
00000110
00000000
00000100
00001000
00001010
00000010
,
00000100
00000000
00000001
00000000
00000011
00000000
00000000
00000000
00000010
00000100
00000000
00001000
00000100
00010000
00001000
00000000
,
01000000
00010000
01000000
00010000
00000000
10000000
01000000
10000000
00010000
01000000
00001000
00010000
00000010
00000000
00000000
00000000
,
00002002
00000000
00000000
00003003
00001000
00000100
00010000
00001000
00000000
00100000
00001000
00000000
01000000
00010000
10000000
00000000
,
01000000
10000000
00010000
00000000
01000000
00010000
01000000
00001000
00010000
00000100
00001000
00000100
00010000
00001000
00010000
00000000
,
00000010
00002000
00000000
00000000
00003001
00000010
00000100
00000010
00000000
00000100
00010000
00000000
00001000
00100000
00010000
00100000
,
00001000
00010000
00001000
00000000
01000000
00010000
00000000
00110000
00000000
01000000
10000000
00000000
00100000
01000000
00010000
01000000
,
00001000
00010000
00000010
00001000
00000002
00000000
00000010
00000000
00000103
00000001
00001000
00000000
00000020
00000000
00010000
00000000
,
00001030
00000010
00010000
00000000
00002000
00000000
00100000
00000000
00013000
00001000
01000000
00010000
01000000
00001000
00010000
00001000
,
00200000
00000000
00000000
00000000
01300000
10000000
01000000
10000000
00000000
00100000
00000000
00100000
01000000
00000000
00001000
00010000
,
00000010
00001000
00000010
00000000
00000100
00000001
00000100
00000001
00000010
00000100
00000010
00000100
00010000
00001000
00010000
00001000
,
01000000
00010000
01000000
00100000
10000000
00010000
00000000
00100000
01000000
00000000
00010000
00001000
00000000
00000010
00000100
00000000
,
00002100
00000000
00000000
00000001
00000001
00000000
00000010
00000000
00003001
00000100
00000000
00001000
00000100
00000001
00001000
00000010
,
00010000
00001000
00100000
00010000
00100000
00001000
00000000
00001000
01000000
00000000
00010000
00100000
00000000
01000000
00100000
00000000
,
00120000
00000000
00000000
10000000
10000000
00000000
01030000
00000000
00010000
00100000
00000000
01000000
00010000
00001000
00010000
00001000
,
00000010
00000100
00000010
00000100
00001000
00000001
00000100
00000001
00000000
00000010
00000100
00001000
00000100
00010000
00001000
00100000
,
00010000
00100000
00000000
00000000
00001000
00010000
00000010
00000000
00010000
00001000
01000000
00000000
00010000
10000000
00100000
01000000
,
00010000
01000000
00100000
00000000
10000000
01000000
00100000
00002000
00000000
00013000
00000200
00000000
00001300
00000002
00000000
00000103
,
00000010
00001000
00000010
00000000
00010000
00001000
00000000
00101000
00000000
00100000
00010000
10000000
00100000
01000000
10000000
01000000
,
00100000
01000000
00010000
01000000
00001000
00000000
00010000
00000010
00000000
00000100
00001000
00000000
00000100
00000001
00000000
00000010
,
00000100
00001000
00000100
00000000
00010000
00001000
00010000
00000000
00100000
01000000
00010000
01000000
00100000
10000000
00010000
10000000
,
01000000
00010000
00001000
00000000
00100000
00010000
00100000
00001000
00000000
00010000
00000100
00001000
00000100
00000000
00010000
00001000
,
00010000
00000010
00001000
00000000
00000001
00000010
00000001
00000010
00000100
00001000
00000100
00010000
00001000
01000000
00010000
01000000
,
00100000
10000000
00010000
00000000
10000000
01000000
00010000
00000000
00011000
00000000
00001000
00000010
00000001
00000000
00000100
00000000
,
00001001
00000000
00000000
00000000
00000001
00000100
00001000
00010000
00000010
00001000
00000100
00000001
00000000
00000101
00000000
00000100
,
00001000
00000010
00001000
00000000
00000001
00000100
00001000
00000000
00011000
00000000
00010000
00100000
10000000
00000000
01000000
00000000
,
10010000
00000000
00000000
00000000
00000000
00000000
10000000
01000000
00100000
01000000
00100000
00010000
00100000
00001000
00010000
00000100
00001000
00000100
00000020
00000000
00000000
00000000
00000000
00000000
,
00000000
00000000
00000030
00000000
00000001
00000100
00001000
00000100
00000000
00000001
00000000
00000001
00000010
00000000
00000000
00000000
,
00002000
00000000
00000000
00000000
00013000
01000000
00000000
10000000
00000000
00010000
00100000
00010000
10000000
00100000
00000000
10000000
,
01000000
00000000
00010000
00001000
00000000
00001000
00000000
00010000
00000010
00000000
00000000
00000000
00000100
00000000
00000100
00000000
,
00000100
00001000
00000000
00000100
00000001
00000010
00000000
00000100
00001000
00000100
00010000
00001000
01000000
00010000
01000000
00001000
,
00020000
00000000
00000000
00000000
00130000
10000000
01000000
00000000
01100000
00000000
00100000
00000000
00010000
01000000
00001000
00000000
,
00011000
00000000
00010000
00000000
00000100
00001000
00000010
00000000
00000100
00000000
00000001
00000000
00000010
00001000
00010000
00000000
,
00100000
00010000
00001000
00000000
00000100
00001000
00010000
00000000
01000000
00010000
00001000
00000000
00100000
00010000
10000000
00010000
,
02000000
00000000
00000000
00000000
03001000
00010000
00000100
00010000
00000000
00001000
00000010
00000001
00001000
00000010
00000100
00000010
,
00001000
00000100
00010000
00001000
00010000
00000000
00001000
01000000
00010000
00100000
00000000
01100000
00000000
01000000
10000000
01000000
,
00010000
00001000
00000000
00011000
00000000
00010000
00000100
00001000
00000010
00000100
00000000
00000110
00000000
00000010
00001000
00000001
,
00000010
00000100
00000000
00000110
00000000
00000010
00001000
00010000
00001000
00100000
00000000
01100000
00000000
01000000
10000000
00000000
,
00100000
00000000
10000000
00000000
00010000
00000000
10000000
00000000
00000000
01000000
00000000
00000000
00010000
00000000
00000000
00001000
00000000
00000000
00000000
00000000
00000000
00101000
00000000
00000000
00000000
00000000
00000000
00011000
00000000
00000000
00000000
00000000
00000000
00010100
00000000
00000000
00000000
00000000
00000000
00000100
00000000
00000000
00001000
00000000
00000000
00000100
00000000
00000000
,
00001000
00000000
00000001
00000000
00000010
00000000
00000001
00000000
00000000
00002000
00000000
00000000
00000000
00000000
00000000
00003001
00000000
00000000
00000100
00000000
00000000
00001000
00000000
00000000
00010000
00000000
00000000
00100000
00000000
00000000
10000000
00000000
00000000
00020000
00000000
00000000
00000000
00000000
00000000
10030000
00000000
00000000
01000000
00000000
00000000
00010000
00000000
00000000
,
00001000
00000010
00000001
00000200
00000000
00000001
00000310
00001000
00010000
01000000
10000000
00200000
00000000
10300000
01000000
00010000
,
00001000
00000100
00000001
00000020
00000000
00000130
00001000
00000100
00010000
00001000
00100000
00010000
00100000
00001000
00010000
00000010
,
00001000
00000010
00010000
00000200
00000000
00000310
00001000
00010000
00001000
01000000
00010000
01000000
00100000
10000000
00010000
10000000
,
01000000
00000000
00100000
00000000
00010000
00000000
00100000
00000000
00001000
00000000
00010000
00000000
00000200
00000000
00000000
00000000
00000000
00000000
00000000
00000000
00000000
00000000
00000000
00000000
00000000
00000000
00000000
00000000
00000000
00000000
00000000
00000000
00000000
00000000
00000000
00000000
00000310
00000000
00000000
00000001
00000000
00000000
00000010
00000000
00000000
00000001
00000000
00000000
,
00001000
00000010
00001000
00000010
00010000
00001000
01000000
00010000
00000000
10000000
01000000
10000000
00000000
00010000
01000000
00000000
,
00001000
00010000
00000010
00000000
00001000
00000100
00001000
00000100
00000010
00000001
00000010
00000001
00001000
00000010
00010000
00001000
,
00010000
00000100
00001000
00000000
00000010
00010000
00001000
00000000
00001000
00010000
00000100
00000000
00100000
00001000
00010000
00000000
,
00010000
00000000
00000000
00001000
00000000
00000000
01000000
00000000
00000000
00000000
00000000
00000000
00100000
00000000
00000000
10000000
00000000
00000000
00000000
00000000
00000000
01000000
00000000
00000000
10000000
00000000
00000000
00000000
00000000
00000000
01000000
00000000
00000000
00010000
00000000
00000000
00000000
00000000
00001000
00000000
00010000
00000000
00001000
00000000
00010000
00000000
00000100
00000000
,
00001000
00000001
00000100
00000010
00001000
00000100
00000000
00000001
00000100
00000000
00010000
00001000
00000000
00100000
00010000
00000000
,
10000000
00000000
00100000
00000000
10000000
00000000
00100000
00000000
00000000
01000000
00000000
00000000
00010000
00000000
00000000
01000000
00000000
00000000
00000000
00000000
00000000
10000000
00000000
00000000
01000000
00000000
00000000
00000000
00000000
00000000
00001000
00000000
00000000
00010000
00000000
00000000
00000000
00000000
00000000
00000010
00000000
00000000
00001000
00000000
00000000
00000000
00000000
00000000
,
00000001
00000000
00000010
00000000
00000001
00000000
00000010
00000000
00000000
00000000
00000000
00000000
00000100
00000000
00000000
00010000
00000000
00000000
00001000
00000000
00000000
00100000
00000000
00000000
00000000
00000000
00000000
00001000
00000000
00000000
00010000
00000000
00000000
00000010
00000000
00000000
00001000
00000000
00000000
00000100
00000000
00000000
00000000
00000000
00000000
00010000
00000000
00000000
,
00001000
01000000
00010000
00100000
01000000
00010000
00001000
00010000
00000010
00001000
00000010
00000100
00001000
00010000
00001000
00100000
,
00010000
00000000
00000000
10000000
01000000
00100000
00020000
00000000
00000000
00000000
00000000
00000000
00000000
00000000
00000000
00000000
00000000
00000000
00000000
00000000
00000000
00000000
00000000
00000000
,
00000000
00000000
00000000
00000000
,
00000000
00030000
00000000
00000000
;
