#VERSION:0.83;
#TITLE:天邪鬼;
#SUBTITLE:;
#ARTIST:Qlarabelle;
#TITLETRANSLIT:Amanojaku;
#SUBTITLETRANSLIT:;
#ARTISTTRANSLIT:;
#GENRE:HARD DANCE;
#CREDIT:;
#MUSIC:Amanojaku.ogg;
#BANNER:Amanojaku.png;
#BACKGROUND:Amanojaku-bg.png;
#CDTITLE:./CDTitles/bm IIDX 29 CastHour.png;
#SAMPLESTART:90.704;
#SAMPLELENGTH:15.000;
#SELECTABLE:YES;
#OFFSET:0.643;
#BPMS:0.000=155.000;
#STOPS:;
#BGCHANGES:0.000=Amanojaku.mp4=1.000=0=0=0=StretchNoLoop====,
99999.000=-nosongbg-=1.000=0=0=0=StretchNoLoop====
;
#FGCHANGES:;

//--------------- dance-single - forcednature ----------------
#NOTEDATA:;
#STEPSTYPE:dance-single;
#DESCRIPTION:forcednature;
#DIFFICULTY:Beginner;
#METER:2;
#RADARVALUES:0,0,0,0,0;
#CREDIT:forcednature;
#NOTES:
0000
0000
0000
0000
,
0000
0000
0000
0000
,
0000
0000
0000
0000
,
0000
0000
0000
0000
,
0000
0000
0000
0000
,
0000
0000
0000
0000
,
0001
0000
0000
0000
,
1000
0000
0000
0000
,
0010
0000
0000
0000
,
0100
0000
0000
0000
,
0000
0000
0000
0000
,
0000
0000
0000
0000
,
1001
0000
0000
0000
,
1000
0000
0000
0000
,
0100
0000
0000
0000
,
1000
0000
0000
0000
,
0001
0000
0000
0000
,
0100
0000
0000
0000
,
0001
0000
0000
0000
,
0010
0000
0000
0000
,
0110
0000
0000
0000
,
1000
0000
0000
0000
,
0010
0000
0000
0000
,
1000
0000
0000
0000
,
0001
0000
0000
0000
,
0010
0000
0000
0000
,
0001
0000
0000
0000
,
0100
0000
0000
0000
,
1001
0000
0000
0000
,
0000
0000
0000
0000
,
0001
0000
0000
0000
,
0000
0000
0000
0000
,
0110
0000
0000
0000
,
1000
0000
0000
0000
,
0110
0000
0000
0000
,
0001
0000
0000
0000
,
1001
0000
0000
0000
,
1000
0000
0000
0000
,
0100
0000
0000
0000
,
1000
0000
0000
0000
,
0001
0000
0000
0000
,
0100
0000
0000
0000
,
0001
0000
0000
0000
,
0010
0000
0000
0000
,
2002
0000
0000
0000
,
0000
0000
0000
0000
,
0000
0000
0000
0000
,
0000
0000
3003
0000
,
0110
0000
0000
0000
,
0100
0000
0000
0000
,
0010
0000
0000
0000
,
0100
0000
0000
0000
,
1001
0000
0000
0000
,
0000
0000
0000
0000
,
0010
0000
0000
0000
,
0100
0000
0000
0000
,
1001
0000
0000
0000
,
0100
0000
0100
0000
,
0010
0000
0010
0000
,
0000
0000
0000
0000
,
1001
0000
0000
0000
,
0001
0000
0100
0000
,
0001
0000
0000
0000
,
0100
0000
0010
0000
,
0100
0000
0000
0000
,
0010
0000
1000
0000
,
0010
0000
0010
0000
,
1000
0000
0000
0000
,
1001
0000
0000
0000
,
0110
0000
0001
0000
,
1000
0000
0000
0000
,
0001
0000
0010
0000
,
0001
0000
0000
0000
,
1000
0000
0010
0000
,
0100
0000
0001
0000
,
1001
0000
0000
0000
;

//--------------- dance-single - forcednature ----------------
#NOTEDATA:;
#STEPSTYPE:dance-single;
#DESCRIPTION:forcednature;
#DIFFICULTY:Easy;
#METER:7;
#RADARVALUES:0,0,0,0,0;
#CREDIT:forcednature;
#NOTES:
0000
0000
0000
0000
,
0000
0000
0000
0000
,
0000
0000
0000
0000
,
0000
0000
0000
0000
,
0000
0000
0000
0000
,
0000
0000
0000
0000
,
0001
0001
0100
0001
,
1000
1000
0100
1000
,
0010
0010
0100
0010
,
2002
0000
0000
3003
,
1000
0000
1000
0000
,
1000
0000
0010
0000
,
1001
0000
0001
0100
,
0010
1000
0001
0100
,
0010
0000
1000
0001
,
0010
0100
1000
0001
,
0000
0100
0010
1000
,
0001
0100
0010
0000
,
1001
0000
0110
0000
,
1000
1000
0001
0001
,
0000
0100
0010
0100
,
0001
1000
0010
0100
,
0000
0001
0010
0001
,
1000
0100
0010
0001
,
0000
1000
0010
1000
,
0001
0100
0010
1000
,
0001
0000
0001
0010
,
0200
0000
0300
0000
,
2000
3000
0020
0030
,
0200
0300
0002
0003
,
2000
3000
0020
0030
,
0200
0300
0002
0003
,
1000
1000
0010
1000
,
0001
0001
0010
0001
,
0100
0100
0010
0010
,
2002
0000
3003
0000
,
1000
0100
1000
0010
,
1000
0100
1000
0010
,
0001
0100
0001
0010
,
0001
0100
0110
0000
,
0001
0100
0001
0010
,
1000
0100
1000
0010
,
0001
0001
1000
1000
,
2002
0000
0000
3003
,
2000
3000
0020
0030
,
0200
0300
0002
0003
,
2000
3000
0020
0030
,
0200
0000
0300
0000
0001
1000
0001
0000
,
0002
0003
0020
0030
,
0200
0300
2000
3000
,
0002
0003
0020
0030
,
0200
0300
2000
3000
,
2002
0000
0000
0000
,
0000
0000
0000
0000
,
3003
0000
0000
0000
,
0000
0000
0000
0000
,
1000
1000
0001
0100
,
0001
0001
1000
0100
,
0010
0100
0220
0000
,
0330
0000
0000
0000
,
1001
0001
0100
0001
,
1000
0010
1000
0100
,
0010
0001
1000
0010
,
0100
0001
0010
0110
,
0000
1001
0001
0100
,
0001
1000
0100
1000
,
0010
0010
0100
0010
,
1000
1000
0001
0001
,
0200
0000
0010
0310
,
1001
0001
0010
0001
,
1001
1000
0010
1000
,
0100
0100
0010
0000
,
0110
0100
1000
0001
,
0110
0001
1000
0010
,
1000
0100
1000
0001
,
2002
0000
0000
3003
;

//--------------- dance-single - forcednature ----------------
#NOTEDATA:;
#STEPSTYPE:dance-single;
#DESCRIPTION:forcednature;
#DIFFICULTY:Medium;
#METER:11;
#RADARVALUES:0,0,0,0,0;
#CREDIT:forcednature;
#NOTES:
0000
0000
0000
0000
,
0000
0000
0000
0000
,
0000
0000
0000
0000
,
0000
0000
0000
0000
,
0000
0000
0000
0000
,
0000
0000
0000
0000
,
1001
0000
0001
0100
0001
0000
0001
0010
,
0001
0000
1000
0100
1000
0000
1000
0010
,
1000
0001
0100
0000
0001
1000
0100
0000
,
0220
0000
0000
0330
,
0001
0100
0001
1000
,
0001
0010
0001
0110
,
1000
0100
1000
0001
0010
0001
1000
0000
,
0020
0100
1000
0130
,
0001
0100
0010
0000
1000
0100
0010
0000
,
0002
0000
1000
0000
0100
0000
1003
0001
,
0000
0000
0010
0100
1000
0001
0010
0000
,
0200
1000
0010
1300
,
0011
0100
1010
0100
,
0001
0000
1000
0000
0001
0000
1000
0000
0010
0000
0000
0010
0000
0000
0010
0000
,
0000
1000
0001
0010
0000
0100
0010
0001
,
0000
1000
0001
0100
0010
1000
0001
0100
,
0000
0010
1000
0001
0000
0010
0001
1000
,
0000
0000
0010
0000
0100
0000
0001
0000
0000
0000
1000
0000
0000
1000
0000
0000
,
2000
0000
3010
0100
0001
1000
0010
0000
,
1100
0000
0001
0010
0100
0010
0001
0000
,
0101
0000
1000
0000
0010
0100
0010
0000
,
1001
0000
1000
0100
0010
0000
0110
0000
,
0002
0010
0023
0100
,
0230
0000
1000
0000
1300
0001
1000
0000
,
2000
0010
3020
0000
,
0230
0001
0302
0000
,
1003
0000
0100
1000
0000
0100
0010
0000
0001
0010
0000
0000
,
0001
0000
0100
0001
0000
0100
0010
0000
1000
0010
0000
0000
,
1000
0001
1000
0000
0010
0000
0100
0000
0100
0000
0001
0000
,
2002
0000
3003
0000
,
1100
0000
0000
0011
0000
0000
0001
0000
1000
0001
0000
0000
,
0101
0000
0000
1010
0000
0000
1000
0000
0001
1000
0000
0000
,
1100
0000
0000
1010
0000
0000
0001
0000
0100
0001
0000
0000
,
0011
0101
0220
0330
,
1001
0000
0000
1100
0000
0000
0001
0000
0010
0001
0000
0000
,
1001
0000
0000
0101
0000
0000
1000
0000
0010
1000
0000
0000
,
0001
0000
0010
0001
0000
0010
0100
0000
1000
0100
0000
0000
,
2002
0000
0000
3003
,
2020
3030
0220
0330
,
0202
0000
0303
0000
0001
1000
0001
0000
,
0022
0033
0220
0330
,
2200
0000
0000
0000
3300
0000
0000
0000
1000
0001
1000
0001
1000
0000
0000
0000
,
2200
3300
0220
0330
,
0022
0000
0033
0000
0001
1000
0001
0000
,
0202
0303
0220
0330
,
2020
0000
3030
0000
1000
0001
1000
0000
,
2002
0000
0000
0000
,
0000
0000
0000
0000
,
3003
0000
0000
0000
,
0001
1000
0010
0100
,
0001
0000
0001
0010
0100
0000
0100
1000
,
0001
0000
0001
0100
0010
0000
0010
1000
,
0001
0000
1000
0000
0001
0000
2002
0000
0000
0000
0000
0000
,
3003
0000
0000
0110
,
1001
0000
1000
0100
0010
0100
1000
0001
,
0010
0000
0001
1000
0010
0000
0100
0001
,
1000
0000
0100
0010
0100
1000
0001
0100
,
0010
0000
0000
0000
1000
0000
0001
0000
0010
0000
0000
0110
0000
0000
0110
0000
,
0000
0100
1000
0001
0100
0001
1000
0000
,
1001
0000
0001
0100
0010
1000
0001
0000
,
0010
0100
1000
0100
0010
0001
1000
0001
,
0100
0000
0000
0100
0000
0000
0100
0000
0010
0000
0000
0010
0000
0000
0010
0000
,
1000
1000
0001
0000
1001
0000
0000
0000
,
0001
0010
0100
0010
0001
1000
0100
0000
,
1000
0010
0100
0010
1000
0001
0100
0000
,
0010
0000
0010
0000
0010
0000
0000
0000
1000
0000
0000
0001
0000
0000
1000
0000
,
0000
0001
0010
0100
1000
0100
0010
0001
,
0000
1000
0010
0100
0001
0100
0010
1000
,
0000
0100
1000
0001
0100
0001
1000
0100
,
0020
0000
0000
0030
;

//--------------- dance-single - forcednature ----------------
#NOTEDATA:;
#STEPSTYPE:dance-single;
#DESCRIPTION:forcednature;
#DIFFICULTY:Hard;
#METER:15;
#RADARVALUES:0,0,0,0,0;
#CREDIT:forcednature;
#NOTES:
0000
0000
0000
0000
,
0000
0000
0000
0000
,
0000
0000
0000
0000
,
0000
0000
0000
0000
,
0000
0000
0000
0000
,
0000
0000
0000
0000
,
1000
0000
0100
0000
1000
0000
0010
0000
1000
0000
0100
0000
1000
0000
0010
1000
,
0001
0000
0100
0000
0001
0000
0010
0000
0001
0000
0100
0000
0001
0000
0010
0001
,
1000
1000
0010
0010
0100
0100
0001
0001
,
0020
0000
0000
0100
0200
0000
0330
0000
,
1000
1000
0001
0001
,
0100
0100
0010
0110
,
1000
0001
0010
1000
0010
0001
1000
0100
,
2000
0000
0000
0000
0010
0000
0000
0000
0001
0000
0000
0000
3100
0010
0000
0001
,
0010
0100
1000
0010
0100
1000
0100
0001
,
0020
0000
1000
0000
0100
0100
0130
1001
,
0000
0000
0010
0100
0010
0000
0000
0000
0001
0000
1000
0000
0010
0000
0100
0000
,
0002
0000
0000
0000
0010
0000
0000
0000
1000
0000
0000
0000
0103
0000
0001
0100
,
0001
0000
0000
1000
0010
0000
1000
0000
1100
0000
0000
0001
0010
0000
0001
0000
,
1000
0100
1000
0000
0001
0100
0001
0000
0010
0000
0100
0010
0000
0100
0010
0000
,
0001
0000
0010
0100
1000
0000
0001
0000
1000
0010
0000
0100
0010
0000
0100
0001
,
0000
0010
0000
0100
0010
0000
0001
1000
0100
0000
0100
0000
0100
1000
0010
0000
,
1000
0000
0010
0100
0001
0000
1000
0000
0001
0010
0000
0100
0010
0000
0100
1000
,
0000
0010
0000
0100
0010
0000
1000
0001
0100
0000
0001
0010
0000
0100
0010
0100
,
2000
0000
0000
0000
3001
0000
1000
0000
0010
0100
0000
0010
1000
0000
0001
0010
,
0100
0010
0000
0100
1000
0000
0001
1000
0000
0010
0000
0100
0010
0000
0100
0001
,
2000
0000
0000
0000
3100
0000
1000
0010
0100
0010
0000
0100
0001
0000
1000
0001
,
0020
0100
0031
0110
,
1100
0000
0000
0001
0010
0000
0000
0000
0101
0000
0000
1000
0010
0000
0000
0000
,
0110
0000
0000
1000
0001
0000
0000
0000
1001
0000
0000
0000
0110
0000
0000
0000
,
0101
0000
0000
1000
0010
0000
0000
0000
1100
0000
0000
0001
0010
0000
0000
0000
,
0110
0000
0000
1000
0001
0000
0000
0000
0200
0000
0000
0000
0000
0000
0000
0000
,
0310
0000
0010
1000
0000
1000
0001
0000
0001
0010
0001
1000
,
0100
0000
0100
1000
0000
1000
0010
0000
0010
0100
0001
1000
,
0100
0010
0001
0000
0101
0000
0100
0010
1000
0000
1100
0000
,
0220
0000
0000
0000
0330
0000
0001
1000
0001
1000
0001
1000
,
0010
0000
0100
0001
0000
0010
0001
0000
0100
0010
1000
0001
,
0010
0000
0100
1000
0000
0010
1000
0000
0100
0010
0001
1000
,
0010
0000
0100
0001
0000
0010
0001
0000
0100
0010
1000
0001
,
0010
0000
0100
1000
0100
0010
0002
0000
0000
0103
0000
0100
,
0010
0000
1000
0100
0000
1000
0001
0000
0010
0100
0010
0001
,
1000
0000
0010
0100
0000
0100
0001
0000
0011
0000
0000
0000
,
1100
0000
0100
1000
0001
1000
0010
0000
0100
0001
1000
0001
,
0020
0000
0000
0130
,
0002
0100
0100
0000
0203
0010
0010
0000
,
0320
1000
1030
0000
1001
0000
0110
0000
,
2000
0100
0100
0000
3200
0010
0010
0000
,
0320
0000
0001
0000
0031
0000
0000
0000
1000
0001
0100
0010
1000
0000
0000
0000
,
0002
0100
0100
0000
0203
0010
0010
0000
,
0320
1000
1030
0000
1001
0000
0110
0000
,
2000
0100
0100
0000
3200
0010
0010
0000
,
0320
0001
0001
0000
0032
1000
0003
0000
,
2002
0000
0000
0000
,
0000
0000
0000
0000
0000
0000
0000
0000
0000
0000
3003
0000
0000
0000
0010
0100
,
0010
0000
0000
0000
0000
0000
0000
1000
,
0002
0203
0320
2030
,
3001
0000
0010
0000
0001
0000
0100
0000
0001
0000
0010
0000
0001
0000
0100
0001
,
1000
0000
0010
1000
0010
0000
0100
0010
0100
0000
0001
0100
0001
0000
1000
0000
,
0100
0000
0010
0000
0001
0000
0010
0000
0100
0000
1000
0000
2002
0000
0000
0000
0000
0000
0000
0000
0000
3003
0000
0000
,
0001
0000
0100
0001
0100
0010
0000
1000
0010
0000
1000
0001
0020
0000
0030
0000
,
0100
0000
1000
0100
0000
1000
0100
0010
0000
0100
0010
0001
0000
0010
0001
0000
,
1000
0000
0010
0100
0000
0010
1000
0000
0001
0010
0000
0100
0010
0000
0001
1000
,
0001
0000
0100
0010
0000
0100
0001
1000
0000
0001
1000
0010
0000
1000
0001
0010
,
0001
0000
0100
0000
0101
0000
0000
0100
0001
0000
1000
0100
0000
1000
0001
0010
,
0000
0000
0100
1000
0001
0000
1000
0010
0000
1000
0001
0010
0000
0001
0100
0000
,
0110
0000
0010
1000
0000
0001
0010
0000
0001
1000
0000
0100
1000
0001
0100
0000
,
0010
0000
1010
0000
0100
0000
0101
0000
0001
0010
0100
0010
0000
0100
1000
0001
,
1000
0000
0010
0100
0000
0010
1000
0000
0001
0000
0010
0100
0000
0010
0001
0000
,
1000
0000
0010
1000
0010
0000
0100
0010
0100
0000
0001
0100
0000
0001
0010
0100
,
1000
0000
0010
1000
0000
0010
0100
0001
0100
0000
0001
0010
0000
0100
0010
0100
,
1000
0000
0010
1000
0001
0000
0100
0001
1000
0000
0100
1000
0000
0010
1000
0000
,
0001
0100
0001
0000
0010
0100
1000
0000
0010
0000
0100
0010
0000
0100
0010
0000
,
0100
0010
1000
0010
0100
0000
0001
0100
0010
0000
1000
0001
0000
0010
0001
0010
,
0100
0000
1000
0100
0000
0010
0100
1000
0001
0000
1000
0010
0000
0100
0010
0000
,
0100
0001
0100
0000
0001
0010
0001
0000
1000
0010
1000
0010
0100
0010
0100
0001
,
2000
0000
0000
3100
;

//--------------- dance-single - forcednature ----------------
#NOTEDATA:;
#STEPSTYPE:dance-single;
#DESCRIPTION:forcednature;
#DIFFICULTY:Challenge;
#METER:17;
#RADARVALUES:0,0,0,0,0;
#CREDIT:forcednature;
#NOTES:
0000
0000
0000
0000
,
0000
0000
0000
0000
,
0000
0000
0000
0000
,
0000
0000
0000
0000
,
0000
0000
0000
0000
,
0000
0000
0000
0000
,
0001
0000
0100
0000
0001
0000
0010
0000
0001
0000
0100
0000
0001
0000
0010
0100
,
1000
0000
0010
0000
1000
0000
0100
0000
1000
0000
0010
0000
1000
0000
0100
0010
,
0001
1000
0010
1000
0001
0100
0010
0100
0001
1000
0100
0010
0001
0010
0100
1000
,
0002
0000
0000
0103
,
0101
0101
1100
1100
,
1001
1001
0110
MMMM
,
0001
1000
0100
0010
0001
0000
0100
0000
0010
1000
0001
0000
0010
0000
0001
0100
,
2000
0000
3100
0001
2000
0000
3001
0100
2000
0000
3100
0001
1000
0010
0000
0010
,
0100
0000
0001
1000
0100
0000
0100
0000
0010
0001
0000
0100
0001
0000
1000
0100
,
0002
0000
0000
0000
0000
0000
0000
0000
0103
0000
0000
0000
1000
0000
0000
0000
0002
0000
0000
0000
0000
0000
0000
0000
1003
0000
0000
0000
0100
0000
0000
0000
0002
0000
0000
0000
0000
0000
0000
0000
0103
0000
0000
0000
1000
0000
0000
0000
0001
0000
0000
0000
1000
0000
0000
0000
0020
0030
0000
0000
0000
0000
0000
0000
,
0020
0030
0000
0000
0001
0000
0000
0000
1000
0000
0000
0000
0010
0000
0000
0000
0100
0000
0000
0000
0001
0000
0000
0000
1000
0000
0000
0000
0000
0000
0000
0000
0100
0000
0000
0000
1000
0000
0000
0000
0001
0000
0000
0000
0000
0000
0000
0000
0100
0000
0000
0000
0000
0000
0000
0000
0001
0000
0000
0000
0010
0000
0000
0000
,
2000
0000
3010
0001
2000
0000
3001
0010
2000
0000
3010
0001
1000
0000
1000
0010
,
0100
0001
0000
0001
0010
0100
0010
0000
0100
1000
0000
1000
0010
0100
0010
0000
,
1000
0100
0001
0000
0001
0100
1000
0000
0010
0000
0100
0010
0000
0100
0010
0000
,
1000
0001
0100
0010
1000
0000
0001
1000
0000
0001
0010
0100
0010
0000
0100
1000
,
0000
0010
0100
0001
0100
0000
0010
1000
0001
0000
0001
0010
0001
0100
1000
0100
,
0000
0001
1000
0010
1000
0000
0010
0100
0000
0001
0010
0100
0010
0000
0001
0100
,
0000
0010
1000
0001
0100
0001
1000
0100
0010
0000
0010
0001
0100
0001
1000
0100
,
0002
0000
0000
0000
0103
1000
0001
0010
0000
0001
0100
0000
0010
0100
0010
1000
,
0001
0010
0100
0010
0001
0000
1000
0010
0000
0100
0001
1000
0100
0000
0100
0010
,
0001
0000
1000
0010
0100
0000
0001
1000
0100
0001
0000
0100
1000
0000
0010
0100
,
0001
0100
0000
0010
1000
0000
0001
0000
0010
0100
1000
0001
0010
0000
0002
0000
,
0100
0100
0100
0000
1000
1000
1000
0000
,
0010
0000
0010
0000
0013
0000
0001
1000
0001
0100
0000
0010
2000
0000
0000
0000
,
0100
0100
0100
0000
0001
0001
0001
0000
,
0010
0010
3010
1000
0002
0000
0000
0000
,
1003
0000
1000
0010
0000
0010
0100
0000
1000
0100
0001
1000
,
0001
0000
0001
0010
0000
0010
0100
0000
0001
0100
1000
0001
,
1000
0000
0010
0000
0100
0000
0010
0000
1000
0001
1000
0000
0001
0000
0010
0000
0100
0000
0010
0000
0001
1000
0001
0000
,
0200
0000
0000
0000
0000
0000
0000
0000
0000
0000
0000
0000
0000
0000
0000
0000
0000
0000
0000
0000
0000
0000
0000
0000
0000
0000
0000
0000
0000
0000
0000
0000
0000
0000
0000
0000
0000
0000
0000
0000
0000
0000
0000
0000
0000
0000
0000
0000
0000
0000
0000
0000
0000
0000
0000
0000
0000
0000
0000
0000
0000
0000
0000
0000
0000
0000
0000
0000
0000
0000
0000
0000
0000
0000
0000
0000
0000
0000
0000
0000
0000
0000
0000
0000
0000
0000
0000
0000
0000
0000
0000
0000
0000
0000
0000
0000
0310
0000
0000
0000
0000
0000
0000
0000
0000
0000
0000
0000
0000
0000
0000
0000
1000
0000
0000
0000
0000
0000
0000
0000
0000
0000
0000
0000
0000
0000
0000
0000
0001
0000
0000
0000
0000
0000
0000
0000
0000
0000
0000
0000
0000
0000
0000
0000
1000
0000
0000
0000
0000
0000
0000
0000
0000
0000
0000
0000
0000
0000
0000
0000
0200
0000
0000
0300
0000
0000
0000
0000
0000
0000
0000
0000
0000
0000
0000
0000
0200
0000
0000
0300
0000
0000
0000
0000
0000
0000
0000
0000
0000
0000
0000
0000
,
0001
0010
0100
0001
0100
0010
0001
1000
0100
0110
0000
0001
,
1000
0010
0100
1000
0100
0010
1000
0001
0100
0110
0000
1000
,
0001
0100
0010
0001
0010
0100
0001
1000
0010
0110
0000
0001
,
1000
0000
0000
0000
0000
0000
0000
0000
0000
0000
0000
0000
0000
0000
0000
0000
0100
0000
0000
0000
0000
0000
0000
0000
0000
0000
0000
0000
0000
0000
0000
0000
0010
0000
0000
0000
0000
0000
0000
0000
0000
0000
0000
0000
0000
0000
0000
0000
1000
0000
0000
0000
0000
0000
0000
0000
0000
0000
0000
0000
0000
0000
0000
0000
0010
0000
0000
0000
0000
0000
0000
0000
0000
0000
0000
0000
0000
0000
0000
0000
0100
0000
0000
0000
0000
0000
0000
0000
0000
0000
0000
0000
0000
0000
0000
0000
2100
0000
0000
0000
0000
0000
0000
0000
0000
0000
0000
0000
0000
0000
0000
0000
0000
0000
0000
0000
0000
0000
0000
0000
0000
0000
0000
0000
0000
0000
0000
0000
0000
0000
0000
0000
0000
0000
0000
0000
0000
0000
0000
0000
0000
0000
0000
0000
3020
0000
0000
0030
0000
0000
0000
0000
0000
0000
0000
0000
0000
0000
0000
0000
0020
0000
0000
0030
0000
0000
0000
0000
0000
0000
0000
0000
0000
0000
0000
0000
0001
0000
0000
0000
0000
0000
0000
0000
0000
0000
0000
0000
0000
0000
0000
0000
,
1000
0000
0000
0000
0000
0000
0000
0000
0000
0000
0000
0000
0000
0000
0000
0000
0100
0000
0000
0000
0000
0000
0000
0000
0000
0000
0000
0000
0000
0000
0000
0000
0001
0000
0000
0000
0000
0000
0000
0000
0000
0000
0000
0000
0000
0000
0000
0000
0100
0000
0000
0000
0000
0000
0000
0000
0000
0000
0000
0000
0000
0000
0000
0000
1000
0000
0000
0000
0000
0000
0000
0000
0000
0000
0000
0000
0000
0000
0000
0000
0001
0000
0000
0000
0000
0000
0000
0000
0000
0000
0000
0000
0000
0000
0000
0000
0010
0000
0000
0000
0000
0000
0000
0000
0000
0000
0000
0000
0000
0000
0000
0000
0001
0000
0000
0000
0000
0000
0000
0000
0000
0000
0000
0000
0000
0000
0000
0000
1000
0000
0000
0000
0000
0000
0000
0000
0000
0000
0000
0000
0000
0000
0000
0000
0200
0000
0000
0300
0000
0000
0000
0000
0000
0000
0000
0000
0000
0000
0000
0000
0200
0000
0000
0300
0000
0000
0000
0000
0000
0000
0000
0000
0000
0000
0000
0000
0001
0000
0000
0000
0000
0000
0000
0000
0000
0000
0000
0000
0000
0000
0000
0000
,
1000
0010
0001
0010
1000
0001
0101
0000
2010
0000
3001
0010
,
1000
0000
0000
0000
1000
0000
0010
0000
0001
0010
0001
0000
1000
0000
0010
0000
1000
0000
0001
0000
0100
0001
0100
0000
,
0020
0000
0000
0130
,
2001
0000
0100
0001
,
0000
0000
0100
0000
3001
0010
0000
0010
,
0002
0000
0100
1000
,
0000
0000
0000
0000
1000
0000
0000
0000
0103
1000
0100
0001
0100
0000
0000
0000
,
0020
0000
0000
1000
0100
0000
1000
0000
,
0000
0000
0000
0000
1000
0000
0000
0000
0130
0000
0001
0000
0000
0000
1000
0001
,
0020
0000
0000
0001
0100
0000
0001
0000
,
0000
0000
0000
0000
0001
0000
0000
0000
0130
0000
1000
0000
0000
0000
0001
1000
,
0020
0100
0000
0100
,
0000
0000
0000
0000
0100
0000
0000
0000
0000
0000
0000
0000
0130
0000
0001
1000
,
0200
0000
0010
0000
0000
0000
0310
0001
,
1000
0010
1000
0010
0100
0010
0100
0010
1000
0001
0100
0010
2000
0000
0000
0000
,
3001
0000
0010
0001
0010
0000
0100
0010
0100
0000
1000
0100
1000
0001
0010
0000
,
0001
1000
0001
0100
0010
1000
0010
0100
0001
1000
0100
0010
0001
0010
0100
1000
,
0001
0000
0000
0000
0000
0000
0000
0000
0000
0000
0000
0000
0000
0000
0000
0000
0200
0000
0000
0300
0000
0000
0000
0000
0000
0000
0000
0000
0000
0000
0000
0000
0200
0000
0000
0300
0000
0000
0000
0000
0000
0000
0000
0000
0000
0000
0000
0000
1000
0000
0000
0000
0000
0000
0000
0000
0000
0000
0000
0000
0000
0000
0000
0000
0020
0000
0000
0030
0000
0000
0000
0000
0000
0000
0000
0000
0000
0000
0000
0000
0020
0000
0000
0030
0000
0000
0000
0000
0000
0000
0000
0000
0000
0000
0000
0000
0002
0000
0000
0000
0000
0000
0000
0000
0000
0000
0000
0000
0000
0000
0000
0000
0000
0000
0000
0000
0000
0000
0000
0000
0000
0000
0000
0000
0000
0000
0000
0000
0000
0000
0000
0000
0000
0000
0000
0000
0000
0000
0000
0000
0000
0000
0000
0000
0000
0000
0000
0000
0000
0000
0000
0000
0000
0000
0000
0000
0000
0000
0000
0000
0000
0000
0000
0000
0000
0000
0000
0000
0003
0000
0000
0000
0000
0000
0000
0000
0000
0000
0000
0000
0000
0000
0000
0000
0000
0000
0000
0000
0000
0000
0000
0000
,
1000
0100
0010
0100
1000
0001
0000
0010
0001
0000
1000
0010
MMMM
0000
0000
0000
,
1001
0000
1000
0100
0000
1000
0001
0010
0000
0100
0010
0001
1000
0010
0100
0000
,
1001
0000
0001
0100
0000
0010
1000
0001
0010
0001
0000
0010
0100
1000
0001
0010
,
0001
0000
1000
0010
0100
0010
0100
0001
1000
0100
1000
0001
0100
0001
1000
0010
,
1000
0000
0100
0000
1100
0000
0000
0001
0010
0000
0001
0100
1000
0100
0001
1000
,
0020
0000
0000
0000
0031
0000
0010
1000
0001
0010
0100
0010
0001
1000
0100
0000
,
1001
0000
1000
0010
0100
0001
1000
0000
0100
0001
0000
0100
1000
0010
1000
0000
,
0100
0000
1100
0000
0010
0000
0011
0000
1000
0010
0100
0010
1000
0001
0100
0001
,
1000
0000
0100
0001
0000
0100
1000
0000
0011
0000
0001
0100
0000
1000
0100
0000
,
0010
1000
0001
0100
0010
0100
0001
1000
0010
0000
0100
0010
0000
0100
0001
0010
,
0001
0000
0010
0100
1000
0001
0010
0001
1000
0010
0100
0001
1000
0100
1000
0000
,
0001
0100
0010
0100
0001
1000
0010
1000
0001
0000
0010
0100
1000
0100
0010
0000
,
0001
0100
1000
0000
0100
0001
0010
0000
0110
0000
0100
0001
0000
0100
1000
0000
,
0010
1000
0010
0100
0001
1000
0001
0100
0010
0000
1000
0001
0010
0100
0010
0001
,
1000
0000
0010
0100
0001
0010
0001
1000
0010
0000
1000
0100
1000
0001
0100
0000
,
0010
1000
0010
0100
0001
1000
0001
0100
0010
1000
0001
0010
0100
0010
0001
1000
,
0200
0000
0000
0301
;

//--------------- dance-double - forcednature ----------------
#NOTEDATA:;
#STEPSTYPE:dance-double;
#DESCRIPTION:forcednature;
#DIFFICULTY:Easy;
#METER:7;
#RADARVALUES:0,0,0,0,0;
#CREDIT:forcednature;
#NOTES:
00000000
00000000
00000000
00000000
,
00000000
00000000
00000000
00000000
,
00000000
00000000
00000000
00000000
,
00000000
00000000
00000000
00000000
,
00000000
00000000
00000000
00000000
,
00000000
00000000
00000000
00000000
,
00010000
00000000
00001000
00000000
,
01000000
00000000
00001000
00000000
,
00010000
00000000
00000100
00000000
,
00010000
00000000
00001000
00000000
,
00022000
00000000
00000000
00000000
,
00000000
00000000
00000000
00033000
,
00001000
00010000
00001000
00000000
,
01000000
00010000
10000000
00100000
,
01000000
00010000
01000000
00000000
,
00001000
00010000
00000100
00001000
,
00000100
00010000
00001000
00000000
,
00010000
00000010
00001000
00000010
,
00001000
00000000
00000100
00000000
,
00000010
00000010
00000001
00000001
,
00000000
00001000
00000010
00010000
,
00001000
00010000
00000010
00001000
,
00000000
00000001
00000010
00000100
,
00001000
00000100
00010000
00001000
,
00000000
01000000
00010000
01000000
,
00100000
10000000
00010000
10000000
,
10010000
00000000
10000000
01000000
,
00010000
00000000
00001000
00000000
,
00010000
00000100
00001000
00000000
,
00000100
00010000
00001000
00000000
,
00001000
01000000
00010000
00000000
,
01000000
00001000
00020000
00000000
,
00030010
00000010
00010000
00001000
,
00100000
00100000
00001000
00010000
,
00000100
00010000
00001000
01000000
,
00020000
00000000
10030000
10000000
,
01000000
00010000
00001000
00100000
,
00001000
00010000
00000100
00010000
,
00001000
00000010
00000001
00000010
,
00001000
00010000
00000100
00000000
,
00010000
00001000
01000000
00010000
,
01000000
00001000
00010000
00100000
,
10000000
00010000
01000000
00010000
,
00200000
00000000
00000000
00300000
,
01000000
00000000
10000000
00000000
,
00010000
00000000
00100000
00000000
,
00001000
00000000
00010000
00000000
,
00000100
00000000
00001000
00001000
,
00000001
00000000
00000100
00000000
,
00000010
00000000
00010000
00000000
,
00001000
00000000
01000000
00000000
,
00010000
00000000
10000000
00000000
,
20020000
00000000
00000000
00000000
,
00000000
00000000
00000000
00000000
,
30030000
00000000
00000000
00000000
,
00000000
00000000
00000000
00000000
,
00010000
00010000
01000000
00001000
,
00010000
00010000
00000100
00001000
,
00000001
00001000
00002002
00000000
,
00003003
00000000
00000000
00000000
,
00000001
00000010
00000100
00000010
,
00000001
00001000
00000100
00001000
,
00000010
00010000
00001000
01000000
,
00010000
01000000
00001000
00010000
,
00001000
00100000
00010000
00100000
,
01000000
10000000
00100000
10000000
,
01000000
00010000
00001000
00100000
,
00001000
00001000
00010000
00010000
,
00000010
00001000
00000001
00000000
,
00001001
00001000
00000100
00010000
,
00011000
00001000
01000000
00010000
,
10010000
10000000
01000000
00100000
,
10010000
00010000
01000000
00001000
,
00011000
00010000
00000100
00001000
,
00001001
00000001
00000100
00000010
,
00002002
00000000
00000000
00003003
;

//--------------- dance-double - forcednature ----------------
#NOTEDATA:;
#STEPSTYPE:dance-double;
#DESCRIPTION:forcednature;
#DIFFICULTY:Medium;
#METER:12;
#RADARVALUES:0,0,0,0,0;
#CREDIT:forcednature;
#NOTES:
00000000
00000000
00000000
00000000
,
00000000
00000000
00000000
00000000
,
00000000
00000000
00000000
00000000
,
00000000
00000000
00000000
00000000
,
00000000
00000000
00000000
00000000
,
00000000
00000000
00000000
00000000
,
00010000
00001000
01000000
00000000
00010000
00100000
00001000
00000000
,
00001000
00010000
00000100
00000000
00001000
00000010
00010000
00000000
,
00001000
00100000
00010000
00100000
00001000
00010000
00001000
01000000
,
00020000
00000000
20000000
30030000
,
10000000
01000000
00010000
00001000
,
00000100
00000001
00000010
00000110
,
00001001
00000000
00000001
00000100
00001000
00000000
00010000
00000000
,
00000020
00002030
00003020
00020030
,
00031000
00000000
00100000
00010000
10000000
00000000
00100000
00000000
,
20000000
32000000
03020000
00032000
,
00003000
00000000
00011000
00000000
00001000
00010000
00000100
00000000
,
00002000
00003020
00020030
00032000
,
00103000
00010000
00100000
00000000
00001000
00010000
00001000
00000000
,
01000000
00000000
00010000
00000000
01000000
00000000
00000000
00000000
00100000
00000000
00000000
00100000
00000000
00000000
00100000
00000000
,
00000000
10000000
01000000
00100000
00000000
01000000
00100000
00010000
,
00000000
00100000
00001000
00010000
00000100
00010000
00001000
00010000
,
00000000
00000010
00001000
00000001
00000000
00000100
00000001
00001000
,
00000000
00000001
00000010
00000100
00000010
00000100
00001000
00000100
,
00000000
00010000
00001000
01000000
00000000
00010000
01000000
00001000
,
00000000
00100000
00010000
00100000
01000000
10000000
00010000
00000000
,
10010000
01000000
00011000
00000100
,
00001001
00000110
00000001
00001000
,
00000001
00000100
00001000
00000000
00000100
00001000
00010000
00000000
,
00001000
00010000
00100000
00000000
10000000
00000000
00010000
00000000
,
10000000
01000000
00010000
00000000
01000000
00010000
00001000
00000000
,
00010000
00001000
00000010
00000000
00000002
00000000
00000003
00000000
,
00000101
00000000
00000000
00000100
00000000
00000010
00000100
00000000
00000010
00001000
00000000
00000000
,
00000100
00000000
00000000
00010000
00000000
00001000
00100000
00000000
00010000
00100000
00000000
00000000
,
01000000
00000000
10000000
00000000
00010000
00000000
00100000
00000000
00010000
00000000
10000000
00000000
,
00200000
00000000
00000000
00000000
00000000
00000000
10300000
00000000
00010000
00000000
10000000
00000000
,
00010000
00000000
00010000
00100000
00000000
00000000
00001000
00000000
00001000
00010000
00000000
00000000
,
00000100
00000000
00000100
00001000
00000000
00000000
00000011
00000000
00000000
00001100
00000000
00000000
,
00001000
00000000
00001000
00000010
00000000
00000000
00010000
00000000
00010000
00001000
00000000
00000000
,
01000000
00000000
01000000
00010000
00000000
00000000
01100000
00000000
00000000
10010000
00000000
00000000
,
00010000
00000000
00010000
01000000
00000000
00000000
00001000
00000000
00001000
00010000
00000000
00000000
,
00000100
00000000
00000100
00001000
00000000
00000000
00000010
00000000
00001001
00000000
00000000
00000000
,
00001000
00000000
00000100
00000000
00010000
00000000
00001000
00000000
01000000
00000000
00010000
00000000
,
20000000
00000000
00000000
30100000
,
10000000
01000000
00010000
00000000
01000000
00010000
00001000
00000000
,
00010000
00001000
00000010
00000000
00000001
00000000
00001000
00000000
,
00000001
00000100
00001000
00000000
00000100
00001000
00010000
00000000
,
00001000
00000000
00010000
00000000
00100000
00000000
00000000
00000000
10000000
00010000
10000000
00010000
10000000
00000000
00000000
00000000
,
10000000
01000000
00010000
00000000
01000000
00010000
00001000
00000000
,
00010000
00001000
00000010
00000000
00000001
00000000
00001000
00000000
,
00000001
00000100
00001000
00000000
00000100
00001000
00010000
00000000
,
00001000
00010000
00100000
00000000
10000000
00000000
00010000
00000000
,
20020000
00000000
00000000
00000000
,
00000000
00000000
00000000
00000000
00000000
00000000
00000000
00000000
00000000
00000000
30030000
00000000
00000000
00000000
10000000
00010000
,
10000000
00000000
00000000
00000000
,
02000000
03020000
00032000
00003020
,
00000031
00001000
00000100
00001000
00000001
00000010
00000001
00000000
,
00001000
00000010
00010000
00001000
01000000
00010000
01000000
00000000
,
00001000
00010000
00001000
00010000
00001000
00010000
00002000
00000000
00000000
00000000
00000000
00000000
,
00003000
00000000
00000000
00011000
,
01000000
00010000
00100000
00000000
01000000
10000000
00100000
00000000
,
10000000
01000000
00010000
00001000
00100000
00010000
00100000
00000000
,
00001000
00010000
00000010
00000000
00001000
00000010
00010000
00000000
,
00001000
00000010
00000001
00000100
00000001
00000010
00001000
00000000
,
00010000
00000100
00001000
00000000
00000010
00010000
00001000
00000000
,
00000010
00000001
00000100
00001000
00000100
00000001
00000010
00000000
,
00001000
00010000
01000000
00000000
00010000
00001000
00000100
00000000
,
00001000
00000000
00000000
00010000
00000000
00000000
00100000
00000000
10000000
00000000
00000000
00010000
00000000
00000000
01000000
00000000
,
00100000
00000000
00100000
00000000
10000000
00000000
00100000
00000000
10000000
00000000
00000000
10000000
00000000
00000000
00000000
00000000
,
01000000
00010000
00001000
00100000
00001000
00010000
00000010
00000000
,
00010000
00001000
00000010
00000000
00001000
00010000
00000100
00000000
,
00001000
00000000
00000001
00000000
00000100
00000000
00000000
00000000
00000110
00000000
00000000
00000110
00000000
00000000
00000110
00000000
,
00000000
00000010
00001000
00000001
00000010
00001000
00010000
00000000
,
01000000
00010000
00001000
00000000
00100000
00001000
00010000
00000000
,
00100000
10000000
01000000
10000000
00100000
00010000
00001000
00000100
,
00000002
00000000
00000000
00000013
;

//--------------- dance-double - forcednature ----------------
#NOTEDATA:;
#STEPSTYPE:dance-double;
#DESCRIPTION:forcednature;
#DIFFICULTY:Hard;
#METER:15;
#RADARVALUES:0,0,0,0,0;
#CREDIT:forcednature;
#NOTES:
00000000
00000000
00000000
00000000
,
00000000
00000000
00000000
00000000
,
00000000
00000000
00000000
00000000
,
00000000
00000000
00000000
00000000
,
00000000
00000000
00000000
00000000
,
00000000
00000000
00000000
00000000
,
00010000
00000000
00001000
00000000
01000000
00000000
00010000
00000000
01000000
00000000
00001000
00000000
00100000
00000000
00010000
00100000
,
00001000
00000000
00010000
00000000
00000100
00000000
00001000
00000000
00000100
00000000
00010000
00000000
00001000
00000000
00010000
00000010
,
00001000
00000100
00010000
00001000
01000000
00010000
00100000
01000000
,
20000000
00000000
00000000
00010000
00020000
00000000
30030000
00000000
,
10000000
01000000
00010000
00001000
,
00000100
00000001
00000010
00000110
,
00000100
00010000
00001000
00000010
00000001
00001000
00000010
00010000
,
00002000
00000000
00000000
00000000
01000000
00000000
00000000
00000000
00010000
00000000
00000000
00000000
00103000
00001000
00000000
00010000
,
00001000
00000000
01000000
00001000
00010000
00100000
01000000
00010000
,
20000000
00000000
01000000
00000000
00010000
00010000
30010000
10100000
,
00000000
00000000
10000000
01000000
00100000
00000000
00000000
00000000
01000000
00000000
00010000
00000000
00001000
00000000
00100000
00000000
,
00020000
00000000
00000000
00000000
01000000
00000000
00000000
00000000
10000000
00000000
00000000
00000000
00130000
00000000
00010000
00100000
,
00001000
00000000
00000000
00001000
00010000
00000000
00000010
00000000
00010000
00000000
00000000
00010000
00001000
00000000
00100000
00000000
,
00010000
01000000
00010000
00000000
01000000
00001000
00010000
00000000
00000100
00000000
00001000
00000100
00000000
00001000
00000100
00000000
,
00000010
00000000
00000001
00000010
00000100
00000000
00000010
00000000
00000001
00000100
00000000
00000010
00000100
00000000
00000010
00001000
,
00000000
00000010
00000000
00010000
00001000
00000000
00100000
00010000
00100000
00000000
00100000
00000000
00100000
01000000
10000000
01000000
,
00000000
00000000
00100000
00010000
00100000
00000000
00001000
00000000
00010000
00000010
00000000
00001000
00000010
00000000
00010000
00001000
,
00000000
00100000
00000000
00001000
00010000
00000000
00001000
01000000
00010000
00000000
00100000
00010000
00000000
00100000
01000000
10000000
,
02000000
00000000
00000000
00000000
03100000
00000000
00010000
00000000
00100000
00001000
00000000
00010000
00001000
00000000
00010000
00000010
,
00001000
00000010
00000000
00001000
00000100
00000000
00000010
00000100
00000000
00000010
00000000
00000001
00000100
00000000
00000001
00001000
,
00000020
00000000
00000000
00000000
00000130
00000000
00000010
00001000
00000010
00010000
00000000
00001000
00010000
00000000
00001000
00100000
,
00020000
01000000
10030000
01100000
,
10000000
01000000
00010000
00000000
00001000
00000010
00000001
00000000
,
00000100
00001000
00010000
00000000
00011000
00000000
00000110
00000000
,
00000001
00000100
00001000
00000000
00010000
00100000
10000000
00000000
,
01000000
00010000
00001000
00000000
00200000
00000000
00000000
00000000
,
00310000
00000000
00010000
01000000
00000000
01000000
00001000
00000000
00001000
00010000
00000100
00001000
,
00000100
00000000
00000100
00000010
00000000
00000010
00000001
00000000
00000001
00000100
00000010
00001000
,
00000010
00010000
00001000
00000000
00011000
00000000
00010000
00001000
00100000
00000000
01100000
00000000
,
20020000
00000000
00000000
00000000
30030000
00000000
00010000
10000000
00010000
10000000
00010000
10000000
,
00010000
00000000
00010000
00100000
00000000
00100000
00001000
00000000
00010000
00000100
00001000
00000100
,
00010000
00000000
00010000
00000010
00000000
00000010
00001000
00000000
00000001
00000010
00000100
00001000
,
00000100
00000000
00000100
00010000
00000000
00010000
00001000
00000000
01000000
00010000
10000000
00100000
,
01000000
00000000
01000000
00010000
01000000
00001000
00020000
00000000
00000000
00030100
00000000
00000100
,
00001000
00000000
00001000
00000001
00000000
00000001
00000010
00000000
00000001
00000100
00000001
00001000
,
00000010
00000000
00000010
00010000
00000000
00001000
00010000
00000000
00011000
00000000
00000000
00000000
,
01000000
00000000
01000000
00010000
10000000
00010000
00100000
00000000
00100000
00001000
00010000
00000100
,
00002000
00000000
00000000
00003010
,
00000001
00000100
00001000
00000000
00010000
00100000
10000000
00000000
,
01000000
00010000
00001000
00000000
00001000
00010000
00100000
00000000
,
10000000
01000000
00010000
00000000
00001000
00000010
00000001
00000000
,
00000100
00000000
00001000
00000000
00010000
00000000
00000000
00000000
00001000
00010000
00001000
00010000
00001000
00000000
00000000
00000000
,
01000000
00100000
00010000
00000000
00001000
00000100
00000010
00000000
,
00001000
00000001
00000010
00000000
00001000
00010000
00011000
00000000
,
00000100
00000010
00001000
00000000
00010000
01000000
00100000
00000000
,
00010000
10000000
00100000
00000000
00010000
00001000
00011000
00000000
,
00000200
00000000
00000000
00000000
,
00000000
00000000
00000000
00000000
00000000
00000000
00000000
00000000
00000000
00000000
00000000
00000000
00000000
00000000
00001300
00000001
,
00000010
00000000
00000000
00000000
00000000
00000000
00000000
00000001
,
00000200
00002300
00023000
00230000
,
10300000
00000000
01000000
00000000
10000000
00000000
00100000
00000000
10000000
00000000
01000000
00000000
10000000
00000000
00100000
10000000
,
00100000
00000000
01000000
00010000
01000000
00000000
00001000
00010000
00001000
00000000
00100000
00010000
00100000
00000000
00001000
00000000
,
00010000
00000000
00000100
00000000
00000010
00000000
00000001
00000000
00000010
00000000
00000100
00000000
00020000
00000000
00000000
00000000
00000000
00000000
00000000
00000000
00000000
00030000
00000000
00000000
,
00001000
00000000
01000000
00010000
01000000
00100000
00000000
10000000
00100000
00000000
10000000
00010000
00200000
00000000
00300000
00000000
,
01000000
00000000
10000000
01000000
00000000
10000000
01000000
00100000
00000000
01000000
00100000
00010000
00000000
00100000
00001000
00000000
,
00010000
00000000
00000010
00001000
00000000
00000010
00000100
00000000
00000001
00001000
00000000
00000100
00001000
00000100
00010000
00000000
,
00001000
00000000
00100000
00010000
00000000
00100000
00001000
00010000
00000000
00000010
00001000
00000010
00000000
00000100
00000001
00001000
,
00000001
00000000
00000010
00000000
00000110
00000000
00000000
00000000
00000100
00000000
00001000
00000100
00000000
00010000
00001000
00020000
,
00000000
00000000
00031000
01000000
00010000
00000000
10000000
00010000
00000000
00100000
00010000
00100000
00000000
00001000
00010000
00000000
,
00000010
00000000
00001000
00000010
00000000
00000100
00000010
00000000
00000100
00000001
00000000
00000010
00000001
00000010
00000100
00000000
,
00001000
00000000
00000010
00000000
00010000
00000000
00001000
00000000
00100000
00010000
00100000
00001000
00000000
00010000
00001000
01000000
,
00010000
00000000
00100000
00010000
00000000
00100000
00001000
00000000
00010000
00000000
00000010
00001000
00000000
00000010
00000100
00000000
,
00000001
00000000
00000010
00000001
00000010
00000000
00000100
00000010
00000100
00000000
00001000
00000100
00000000
00010000
00001000
00010000
,
00000010
00000000
00001000
00000010
00000000
00010000
00001000
00100000
00001000
00000000
00010000
00001000
00000000
01000000
00010000
01000000
,
00100000
00000000
10000000
00010000
00100000
00000000
01000000
00100000
00010000
00000000
00100000
00001000
00000000
00010000
00001000
00000000
,
00010000
00000010
00010000
00000000
00000010
00001000
00000001
00000000
00000010
00000000
00000100
00000010
00000000
00000100
00000010
00000000
,
00000100
00001000
00000100
00010000
00001000
00000000
00010000
00001000
00100000
00000000
00010000
00100000
00000000
01000000
00100000
01000000
,
10000000
00000000
00100000
10000000
00000000
00100000
01000000
00100000
01000000
00000000
00010000
01000000
00000000
00001000
00010000
00000000
,
00000100
00001000
00000100
00000000
00010000
00001000
00010000
00000000
00000010
00001000
00000010
00001000
00000001
00000100
00000010
00001000
,
00000002
00000000
00000000
00000013
;

//--------------- dance-double - forcednature ----------------
#NOTEDATA:;
#STEPSTYPE:dance-double;
#DESCRIPTION:forcednature;
#DIFFICULTY:Challenge;
#METER:17;
#RADARVALUES:0,0,0,0,0;
#CREDIT:forcednature;
#NOTES:
00000000
00000000
00000000
00000000
,
00000000
00000000
00000000
00000000
,
00000000
00000000
00000000
00000000
,
00000000
00000000
00000000
00000000
,
00000000
00000000
00000000
00000000
,
00000000
00000000
00000000
00000000
,
00010000
00000000
00001000
00000000
01000000
00000000
00010000
00000000
00100000
00000000
00001000
00000000
00010000
00000000
00000010
00001000
,
00000010
00000000
00000100
00000000
00001000
00000000
00000100
00000000
00000001
00000000
00001000
00000000
00000010
00000000
00010000
00001000
,
00100000
00010000
00100000
00001000
00010000
00001000
01000000
00010000
01000000
00100000
10000000
00100000
10000000
01000000
00100000
00010000
,
02000000
00000000
00000000
03001000
,
00011000
00011000
00010100
00010100
,
01001000
01001000
10010000
MMMMMMMM
,
10000000
01000000
00100000
00010000
00100000
00000000
00001000
00000000
00010000
00000100
00001000
00000000
00000100
00000000
00010000
00001000
,
00000020
00000000
00001030
00010000
00000020
00000000
00010030
00001000
00000020
00000000
00001030
00010000
00000010
00001000
00000000
00001000
,
00000001
00000000
00000010
00000100
00001000
00000000
00001000
00000000
00000100
00010000
00000000
00001000
00010000
00000000
00001000
00010000
,
00200000
00000000
00000000
00000000
00000000
00000000
00000000
00000000
00310000
00000000
00000000
00000000
00001000
00000000
00000000
00000000
00200000
00000000
00000000
00000000
00000000
00000000
00000000
00000000
00301000
00000000
00000000
00000000
00010000
00000000
00000000
00000000
00200000
00000000
00000000
00000000
00000000
00000000
00000000
00000000
00310000
00000000
00000000
00000000
00001000
00000000
00000000
00000000
00010000
00000000
00000000
00000000
00001000
00000000
00000000
00000000
02000000
03000000
00000000
00000000
00000000
00000000
00000000
00000000
,
02000000
03000000
00000000
00000000
10000000
00000000
00000000
00000000
00100000
00000000
00000000
00000000
10000000
00000000
00000000
00000000
01000000
00000000
00000000
00000000
00100000
00000000
00000000
00000000
00001000
00000000
00000000
00000000
00000000
00000000
00000000
00000000
00010000
00000000
00000000
00000000
00000100
00000000
00000000
00000000
00000010
00000000
00000000
00000000
00000000
00000000
00000000
00000000
00001000
00000000
00000000
00000000
00000000
00000000
00000000
00000000
00010000
00000000
00000000
00000000
00001000
00000000
00000000
00000000
,
00000200
00000000
00001300
00010000
00000200
00000000
00010300
00001000
00000200
00000000
00001300
00010000
00000010
00000000
00000010
00001000
,
00000001
00000010
00000000
00000100
00000010
00000100
00001000
00000000
00000100
00010000
00000000
00001000
00010000
00001000
00100000
00000000
,
00010000
01000000
10000000
00000000
10000000
01000000
00010000
00000000
00100000
00000000
01000000
00100000
00000000
01000000
00100000
00000000
,
00001000
00010000
00000100
00001000
00000100
00000000
00000010
00000001
00000000
00000100
00000001
00000100
00000010
00000000
00001000
00000010
,
00000000
00010000
00001000
00100000
00010000
00000000
00100000
01000000
10000000
00000000
10000000
00100000
10000000
01000000
00010000
00001000
,
00000000
00100000
00010000
00100000
00001000
00000000
00010000
00000010
00000000
00001000
00000100
00001000
00000001
00000100
00000000
00000001
,
00000010
00000000
00000100
00001000
00000100
00010000
00001000
00100000
00010000
00000000
00010000
01000000
10000000
01000000
00010000
10000000
,
00200000
00000000
00000000
00000000
10300000
01000000
00010000
00001000
00000000
00100000
00001000
00000000
00010000
00000100
00001000
00000100
,
00010000
00001000
00010000
00000010
00001000
00000000
00000001
00000010
00000000
00000100
00000010
00000100
00001000
00000000
00001000
00000010
,
00010000
00000000
00001000
00100000
00010000
00000000
01000000
10000000
01000000
00010000
00000000
10000000
00100000
00000000
10000000
01000000
,
00010000
00001000
00000000
00100000
00001000
00000000
00000010
00000000
00000100
00001000
00000001
00000010
00000100
00000000
00000010
00000100
,
00002000
00000100
00000001
00000010
,
00023000
01000000
10000000
00100000
,
00032000
00000100
00000001
00000010
,
00023000
01000000
00230000
00000000
,
01300000
00000000
01000000
10000000
00000000
10000000
01000000
00000000
00010000
00001000
00100000
00001000
,
00010000
00000000
00010000
00000010
00000000
00000010
00001000
00000000
00000001
00000100
00001000
00000100
,
00000001
00000000
00000010
00000000
00000100
00000000
00000010
00000000
00000100
00001000
00000100
00000000
00010000
00000000
00001000
00000000
01000000
00000000
00010000
00000000
10000000
00100000
10000000
00000000
,
02000000
00000000
00000000
00000000
00000000
00000000
00000000
00000000
00000000
00000000
00000000
00000000
00000000
00000000
00000000
00000000
00000000
00000000
00000000
00000000
00000000
00000000
00000000
00000000
00000000
00000000
00000000
00000000
00000000
00000000
00000000
00000000
00000000
00000000
00000000
00000000
00000000
00000000
00000000
00000000
00000000
00000000
00000000
00000000
00000000
00000000
00000000
00000000
00000000
00000000
00000000
00000000
00000000
00000000
00000000
00000000
00000000
00000000
00000000
00000000
00000000
00000000
00000000
00000000
00000000
00000000
00000000
00000000
00000000
00000000
00000000
00000000
00000000
00000000
00000000
00000000
00000000
00000000
00000000
00000000
00000000
00000000
00000000
00000000
00000000
00000000
00000000
00000000
00000000
00000000
00000000
00000000
00000000
00000000
00000000
00000000
03100000
00000000
00000000
00000000
00000000
00000000
00000000
00000000
00000000
00000000
00000000
00000000
00000000
00000000
00000000
00000000
00001000
00000000
00000000
00000000
00000000
00000000
00000000
00000000
00000000
00000000
00000000
00000000
00000000
00000000
00000000
00000000
00010000
00000000
00000000
00000000
00000000
00000000
00000000
00000000
00000000
00000000
00000000
00000000
00000000
00000000
00000000
00000000
00000010
00000000
00000000
00000000
00000000
00000000
00000000
00000000
00000000
00000000
00000000
00000000
00000000
00000000
00000000
00000000
00002000
00000000
00000000
00003000
00000000
00000000
00000000
00000000
00000000
00000000
00000000
00000000
00000000
00000000
00000000
00000000
00002000
00000000
00000000
00003000
00000000
00000000
00000000
00000000
00000000
00000000
00000000
00000000
00000000
00000000
00000000
00000000
,
00010000
00000100
00000010
00001000
00000010
00000100
00010000
00001000
00100000
00101000
00000000
00100000
,
00001000
01000000
00100000
00010000
00100000
01000000
00001000
00010000
00000010
00001010
00000000
00001000
,
00000100
00000001
00000100
00001000
00000010
00010000
00001000
01000000
00010000
00110000
00000000
00010000
,
01000000
10000000
01000000
00010000
00100000
00001000
00021000
00000000
00000000
00130000
00000000
00010000
,
00000010
00000000
00000000
00000000
00000000
00000000
00000000
00000000
00000000
00000000
00000000
00000000
00000000
00000000
00000000
00000000
00001000
00000000
00000000
00000000
00000000
00000000
00000000
00000000
00000000
00000000
00000000
00000000
00000000
00000000
00000000
00000000
00000100
00000000
00000000
00000000
00000000
00000000
00000000
00000000
00000000
00000000
00000000
00000000
00000000
00000000
00000000
00000000
00000010
00000000
00000000
00000000
00000000
00000000
00000000
00000000
00000000
00000000
00000000
00000000
00000000
00000000
00000000
00000000
00000001
00000000
00000000
00000000
00000000
00000000
00000000
00000000
00000000
00000000
00000000
00000000
00000000
00000000
00000000
00000000
00000100
00000000
00000000
00000000
00000000
00000000
00000000
00000000
00000000
00000000
00000000
00000000
00000000
00000000
00000000
00000000
00001000
00000000
00000000
00000000
00000000
00000000
00000000
00000000
00000000
00000000
00000000
00000000
00000000
00000000
00000000
00000000
00010000
00000000
00000000
00000000
00000000
00000000
00000000
00000000
00000000
00000000
00000000
00000000
00000000
00000000
00000000
00000000
00001000
00000000
00000000
00000000
00000000
00000000
00000000
00000000
00000000
00000000
00000000
00000000
00000000
00000000
00000000
00000000
02000000
00000000
00000000
03000000
00000000
00000000
00000000
00000000
00000000
00000000
00000000
00000000
00000000
00000000
00000000
00000000
02000000
00000000
00000000
03000000
00000000
00000000
00000000
00000000
00000000
00000000
00000000
00000000
00000000
00000000
00000000
00000000
10000000
00000000
00000000
00000000
00000000
00000000
00000000
00000000
00000000
00000000
00000000
00000000
00000000
00000000
00000000
00000000
,
00010000
00100000
10000000
00100000
00010000
01000000
01001000
00000000
00010020
00000000
00001030
00000100
,
00000001
00000000
00000000
00000000
00000100
00000000
00001000
00000000
00000100
00001000
00000100
00000000
00010000
00000000
00001000
00000000
01000000
00000000
00010000
00000000
01000000
00010000
01000000
00000000
,
00200000
00000000
00000000
10300000
,
10020000
00000000
01000000
00000000
,
10000000
00000000
00100000
00000000
,
00032000
00000000
00000100
00000000
,
00000001
00000000
00000000
00000000
00000000
00000000
00000000
00000000
00003010
00010000
00001000
01000000
00010000
00000000
00000000
00000000
,
00200000
00000000
10000000
00000000
,
01000000
00000000
00010000
00000000
,
00300020
00000000
00000001
00000000
,
00000100
00000000
00001000
00000030
,
00022000
00000000
00000000
00000000
,
00000000
00000000
00000000
00000000
00000000
00000000
00000000
00000000
00000000
00000000
00000000
00000000
00033000
00000000
00010000
00001000
,
00200000
00000000
00000000
00000000
00000000
00000000
00000000
00310000
,
00100000
00001000
00010000
00001000
01000000
00010000
01000000
00100000
10000000
00010000
00100000
01000000
20000000
00000000
00000000
00000000
,
31000000
00000000
00010000
01000000
00010000
00000000
00001000
00010000
00001000
00000000
00000010
00001000
00000010
00000001
00001000
00000001
,
00000100
00000000
00000010
00001000
00000010
00010000
00001000
00010000
00000100
00001000
00000100
00010000
00001000
00100000
00010000
00100000
,
00001000
00000000
00010000
00000000
01000000
00000000
10000000
00000000
00100000
00000000
00010000
00000000
00002000
00000000
00000000
00000000
00000000
00000000
00000000
00000000
00000000
00003000
00000000
00000000
,
00010000
00000010
00001000
00000010
00010000
00001000
00000000
00100000
00010000
00000000
10000000
00100000
MMMMMMMM
00000000
00000000
00000000
,
10010000
00000000
10000000
01000000
00000000
10000000
00010000
00100000
00000000
00001000
00010000
00000010
00001000
00000010
00010000
00000000
,
00001000
00000000
00000010
00000100
00000000
00001000
00000100
00001000
00000001
00000010
00000000
00000001
00000100
00000001
00001000
00000010
,
00001000
00000000
00000001
00000010
00000100
00000010
00000100
00010000
00001000
00100000
00010000
00100000
00001000
00010000
00001000
01000000
,
00010000
00000000
00010000
10000000
00010000
00100000
00000000
01000000
00010000
00000000
00001000
00010000
00000100
00001000
00000100
00010000
,
00002000
00000000
00000000
00000000
00003010
00000000
00000001
00000100
00000010
00001000
00000100
00000010
00000100
00010000
00001000
00000000
,
00100000
00000000
00010000
01000000
00010000
10000000
00100000
00000000
10000000
01000000
00000000
00010000
01000000
00010000
00001000
00000000
,
00100000
00000000
01000000
00000000
00010000
00000000
00000100
00000000
00001000
00000001
00000100
00000001
00001000
00000010
00000100
00000010
,
00010000
00000000
00001000
00100000
00000000
00010000
01000000
00000000
00001000
00000000
00010000
00000010
00000000
00001000
00000100
00000000
,
00010000
00001000
00100000
00010000
00100000
00001000
00010000
00001000
01000000
00000000
00010000
00100000
00000000
01000000
00100000
01000000
,
10000000
00000000
00010000
01000000
00001000
00010000
00001000
00100000
00010000
00100000
00001000
00010000
00000100
00001000
00000001
00000000
,
00000100
00000010
00001000
00000010
00000100
00000001
00001000
00000001
00000010
00000000
00000100
00001000
00000100
00010000
00001000
00000000
,
00010000
01000000
10000000
00000000
01000000
10000000
00100000
00000000
01100000
00000000
01000000
00010000
00000000
01000000
00001000
00000000
,
00010000
00000100
00001000
00000100
00010000
00001000
00010000
00000010
00001000
00000000
00000001
00000010
00000100
00001000
00000100
00010000
,
00001000
00000000
01000000
00010000
10000000
00100000
10000000
00010000
00100000
00000000
01000000
10000000
01000000
00010000
00001000
00000000
,
00100000
00010000
00100000
00001000
00010000
00000010
00001000
00000010
00010000
00001000
01000000
00010000
00100000
00001000
00010000
00000010
,
00002000
00000000
00000000
00003100
;
