#VERSION:0.83;
#TITLE:Against the vulgar aggressor;
#SUBTITLE:;
#ARTIST:GUHROOVY;
#TITLETRANSLIT:;
#SUBTITLETRANSLIT:;
#ARTISTTRANSLIT:;
#GENRE:;
#CREDIT:;
#MUSIC:Against the vulgar aggressor.ogg;
#BANNER:Against the vulgar aggressor.png;
#BACKGROUND:Against the vulgar aggressor-bg.png;
#CDTITLE:./CDTitles/jb Qubell.png;
#SAMPLESTART:19.274;
#SAMPLELENGTH:15.000;
#SELECTABLE:YES;
#OFFSET:0.137;
#BPMS:0.000=210.000
,164.000=105.000
,211.500=210.000
,340.000=105.000
,344.000=420.000
;
#STOPS:211.500=0.143;
#TIMESIGNATURES:0.000=4=4;
#DISPLAYBPM:105.000:210.000;
#BGCHANGES:0.000=../BGAs/09te.mp4=1.000=0=0=0=StretchNoLoop====,
99999.000=-nosongbg-=1.000=0=0=0=StretchNoLoop====
;
#FGCHANGES:;

//--------------- dance-single - forcednature ----------------
#NOTEDATA:;
#STEPSTYPE:dance-single;
#DESCRIPTION:forcednature;
#CREDIT:forcednature;
#DIFFICULTY:Beginner;
#METER:7;
#RADARVALUES:0,0,0,0,0;
#NOTES:
0000
0000
0000
0000
,
0000
0000
0000
0000
,
0000
0000
0000
0000
,
0000
0000
0000
0000
,
0000
0000
0000
0000
,
2002
0000
0000
3003
,
0000
0000
0000
0000
,
0010
0000
0000
0000
,
0100
0000
0000
0000
,
1001
0000
1000
0000
,
0100
0000
0000
0000
,
1000
0000
1000
0000
,
0010
0000
0000
0000
,
1001
0000
0001
0000
,
0100
0000
0000
0000
,
0001
0000
0001
0000
,
0010
0000
0000
0000
,
0001
0001
0001
0000
,
0001
0000
0001
0000
,
1000
1000
1000
0000
,
1000
0000
1000
0000
,
0010
0010
0010
0000
,
0010
0000
0010
0000
,
0100
0000
0110
0000
,
2002
0000
0000
3003
,
0000
1000
1000
0000
,
1000
0000
1000
0000
,
0000
0001
0001
0000
,
0001
0000
0001
0000
,
0000
0100
0100
0000
,
0100
0000
0100
0000
,
0000
0010
0010
0000
,
1000
0000
0001
0000
,
0000
0010
0100
0000
,
0010
0000
0010
0000
,
0000
0001
1000
0000
,
0001
0000
0001
0000
,
0000
0100
0010
0000
,
0100
0000
0100
0000
,
0000
1000
0001
0000
,
1000
0000
0010
0000
,
2002
0000
0000
0000
,
0000
0000
0000
0000
,
0000
0000
0000
0000
,
0000
0000
0000
3003
,
0001
0000
0001
0000
,
0100
0000
0010
0000
,
1000
0000
0001
0000
,
0010
0000
0100
0000
,
1000
1000
0000
0000
0000
0000
0000
0000
,
0001
0001
0000
0000
0000
0000
0000
0000
,
0100
0000
0010
0000
,
0100
0000
0110
0000
,
0000
0001
0100
0000
,
0001
0010
0001
0001
,
0000
1000
0100
0000
,
1000
0010
1000
1000
,
0000
0010
0100
0000
,
0001
0010
0100
1000
,
0000
0100
0010
0000
,
0001
0001
1000
1000
,
0000
0010
0100
0000
,
0001
0010
0001
1000
,
0000
0100
0010
0000
,
0001
1000
0010
1001
,
0000
0110
0001
1000
,
0000
0110
1000
0001
,
0010
0011
0001
1000
,
0020
0000
0000
0030
,
0100
0100
0001
0100
,
0001
0001
0100
0001
,
1000
1000
0010
1000
,
0010
0010
0100
0001
,
1000
1000
0100
1000
,
0001
0001
0010
0001
,
0100
0000
0010
0010
,
1000
0001
0100
0000
,
0010
1000
0100
0100
,
1000
0010
0100
0100
,
0001
0010
0100
0100
,
0010
0001
0100
0010
,
1000
0001
0100
0001
,
1000
0010
0100
0110
,
0001
1000
0100
1000
,
0001
0001
0010
0100
,
0220
0000
0000
0330
,
2002
0000
0000
0000
,
0000
0000
0000
0000
,
0000
0000
0000
0000
,
0000
0000
0000
0000
,
0000
0000
0000
0000
,
0000
0000
0000
0000
,
0000
0000
0000
0000
,
0000
0000
0000
0000
,
0000
0000
0000
0000
,
0000
0000
0000
0000
,
3003
0000
0000
0000
;

//--------------- dance-single - forcednature ----------------
#NOTEDATA:;
#STEPSTYPE:dance-single;
#DESCRIPTION:forcednature;
#CREDIT:forcednature;
#DIFFICULTY:Easy;
#METER:11;
#RADARVALUES:0,0,0,0,0;
#NOTES:
0000
0000
0000
0000
,
0000
0000
0000
0000
,
0000
0000
0000
0000
,
0000
0000
0000
0000
,
0000
0000
0000
0000
,
2002
0000
0000
3003
,
0000
0000
0000
0000
,
0110
0000
0000
0000
,
1000
0001
0010
1001
,
0001
1000
0100
0010
,
0100
1000
0010
0100
,
0001
0010
0001
1000
,
0010
0100
0010
0000
0100
0010
0100
0000
,
0001
1000
0100
0010
,
0001
1000
0010
0100
,
0001
0010
0001
1000
,
0100
0010
0100
0010
0200
0000
0300
0000
,
1001
1001
0110
0110
,
0001
1000
0010
0000
,
1001
1001
0110
0110
,
1000
0001
0010
0000
,
0110
0110
1001
1001
,
0001
0100
0010
0000
,
0110
0000
0100
0000
,
2002
0000
0000
3003
,
0000
1000
0100
1000
,
0000
0010
0000
0100
,
0000
0001
0010
0001
,
0000
0100
0000
0010
,
0000
1000
0001
0010
,
0000
0100
0000
0010
,
0000
0001
1000
0010
,
0000
0100
0100
0001
,
0000
1000
0100
0010
,
0000
0100
0000
1000
,
0000
0001
0100
0010
,
0000
0100
0000
0001
,
0000
1000
0010
0100
,
0000
0001
0000
0010
,
0001
0001
1000
0100
,
1000
0001
0010
0000
,
2002
0000
0000
0000
,
0000
0000
0000
0000
,
0000
0000
0000
0000
,
0000
0000
0000
3003
,
0001
0100
0010
1000
,
0001
0010
0100
1000
,
0010
0100
0001
1000
,
0100
0010
0001
1000
,
0010
0010
0010
0000
0000
0000
0000
0000
0000
0000
0000
0000
0000
0000
0000
0000
,
0100
0100
0100
0000
0000
0000
0000
0000
0000
0000
0000
0000
0000
0000
0000
0000
,
0001
0000
0000
0001
0000
0000
0000
0000
1000
0000
0000
1000
0000
0000
0010
0000
,
0100
0000
0000
0000
0000
0000
0100
0000
0000
0000
0000
0000
0001
0000
0000
0000
1000
0000
0000
0000
0100
0000
0000
0000
0010
0000
0000
0000
0002
0003
0000
0000
,
0000
0000
1000
0000
0010
1000
0010
0000
,
0100
0001
0010
0100
,
1000
0000
0010
0000
1000
0001
1000
0000
,
0100
0010
0001
1000
,
0010
0000
0100
0000
0001
1000
0001
0000
,
0010
0001
0100
0010
,
1000
0000
0100
0000
1000
0001
1000
0000
,
0020
0100
0130
0110
,
1001
0001
0100
0010
,
1000
0000
0100
0000
0010
0100
0010
0000
,
0100
1000
0001
0100
,
0010
0000
1000
0000
0001
1000
1000
0000
,
0010
0100
0010
0000
1000
0000
0001
0000
,
0010
0100
0010
0000
0001
0000
1000
0000
,
1100
0001
0101
1000
,
0010
0000
0010
0100
0000
0100
0010
0000
,
1001
0000
1000
0000
0100
1000
0100
0000
,
0010
0001
0010
0000
0100
0000
1000
0000
,
1001
0000
0001
0000
0100
0001
0100
0000
,
0010
1000
0010
0000
0100
0000
0001
0000
,
0110
0000
1000
0000
0001
0010
0001
0000
,
1000
0100
1000
0000
0001
0000
0100
0000
,
0110
0000
1000
0000
0001
0100
0001
0000
,
2000
0010
3010
1001
,
1000
0100
1000
0000
0001
0010
0001
0000
,
1000
0100
1000
0000
0020
0000
0230
0000
,
0301
0100
0001
0000
1000
0010
1000
0000
,
0001
0100
0001
0000
0010
0000
1001
0000
,
1000
0100
0010
0000
0001
0100
0010
0000
,
1000
0100
0010
0000
0002
0000
1003
0000
,
0010
0100
0001
0000
0010
0100
1000
0000
,
0020
0000
0230
0000
0301
1000
0001
1000
,
0020
0000
0000
0000
0000
0000
0000
0030
,
2002
0000
0000
0000
,
0000
0000
0000
0000
,
0000
0000
0000
0000
,
0000
0000
0000
0000
,
0000
0000
0000
0000
,
0000
0000
0000
0000
,
0000
0000
0000
0000
,
0000
0000
0000
0000
,
0000
0000
0000
0000
,
0000
0000
0000
0000
,
3003
0000
0000
0000
;

//--------------- dance-single - forcednature ----------------
#NOTEDATA:;
#STEPSTYPE:dance-single;
#DESCRIPTION:forcednature;
#CREDIT:forcednature;
#DIFFICULTY:Medium;
#METER:13;
#RADARVALUES:0,0,0,0,0;
#NOTES:
0000
0000
0000
0000
,
0000
0000
0000
0000
,
0000
0000
0000
0000
,
0000
0000
0000
0000
,
0000
0000
0000
0000
,
2002
0000
0000
3003
,
0000
0000
0000
0000
,
0110
0000
0000
0000
,
2002
0000
0000
3003
,
1000
0100
1000
0000
0001
0000
0010
0000
,
0100
1000
0001
0000
0010
0001
1000
0000
,
0001
0100
0001
0000
1000
0000
0010
0000
,
1000
0001
0010
0000
0001
1000
0100
0000
,
0010
0100
0010
0000
0001
0000
1000
0000
,
0010
0100
0001
0000
0010
0100
1000
0000
,
0010
0100
0010
0000
1000
0000
0001
0000
,
0200
0010
0310
0110
,
1001
0000
1000
0000
0011
0000
0001
0200
,
0000
0310
0010
1000
,
0001
0000
0011
0000
1000
0000
0010
0100
,
0000
0100
0000
0000
0001
1000
0001
0000
,
1001
0000
1000
0000
1010
0000
0001
0100
,
0000
0220
0330
0010
,
2002
3003
0100
0010
,
0220
0000
0000
0330
,
1000
0000
0001
0000
0100
0001
0200
0000
,
0310
1000
0000
0010
1000
0000
0001
0000
,
0010
0000
0100
0000
1000
0001
2000
0000
,
3100
0010
0000
0100
0010
0000
0001
0000
,
1000
0000
0010
0000
0100
0001
0200
0000
,
0310
1000
0000
0010
1000
0000
0001
0000
,
0010
0000
0100
0000
1000
0001
2000
0000
,
3100
0000
0010
0100
0010
0000
0100
0000
,
1001
0000
0001
0000
0100
0001
0200
0000
,
0310
1000
0000
0001
0100
0000
0010
0000
,
1000
0000
0001
0000
0010
0001
0020
0000
,
0130
1000
0000
0100
0010
0000
0100
0000
,
1001
0000
1000
0010
1000
0000
0002
0000
,
0013
0100
0000
0010
0001
0000
1000
0000
,
0010
0000
0100
0000
0001
0001
0000
1000
,
0000
1000
0001
0000
0010
0000
0000
0000
,
2002
0000
0000
0000
,
0000
0000
0000
0000
,
0000
0000
0000
0000
,
0000
0000
0000
3003
,
1000
0000
0100
0000
0010
0000
0001
1000
,
0001
0100
0010
1000
,
0001
0010
0100
1000
,
0010
0100
0001
1000
,
0100
0100
0100
0000
0000
0000
0100
0000
0000
0000
0100
0000
0000
0000
0100
0000
,
0010
0010
0010
0000
0000
0000
0010
0000
0000
0000
0010
0000
0000
0000
0010
0000
,
0110
0000
0000
1001
0000
0000
0000
0000
1100
0000
0000
0011
0000
0000
0000
0000
,
0101
0000
0000
0000
0000
0000
1010
0000
0000
0000
0000
0000
0000
0000
0000
0000
1001
0000
0000
0000
1000
0000
0000
0000
0001
0000
0000
0000
0220
0330
0000
0000
,
0000
1000
0100
0010
0100
1000
0000
0001
,
0000
0010
0100
0000
0010
0001
0000
1000
,
0000
0001
0100
0010
0100
0001
0000
1000
,
0000
0010
0100
0000
0010
1000
0001
1000
,
0000
0100
0010
0001
0010
0100
0000
1000
,
0000
0001
0100
0000
0010
1000
0000
0001
,
0000
0010
0100
1000
0100
0010
0000
0001
,
2000
0010
3010
0110
,
0001
1000
0010
1000
0001
0100
0000
0010
,
0000
1000
0001
0000
0010
0100
1000
0100
,
0000
0010
0001
1000
0001
0100
0000
0010
,
0000
1000
0001
0000
0010
0100
0110
0000
,
1000
1000
1000
0001
0100
0010
1000
0000
,
0001
0001
0001
1000
0100
0000
0010
0000
,
0110
0000
0100
1000
0010
0000
0100
0001
,
0020
0100
0100
0031
,
0011
0000
0011
0000
0001
1000
0100
1000
,
0000
0001
0010
0100
0010
0000
0001
0000
,
1010
0000
1010
0000
1000
0001
0100
0001
,
0000
1000
0010
0100
0010
0000
1000
0000
,
0101
0000
0101
0000
0001
1000
0010
1000
,
0000
0001
0100
0010
0100
0000
0001
0000
,
2002
0000
3003
0000
0100
0010
0000
0110
,
0000
0001
1000
0000
2002
0000
3003
0000
,
0001
0010
0100
0010
0001
0001
1000
1000
,
0010
0100
0001
0100
0010
0010
1000
0000
,
0100
0010
0001
0010
0100
0100
1000
1000
,
0001
0100
0010
1000
0001
0001
0010
0000
,
0001
1000
0001
1000
0010
0010
0100
0100
,
0001
1000
0001
1000
0100
0100
0020
0000
,
0130
0100
1000
0010
0100
0100
0001
0010
,
0001
0001
1000
1000
0010
0100
0010
0100
,
0220
0000
0000
0000
0000
0000
0000
0330
,
2002
0000
0000
0000
,
0000
0000
0000
0000
,
0000
0000
0000
0000
,
0000
0000
0000
0000
,
0000
0000
0000
0000
,
0000
0000
0000
0000
,
0000
0000
0000
0000
,
0000
0000
0000
0000
,
0000
0000
0000
0000
,
0000
0000
0000
0000
,
3003
0000
0000
0000
;

//--------------- dance-single - forcednature ----------------
#NOTEDATA:;
#STEPSTYPE:dance-single;
#DESCRIPTION:forcednature;
#CREDIT:forcednature;
#DIFFICULTY:Hard;
#METER:17;
#RADARVALUES:0,0,0,0,0;
#NOTES:
0000
0000
0000
0000
,
0000
0000
0000
0000
,
0000
0000
0000
0000
,
0000
0000
0000
0000
,
0000
0000
0000
0000
,
0001
1000
1001
0000
0000
0000
0000
0000
,
0000
0000
0000
0000
,
0100
0010
0110
0000
0000
0000
0000
0000
,
1000
1000
0001
0001
0100
0000
1001
0000
,
0001
0010
0100
0010
0001
1000
0100
1000
,
0001
0000
0010
0000
0100
0000
1000
0000
0010
0000
1000
0000
0100
0000
0010
0100
,
0010
0001
1000
0001
0100
0010
1000
0010
,
0100
0000
0001
0000
1000
0000
0001
0000
0010
0000
0100
0010
0100
0000
0010
0100
,
1000
0001
0010
0001
1000
0010
1000
0001
,
0010
0000
0100
0000
1000
0000
0010
0000
0100
0000
0001
0000
0010
0100
0010
0100
,
1000
0001
0100
0010
1000
0010
0100
0001
,
1000
0000
0100
1000
0100
0000
1000
0001
0020
0000
0000
0000
0130
0000
0000
0000
,
0011
0011
0101
0101
,
0001
1000
0100
1000
0001
0010
0001
0000
,
1010
1010
1100
1100
,
1000
0001
0100
0001
1000
0010
0100
0000
,
0110
0000
1001
0000
1000
0100
0001
0100
,
1000
0000
0000
0000
1001
0000
0000
0000
0110
0000
0000
0000
0001
1000
0001
1000
,
0002
0000
0000
0003
0100
0000
0010
0000
,
0220
0000
0000
0330
,
1000
0000
0001
0000
0100
0000
0001
0000
1000
0010
1000
0010
2000
0000
0000
0000
,
3001
0010
0100
0000
0010
0001
0100
0000
,
0001
0000
1000
0000
0100
0000
1000
0000
0001
0010
0001
0010
0002
0000
0000
0000
,
1003
0010
0100
0000
0010
1000
0100
0000
,
0010
0000
0001
0000
1000
0000
0001
0000
0100
0010
0100
0010
0200
0000
0000
0000
,
0301
1000
0100
0000
1000
0001
0010
0000
,
0100
0000
1000
0000
0001
0000
1000
0000
0010
0100
0010
0100
0020
0000
0000
0000
,
1030
0001
0001
0010
0001
0000
0110
0000
,
1000
0000
0100
0000
1000
0000
0001
0000
0010
0100
1000
0100
0020
0000
0000
0000
,
0031
1000
0010
0000
0100
0001
0010
0000
,
0001
0000
0100
0000
0001
0000
1000
0000
0010
0100
0001
0100
0020
0000
0000
0000
,
1030
0001
0010
0000
0100
1000
0010
0000
,
1000
0000
0100
0000
0001
0000
0100
0000
1000
0001
0010
0001
2000
0000
0000
0000
,
3010
0100
0001
0000
0010
0100
1000
0000
,
0110
0000
1001
0000
0001
0100
1000
0200
,
0000
0310
1000
0001
0010
0000
0000
0000
,
2001
3200
0320
0032
,
0203
0000
0320
0000
,
2030
3002
0023
0032
,
2003
0000
3020
0000
0230
0000
0302
0003
,
0101
0000
0110
0000
1010
0000
0001
1000
,
1100
0110
0011
1000
,
1010
1100
1001
0001
,
0110
0101
1010
0110
,
0001
1000
1001
0000
0000
0000
1000
0000
1000
0000
1000
0000
1000
0000
0001
0000
,
0100
0010
0110
0000
0000
0000
0010
0000
0010
0000
0010
0000
0010
0000
0100
0001
,
1001
0000
0000
1100
0000
0000
1000
0000
0011
0000
0000
0101
0000
0000
1000
0000
,
1010
0000
0000
0000
0000
0000
0110
0000
0000
0000
0000
0000
0001
0000
0000
0000
0021
0000
0000
0000
0001
0000
0000
0000
0130
0000
0000
0000
2002
3003
0000
0000
,
1000
0100
0010
0100
1000
0001
0010
0001
,
1000
0000
0010
0000
0100
0000
0001
0000
0010
0000
0100
0000
1000
0000
0100
1000
,
0001
0100
0010
0100
0001
1000
0010
1000
,
0001
0000
0010
0000
0100
0000
0010
0100
1000
0000
0001
0000
0100
0010
0100
0010
,
1000
0001
0100
0001
1000
0010
0100
0010
,
1000
0000
0100
0000
0010
0000
0001
0000
0100
0000
0010
0000
1000
0000
0010
1000
,
0001
0000
0010
0000
0100
0000
0010
0000
0001
0000
1000
0000
0100
0000
1000
0100
,
0020
0000
0001
0001
0031
0000
0011
0000
,
0001
0100
0010
1000
0100
0001
0100
1000
,
0001
0000
0010
0000
0001
0000
1000
0000
0100
0000
1000
0000
0001
0000
0100
0001
,
1000
0010
0100
0001
1000
0100
0001
0100
,
1000
0000
0001
0000
0010
0000
0001
0000
0100
0010
0100
0010
1000
0000
0000
0000
,
0001
0010
0001
0010
0001
0000
1000
0000
0100
0000
0001
0000
0100
0000
1000
0000
,
0001
0100
0001
0100
0001
0000
1000
0000
0020
0000
0100
0000
1030
0000
0000
0000
,
0101
0000
1000
0010
1010
0000
0001
0010
,
0012
0000
1000
1000
0000
0100
0103
0000
,
0101
0000
0011
0000
0001
0100
1000
0100
,
0001
1000
0010
1000
0001
0100
0010
1000
,
0001
0000
1010
0000
1000
0100
0001
0100
,
1000
0001
0010
0001
1000
0000
0010
0010
,
0100
0000
1001
0000
1000
0010
0001
0010
,
1000
0001
0100
0001
1000
0100
0010
0000
,
0012
0000
0103
0000
0001
1000
0000
0020
,
0000
0100
0230
0000
0301
1000
1001
0000
,
0001
0000
0010
0000
0100
0000
0010
0000
0001
1000
0001
1000
0100
1000
0100
1000
,
0001
0000
0100
0000
0010
0000
0100
0000
0001
1000
0001
1000
0002
0000
0000
0000
,
1003
0000
0010
0000
0100
0000
0010
0000
1000
0001
1000
0001
0100
0001
0100
0001
,
1000
0000
0100
0000
0010
0000
0100
0000
1000
0001
1000
0001
0010
0000
0000
0000
,
0001
0100
0001
0100
0001
1000
0001
1000
0010
0100
0010
0100
0002
0000
0000
0000
,
1003
0100
1000
0100
0010
0100
0010
0100
1000
0001
1000
0001
0020
0000
0030
0000
,
0001
1000
0001
1000
0001
1000
0001
1000
0010
0100
0010
0100
0010
0100
0010
0100
,
0002
0000
0023
0000
0032
0000
0023
0000
0031
1000
0100
1000
0001
1000
0100
1000
,
0020
0000
0000
0000
0000
0000
0000
0000
0000
0000
0000
0000
0000
0000
0000
0000
0000
0000
0000
0000
0000
0000
0000
0000
0000
0000
0000
0000
0000
0030
0100
0001
,
0020
0000
0000
0000
,
0000
0000
0000
0000
,
0000
0000
0000
0000
,
0000
0000
0000
0000
,
0000
0000
0000
0000
,
0000
0000
0000
0000
,
0000
0000
0000
0000
,
0000
0000
0000
0000
,
0000
0000
0000
0000
,
0000
0000
0000
0000
,
0030
0000
0000
0000
;

//--------------- dance-double - forcednature ----------------
#NOTEDATA:;
#STEPSTYPE:dance-double;
#DESCRIPTION:forcednature;
#CREDIT:forcednature;
#DIFFICULTY:Easy;
#METER:12;
#RADARVALUES:0,0,0,0,0;
#NOTES:
00000000
00000000
00000000
00000000
,
00000000
00000000
00000000
00000000
,
00000000
00000000
00000000
00000000
,
00000000
00000000
00000000
00000000
,
00000000
00000000
00000000
00000000
,
00022000
00000000
00000000
00033000
,
00000000
00000000
00000000
00000000
,
00011000
00000000
00000000
00000000
,
00000100
00000100
00001000
00001001
,
00000001
00000100
00001000
00010000
,
00100000
01000000
00010000
10000000
,
01000000
00010000
00001000
00100000
,
00001000
00010000
00001000
00000000
00010000
00001000
00010000
00000000
,
00000100
00001000
00000010
00000100
,
00000001
00000010
00000100
00010000
,
00001000
00100000
01000000
10000000
,
00010000
01000000
00010000
01000000
00020000
00000000
00030000
00000000
,
10010000
10010000
01100000
01100000
,
00010000
10000000
01000000
00000000
,
01100000
01100000
00011000
00011000
,
00000100
00001000
00000010
00000000
,
00000110
00000110
00001001
00001001
,
00001000
00000100
00010000
00000000
,
00011000
00000000
00001000
00000000
,
20020000
00000000
00000000
30030000
,
00000000
10000000
01000000
10000000
,
00000000
00100000
00000000
01000000
,
00000000
00010000
00100000
00010000
,
00000000
00001000
00000000
00000100
,
00000000
00001000
00000010
00001000
,
00000000
00000001
00000000
00000100
,
00000000
00000001
00000010
00000001
,
00000000
00000100
00000100
00001000
,
00000000
00010000
00001000
00010000
,
00000000
00100000
00000000
10000000
,
00000000
01000000
10000000
01000000
,
00000000
00010000
00000000
00001000
,
00000000
00000010
00000100
00000010
,
00000000
00000001
00000000
00001000
,
00000010
00000010
00001000
00000001
,
00000100
00000010
00000100
00000000
,
00002002
00000000
00000000
00000000
,
00000000
00000000
00000000
00000000
,
00000000
00000000
00000000
00000000
,
00000000
00000000
00000000
00003003
,
00001000
00000100
00010000
00001000
,
00100000
00010000
01000000
00100000
,
10000000
01000000
00100000
00001000
,
00010000
00000100
00000010
00000001
,
00000100
00000100
00000100
00000000
00000000
00000000
00000000
00000000
00000000
00000000
00000000
00000000
00000000
00000000
00000000
00000000
,
00000010
00000010
00000010
00000000
00000000
00000000
00000000
00000000
00000000
00000000
00000000
00000000
00000000
00000000
00000000
00000000
,
00001000
00000000
00000000
00001000
00000000
00000000
00000000
00000000
00000100
00000000
00000000
00000100
00000000
00000000
00010000
00000000
,
00001000
00000000
00000000
00000000
00000000
00000000
00001000
00000000
00000000
00000000
00000000
00000000
00100000
00000000
00000000
00000000
00010000
00000000
00000000
00000000
10000000
00000000
00000000
00000000
00100000
00000000
00000000
00000000
02000000
03000000
00000000
00000000
,
00000000
00000000
00010000
00000000
10000000
00010000
10000000
00000000
,
01000000
00010000
00001000
00000010
,
00000100
00000000
00001000
00000000
00000001
00000010
00000001
00000000
,
00000100
00001000
00010000
00100000
,
01000000
00000000
00010000
00000000
01000000
00100000
01000000
00000000
,
00100000
10000000
01000000
10000000
,
00010000
00000000
00100000
00000000
00001000
00010000
00001000
00000000
,
00000020
00000100
00000130
00000110
,
00001001
00001000
00000010
00010000
,
00001000
00000000
01000000
00000000
00010000
01000000
00010000
00000000
,
10000000
00100000
10000000
01000000
,
00010000
00000000
00001000
00000000
00100000
00010000
00010000
00000000
,
00100000
00010000
00100000
00000000
00001000
00000000
00010000
00000000
,
00000010
00001000
00000010
00000000
00010000
00000000
00001000
00000000
,
00011000
00000100
00011000
00000010
,
00001000
00000000
00001000
00000001
00000000
00000001
00000010
00000000
,
00000110
00000000
00001000
00000000
00000100
00001000
00000100
00000000
,
00010000
00001000
00010000
00000000
00000010
00000000
00001000
00000000
,
00001001
00000000
00010000
00000000
00001000
00010000
00001000
00000000
,
00100000
00010000
00100000
00000000
01000000
00000000
10000000
00000000
,
01100000
00000000
00010000
00000000
00100000
00010000
00100000
00000000
,
00001000
00010000
00001000
00000000
00000010
00000000
00000100
00000000
,
00000110
00000000
00000000
00000000
00001000
00000001
00000000
00000001
,
00002000
00000010
00003010
00001001
,
00000001
00000100
00001000
00000000
00001000
00001000
00010000
00000000
,
00010000
00100000
10000000
00000000
02000000
00000000
03100000
00000000
,
10000000
01000000
00010000
00000000
00010000
00010000
00001000
00000000
,
00001000
00000010
00000001
00000000
00000100
00000000
00001001
00000000
,
00000001
00000100
00001000
00000000
00010000
00100000
10000000
00000000
,
10000000
01000000
00010000
00000000
00002000
00000000
00003010
00000000
,
00001000
00010000
00100000
00000000
00010000
00001000
00000010
00000000
,
00000200
00000000
00000320
00000000
00000031
00001000
00000001
00001000
,
00000020
00000000
00000000
00000000
00000000
00000000
00000000
00000030
,
00002002
00000000
00000000
00000000
,
00000000
00000000
00000000
00000000
,
00000000
00000000
00000000
00000000
,
00000000
00000000
00000000
00000000
,
00000000
00000000
00000000
00000000
,
00000000
00000000
00000000
00000000
,
00000000
00000000
00000000
00000000
,
00000000
00000000
00000000
00000000
,
00000000
00000000
00000000
00000000
,
00000000
00000000
00000000
00000000
,
00003003
00000000
00000000
00000000
;

//--------------- dance-double - forcednature ----------------
#NOTEDATA:;
#STEPSTYPE:dance-double;
#DESCRIPTION:forcednature;
#CREDIT:forcednature;
#DIFFICULTY:Medium;
#METER:13;
#RADARVALUES:0,0,0,0,0;
#NOTES:
00000000
00000000
00000000
00000000
,
00000000
00000000
00000000
00000000
,
00000000
00000000
00000000
00000000
,
00000000
00000000
00000000
00000000
,
00000000
00000000
00000000
00000000
,
00022000
00000000
00000000
00033000
,
00000000
00000000
00000000
00000000
,
00011000
00000000
00000000
00000000
,
02000000
00000000
00000000
03000000
,
00010000
10000000
00010000
00000000
00100000
00000000
01000000
00000000
,
00010000
00001000
00100000
00000000
00010000
00100000
00001000
00000000
,
00010000
00000100
00010000
00000000
00001000
00000000
00000010
00000000
,
00000001
00000100
00000010
00000000
00001000
00000100
00000010
00000000
,
00000001
00000100
00001000
00000000
00010000
00000000
00100000
00000000
,
01000000
00010000
00100000
00000000
01000000
10000000
00100000
00000000
,
10000000
01000000
00010000
00000000
00001000
00000000
00000010
00000000
,
00000200
00001000
00001300
00000011
,
00001100
00000000
00010000
00000000
00011000
00000000
00001000
00200000
,
00000000
00310000
00100000
00010000
,
10000000
00000000
10100000
00000000
00010000
00000000
01000000
00001000
,
00000000
00001000
00000000
00000000
00010000
00001000
00010000
00000000
,
00001100
00000000
00001000
00000000
00001010
00000000
00000001
00000100
,
00000000
00000220
00000330
00000010
,
00002002
00003003
00010000
00001000
,
00022000
00000000
00000000
00033000
,
00100000
00000000
00010000
00000000
01000000
00010000
02000000
00000000
,
03100000
10000000
00000000
01000000
10000000
00000000
00010000
00000000
,
00100000
00000000
00001000
00000000
00010000
00001000
00020000
00000000
,
00030100
00001000
00000000
00000010
00001000
00000000
00000100
00000000
,
00000010
00000000
00000001
00000000
00001000
00000010
00002000
00000000
,
00003100
00010000
00000000
00001000
00010000
00000000
00001000
00000000
,
00100000
00000000
00010000
00000000
01000000
00010000
02000000
00000000
,
03100000
00000000
10000000
00100000
10000000
00000000
01000000
00000000
,
10010000
00000000
00010000
00000000
00100000
00010000
00200000
00000000
,
00301000
00010000
00000000
00000010
00001000
00000000
00000100
00000000
,
00000010
00000000
00000001
00000000
00001000
00000010
00002000
00000000
,
00003100
00010000
00000000
00001000
00010000
00000000
00001000
00000000
,
00011000
00000000
00100000
00010000
00100000
00000000
02000000
00000000
,
13000000
00100000
00000000
01000000
00100000
00000000
10000000
00000000
,
01000000
00000000
00010000
00000000
00001000
00001000
00000000
00000010
,
00000000
00000010
00000001
00000000
00000100
00000000
00000000
00000000
,
00002002
00000000
00000000
00000000
,
00000000
00000000
00000000
00000000
,
00000000
00000000
00000000
00000000
,
00000000
00000000
00000000
00003003
,
00010000
00000000
00001000
00000000
01000000
00000000
00010000
00100000
,
01000000
10000000
00010000
00100000
,
00001000
00000010
00000100
00001000
,
00000001
00000100
00001000
00010000
,
00100000
00100000
00100000
00000000
00000000
00000000
10000000
00000000
00000000
00000000
10000000
00000000
00000000
00000000
10000000
00000000
,
01000000
01000000
01000000
00000000
00000000
00000000
00010000
00000000
00000000
00000000
00010000
00000000
00000000
00000000
00010000
00000000
,
00011000
00000000
00001000
00000010
00000000
00000000
00001000
00000000
00011000
00000000
00010000
00100000
00000000
00000000
00010000
00000000
,
00011000
00000000
00000000
00000000
00001000
00000000
00000100
00000000
00000000
00000000
00000000
00000000
00001000
00000000
00000000
00000000
00011000
00000000
00000000
00000000
00100000
00000000
00000000
00000000
00010000
00000000
00000000
00000000
02200000
03300000
00000000
00000000
,
00000000
10000000
01000000
00010000
01000000
10000000
00000000
00010000
,
00000000
00100000
00001000
00000000
00010000
00000100
00000000
00001000
,
00000000
00000001
00000100
00001000
00000100
00000001
00000000
00001000
,
00000000
00000010
00010000
00000000
00001000
01000000
00000000
00010000
,
00000000
10000000
01000000
00010000
01000000
10000000
00000000
00010000
,
00000000
00100000
00001000
00000000
00010000
00000100
00000000
00001000
,
00000000
00000001
00000100
00001000
00000100
00000001
00000000
00001000
,
00000020
00010000
00010030
00011000
,
00000000
00001000
00100000
00010000
01000000
00001000
00000000
00010000
,
00000000
00100000
10000000
00000000
01000000
00010000
00000000
00001000
,
00000000
00001000
00000010
00000100
00001000
00000001
00000000
00000100
,
00000000
00001000
00010000
00000000
00100000
01000000
01100000
00000000
,
10000000
10000000
10000000
00010000
01000000
00001000
00100000
00000000
,
00010000
00010000
00010000
00100000
01000000
00000000
00010000
00000000
,
00011000
00000000
00000100
00001000
00000010
00000000
00010000
00001000
,
00000020
00000100
00000100
00001030
,
00000011
00000000
00000011
00000000
00000001
00000100
00001000
00001000
,
00000000
00010000
00010000
00100000
10000000
00000000
00010000
00000000
,
10100000
00000000
10100000
00000000
10000000
01000000
00010000
00010000
,
00000000
00001000
00001000
00000010
00000001
00000000
00000100
00000000
,
00001001
00000000
00001001
00000000
00000001
00000100
00001000
00001000
,
00000000
00010000
00010000
00100000
10000000
00000000
01000000
00000000
,
20020000
00000000
30030000
00000000
00010000
00100000
00000000
00011000
,
00000000
00000100
00001000
00000000
00000020
00000000
00000130
00000000
,
00000001
00001000
00000100
00001000
00000010
00000010
00000010
00000010
,
00001000
00000100
00010000
00001000
00100000
00100000
00100000
00000000
,
00010000
01000000
00010000
10000000
00100000
00100000
00100000
00100000
,
10000000
01000000
00010000
00001000
00000010
00000010
00000010
00000000
,
00000100
00010000
00001000
00010000
00000010
00010000
00001000
00010000
,
00000100
00001000
00000010
00001000
00010000
00010000
02000000
00000000
,
03100000
00100000
10000000
01000000
00010000
00010000
00001000
00000010
,
00000100
00001000
00000100
00001000
00000001
00000010
00001000
00010000
,
00022000
00000000
00000000
00000000
00000000
00000000
00000000
00033000
,
02200000
00000000
00000000
00000000
,
00000000
00000000
00000000
00000000
,
00000000
00000000
00000000
00000000
,
00000000
00000000
00000000
00000000
,
00000000
00000000
00000000
00000000
,
00000000
00000000
00000000
00000000
,
00000000
00000000
00000000
00000000
,
00000000
00000000
00000000
00000000
,
00000000
00000000
00000000
00000000
,
00000000
00000000
00000000
00000000
,
03300000
00000000
00000000
00000000
;

//--------------- dance-double - forcednature ----------------
#NOTEDATA:;
#STEPSTYPE:dance-double;
#DESCRIPTION:forcednature;
#CREDIT:forcednature;
#DIFFICULTY:Hard;
#METER:17;
#RADARVALUES:0,0,0,0,0;
#NOTES:
00000000
00000000
00000000
00000000
,
00000000
00000000
00000000
00000000
,
00000000
00000000
00000000
00000000
,
00000000
00000000
00000000
00000000
,
00000000
00000000
00000000
00000000
,
00010000
00001000
00011000
00000000
00000000
00000000
00000000
00000000
,
00000000
00000000
00000000
00000000
,
00001000
00010000
00011000
00000000
00000000
00000000
00000000
00000000
,
01000000
01000000
00010000
00010000
00100000
00000000
10010000
00000000
,
10000000
01000000
00100000
01000000
10000000
00100000
01000000
00100000
,
10000000
00000000
01000000
00000000
00010000
00000000
00001000
00000000
00000100
00000000
00000001
00000000
00000010
00000000
00000100
00000010
,
00000100
00001000
00000010
00001000
00000001
00000010
00000001
00000100
,
00001000
00000000
00010000
00000000
01000000
00000000
10000000
00000000
00100000
00000000
01000000
00010000
00100000
00000000
01000000
10000000
,
00100000
10000000
01000000
10000000
00010000
00100000
00010000
10000000
,
01000000
00000000
00010000
00000000
00001000
00000000
00000100
00000000
00000001
00000000
00000010
00000000
00000100
00001000
00000100
00001000
,
00000010
00000100
00000001
00000010
00000001
00000100
00001000
00010000
,
01000000
00000000
10000000
00010000
00100000
00000000
00010000
10000000
00200000
00000000
00000000
00000000
01300000
00000000
00000000
00000000
,
01100000
00000000
01100000
00000000
10010000
00000000
00010000
00200000
,
00000000
00000000
00000000
00300000
00000000
00000000
01000000
00000000
,
00010000
00000000
00011000
00000000
00000100
00001000
00000000
00001100
,
00000000
00002020
00000000
00003030
00000000
00000000
00000010
00000100
,
00002002
00000000
00003003
00000000
00001000
00000000
00000100
00010000
,
00000000
00000000
00022000
00000000
00000000
00033000
00100000
00000000
,
02200000
03300000
10010000
00100000
,
00022000
00000000
00030000
00003100
,
00001000
00000000
00010000
00000000
00000010
00000000
00001000
00000000
00000001
00000100
00000001
00000100
00000020
00000000
00000000
00000000
,
00001030
00000100
00000000
00000001
00000100
00000000
00010000
00001000
,
00100000
00000000
00010000
00000000
10000000
00000000
01000000
00000000
10000000
00010000
10000000
00010000
00200000
00000000
00000000
00000000
,
01300000
00010000
00000000
00001000
00010000
00000000
00001000
00000010
,
00000001
00000000
00001000
00000000
00000100
00000000
00001000
00000000
00000001
00000100
00000001
00000100
00000020
00000000
00000000
00000000
,
00001030
00000100
00000000
00000001
00000100
00000000
00010000
00001000
,
00100000
00000000
00010000
00000000
10000000
00000000
00100000
00000000
01000000
00010000
01000000
00010000
20000000
00000000
00000000
00000000
,
31000000
00010000
00010000
00001000
00010000
00000000
00011000
00000000
,
00000100
00000000
00010000
00000000
00000010
00000000
00001000
00000000
00000001
00000100
00000010
00000100
00000002
00000000
00000000
00000000
,
00000013
00000100
00010000
00001000
00100000
00010000
01000000
00000000
,
00100000
00000000
10000000
00000000
00010000
00000000
01000000
00000000
00100000
10000000
00010000
10000000
00200000
00000000
00000000
00000000
,
10300000
01000000
00010000
00001000
00100000
00010000
01000000
00000000
,
00001000
00000000
00010000
00000000
00000010
00000000
00001000
00000000
00000001
00000010
00000100
00000010
00000002
00000000
00000000
00000000
,
00001003
00000010
00000100
00001000
00010000
01000000
00100000
00000000
,
01100000
00000000
10010000
00000000
10000000
01000000
00010000
02000000
,
00000000
03100000
00001000
00010000
00000100
00000000
00000000
00000000
,
00001002
00000203
00002300
00023000
,
02030000
00000000
03200000
00000000
,
00320000
20030000
30200000
00320000
,
00032000
00000000
00003200
00000000
00000302
00000000
00000023
00000030
,
00001001
00000000
00000100
00000000
00010000
00000000
00001000
00100000
,
00010000
01000000
00100000
10010000
,
10000000
01000000
00010000
00001000
,
00000110
00000011
00000101
00001100
,
00000001
00000001
00000001
00000000
00000000
00000000
00000000
00000000
00000000
00000000
00000000
00000000
00000000
00000000
00000000
00000000
,
10000000
00000000
10000000
00000000
10000000
00000000
00000000
00000000
00000000
00000000
00000000
00000000
00000000
00000000
00000000
00000000
00000000
00000000
00000000
00000000
00000000
00000000
00000000
00000000
00000000
00000000
00000000
00000000
00000000
00000000
00010000
00001000
,
00010000
00000000
00000000
01001000
00000000
00000000
00000000
00000000
00011000
00000000
00000000
00010100
00000000
00000000
00000010
00000000
,
00000110
00000000
00000000
00000000
00000000
00000000
00011000
00000000
00000000
00000000
00000000
00000000
00100000
00000000
00000000
00000000
01200000
00000000
00000000
00000000
10000000
00000000
00000000
00000000
00310000
00000000
00000000
00000000
20020000
30030000
00000000
00000000
,
10000000
01000000
00010000
01000000
00100000
00001000
00010000
00000100
,
00010000
00000000
00001000
00000000
00000010
00000000
00000001
00000000
00000100
00000000
00000001
00000000
00000010
00000000
00000100
00001000
,
00000001
00000100
00000001
00000010
00001000
00000010
00000001
00000100
,
00001000
00000000
00010000
00000000
01000000
00000000
10000000
00010000
00100000
00000000
01000000
00000000
00100000
00010000
00100000
00010000
,
10000000
00100000
10000000
01000000
00010000
00001000
00000100
00000001
,
00000010
00000000
00000100
00000000
00010000
00000000
00001000
00000000
00000010
00000000
00000001
00000000
00001000
00000000
00000010
00000100
,
00001001
00000000
00000010
00000000
00000001
00000000
00000100
00000000
00001000
00000000
00010000
00000000
01000000
00000000
10000000
00010000
,
00200000
00000000
01000000
01000000
01300000
00000000
10010000
00000000
,
01100000
00010000
00100000
01000000
00010000
00000100
00001000
00000010
,
00000100
00000000
00000001
00000000
00000010
00000000
00000100
00000000
00010000
00000000
00000010
00000000
00001000
00000000
00000100
00000010
,
00000001
00000100
00000001
00000010
00001000
00010000
00100000
10000000
,
01000000
00000000
10000000
00000000
00100000
00000000
01000000
00000000
00010000
00100000
01000000
10000000
00100000
00000000
00000000
00000000
,
01000000
00010000
01000000
00010000
10000000
00000000
01000000
00000000
00010000
00000000
00001000
00000000
00000100
00000000
00000001
00000000
,
00001000
00000010
00001000
00000010
00000100
00000000
00000001
00000000
00000020
00000000
00000100
00000000
00000031
00000000
00000000
00000000
,
00000110
00000000
00001000
00010000
00011000
00000000
00100000
01000000
,
02200000
00000000
00000000
03300000
,
10010000
00000000
00110000
00000000
10000000
01000000
00010000
00001000
,
00100000
00010000
00001000
00000100
00010000
00001000
00000010
00000001
,
00000100
00000000
00001001
00000000
00000001
00000100
00001000
00010000
,
00000010
00001000
00010000
01000000
00002000
00000000
00103000
00100000
,
00010000
00000000
10010000
00000000
10000000
01000000
00010000
00001000
,
00100000
00010000
00001000
00000100
00010000
00001000
00000010
00000000
,
00000210
00000000
00001300
00000000
00000001
00000010
00000000
00000002
,
00000000
00000103
00000200
00000000
00000310
00001000
00001001
00000000
,
00000001
00000000
00000010
00000000
00000100
00000000
00000010
00000000
00000100
00001000
00000100
00001000
00000100
00010000
00001000
00100000
,
00010000
00000000
01000000
00000000
00100000
00000000
01000000
00000000
00010000
10000000
00010000
10000000
00200000
00000000
00000000
00000000
,
10300000
00000000
01000000
00000000
00100000
00000000
01000000
00000000
00100000
00010000
00100000
00010000
00100000
00001000
00010000
00000100
,
00001000
00000000
00000010
00000000
00000100
00000000
00000001
00000000
00000010
00000100
00000010
00000100
00001000
00000000
00000000
00000000
,
00000001
00000100
00000001
00000100
00000010
00000000
00001000
00000000
00010000
00000000
01000000
00100000
10000000
00000000
10000000
00010000
,
10000000
01000000
10000000
01000000
00100000
00010000
00100000
00010000
01000000
00000000
00001000
00000000
00200000
00000000
00300000
00000000
,
00010000
10000000
00010000
10000000
00010000
10000000
01000000
00010000
00001000
00010000
00001000
00010000
00001000
00010000
00001000
00010000
,
00002000
00000000
00003020
00000000
00000032
00000000
00000023
00000000
00000130
00010000
00001000
00010000
00000010
00010000
00001000
00010000
,
00000200
00000000
00000000
00000000
00000000
00000000
00000000
00000000
00000000
00000000
00000000
00000000
00000000
00000000
00000000
00000000
00000000
00000000
00000000
00000000
00000000
00000000
00000000
00000000
00000000
00000000
00000000
00000000
00000000
00000000
00000310
00001000
,
00200000
00000000
00000000
00000000
,
00000000
00000000
00000000
00000000
,
00000000
00000000
00000000
00000000
,
00000000
00000000
00000000
00000000
,
00000000
00000000
00000000
00000000
,
00000000
00000000
00000000
00000000
,
00000000
00000000
00000000
00000000
,
00000000
00000000
00000000
00000000
,
00000000
00000000
00000000
00000000
,
00000000
00000000
00000000
00000000
,
00300000
00000000
00000000
00000000
;
