#VERSION:0.83;
#TITLE:Abyss -The Heavens Remix-;
#SUBTITLE:;
#ARTIST:dj TAKA Remixed by Ryu☆;
#TITLETRANSLIT:;
#SUBTITLETRANSLIT:;
#ARTISTTRANSLIT:;
#GENRE:TRANCE CORE;
#CREDIT:;
#MUSIC:Abyss -The Heavens Remix-.ogg;
#BANNER:Abyss -The Heavens Remix-.png;
#BACKGROUND:Abyss -The Heavens Remix--bg.png;
#CDTITLE:./CDTitles/bm IIDX 9th style.png;
#SAMPLESTART:65.040;
#SAMPLELENGTH:15.000;
#SELECTABLE:YES;
#OFFSET:0.391;
#BPMS:0.000=171.000;
#STOPS:;
#TIMESIGNATURES:0.000=4=4;
#BGCHANGES:4.000=Abyss -The Heavens Remix-.mp4=1.000=0=0=0=StretchNoLoop====,
99999.000=-nosongbg-=1.000=0=0=0=StretchNoLoop====
;
#FGCHANGES:;

//--------------- dance-single - forcednature ----------------
#NOTEDATA:;
#STEPSTYPE:dance-single;
#DESCRIPTION:forcednature;
#DIFFICULTY:Beginner;
#METER:3;
#RADARVALUES:0,0,0,0,0;
#CREDIT:forcednature;
#NOTES:
0000
0000
0000
0000
,
0000
0000
0000
0000
,
0000
0000
0000
0000
,
1000
0000
0000
0000
,
0000
0000
0000
0000
,
0001
0000
0000
0000
,
0100
0000
0000
0000
,
0001
0000
0000
0000
,
0000
0000
0000
0000
,
1000
0000
0000
0000
,
0100
0000
0000
0000
,
1000
0000
0000
0000
,
0010
0000
0000
0000
,
0100
0000
0000
0000
,
0001
0000
0000
0000
,
1000
0000
0000
0000
,
0100
0000
0000
0000
,
0010
0000
0000
0000
,
0001
0000
0000
0000
,
0100
0000
0000
0000
,
0010
0000
0000
0000
,
1000
0000
0000
0000
,
0001
0000
0000
0000
,
0010
0000
0000
0000
,
0000
0000
0000
0000
,
0100
0000
0000
0000
,
1000
0000
0000
0000
,
0001
0000
0000
0000
,
0000
0000
0000
0000
,
0100
0000
0000
0000
,
0000
0000
0000
0000
,
1001
0000
0000
0000
,
0000
0000
0000
0000
,
0010
0000
0000
0000
,
0100
0000
0000
0000
,
1001
0000
0000
0000
,
0000
0000
0000
0000
,
0100
0000
0000
0000
,
0010
0000
0010
0000
,
1001
0000
0000
0000
,
0000
0000
0000
0000
,
0001
0000
0000
0000
,
0000
0000
0000
0000
,
1001
0000
0000
0000
,
0110
0000
0000
0000
,
1000
0000
0001
0000
,
0100
0100
0100
0000
,
0010
0000
0000
0000
,
1000
0000
0001
0000
,
1000
0000
0000
0000
,
0100
0000
1000
0000
,
0100
0000
0000
0000
,
0010
0000
0001
0000
,
0010
0000
0000
0000
,
0001
0000
1000
0000
,
0001
0000
0000
0000
,
0100
0000
0000
0000
,
0010
0000
0000
0000
,
1000
0000
0001
0000
,
1000
0000
0000
0000
,
0100
0000
0010
0000
,
0001
0000
0010
0000
,
0100
0000
0000
0000
,
1000
0000
0010
0000
,
1000
0000
0000
0000
,
0010
0000
0100
0000
,
0010
0000
0000
0000
,
0100
0000
0001
0000
,
0100
0000
0000
0000
,
0001
0000
1000
0000
,
0001
0000
0000
0000
,
0010
0010
0000
0000
,
0100
0100
0000
0000
,
1000
1000
0000
0000
,
0001
0001
0000
0000
,
0100
0000
0100
0000
,
0010
0000
0010
0000
,
1000
0000
0001
0000
,
0010
0010
0000
0100
,
1001
0000
0000
0000
;

//--------------- dance-single - forcednature ----------------
#NOTEDATA:;
#STEPSTYPE:dance-single;
#DESCRIPTION:forcednature;
#DIFFICULTY:Easy;
#METER:7;
#RADARVALUES:0,0,0,0,0;
#CREDIT:forcednature;
#NOTES:
0000
0000
0000
0000
,
0000
0000
0000
0000
,
0000
0000
0000
0000
,
1000
0100
0000
1000
,
0001
0100
0000
0001
,
1000
0010
0000
1000
,
0001
0010
0000
0001
,
0100
0010
0000
1000
,
0100
0010
0000
0001
,
1000
0010
0000
0100
,
0001
0010
0001
0001
,
1000
0000
1000
0000
,
0010
1000
0010
1000
,
0001
0000
0001
0000
,
0010
0001
0010
0001
,
1000
0000
1000
0000
,
0100
1000
0100
1000
,
0001
0000
0001
0000
,
0100
0001
0100
0001
,
1000
0100
0000
1000
,
0001
0100
0000
0001
,
1000
0010
0000
1000
,
0001
0010
0000
0001
,
1001
0000
1000
0000
,
0001
0000
1000
0000
,
0010
0000
0100
0000
,
0001
0000
0100
0000
,
0220
0000
0000
0000
,
0000
0000
0000
0000
,
0000
0000
0000
0000
,
0000
0000
0330
0000
,
2001
0000
0000
0000
,
0000
0000
0000
0000
,
3200
0000
0000
0000
,
0320
0000
0000
0000
,
0032
0000
0000
0000
,
0000
0000
0000
0000
,
0203
0000
0000
0000
,
0320
0000
2030
0000
,
3001
0000
0001
0000
,
0010
0001
0010
0000
,
0100
0000
0100
0000
,
1000
0100
1000
0000
,
0001
0100
0001
0000
,
0100
0010
0100
0000
,
0110
0000
1001
0000
,
1000
0001
1000
0001
,
0100
0001
0100
0010
,
1000
0001
0010
0000
,
0100
1000
0100
0010
,
0001
1000
0010
0000
,
0100
0001
0010
0001
,
1000
0010
1000
0000
,
0100
0010
0001
1000
,
0100
1000
0001
0000
,
0110
0000
1000
0001
,
0010
0001
0100
0000
,
0010
1000
0001
1000
,
0100
0010
0001
0010
,
0110
0000
0000
0000
,
1001
0000
0110
0000
,
1001
0000
0110
0000
,
0001
2000
3000
0010
,
0100
0001
0100
0010
,
1000
0001
1000
0000
,
0100
1000
0100
0010
,
0001
1000
0001
0000
,
0100
0001
0100
0010
,
1000
0001
1000
0000
,
0100
1000
0100
0010
,
0001
1000
0001
0000
,
0100
0001
0010
0000
,
0100
1000
0010
0000
,
0100
0001
1000
0000
,
0100
1000
0001
0000
,
0100
0100
0001
0100
,
0001
0001
0010
0001
,
1000
0010
1000
0100
,
0010
0001
0000
0100
,
2002
0000
0000
0000
,
3003
0000
0000
0000
;

//--------------- dance-single - forcednature ----------------
#NOTEDATA:;
#STEPSTYPE:dance-single;
#DESCRIPTION:forcednature;
#DIFFICULTY:Medium;
#METER:11;
#RADARVALUES:0,0,0,0,0;
#CREDIT:forcednature;
#NOTES:
0000
0000
0000
0000
,
0000
0000
0000
0000
,
0000
0000
0000
0000
,
1000
0000
0101
0000
1000
0001
0010
0000
,
0001
0000
1100
0000
0001
1000
0010
0000
,
0100
0000
1001
0000
0001
1000
0010
0000
,
0100
0000
1001
0000
1000
0001
0010
0000
,
1100
0000
0011
0000
0001
1000
0010
0000
,
0100
0000
1010
0000
1000
0001
0010
0000
,
0100
0000
0110
0000
0010
0001
1000
0000
,
0110
0000
1001
0000
0001
0100
0001
0000
,
1000
0100
1000
0000
1000
0001
1000
0000
,
1000
0010
1000
0000
0001
0000
0010
0000
,
0001
0100
0001
0000
0001
1000
0001
0000
,
0001
0010
0001
0000
1000
0000
0100
0000
,
1000
0010
1000
0000
1000
0100
1000
0000
,
1000
0001
1000
0000
0010
0000
0100
0000
,
0001
0010
0001
0000
1000
0010
1000
0000
,
0110
0000
0000
0001
0000
0000
1000
0000
0010
0000
0010
0000
0010
0000
0000
0000
,
0100
0001
0100
0002
0000
0003
1000
0000
,
0100
1000
0100
2000
0000
3000
0001
0000
,
0010
0100
0010
0200
0000
0300
1000
0000
,
0010
0100
0010
0200
0000
0300
0001
0000
,
0010
0100
0000
0100
,
0000
1000
0000
1000
,
0000
0001
0000
0001
,
0000
0100
0000
0100
,
0110
0010
1000
0010
,
0100
0001
0010
0001
,
1000
0010
0000
0010
,
0000
0000
0100
0000
0000
0000
0100
0001
,
2002
0000
0000
0000
,
0000
0000
3003
0000
,
0200
0000
0000
0300
,
0020
0000
0000
0030
,
0220
0000
0000
0000
,
0000
0000
0330
0000
,
2002
0000
3003
0000
,
0220
0330
2002
3003
,
1000
0000
0000
0000
0100
0000
0000
1000
0000
0000
0001
0000
1000
0000
0000
0000
,
0010
0000
0000
0010
0000
0000
0100
0000
0000
0001
0000
0000
1000
0000
0000
0000
,
0001
0000
0000
0000
0010
0000
0000
0001
0000
0000
1000
0000
0010
0000
0000
0000
,
0100
0000
0000
0100
0000
0000
0001
0000
0000
1000
0000
0000
0100
0000
0000
0000
,
0110
0000
0100
0000
1000
0001
0100
0000
,
0110
0000
0100
0000
0001
1000
0100
0000
,
0011
0100
1010
0100
,
0101
0000
0000
1000
0000
0000
1100
0000
0000
0001
0000
0000
0110
0000
0000
0000
,
1000
0000
0100
0000
1000
0000
0000
0001
0000
0000
0010
0000
0001
0000
0000
0000
,
0100
0000
0000
0001
0000
0000
0100
0000
0000
0010
0000
0000
1000
0000
0000
0000
,
0001
0000
0010
0000
0100
0000
0000
0010
0000
0000
0001
0000
1000
0000
0000
0000
,
0010
0000
0000
0100
0000
0000
0001
0000
0000
0100
0000
0000
0010
0000
0000
0000
,
1000
0000
0100
0000
0010
0000
0000
0100
0000
0000
1000
0000
0001
0000
0000
0000
,
0100
0000
0000
0010
0000
0000
0100
0000
0000
0001
0000
0000
1000
0000
0000
0000
,
0100
0000
0010
0000
0100
0000
0000
1000
0000
0000
0001
0000
0010
0000
0000
0000
,
0001
0000
0000
0100
0000
0000
0001
0000
0000
1000
0000
0000
0001
0000
0000
0000
,
0010
0000
0100
0000
0010
0100
1000
0002
,
0000
0203
0000
0320
0000
2030
0000
3001
,
0010
0000
0100
0000
1000
0000
0001
0100
,
0001
1000
0100
0010
,
1001
0100
0000
0100
,
0011
0100
1010
0100
,
0110
1000
0110
0001
,
0100
0010
0110
0000
0000
0100
1001
0000
,
1000
0100
1000
0100
0010
0100
0010
0100
,
0010
0001
0010
0001
1000
0001
1000
0000
,
0001
0100
0001
0100
0010
0100
0010
0100
,
0010
1000
0010
1000
0001
1000
0001
0000
,
0010
0100
0010
0100
1000
0001
1000
0001
,
0010
0100
0010
0100
1000
0001
1000
0000
,
0010
0100
0010
0100
0001
1000
0001
1000
,
0010
0100
0010
0100
0001
1000
0001
0000
,
1000
0100
0010
0002
0000
1003
0100
1000
,
0001
0100
0010
2000
0000
3001
0100
0001
,
1000
0001
0010
0200
0000
0310
0100
1000
,
0001
1000
0010
0200
0000
0310
0100
0001
,
1000
0100
1000
0100
0010
0001
0010
0000
,
0001
0100
0001
0100
0010
1000
0010
0000
,
0100
0010
0100
0001
0010
0100
0010
0001
,
1000
0010
1000
0010
0000
1000
0100
0000
,
2002
0000
0000
0000
,
3003
0000
0000
0000
;

//--------------- dance-single - forcednature ----------------
#NOTEDATA:;
#STEPSTYPE:dance-single;
#DESCRIPTION:forcednature;
#DIFFICULTY:Hard;
#METER:15;
#RADARVALUES:0,0,0,0,0;
#CREDIT:forcednature;
#NOTES:
0000
0000
0000
0000
,
0000
0000
0000
0000
,
0000
0000
0000
0000
,
0000
0000
0000
0000
,
0000
0000
0000
0000
,
0000
0000
0000
0000
,
0000
0000
0000
0000
,
1000
0000
0000
1000
0100
0000
0010
0000
0001
0000
0000
0001
0100
0000
0010
0000
,
1000
0000
0000
1000
0001
0000
0010
0000
0001
0000
0000
0001
1000
0000
0010
0000
,
0100
0000
0000
0100
0001
0000
0010
0000
0100
0000
0000
0100
1000
0000
0010
0000
,
0110
0000
0100
0001
1000
1000
0100
0100
,
1000
0010
0100
1000
0001
0010
0100
0001
,
1000
0100
0001
0100
0010
0001
1000
0000
,
0001
0010
0100
0001
1000
0010
0100
1000
,
0001
0100
1000
0100
0010
1000
0001
0000
,
1000
0010
0001
1000
0100
0001
1000
0001
,
0010
0100
0001
0100
1000
0001
0010
0000
,
0001
0100
1000
0100
0001
0010
1000
0010
,
0110
0000
0000
0100
0000
0000
1000
0000
0001
0000
0100
0000
0001
0000
0100
0000
,
0010
0000
1000
0000
0100
0000
1100
0000
1000
0000
0000
0001
0000
0000
0100
0000
,
0010
0000
1000
0000
0001
0000
0011
0000
0010
0000
0000
0100
0000
0000
1000
0001
,
0010
0000
0100
0000
1000
0000
1010
0000
0010
0000
0000
0100
0000
0000
0001
0000
,
1000
0000
0001
0000
0010
0000
0110
0000
0100
1000
0000
0001
0000
0000
0100
0000
,
0110
0000
0010
2000
0000
3000
0010
0000
,
0000
0000
0100
0002
0000
0003
0100
0000
,
0001
0000
0000
0001
0000
0000
0010
0000
0100
0000
0000
0100
0000
0000
1000
0000
,
0010
0000
0000
0000
0100
0000
0001
0000
1000
0100
1000
0000
0001
0100
0001
0000
,
0010
1100
0000
1100
,
0000
0101
0000
0101
,
1000
0010
1000
0010
0100
0001
0100
0001
,
0010
0000
0100
0000
0010
0000
0100
0000
1000
0000
0001
1000
0001
0000
0100
0000
,
2002
0000
0000
0000
,
3003
0000
0000
0000
,
0220
0000
0330
0000
,
2002
0000
3003
0000
,
0220
0000
0000
0000
,
0330
0000
0000
0000
,
2002
0000
3003
0000
,
0220
0330
2002
3003
,
1000
0000
0100
0000
0010
0000
0000
0001
0000
0000
0010
0000
0100
0000
1000
0000
,
0001
0000
0000
0100
0000
0000
0010
0000
0000
0100
0000
0000
0001
0000
0100
0000
,
0010
0000
1000
0000
0001
0000
0000
1000
0000
0000
0100
0000
0010
0000
0001
0000
,
0010
0000
0000
0100
0000
0000
1000
0000
0000
0100
0000
0000
0010
0000
0001
0000
,
1001
0000
1000
0010
1000
0001
1000
0100
,
1001
0000
0001
0010
0001
1000
0001
0100
,
1001
0000
0100
0010
1001
0000
0010
0100
,
1001
0000
0000
1100
0000
0000
1001
0000
0000
0101
0000
0000
1000
0001
1000
0001
,
1000
0000
0100
0000
0010
0100
0000
1000
0100
0000
0010
0000
0001
0000
1000
0000
,
0002
0000
0000
0100
0000
0000
1000
0000
0000
0013
0000
0000
0001
0000
1000
0000
,
0010
0000
0100
0000
0001
0010
0000
0001
0100
0000
0010
0000
1000
0000
0001
0000
,
2000
0000
0000
0100
0000
0000
0001
0000
0000
3010
0000
0000
1000
0000
0001
0000
,
0010
0000
0100
0000
1000
0010
0000
0100
0010
0000
1000
0000
0001
0000
0010
0000
,
0002
0000
0000
0100
0000
0000
0010
0000
0000
1003
0000
0000
0001
0000
0010
0000
,
0100
0000
1000
0000
0010
0100
0000
0001
0100
0000
0010
0000
1000
0000
0001
0000
,
2000
0000
0000
0100
0000
0000
0010
0000
0000
3001
0000
0000
1000
0000
0100
1000
,
0100
0000
0010
0100
0010
0001
1000
0002
,
0000
0000
0103
0000
1000
0000
0002
0000
0000
0000
0013
0000
1000
0000
0001
0010
,
0100
0000
1100
0000
1000
0010
0001
0010
,
0200
0302
0023
2030
,
3010
1100
0000
1100
,
0010
0101
0010
1001
,
0101
1010
1100
0011
,
0100
0010
0220
0000
0330
1000
1001
0001
,
1000
0010
1000
0000
0100
0000
0010
0000
0001
0010
0001
0000
0100
0000
0010
0000
,
1000
0100
1000
0000
0100
0010
0100
0000
0010
0001
0010
0000
0001
0000
1000
0000
,
0001
0100
0001
0000
1000
0000
0010
0000
1000
0100
1000
0000
0001
0000
0010
0000
,
0001
0100
0001
0000
0100
0010
0100
0000
0010
1000
0010
0000
1000
0000
0001
0000
,
0010
0100
0010
0000
0001
0000
1000
0000
0010
0100
0010
0000
1000
0000
0001
0000
,
1000
0100
1000
0000
0001
0100
0001
0000
0010
0100
0010
0000
0001
0000
1000
0000
,
0001
0010
0001
0000
0100
0000
0001
0000
1000
0010
1000
0000
0100
0000
1000
0000
,
0001
0010
0001
0000
0010
0100
0010
0000
0100
1000
0100
0000
1000
0000
1000
0001
,
0100
0000
0010
0000
1000
0000
1200
0000
0000
0000
0301
0000
0100
1000
0100
0000
,
0010
0000
0001
0000
0100
0000
0201
0000
0000
0000
1300
0000
0100
0001
0100
0000
,
0010
0000
1000
0000
0001
0000
0021
0000
0000
0000
1030
0000
0010
0001
0010
0000
,
0110
0000
0000
0000
0100
0000
1000
0001
1000
0000
1000
0000
0010
0000
0010
0000
,
0100
0001
1000
0000
0010
0000
1000
0000
0100
1000
0001
0000
0010
0000
0001
0000
,
0100
0010
1000
0000
0001
0000
1000
0000
0100
0010
0001
0000
1000
0000
0001
0000
,
1000
0001
0100
0000
0001
1000
0100
0000
0010
0001
1000
0000
0010
1000
0001
0000
,
0010
0100
0010
0000
0110
0000
0100
0010
0000
0000
1001
0000
0001
0100
0010
1000
,
0002
0000
0000
0000
,
0003
0000
0000
0000
;

//--------------- dance-double - forcednature ----------------
#NOTEDATA:;
#STEPSTYPE:dance-double;
#DESCRIPTION:forcednature;
#DIFFICULTY:Easy;
#METER:7;
#RADARVALUES:0,0,0,0,0;
#CREDIT:forcednature;
#NOTES:
00000000
00000000
00000000
00000000
,
00000000
00000000
00000000
00000000
,
00000000
00000000
00000000
00000000
,
00000000
00001000
00000000
00001000
,
00000000
01000000
00000000
00001000
,
00000000
00010000
00000000
00010000
,
00000000
00000100
00000000
00010000
,
00000000
00001000
00000000
00001000
,
00000000
00100000
00000000
00001000
,
00000000
00010000
00000000
00010000
,
00000000
00000010
00001000
00000010
,
00000000
00000100
00000010
00000100
,
00000000
00000001
00000000
00001000
,
00000000
00000100
00001000
00000100
,
00000000
00010000
00000000
00001000
,
00000000
01000000
00010000
01000000
,
00000000
00100000
00000000
01000000
,
00000000
00100000
10000000
00100000
,
00000000
10000000
10000000
10000000
,
00000000
01000000
10000000
01000000
,
00000000
00100000
01000000
00100000
,
00000000
00010000
00100000
00010000
,
00000000
00100000
00001000
00010000
,
00000000
00000010
00001000
00000010
,
00000000
00000100
00000010
00000100
,
00000000
00000001
00000000
00000010
,
00000000
00000100
00000000
00001000
,
00000000
00000010
00000000
00000010
,
00000000
00010000
00000000
00001000
,
00000000
00100000
00000000
00100000
,
00000000
00001000
00000000
00000000
,
00022000
00000000
00000000
00000000
,
00000000
00000000
00033000
00000000
,
00020200
00000000
00030300
00000000
,
00002200
00000000
00003300
00000000
,
00000220
00000000
00000000
00000000
,
00000000
00000000
00000330
00000000
,
00000022
00000000
00000033
00000000
,
00001001
00000000
00000110
00000000
,
00000001
00000100
00000001
00000000
,
00001000
00000000
00000001
00000000
,
00001000
00000100
00001000
00000000
,
00000100
00000000
00010000
00000000
,
00011000
00000000
00001000
01000000
,
00001000
00000000
00010000
00001000
,
00010000
00000000
00011000
00000000
,
00001000
00001000
00010000
00000000
,
00001000
01000000
00010000
01000000
,
00010000
10000000
00100000
00000000
,
10000000
00010000
10000000
01000000
,
10000000
00010000
00100000
00000000
,
00001000
00010000
00000100
00001000
,
00000100
00010000
00001000
00000000
,
00010000
00000010
00001000
00000010
,
00000100
00000001
00001000
00000000
,
00001001
00000000
00000001
00000010
,
00000100
00001000
00000100
00000000
,
00010000
00001000
00100000
00000000
,
00010000
00100000
00001000
00000000
,
00011000
00000000
00001000
00010000
,
00001000
00000000
01000000
00010000
,
01000000
00000000
01100000
00000000
,
00100000
20000000
30000000
00010000
,
00100000
01000000
10000000
01000000
,
00100000
00010000
00100000
00000000
,
00001000
00010000
00000010
00001000
,
00000010
00010000
00001000
00000000
,
00010000
00000100
00001000
00000100
,
00000010
00000001
00000010
00000000
,
00000100
00001000
00000100
00010000
,
00001000
00010000
00000010
00000000
,
00011000
00000000
00001000
00100000
,
00010000
00000000
01000000
00010000
,
10000000
00000000
01000000
00100000
,
00010000
00000000
10000000
00000000
,
00010000
00010000
01000000
00010000
,
10000000
10000000
01000000
10000000
,
00100000
01000000
00010000
01000000
,
00001000
00010000
00000000
00000100
,
00002002
00000000
00000000
00000000
,
00003003
00000000
00000000
00000000
;

//--------------- dance-double - forcednature ----------------
#NOTEDATA:;
#STEPSTYPE:dance-double;
#DESCRIPTION:forcednature;
#DIFFICULTY:Medium;
#METER:12;
#RADARVALUES:0,0,0,0,0;
#CREDIT:forcednature;
#NOTES:
00000000
00000000
00000000
00000000
,
00000000
00000000
00000000
00000000
,
00000000
00000000
00000000
00000000
,
00001000
00011000
00010000
00100000
,
10000000
11000000
01000000
00010000
,
00001000
00101000
00100000
00010000
,
00001000
00000100
00001000
00000000
00000001
00000100
00000001
00000000
,
00000010
00000110
00000100
00010000
,
00001000
01001000
01000000
00010000
,
00100000
01100000
01000000
10000000
,
10010000
00000000
00100000
00000000
00001000
00010000
00001000
00010000
,
00000000
00000010
00001000
00000010
00000000
00000100
00000010
00000100
,
00000000
00000001
00000100
00000001
00000000
00000010
00000000
00000100
,
00000000
00001000
00000100
00001000
00000000
00000100
00010000
00000100
,
00000000
00010000
00001000
00010000
00000000
00001000
00000000
01000000
,
00000000
00010000
00100000
00010000
00000000
10000000
00100000
10000000
,
00000000
01000000
00100000
01000000
00000000
10000000
00000000
00010000
,
00000000
01000000
00010000
01000000
00000000
00001000
00010000
00000000
,
00000010
00000000
00000000
00000010
00000000
00000000
00000010
00000000
00000000
00000000
00001000
00000000
00000001
00000000
00000000
00000000
,
00000010
00000100
00001000
00000000
00001100
00000000
00000100
00000000
,
00010000
00001000
01000000
00000000
01010000
00000000
00010000
00000000
,
00100000
01000000
10000000
00000000
10100000
00000000
00100000
00000000
,
01000000
00001000
00010000
00000000
00000100
00010000
00001000
00000000
,
00200000
01000000
00000000
01000000
,
00000000
00010000
00000000
00010000
,
00302000
00010000
00023000
00000010
,
00030020
00002030
00003002
00000023
,
00000230
00000001
00000000
00000001
,
00000000
00001000
00000000
00001000
,
00020300
00001000
00000000
00001000
,
00000000
00000000
00000010
00000000
00000000
00000000
00030010
00010000
,
00002000
00000000
00000000
00000000
,
00000000
00000000
00000000
00000000
,
00203000
00000000
00000000
00000000
,
00320000
00000000
00000000
00030000
,
20200000
00000000
00000000
00000000
,
00000000
00000000
00000000
30300000
,
02002000
00000000
00000000
03003000
,
00020200
00030300
00002002
00003003
,
00000110
00000000
00000001
00001000
00000010
00000000
00001000
00000000
,
00000001
00000000
00000000
00000001
00000000
00000000
00000010
00000000
00000000
00000100
00000000
00000000
00001000
00000000
00000000
00000000
,
00000100
00000000
00010000
00001000
00100000
00000000
00010000
00000000
,
01000000
00000000
00000000
01000000
00000000
00000000
00010000
00000000
00000000
10000000
00000000
00000000
00100000
00000000
00000000
00000000
,
01100000
00000000
01000000
00001000
00010000
00000000
00000100
00000000
,
00000110
00000000
00000100
00010000
00001000
00000000
01000000
00000000
,
01100000
00100000
10010000
01000000
,
10000000
00000000
00000000
01000000
00000000
00000000
00010000
00000000
00000000
00001000
00000000
00000000
00100000
00000000
00000000
00000000
,
00010000
01000000
00001000
00010000
00001000
00100000
00010000
00000000
,
01000000
00011000
00000100
00011000
,
00000010
00001000
00000010
00010000
00001000
00010000
00000100
00000000
,
00001000
00000011
00000001
00001010
,
00001000
00000100
00010000
00001000
01000000
00010000
01000000
00000000
,
00100000
10010000
01000000
10010000
,
10000000
01000000
10000000
00010000
01000000
00010000
00100000
00000000
,
00001000
00010100
00001000
00010010
,
00000010
00001000
00000100
00000000
00000100
00001000
00000010
00000200
,
00000000
00020300
00000000
02030000
00000000
03200000
00000000
10300000
,
00010000
00000000
00110000
00000000
00100000
01000000
10000000
01000000
,
00020000
00032000
00003020
00000130
,
00000110
00000000
00000100
00001000
00000001
00000000
00000100
00000000
,
00000110
00001000
00011000
00010000
,
01100000
00010000
00011000
00001000
,
00000010
00000000
00000100
00000000
00000220
00000000
00000000
00000330
00000000
00000000
00001000
00000000
00000001
00000000
00000000
00000000
,
00000100
00001000
00000100
00001000
00010000
00001000
00010000
00001000
,
00010000
00100000
01000000
00100000
10000000
00010000
10000000
00000000
,
01000000
00010000
01000000
00010000
00001000
00010000
00001000
00010000
,
00001000
00000010
00000100
00000010
00000001
00001000
00000001
00000000
,
00000100
00001000
00000100
00001000
00010000
00001000
00010000
00001000
,
00010000
00100000
01000000
00100000
10000000
00010000
10000000
00000000
,
01000000
00010000
00001000
00010000
00000100
00001000
00000100
00000010
,
00000001
00001000
00000001
00000100
00000010
00010000
00001000
00000000
,
00100000
00010000
01000000
20000000
00000000
31000000
00010000
00000000
,
00100000
01000000
00010000
00002000
00000000
00003010
00000100
00000000
,
00001000
00000010
00010000
00002000
00000000
00103000
00010000
00000000
,
10010000
00000000
10000000
01000000
00010000
00001000
00100000
00000000
,
00001000
00010000
00000010
00000010
00001000
00000010
00001000
00000100
,
00010000
00001000
00100000
00100000
00010000
00100000
00010000
01000000
,
00001000
00010000
00000010
00010000
00001000
00010000
00000100
00010000
,
00001000
00000010
00000001
00000010
00000000
00001000
00010000
00000000
,
00022000
00000000
00000000
00000000
,
00033000
00000000
00000000
00000000
;

//--------------- dance-double - forcednature ----------------
#NOTEDATA:;
#STEPSTYPE:dance-double;
#DESCRIPTION:forcednature;
#DIFFICULTY:Hard;
#METER:15;
#RADARVALUES:0,0,0,0,0;
#CREDIT:forcednature;
#NOTES:
00000000
00000000
00000000
00000000
,
00000000
00000000
00000000
00000000
,
00000000
00000000
00000000
00000000
,
00000000
00000000
00000000
00000000
,
00000000
00000000
00000000
00000000
,
00000000
00000000
00000000
00000000
,
00000000
00000000
00000000
00000000
,
00011000
00000000
00001000
01000000
00010000
00000000
00100000
01000000
,
00010000
00000000
00001000
00000010
00000100
00010000
00001000
00000010
,
00000100
00000000
00001000
00000001
00000100
00000000
00001000
00010000
,
00100000
00000000
01100000
00000000
01000000
00010000
10000000
00010000
,
00100000
01000000
00010000
00001000
00100000
00010000
00100000
00001000
,
00010000
00000010
00001000
00000010
00010000
00001000
00000010
00000000
,
00000100
00001000
00000001
00000100
00001000
00010000
00000010
00001000
,
00000010
00010000
00001000
00100000
00010000
00100000
01000000
00000000
,
00010000
00001000
01000000
00010000
10000000
00100000
00010000
00100000
,
01000000
00010000
01000000
00001000
00010000
00000100
00001000
00000000
,
00000010
00000100
00001000
00010000
00000100
00000010
00001000
00000000
,
00011000
00000000
00000000
00011000
00000000
00000000
00010000
00000000
00100000
00000000
01000000
00000000
00100000
00000000
10000000
00000000
,
00000000
00000000
00010000
00000000
00100000
00000000
01000000
10000000
01000000
00000000
00100000
00000000
00001000
00000000
00010000
00000000
,
00000000
00000000
00000010
00000000
00001000
00000000
00000001
00000100
00000001
00000000
00000010
00000000
00000100
00000000
00010000
00000000
,
00000000
00000000
00001000
00000000
00100000
00000000
01000000
00100000
01000000
00000000
10000000
00000000
00010000
00000000
01000000
00000000
,
00000000
00000000
00001000
00000000
00010000
00000000
00000010
00001000
00000010
00000100
00000000
00000001
00000000
00000000
00000010
00000000
,
00000110
00000000
00000100
00010000
00001000
00000000
00100000
00001000
,
00010000
00000000
00000010
00010000
00001000
00000000
01000000
00001000
,
00010000
00000000
00000000
00010000
00000000
00000000
00001000
00000000
00100000
00000000
00000000
00100000
00000000
00000000
00010000
00000000
,
10000000
00000000
10100000
00000000
00100000
00010000
00001000
00000100
,
00000000
00000001
00000010
00000100
00000010
00000001
00001000
00000100
,
00001000
00000010
00010000
00001000
00010000
00000100
00001000
00000100
,
00010000
00001000
01000000
00010000
01000000
00001000
00010000
00001000
,
00100000
00010000
00100000
01000000
10000000
00010000
01000000
01100000
,
20010000
00000000
00000000
00000000
,
32000000
00000000
00000000
00000000
,
03020000
00000000
00000000
00000000
,
00032000
00000000
00003020
00000030
,
00001002
00000000
00000000
00000000
,
00000203
00000000
00000000
00000300
,
00022000
00000000
00000000
00033000
,
02200000
03300000
20020000
30030000
,
10000000
01000000
00010000
00001000
00010000
01000000
10000000
00000000
,
00010000
00000000
00000000
00100000
00000000
00000000
00001000
00000000
00000000
00010000
00000000
00000000
00000100
00000000
00001000
00000000
,
00000001
00000100
00001000
00010000
00001000
00000100
00000001
00000000
,
00001000
00000000
00000000
00000010
00000000
00000000
00010000
00000000
00000000
00001000
00000000
00000000
01000000
00000000
00010000
00000000
,
10000000
00000000
01000000
00010000
00001000
00100000
00010000
00100000
,
01000000
00000000
00010000
00001000
00000010
00000100
00010000
00000010
,
00001000
00000000
00000001
00000100
00001000
00000000
00010000
00100000
,
01100000
00000000
00000000
10010000
00000000
00000000
11000000
00000000
00000000
00110000
00000000
00000000
00010000
00100000
00001000
00010000
,
00001000
00000000
00010000
00000000
00000010
00001000
00000010
00000100
00000001
00000000
00001000
00000000
00000100
00000000
00001000
00000000
,
00000010
00010000
00000000
00001000
00010000
00000000
00001000
01000000
00000000
00010000
01000000
00000000
00010000
00000000
00100000
00000000
,
01000000
00000000
10000000
00000000
01000000
10000000
00010000
00100000
00010000
00000000
01000000
00000000
00001000
00000000
00010000
00000000
,
00000010
00001000
00000000
00000010
00000100
00000000
00000001
00000100
00000000
00000010
00000100
00000000
00000010
00000000
00001000
00000000
,
00000001
00000000
00000010
00000000
00000100
00001000
00000100
00010000
00001000
00000000
01000000
00000000
00010000
00000000
01000000
00000000
,
00001000
00010000
00000000
00001000
00100000
00000000
00010000
00100000
00000000
01000000
10000000
00000000
00010000
00000000
01000000
00000000
,
00001000
00000000
00010000
00000000
00000010
00001000
00000010
00000100
00000001
00000000
00001000
00000000
00000100
00000000
00001000
00000000
,
00000001
00000100
00000000
00000001
00000010
00000000
00000100
00000010
00000000
00000100
00010000
00000000
00011000
00000000
00000000
00001000
,
01000000
00010000
00100000
00010000
01000000
00100000
00010000
00001000
,
00000010
00000000
00000100
00000000
00010000
00000000
00000010
00000000
00001000
00000000
00000100
00000000
00010000
00000000
00001000
00100000
,
00020000
00000000
02030000
00000000
03001000
00000100
00000010
00001000
,
00000002
00000023
00002030
02003000
,
03100000
10010000
00000000
10010000
,
01000000
00011000
00000010
00001001
,
00000100
00011000
01000000
10010000
,
10000000
01000000
00020000
00000000
00030000
00001000
00011000
00010000
,
00000010
00001000
00000010
00000000
00000100
00000000
00000001
00000000
00000010
00000001
00000010
00000000
00000100
00000000
00001000
00000000
,
00000100
00010000
00000100
00000000
00010000
00001000
00010000
00000000
00001000
00100000
00001000
00000000
01000000
00000000
00010000
00000000
,
10000000
00100000
10000000
00000000
01000000
00000000
00100000
00000000
00010000
00100000
00010000
00000000
01000000
00000000
00100000
00000000
,
01000000
00010000
01000000
00000000
00001000
00010000
00001000
00000000
00100000
00010000
00100000
00000000
00001000
00000000
00010000
00000000
,
00000010
00001000
00000010
00000000
00000100
00000000
00000001
00000000
00001000
00000100
00001000
00000000
00000010
00000000
00010000
00000000
,
00001000
00100000
00001000
00000000
00100000
00010000
00100000
00000000
00010000
01000000
00010000
00000000
10000000
00000000
01000000
00000000
,
00100000
00010000
00100000
00000000
00001000
00000000
00010000
00000000
00000010
00001000
00000010
00000000
00010000
00000000
00001000
00000000
,
01000000
00010000
01000000
00000000
00001000
00010000
00001000
00000000
00100000
00010000
00100000
00000000
01000000
00000000
01000000
10000000
,
00010000
00000000
01000000
00001000
00010000
00000000
00011000
00000000
00001000
00010000
00000100
00000000
00001000
00000000
00000001
00000000
,
00000100
00000000
00000010
00001000
00000100
00000000
00000110
00000000
00000010
00000001
00000100
00000000
00000010
00000000
00010000
00000000
,
00001000
00000000
01000000
00010000
00100000
00000000
01100000
00000000
01000000
10000000
00010000
00000000
01000000
00000000
00001000
00000000
,
00011000
00000000
00000000
00010000
00000100
00000000
00001100
00000000
00001000
00000000
00000001
00000100
00000001
00000000
00000010
00000100
,
00001000
00000000
00000100
00001000
00000100
00000000
00000100
00010000
00001000
00000000
01000000
00010000
01000000
00000000
01000000
00001000
,
00010000
00000000
00000010
00001000
00000010
00000000
00000010
00010000
00001000
00000000
00100000
00010000
00100000
00000000
00100000
00001000
,
00010000
00001000
00010000
00000000
00000100
00001000
00000100
00000000
00010000
00001000
00010000
00000000
00000010
00001000
00000010
00000000
,
00000100
00000001
00000100
00000001
00001000
00000010
00001000
00000010
00000000
00000000
00010000
00000000
00011000
00000000
00000000
00000000
,
02200000
00000000
00000000
00000000
,
03300000
00000000
00000000
00000000
;
