#VERSION:0.83;
#TITLE:AO-∞;
#SUBTITLE:;
#ARTIST:青龍;
#TITLETRANSLIT:AO-INFINITY;
#SUBTITLETRANSLIT:;
#ARTISTTRANSLIT:Seiryu;
#GENRE:DANCE SPEED;
#CREDIT:;
#MUSIC:AO-INFINITY.ogg;
#BANNER:AO-INFINITY.png;
#BACKGROUND:AO-INFINITY-bg.png;
#CDTITLE:./CDTitles/bm IIDX 24 SINOBUZ.png;
#SAMPLESTART:101.505;
#SAMPLELENGTH:15.000;
#SELECTABLE:YES;
#OFFSET:0.269;
#BPMS:0.000=191.000;
#STOPS:;
#TIMESIGNATURES:0.000=4=4;
#BGCHANGES:0.000=../BGAs/20te.mp4=1.000=0=0=0=StretchNoLoop====,
99999.000=-nosongbg-=1.000=0=0=0=StretchNoLoop====
;
#FGCHANGES:;

//--------------- dance-single - forcednature ----------------
#NOTEDATA:;
#STEPSTYPE:dance-single;
#DESCRIPTION:forcednature;
#DIFFICULTY:Beginner;
#METER:3;
#RADARVALUES:0,0,0,0,0;
#CREDIT:forcednature;
#NOTES:
0000
0000
0000
0000
,
0000
0000
0000
0000
,
0000
0000
0000
0000
,
0000
0000
0000
0000
,
0000
0000
0000
0000
,
0000
0000
0000
0000
,
0000
0000
0000
0000
,
0000
0000
0000
0000
,
0000
0000
0000
0000
,
1001
0000
0000
0000
,
0000
0000
0000
0000
,
0110
0000
0000
0000
,
0000
0000
0000
0000
,
1000
0000
0000
0000
,
1000
0000
0000
0000
,
0001
0000
0000
0000
,
0100
0000
0000
0000
,
1001
0000
0000
0000
,
0001
0000
0000
0000
,
0100
0000
0000
0000
,
0001
0000
0000
0000
,
1000
0000
0000
0000
,
0100
0000
0000
0000
,
1000
0000
0000
0000
,
0010
0000
0000
0000
,
0100
0000
0000
0000
,
0001
0000
0000
0000
,
1000
0000
0000
0000
,
0001
0000
0000
0000
,
0010
0000
0000
0000
,
0100
0000
0000
0000
,
1000
0000
0000
0000
,
0010
0000
0000
0000
,
0100
0000
0000
0000
,
0000
0000
0000
0000
,
0001
0000
0000
0000
,
0000
0000
0000
0000
,
1000
0000
0000
0000
,
0000
0000
0000
0000
,
0100
0000
0000
0000
,
0000
0000
0000
0000
,
0010
0000
0000
0000
,
0000
0000
0000
0000
,
0001
0000
0000
0000
,
0000
0000
0000
0000
,
0100
0000
0000
0000
,
0000
0000
0000
0000
,
0010
0000
0000
0000
,
0000
0000
0000
0000
,
1000
0000
0000
0000
,
0000
0000
0000
0000
,
0001
0000
0000
0000
,
0000
0000
0000
0000
,
0010
0000
0000
0000
,
0000
0000
0000
0000
,
0100
0000
0000
0000
,
0000
0000
0000
0000
,
1000
0000
0000
0000
,
1000
0000
0000
0000
,
0001
0000
0000
0000
,
0001
0000
0000
0000
,
0100
0000
0000
0000
,
0100
0000
0000
0000
,
0020
0000
0000
0000
,
0030
0000
0000
0000
,
1001
0000
0000
0000
,
0001
0000
0000
0000
,
0100
0000
0000
0000
,
0010
0000
0000
0000
,
1000
0000
0000
0000
,
0100
0000
0000
0000
,
0010
0000
0000
0000
,
0001
0000
0000
0000
,
0100
0000
0000
0000
,
0100
0000
0000
0000
,
0100
0000
0000
0000
,
0010
0000
0000
0000
,
1000
0000
0000
0000
,
1000
0000
0000
0000
,
1000
0000
0000
0000
,
0001
0000
0000
0000
,
1001
0000
0000
0000
,
1000
0000
0000
0000
,
0100
0000
0000
0000
,
1000
0000
0010
0000
,
1000
0000
0000
0000
,
0001
0000
0000
0000
,
0100
0000
0000
0000
,
0001
0000
0010
0000
,
0001
0000
0000
0000
,
0100
0000
0000
0000
,
0010
0000
0000
0000
,
1000
0000
0001
0000
,
1000
0000
0000
0000
,
0100
0000
0100
0000
,
0100
0000
0000
0000
,
0010
0000
0010
0000
,
1001
0000
0000
0000
;

//--------------- dance-single - forcednature ----------------
#NOTEDATA:;
#STEPSTYPE:dance-single;
#DESCRIPTION:forcednature;
#DIFFICULTY:Easy;
#METER:7;
#RADARVALUES:0,0,0,0,0;
#CREDIT:forcednature;
#NOTES:
0000
0000
0000
0000
,
0000
0000
0000
0000
,
0000
0000
0000
0000
,
0000
0000
0000
0000
,
0000
0000
0000
0000
,
0000
0000
0000
0000
,
0000
0000
0000
0000
,
0000
0000
0000
0000
,
0000
0000
0000
0000
,
1001
0000
0000
0000
,
0001
0000
0100
0000
,
1001
0000
0000
0000
,
1000
0000
0100
0000
,
1001
0000
0000
0000
,
0110
0000
0000
0000
,
1000
0000
0001
0000
,
0100
0000
0000
0000
,
0010
1000
0010
0000
,
1000
0010
1000
0000
,
0001
0000
0010
0000
,
0100
0000
1000
0000
,
0001
0100
0001
0000
,
0100
0001
0100
0000
,
0010
0000
1000
0000
,
0001
0000
0010
0000
,
0100
1000
0100
0000
,
1000
0100
1000
0000
,
0001
0000
0100
0000
,
0010
0000
1000
0000
,
0001
0010
0001
0000
,
0010
0001
0010
0000
,
0100
0000
1000
0000
,
2002
0000
3003
0000
,
0001
0000
0100
0000
,
0001
0000
1000
0000
,
0100
0000
1000
0000
,
0010
0000
0000
0000
,
1000
0000
0100
0000
,
0010
0000
0100
0000
,
1000
0000
0001
0000
,
0100
0000
0000
0000
,
0010
0000
1000
0000
,
0001
0000
0010
0000
,
0001
0000
1000
0000
,
0010
0000
0000
0000
,
0100
0000
0001
0000
,
1000
0000
0100
0000
,
0010
0000
0001
0000
,
0100
0000
0000
0000
,
1001
0000
0000
0000
,
1000
0000
0000
0000
,
0100
0000
0000
0000
,
0010
0000
0000
0000
,
0001
0000
0000
0000
,
0100
0000
0010
0000
,
1000
0000
0000
0000
,
0001
0000
0010
0000
,
1001
0000
0000
0000
,
0110
0000
0000
0000
,
1001
0000
0000
0000
,
0010
0000
0100
0000
,
0010
0000
0000
0000
,
1000
0000
0001
0000
,
0010
0000
0010
0000
,
0100
0000
0000
0000
,
1000
0000
0010
0010
,
0100
0000
0001
0001
,
0010
0000
0100
0100
,
1000
0000
1000
0000
,
0001
0000
0100
0100
,
0010
0000
1000
1000
,
0100
0000
0010
0010
,
0001
0000
1000
0000
,
0010
0010
0000
0000
,
0100
0100
0000
0000
,
0001
0001
0000
0000
,
1000
0000
0100
0000
,
0010
0000
0010
0001
,
0100
0000
0100
0010
,
1000
1000
0001
0001
,
0020
0000
0000
0030
,
0100
1000
0010
1000
,
0001
0010
0001
0100
,
0010
1000
0100
0010
,
0001
0001
1000
1000
,
0010
0100
0001
0100
,
0010
1000
0001
1000
,
0100
0010
0001
1000
,
0010
0010
0100
0100
,
0001
1000
0100
1000
,
0001
0100
0001
1000
,
0100
0010
0001
0010
,
0100
0100
1000
1000
,
0001
0100
0001
1000
,
0100
1000
0010
0100
,
0001
0001
0010
0010
,
0100
1000
0010
0100
,
1001
0000
0000
0000
;

//--------------- dance-single - forcednature ----------------
#NOTEDATA:;
#STEPSTYPE:dance-single;
#DESCRIPTION:forcednature;
#DIFFICULTY:Medium;
#METER:12;
#RADARVALUES:0,0,0,0,0;
#CREDIT:forcednature;
#NOTES:
0000
0000
0000
0000
,
0000
0000
0000
0000
,
0000
0000
0000
0000
,
0000
0000
0000
0000
,
0000
0000
0000
0000
,
0000
0000
0000
0000
,
0000
0000
0000
0000
,
0000
0000
0000
0000
,
0000
0000
0000
0000
,
1001
0001
0100
0100
,
0010
0010
1000
0001
,
1001
1000
0100
0100
,
0010
0000
0010
0000
0001
1000
0001
1000
,
0010
0100
0001
0010
,
0110
0100
1000
0010
,
0100
0000
0000
0001
0000
0000
0100
0000
0000
0001
0000
0000
1000
0000
0000
0000
1000
0000
0000
0000
1000
0000
0000
0000
,
0200
0000
0320
0000
0031
1000
1001
0000
,
0001
0100
0001
0000
1000
0000
0010
0000
,
1000
0100
1000
0000
0001
0000
0010
0000
,
0001
0000
0000
0100
0000
0000
0001
0000
1000
0000
0000
0010
0000
0000
1000
0000
,
0001
0000
0000
0100
0000
0000
0001
0000
1000
0000
0000
0010
0000
0000
1000
0000
,
0001
0010
0100
0000
1000
0000
0010
0000
,
0100
0001
1000
0000
0100
0000
0010
0000
,
0100
0000
0000
1000
0000
0000
0100
0000
0010
0000
0000
0001
0000
0000
0010
0000
,
0100
0000
0000
1000
0000
0000
0100
0000
0010
0000
0000
0000
1001
0000
0000
0000
,
1000
0001
0100
0000
0010
0000
1000
0000
,
0001
0010
0100
0000
1000
0000
0001
0000
,
0100
0000
0000
0010
0000
0000
1000
0000
0100
0000
0000
0010
0000
0000
0001
0000
,
0100
0000
0000
0010
0000
0000
1000
0000
0100
0000
0000
0010
0000
0000
0001
0000
,
0100
0010
1000
0000
0001
0000
0010
0000
,
0100
1000
0001
0000
0100
0000
0010
0000
,
1000
0000
0000
0001
0000
0000
0100
0000
0001
0000
0000
1000
0000
0000
0100
0000
,
0020
0000
0000
0200
0000
0000
0330
0000
,
0010
0000
0001
0000
0100
0000
0001
0010
,
0001
0000
1000
0000
0010
0000
1000
0100
,
2000
0001
3100
0100
,
1000
0010
1000
0000
0001
0010
0001
0000
,
1001
0000
0001
0000
0010
0000
0100
1000
,
0100
0000
1000
0000
0010
0000
0100
0001
,
0200
0010
0310
0100
,
0001
0100
0001
0000
1000
0100
1000
0000
,
1001
0000
0001
0000
0100
0000
0001
0010
,
0001
0000
1000
0000
0100
0000
1000
0010
,
1000
0100
0010
0001
,
0100
0010
0100
0000
0001
1000
0001
0000
,
1001
1000
0100
0100
,
0010
0001
0100
0001
,
2000
0000
0100
0100
,
3001
0000
0000
2002
0000
0000
3003
0000
,
0202
0000
0000
0303
,
2020
0000
0000
3030
,
2200
0000
3300
0002
,
0023
0000
0030
0000
0001
0100
0010
1000
,
0002
0000
0003
0010
,
0022
0033
2200
3300
,
2000
3020
0230
0302
,
2003
0000
3000
0000
0100
0010
0100
0010
,
0002
0100
1000
0013
,
2000
0100
0001
3010
,
0002
0010
1000
0103
,
2000
0010
0001
3100
,
1000
0010
1000
0000
0001
0010
0001
0000
,
1000
0100
1000
0000
0001
0100
0001
0000
,
0010
0000
0000
0100
0000
0000
0010
0000
0000
0100
0000
0000
1000
0000
0000
0000
1000
0000
0000
0000
1000
0000
0000
0000
,
0002
0000
0203
0000
0310
1000
1001
0000
,
0001
0000
0000
0100
0000
0000
0002
0000
0000
0000
0000
0000
1003
0000
0000
0000
0010
0000
0000
0000
1000
0000
0000
0000
,
0001
0000
0000
0010
0000
0000
0002
0000
0000
0000
0000
0000
1003
0000
0000
0000
0100
0000
0000
0000
1000
0000
0000
0000
,
0010
0000
0000
0100
0000
0000
0020
0000
0000
0000
0000
0000
1030
0000
0000
0000
0001
0000
0000
0000
1000
0000
0000
0000
,
0010
0000
0010
0000
0010
0000
0100
0000
0100
0000
0100
0000
,
0001
0000
0000
0010
0000
0000
0002
0000
0000
0000
0000
0000
1003
0000
0000
0000
0100
0000
0000
0000
1000
0000
0000
0000
,
0001
0000
0000
0100
0000
0000
0002
0000
0000
0000
0000
0000
1003
0000
0000
0000
0010
0000
0000
0000
1000
0000
0000
0000
,
0100
0000
0000
0010
0000
0000
0200
0000
0000
0000
0000
0000
1300
0000
0000
0000
0010
0000
0000
0000
1000
0000
0000
0000
,
0001
0000
0001
0000
0001
0000
0100
0000
0100
0000
0100
0000
,
0010
0000
0010
0000
0000
0000
1000
0100
,
0010
0000
0010
0000
0000
0000
0001
1000
,
0010
0000
0010
0000
0000
0000
0100
0001
,
0010
0000
0010
0000
0010
0000
0100
0000
0100
0000
0100
0000
,
1000
0000
1000
0001
0100
0000
0100
0000
,
0001
0000
0001
1000
0100
0000
0100
0000
,
0010
0000
0000
0001
0000
0000
0010
0000
0000
0001
0000
0000
1000
0000
0000
0000
1000
0000
0000
0000
1000
0000
0000
0000
,
0020
0000
0230
0000
0301
1000
1001
0000
,
0001
0000
0000
0010
0000
0000
0100
0000
0000
1000
0000
0000
0200
0000
0000
0000
0320
0000
0000
0000
0032
0000
0000
0000
,
1003
0000
0000
0010
0000
0000
0100
0000
0000
0001
0000
0000
0200
0000
0000
0000
0320
0000
0000
0000
2030
0000
0000
0000
,
3001
0000
0000
1000
0000
0000
0100
0000
0000
1000
0000
0000
0020
0000
0000
0000
0230
0000
0000
0000
0302
0000
0000
0000
,
1003
0000
0100
0000
1100
0000
0001
0000
0100
0000
0101
0000
,
1000
0000
0000
0010
0000
0000
0100
0000
0000
0001
0000
0000
0020
0000
0000
0000
0032
0000
0000
0000
2003
0000
0000
0000
,
3001
0000
0000
0010
0000
0000
0100
0000
0000
1000
0000
0000
0020
0000
0000
0000
2030
0000
0000
0000
3002
0000
0000
0000
,
0103
0000
0000
0010
0000
0000
1000
0000
0000
0001
0000
0000
0020
0000
0000
0000
0230
0000
0000
0000
2300
0000
0000
0000
,
3001
0000
0010
0000
0011
0000
1000
0000
0010
0000
1010
0000
,
0001
0000
0000
0010
0000
0000
0100
0000
0000
1000
0000
0000
0020
0000
0000
0000
0230
0000
0000
0000
0302
0000
0000
0000
,
1003
0000
0000
0100
0000
0000
0010
0000
0000
0001
0000
0000
0200
0000
0000
0000
0320
0000
0000
0000
2030
0000
0000
0000
,
3001
0000
0000
0010
0000
0000
0001
0000
0000
1000
0000
0000
0020
0000
0000
0000
0230
0000
0000
0000
0301
0000
0000
0000
,
0011
0000
0011
0000
0011
0000
1100
0000
1100
0000
1100
0000
,
1000
0000
0000
0010
0000
0000
1000
0000
0000
0100
0000
0000
0020
0000
0000
0000
0032
0000
0000
0000
2003
0000
0000
0000
,
3001
0000
0000
0010
0000
0000
0001
0000
0000
0100
0000
0000
0020
0000
0000
0000
2030
0000
0000
0000
3002
0000
0000
0000
,
0013
0000
0000
0100
0000
0000
1000
0000
0000
0001
0000
0000
0200
0000
0000
0000
0320
0000
0000
0000
1030
0000
0000
0000
,
1010
0000
1010
0000
1010
0000
0101
0000
0101
0000
0101
0000
,
2002
0000
0000
0000
,
0000
0000
0000
3003
;

//--------------- dance-single - forcednature ----------------
#NOTEDATA:;
#STEPSTYPE:dance-single;
#DESCRIPTION:forcednature;
#DIFFICULTY:Hard;
#METER:16;
#RADARVALUES:0,0,0,0,0;
#CREDIT:forcednature;
#NOTES:
0000
0000
0000
0000
,
0000
0000
0000
0000
,
0000
0000
0000
0000
,
0000
0000
0000
0000
,
0000
0000
0000
0000
,
0000
0000
0000
0000
,
0000
0000
0000
0000
,
0000
0000
0000
0000
,
0000
0000
0000
0000
,
1002
0100
1000
0013
,
0001
0100
0010
1000
,
2001
0100
0001
3010
,
1000
0000
0100
0000
0010
0001
1000
0001
,
0100
0000
0010
1000
0001
1000
0100
1000
,
0001
0000
0010
0001
1000
0001
0100
0001
,
1000
0000
0000
1000
0000
0000
0100
0000
0000
0100
0000
0000
0010
0000
0000
0000
0010
0000
0000
0000
0001
0000
0000
0000
,
0200
0000
1000
0000
0310
0100
0101
0000
,
0001
0010
0001
0000
1000
0000
0010
0000
0100
0000
0001
0000
1000
0000
0100
0000
,
1000
0010
1000
0000
0001
0000
0010
0000
0100
0000
1000
0000
0001
0000
0100
0000
,
0020
0000
0000
2030
0000
0000
3200
0000
0320
0000
0000
0032
0000
0000
0203
0000
,
0320
0000
0000
2030
0000
0000
3200
0000
0320
0000
0000
0032
0000
0000
0203
0000
,
0301
0010
0001
0000
1000
0000
0010
0000
0100
0000
0001
0000
1000
0000
0100
0000
,
1000
0010
1000
0000
0001
0000
0010
0000
0100
0000
1000
0000
0001
0000
0010
0000
,
0002
0000
0000
0203
0000
0000
0320
0000
2030
0000
0000
3200
0000
0000
0320
0000
,
0032
0000
0000
0203
0000
0000
0320
0000
2030
0000
3000
0000
1001
0000
0000
0000
,
0001
0100
0001
0000
0010
0000
0001
0000
1000
0000
0010
0000
0100
0000
0001
0000
,
1000
0100
1000
0000
0010
0000
1000
0000
0001
0000
0010
0000
0100
0000
1000
0000
,
0002
0000
0000
0203
0000
0000
2300
0000
3002
0000
0000
0023
0000
0000
2030
0000
,
3002
0000
0000
0203
0000
0000
2300
0000
3002
0000
0000
0023
0000
0000
2030
0000
,
3100
1000
0100
0000
0010
0000
0001
0000
0100
0000
0001
0000
1000
0000
0010
0000
,
0100
0001
0100
0000
0010
0000
1000
0000
0100
0000
1000
0000
0001
0000
0010
0000
,
0200
0000
0000
0302
0000
0000
2003
0000
3020
0000
0000
0032
0000
0000
2003
0000
,
3002
0000
0000
0000
0000
0000
1003
0000
0001
0000
0001
0000
0100
0000
0010
0100
,
0010
0000
0010
0000
1000
0100
1000
0001
,
0100
0000
0010
1000
0001
0010
0100
0020
,
0001
0000
0100
0000
0031
0000
0010
0100
,
1000
0001
0100
0010
1000
0001
0010
0000
,
0110
0000
0100
1000
0001
0100
0010
1000
,
0001
0000
0100
0001
1000
0100
1000
0020
,
0100
0000
1000
0000
0130
0000
0010
1000
,
0001
1000
0100
0010
0001
0100
0010
0000
,
1001
0000
0001
0100
0010
1000
0002
0000
,
0023
0000
0130
1000
0001
1000
0200
0000
,
0010
0000
1000
0000
0310
0000
0100
1000
,
0001
0100
0010
0000
1010
0000
0101
0000
,
0001
0010
0100
0010
0001
1000
0010
0000
,
0100
0002
0023
0230
,
2300
0010
0001
3100
,
1001
0000
0000
0001
0100
0100
0010
1000
,
0002
0000
0000
0003
,
0020
0000
0000
0030
,
0200
0000
0300
2000
,
3002
0000
0003
0000
1000
0010
0100
0001
,
0020
0000
0030
0200
,
2300
0000
3002
0000
,
0203
1000
0010
0001
,
0020
0000
0000
0000
0000
0330
0000
0000
1000
0000
1000
0000
0001
0000
0001
0000
,
0201
0000
0010
0000
1300
0100
0001
0000
,
1020
0000
0100
0000
0031
0010
1000
0000
,
0100
0010
0001
0100
0010
0000
1000
0001
,
0010
0001
0100
0000
0010
1000
0100
0010
,
0001
0001
0100
0100
0010
0010
1000
1000
,
0001
0001
0010
0010
0100
0100
1000
1000
,
0010
0000
0000
0000
0000
0000
0010
0000
0000
0000
0000
0000
0100
0000
0000
0010
0000
0000
0100
0000
0000
0010
0000
0000
1000
0000
0000
0000
0000
0000
0000
0000
1000
0000
0000
0000
0000
0000
0000
0000
1000
0000
0000
0000
0000
0000
0000
0000
,
0200
0000
0320
0000
0031
0100
2001
0000
,
3100
0000
0000
0000
0000
0000
1000
0000
0000
0000
0000
0000
0001
0000
0000
0010
0000
0000
0001
0000
0000
0010
0000
0000
0002
0000
0000
0000
0000
0000
0000
0000
0100
0000
0000
0000
0000
0000
0000
0000
1000
0000
0000
0000
0000
0000
0000
0000
,
0013
0000
0000
0000
0000
0000
0001
0000
0000
0000
0000
0000
1000
0000
0000
0010
0000
0000
1000
0000
0000
0010
0000
0000
2000
0000
0000
0000
0000
0000
0000
0000
0100
0000
0000
0000
0000
0000
0000
0000
0001
0000
0000
0000
0000
0000
0000
0000
,
3010
0000
0000
0000
0000
0000
1000
0000
0000
0000
0000
0000
0001
0000
0000
0100
0000
0000
0001
0000
0000
0100
0000
0000
0002
0000
0000
0000
0000
0000
0000
0000
0010
0000
0000
0000
0000
0000
0000
0000
1000
0000
0000
0000
0000
0000
0000
0000
,
0203
0000
1000
0000
0010
0000
0302
0000
0100
0000
1000
0000
,
0013
0000
0000
0000
0000
0000
0001
0000
0000
0000
0000
0000
1000
0000
0000
0100
0000
0000
1000
0000
0000
0100
0000
0000
2000
0000
0000
0000
0000
0000
0000
0000
0010
0000
0000
0000
0000
0000
0000
0000
0100
0000
0000
0000
0000
0000
0000
0000
,
3010
0000
0000
0000
0000
0000
1000
0000
0000
0000
0000
0000
0001
0000
0000
0100
0000
0000
0001
0000
0000
0100
0000
0000
0002
0000
0000
0000
0000
0000
0000
0000
0010
0000
0000
0000
0000
0000
0000
0000
0100
0000
0000
0000
0000
0000
0000
0000
,
0013
0000
0000
0000
0000
0000
0001
0000
0000
0000
0000
0000
1000
0000
0000
0010
0000
0000
1000
0000
0000
0010
0000
0000
2000
0000
0000
0000
0000
0000
0000
0000
0100
0000
0000
0000
0000
0000
0000
0000
0010
0000
0000
0000
0000
0000
0000
0000
,
3200
0000
0001
0000
1000
0000
0320
0000
1000
0000
0031
0000
,
1001
0000
0000
0000
1001
0000
0000
0000
0000
0000
0000
0000
1000
0100
0010
0001
,
1000
0000
0000
0000
1000
0000
0000
0000
0000
0000
0000
0000
0001
0100
0010
1000
,
0001
0000
0000
0000
0001
0000
0000
0000
0000
0000
0000
0000
0010
0100
1000
0001
,
0100
0000
0001
0000
0101
0000
1000
0000
0010
0000
1010
0000
,
1100
0000
0000
0000
1100
0000
0000
0000
0011
0000
0000
0000
0001
1000
0100
0010
,
0001
0000
0000
0000
0101
0000
0000
0000
1010
0000
0000
0000
1000
0001
0100
0010
,
1000
0000
0000
1000
0000
0000
0100
0000
0000
0100
0000
0000
0010
0000
0000
0000
0010
0000
0000
0000
0001
0000
0000
0000
,
0200
0000
1000
0000
0310
0100
1001
0000
,
0101
0000
0000
0000
0000
0000
0001
0000
0000
0000
0000
0000
1000
0000
0000
0010
0000
0000
0100
0000
0000
0001
0000
0000
1000
0000
0000
0000
0000
0000
0000
0000
0100
0000
0000
0000
0000
0000
0000
0000
1100
0000
0000
0000
0000
0000
0000
0000
,
0001
0000
0000
0000
0000
0000
0100
0000
0000
0000
0000
0000
0010
0000
0000
1000
0000
0000
0001
0000
0000
0010
0000
0000
0100
0000
0000
0000
0000
0000
0000
0000
0010
0000
0000
0000
0000
0000
0000
0000
0011
0000
0000
0000
0000
0000
0000
0000
,
1000
0000
0000
0000
0000
0000
0001
0000
0000
0000
0000
0000
0100
0000
0000
0010
0000
0000
1000
0000
0000
0001
0000
0000
0010
0000
0000
0000
0000
0000
0000
0000
0100
0000
0000
0000
0000
0000
0000
0000
1001
0000
0000
0000
0000
0000
0000
0000
,
0002
0000
0203
0000
2300
0000
3002
0000
0023
0000
2030
0000
,
3001
0000
0000
0000
0000
0000
0010
0000
0000
0000
0000
0000
0100
0000
0000
1000
0000
0000
0001
0000
0000
0100
0000
0000
0010
0000
0000
0000
0000
0000
0000
0000
1000
0000
0000
0000
0000
0000
0000
0000
1010
0000
0000
0000
0000
0000
0000
0000
,
0001
0000
0000
0000
0000
0000
0100
0000
0000
0000
0000
0000
0001
0000
0000
1000
0000
0000
0001
0000
0000
0010
0000
0000
0100
0000
0000
0000
0000
0000
0000
0000
0010
0000
0000
0000
0000
0000
0000
0000
0011
0000
0000
0000
0000
0000
0000
0000
,
0001
0000
0000
0000
0000
0000
0100
0000
0000
0000
0000
0000
0010
0000
0000
1000
0000
0000
0001
0000
0000
0010
0000
0000
0100
0000
0000
0000
0000
0000
0000
0000
1000
0000
0000
0000
0000
0000
0000
0000
0011
0000
0000
0000
0000
0000
0000
0000
,
2000
0000
3020
0000
0032
0000
2003
0000
3200
0000
0302
0000
,
0013
0000
0000
0000
0000
0000
0100
0000
0000
0000
0000
0000
1000
0000
0000
0001
0000
0000
0100
0000
0000
0010
0000
0000
2000
0000
0000
0000
0000
0000
0000
0000
0100
0000
0000
0000
0000
0000
0000
0000
0010
0000
0000
0000
0000
0000
0000
0000
,
3001
0000
0000
0000
0000
0000
1000
0000
0000
0000
0000
0000
0001
0000
0000
0010
0000
0000
0100
0000
0000
1000
0000
0000
0002
0000
0000
0000
0000
0000
0000
0000
0100
0000
0000
0000
0000
0000
0000
0000
0010
0000
0000
0000
0000
0000
0000
0000
,
1003
0000
0000
0000
0000
0000
0010
0000
0000
0000
0000
0000
0100
0000
0000
0001
0000
0000
1000
0000
0000
0001
0000
0000
0020
0000
0000
0000
0000
0000
0000
0000
0100
0000
0000
0000
0000
0000
0000
0000
0031
0000
0000
0000
0000
0000
0000
0000
,
0011
0000
0110
0000
1100
0000
1010
0000
0110
0000
0101
0000
,
0001
0000
0000
0000
0000
0000
0010
0000
0000
0000
0000
0000
0100
0000
0000
1000
0000
0000
0001
0000
0000
0100
0000
0000
0020
0000
0000
0000
0000
0000
0000
0000
0001
0000
0000
0000
0000
0000
0000
0000
1000
0000
0000
0000
0000
0000
0000
0000
,
0130
0000
0000
0000
0000
0000
0001
0000
0000
0000
0000
0000
1000
0000
0000
0100
0000
0000
1000
0000
0000
0001
0000
0000
0020
0000
0000
0000
0000
0000
0000
0000
1000
0000
0000
0000
0000
0000
0000
0000
0001
0000
0000
0000
0000
0000
0000
0000
,
0130
0000
0000
0000
0000
0000
1000
0000
0000
0000
0000
0000
0100
0000
0000
0010
0000
0000
0001
0000
0000
1000
0000
0000
0020
0000
0000
0000
0000
0000
0000
0000
0001
0000
0000
0000
0000
0000
0000
0000
0130
0000
0000
0000
0000
0000
0000
0000
,
0110
0000
1010
0000
1100
0000
0101
0000
0011
0000
0110
0000
,
2002
0000
0000
0000
,
0000
0000
0000
3003
;

//--------------- dance-double - forcednature ----------------
#NOTEDATA:;
#STEPSTYPE:dance-double;
#DESCRIPTION:forcednature;
#DIFFICULTY:Easy;
#METER:9;
#RADARVALUES:0,0,0,0,0;
#CREDIT:forcednature;
#NOTES:
00000000
00000000
00000000
00000000
,
00000000
00000000
00000000
00000000
,
00000000
00000000
00000000
00000000
,
00000000
00000000
00000000
00000000
,
00000000
00000000
00000000
00000000
,
00000000
00000000
00000000
00000000
,
00000000
00000000
00000000
00000000
,
00000000
00000000
00000000
00000000
,
00000000
00000000
00000000
00000000
,
00011000
00000000
00000000
00000000
,
00010000
00000000
00001000
00000000
,
00011000
00000000
00000000
00000000
,
00001000
00000000
00010000
00000000
,
00000100
00000000
00000100
00000000
,
00001000
00000000
00001000
00000000
,
00000001
00000000
00000100
00000000
,
00002000
00000000
00000000
00003000
,
00010000
00001000
00010000
00000000
,
00001000
01000000
00001000
00000000
,
00100000
00000000
00010000
00000000
,
00100000
00000000
01000000
00000000
,
10000000
00010000
10000000
00000000
,
00010000
01000000
00010000
00000000
,
00100000
00000000
00001000
00000000
,
00010000
00000000
00000100
00000000
,
00000010
00000001
00000010
00000000
,
00000001
00000100
00000001
00000000
,
00000010
00000000
00000100
00000000
,
00001000
00000000
00000100
00000000
,
00010000
00001000
00010000
00000000
,
00001000
01000000
00001000
00000000
,
00100000
00000000
00010000
00000000
,
20020000
00000000
30030000
00000000
,
00010000
00000000
01000000
00000000
,
00001000
00000000
00010000
00000000
,
00000100
00000000
00001000
00000000
,
00000010
00000010
00000010
00000000
,
00000100
00000000
00000001
00000000
,
00001000
00000000
00000100
00000000
,
00010000
00000000
00001000
00000000
,
00100000
00100000
00100000
00000000
,
01100000
00000000
01000000
00000000
,
10000000
00000000
00010000
00000000
,
01000000
00000000
00001000
00000000
,
00010000
00000000
00000010
00000000
,
00000110
00000000
00000100
00000000
,
00000001
00000000
00001000
00000000
,
00000001
00000000
00000010
00000000
,
00000220
00000000
00000330
00000000
,
00001001
00000000
00000000
00001000
,
00000100
00000000
00000000
00000100
,
00010000
00000000
00000000
00010000
,
00001000
00000000
01000000
00000000
,
00010000
00000000
00000000
00010000
,
00100000
00000000
01000000
00000000
,
20020000
00000000
00000000
00000000
,
30030000
00000000
00000000
00000000
,
10010000
00000000
00010000
01000000
,
00001000
00000000
00001000
00010000
,
00000100
00000000
00000100
00001000
,
00000010
00000000
00000100
00000001
,
00000010
00000000
00000010
00000100
,
00001000
00000000
00001000
00000100
,
00010000
00000000
00001000
00000000
,
00022000
00000000
00033000
00000000
,
00001000
00000000
01000000
01000000
,
00010000
00000000
00100000
00100000
,
00010000
00000000
01000000
01000000
,
00001000
00001000
00010000
00010000
,
00000100
00000000
00001000
00001000
,
00000010
00000000
00001000
00001000
,
00000001
00000000
00000010
00000010
,
00000100
00000000
00010000
00000000
,
00011000
00011000
00000000
00000000
,
01000000
01000000
00000000
00000000
,
00011000
00011000
00000000
00000000
,
00000100
00000000
00000010
00000000
,
00000001
00000000
00000001
00000100
,
00000010
00000000
00000010
00010000
,
00001000
00001000
00010000
00010000
,
00002000
00000000
00000000
00003000
,
01000000
00000000
00010000
10000000
00010000
00000000
00100000
00000000
,
01000000
00000000
10000000
00010000
10000000
00000000
00010000
00000000
,
01000000
00000000
00001000
00010000
00001000
00000000
00010000
00000000
,
00000100
00001001
00000010
00001001
,
00001000
00000000
00000001
00000010
00000001
00000000
00001000
00000000
,
00000100
00000000
00010000
00001000
00010000
00000000
00001000
00000000
,
01000000
00000000
00010000
00100000
00010000
00000000
10000000
00000000
,
00100000
10010000
01000000
10010000
,
10000000
00000000
00010000
01000000
00010000
00000000
00100000
00000000
,
00001000
00000000
00010000
00001000
00010000
00000000
00000100
00000000
,
00001000
00000000
00000001
00000010
00000001
00000000
00001000
00000000
,
00000010
00001001
00000100
00001001
,
00001000
00000000
00001000
00000100
00001000
00000000
00000100
00000000
,
00010000
00000000
00001000
00010000
00001000
00000000
00001000
00000000
,
01000000
00000000
01000000
00010000
01000000
00000000
00100000
00000000
,
01000000
10010000
00100000
10010000
,
01100000
00000000
00000000
00000000
;

//--------------- dance-double - forcednature ----------------
#NOTEDATA:;
#STEPSTYPE:dance-double;
#DESCRIPTION:forcednature;
#DIFFICULTY:Medium;
#METER:13;
#RADARVALUES:0,0,0,0,0;
#CREDIT:forcednature;
#NOTES:
00000000
00000000
00000000
00000000
,
00000000
00000000
00000000
00000000
,
00000000
00000000
00000000
00000000
,
00000000
00000000
00000000
00000000
,
00000000
00000000
00000000
00000000
,
00000000
00000000
00000000
00000000
,
00000000
00000000
00000000
00000000
,
00000000
00000000
00000000
00000000
,
00000000
00000000
00000000
00000000
,
00011000
00010000
00100000
10000000
,
01000000
10000000
00100000
00010000
,
00011000
00001000
00000010
00000001
,
00000100
00000000
00000001
00000000
00000010
00000100
00000010
00000100
,
00010000
00001000
00100000
01000000
,
01100000
00100000
00001000
00010000
,
00000010
00000000
00000000
00000100
00000000
00000000
00000010
00000000
00000000
00000100
00000000
00000000
00000001
00000000
00000000
00000000
00000001
00000000
00000000
00000000
00000001
00000000
00000000
00000000
,
00000020
00000000
00000230
00000000
00010300
00001000
00011000
00000000
,
00010000
01000000
10000000
00000000
00100000
00000000
10000000
00000000
,
01000000
00010000
00001000
00000000
00000010
00000000
00000100
00000000
,
00001000
00000000
00000000
00000010
00000000
00000000
00000001
00000000
00000010
00000000
00000000
00001000
00000000
00000000
00000100
00000000
,
00010000
00000000
00000000
00001000
00000000
00000000
01000000
00000000
00010000
00000000
00000000
00100000
00000000
00000000
10000000
00000000
,
00100000
00010000
01000000
00000000
00001000
00000000
00010000
00000000
,
00001000
00000010
00000001
00000000
00000100
00000000
00000001
00000000
,
00000010
00000000
00000000
00000100
00000000
00000000
00010000
00000000
00001000
00000000
00000000
00010000
00000000
00000000
00100000
00000000
,
01000000
00000000
00000000
00001000
00000000
00000000
00010000
00000000
01000000
00000000
00000000
00000000
01100000
00000000
00000000
00000000
,
00100000
00001000
00010000
00000000
00100000
00000000
10000000
00000000
,
01000000
00010000
00001000
00000000
00000010
00000000
00000001
00000000
,
00000100
00000000
00000000
00001000
00000000
00000000
00010000
00000000
00100000
00000000
00000000
00010000
00000000
00000000
00001000
00000000
,
00010000
00000000
00000000
01000000
00000000
00000000
10000000
00000000
00100000
00000000
00000000
10000000
00000000
00000000
01000000
00000000
,
00010000
01000000
10000000
00000000
00100000
00000000
00010000
00000000
,
00001000
00000100
00000001
00000000
00000010
00000000
00001000
00000000
,
00010000
00000000
00000000
00000100
00000000
00000000
00001000
00000000
00000010
00000000
00000000
00010000
00000000
00000000
00001000
00000000
,
02000000
00000000
00000000
00200000
00000000
00000000
03300000
00000000
,
10010000
00000000
10000000
00000000
01000000
00000000
00010000
00001000
,
00010000
00000000
00001000
00000000
00000010
00000000
00000001
00001000
,
00000002
00000100
00001003
00000001
,
00000010
00000100
00010000
00000000
00001000
00100000
01000000
00000000
,
01100000
00000000
00100000
00000000
00001000
00000000
00010000
00000010
,
00001000
00000000
00000001
00000000
00000010
00000000
00000100
00010000
,
00002000
00100000
00013000
00001000
,
00010000
01000000
10000000
00000000
00100000
10000000
01000000
00000000
,
01100000
00000000
00100000
00000000
00001000
00000000
00010000
00000100
,
00001000
00000000
00000001
00000000
00000010
00000000
00000001
00000100
,
00001000
00010000
00100000
10000000
,
01000000
00010000
00001000
00000000
00010000
01000000
10000000
00000000
,
10010000
00010000
01000000
00001000
,
00010000
00000100
00001000
00000001
,
00000200
00000000
00001000
00001000
,
00000301
00000000
00000000
00002002
00000000
00000000
00003003
00000000
,
00020200
00000000
00000000
00030300
,
00202000
00000000
00000000
00303000
,
00020020
00000000
00030030
00002000
,
02003000
00000000
03000000
00000000
00010000
00100000
01000000
10000000
,
00200000
00000000
00300000
00010000
,
00022000
00033000
00020200
00030300
,
00000002
00000203
00002300
00023000
,
00230000
00000000
20300000
00000000
31000000
00100000
01000000
00100000
,
00020000
01000000
10000000
00100000
,
00032000
00000100
00000001
00000010
,
00023000
01000000
10000000
00100000
,
00032000
00000100
00000001
00000010
,
00013000
00000000
01000000
00000000
00100000
10000000
01000000
00000000
,
00010000
00001000
00100000
00000000
00001000
00010000
00000010
00000000
,
00000100
00000000
00000000
00001000
00000000
00000000
00000100
00000000
00000000
00001000
00000000
00000000
00000100
00000000
00000000
00000000
00000001
00000000
00000000
00000000
00000010
00000000
00000000
00000000
,
00000200
00000000
00020300
00000000
00031000
00100000
01100000
00000000
,
01000000
00000000
00000000
10000000
00000000
00000000
00020000
00000000
00000000
00000000
00000000
00000000
00130000
00000000
00000000
00000000
00001000
00000000
00000000
00000000
00010000
00000000
00000000
00000000
,
00000100
00000000
00000000
00001000
00000000
00000000
00000002
00000000
00000000
00000000
00000000
00000000
00000103
00000000
00000000
00000000
00001000
00000000
00000000
00000000
00010000
00000000
00000000
00000000
,
00100000
00000000
00000000
01000000
00000000
00000000
00200000
00000000
00000000
00000000
00000000
00000000
10300000
00000000
00000000
00000000
00010000
00000000
00000000
00000000
00100000
00000000
00000000
00000000
,
01000000
00000000
00010000
00000000
00001000
00000000
00000010
00000000
00001000
00000000
00010000
00000000
,
01000000
00000000
00000000
00100000
00000000
00000000
02000000
00000000
00000000
00000000
00000000
00000000
13000000
00000000
00000000
00000000
00010000
00000000
00000000
00000000
00100000
00000000
00000000
00000000
,
00001000
00000000
00000000
00010000
00000000
00000000
00002000
00000000
00000000
00000000
00000000
00000000
00003010
00000000
00000000
00000000
00000100
00000000
00000000
00000000
00001000
00000000
00000000
00000000
,
00000001
00000000
00000000
00000100
00000000
00000000
00000002
00000000
00000000
00000000
00000000
00000000
00000013
00000000
00000000
00000000
00000100
00000000
00000000
00000000
00010000
00000000
00000000
00000000
,
00001000
00000000
00000100
00000000
00001000
00000000
00010000
00000000
00100000
00000000
00010000
00000000
,
00001000
00000000
00001000
00000000
00000000
00000000
00010000
01000000
,
10000000
00000000
10000000
00000000
00000000
00000000
00100000
00010000
,
00001000
00000000
00001000
00000000
00000000
00000000
00000100
00000001
,
00000010
00000000
00000100
00000000
00010000
00000000
00001000
00000000
00100000
00000000
01000000
00000000
,
01100000
00000000
00100000
00010000
01000000
00000000
00001000
00000000
,
00010000
00000000
00000010
00001000
00000100
00000000
00010000
00000000
,
00001000
00000000
00000000
01000000
00000000
00000000
00010000
00000000
00000000
01000000
00000000
00000000
10000000
00000000
00000000
00000000
10000000
00000000
00000000
00000000
10000000
00000000
00000000
00000000
,
02000000
00000000
03020000
00000000
00130000
01000000
01100000
00000000
,
00100000
00000000
00000000
00001000
00000000
00000000
00010000
00000000
00000000
00000100
00000000
00000000
00002000
00000000
00000000
00000000
00003020
00000000
00000000
00000000
00002030
00000000
00000000
00000000
,
00003001
00000000
00000000
00000010
00000000
00000000
00000100
00000000
00000000
00010000
00000000
00000000
00002000
00000000
00000000
00000000
02003000
00000000
00000000
00000000
03002000
00000000
00000000
00000000
,
00013000
00000000
00000000
00000010
00000000
00000000
00001000
00000000
00000000
00000010
00000000
00000000
00000200
00000000
00000000
00000000
00000302
00000000
00000000
00000000
00000023
00000000
00000000
00000000
,
00000130
00000000
00010000
00000000
00011000
00000000
01000000
00000000
00001000
00000000
00011000
00000000
,
00000010
00000000
00000000
00001000
00000000
00000000
00000001
00000000
00000000
00001000
00000000
00000000
00000200
00000000
00000000
00000000
00020300
00000000
00000000
00000000
00032000
00000000
00000000
00000000
,
00103000
00000000
00000000
00010000
00000000
00000000
01000000
00000000
00000000
10000000
00000000
00000000
02000000
00000000
00000000
00000000
03020000
00000000
00000000
00000000
20030000
00000000
00000000
00000000
,
30100000
00000000
00000000
10000000
00000000
00000000
01000000
00000000
00000000
00010000
00000000
00000000
00002000
00000000
00000000
00000000
00203000
00000000
00000000
00000000
00302000
00000000
00000000
00000000
,
00013000
00000000
00000010
00000000
00010010
00000000
00001000
00000000
00100000
00000000
00101000
00000000
,
00001000
00000000
00000000
00010000
00000000
00000000
00000100
00000000
00000000
00000010
00000000
00000000
00000002
00000000
00000000
00000000
00000203
00000000
00000000
00000000
00002300
00000000
00000000
00000000
,
00013000
00000000
00000000
00000010
00000000
00000000
00001000
00000000
00000000
00000100
00000000
00000000
00020000
00000000
00000000
00000000
00032000
00000000
00000000
00000000
02003000
00000000
00000000
00000000
,
03010000
00000000
00000000
00100000
00000000
00000000
01000000
00000000
00000000
10000000
00000000
00000000
00200000
00000000
00000000
00000000
02300000
00000000
00000000
00000000
03001000
00000000
00000000
00000000
,
00011000
00000000
00011000
00000000
01001000
00000000
00011000
00000000
00011000
00000000
00010100
00000000
,
00000100
00000010
00000001
00000100
00000010
00001000
00000100
00010000
,
00001000
01000000
00010000
00100000
01000000
10000000
00100000
10000000
,
01000000
00010000
01000000
00010000
00001000
00000010
00001000
00000010
,
00000001
00000000
00000100
00000000
00001000
00000000
00010000
00000000
01000000
00000000
10000000
00000000
,
00200000
00000000
00000000
00000000
,
00000000
00000000
00000000
00300000
;

//--------------- dance-double - forcednature ----------------
#NOTEDATA:;
#STEPSTYPE:dance-double;
#DESCRIPTION:forcednature;
#DIFFICULTY:Hard;
#METER:16;
#RADARVALUES:0,0,0,0,0;
#CREDIT:forcednature;
#NOTES:
00000000
00000000
00000000
00000000
,
00000000
00000000
00000000
00000000
,
00000000
00000000
00000000
00000000
,
00000000
00000000
00000000
00000000
,
00000000
00000000
00000000
00000000
,
00000000
00000000
00000000
00000000
,
00000000
00000000
00000000
00000000
,
00000000
00000000
00000000
00000000
,
00000000
00000000
00000000
00000000
,
00021000
00000100
00001000
00030010
,
00010000
00001000
01000000
00100000
,
00012000
01000000
00010000
00103000
,
00001000
00000000
00010000
00000000
00000100
00001000
00000100
00000010
,
00000001
00000000
00000100
00000001
00000100
00000010
00001000
00000010
,
00010000
00000000
00001000
00100000
00010000
00100000
01000000
10000000
,
00010000
00000000
00000000
00010000
00000000
00000000
01000000
00000000
00000000
01000000
00000000
00000000
00001000
00000000
00000000
00000000
00001000
00000000
00000000
00000000
00001000
00000000
00000000
00000000
,
00020000
00000000
00000100
00000000
00031000
00000010
00000001
00000000
,
00000100
00000001
00000100
00000000
00000001
00000000
00000010
00000000
00000100
00000000
00000010
00000000
00000100
00000000
00010000
00000000
,
00001000
00100000
00001000
00000000
00100000
00000000
00010000
00000000
10000000
00000000
00100000
00000000
01000000
00000000
00010000
00000000
,
20000000
00000000
00000000
32000000
00000000
00000000
03020000
00000000
00032000
00000000
00000000
00023000
00000000
00000000
02030000
00000000
,
03020000
00000000
00000000
00032000
00000000
00000000
00003020
00000000
00000032
00000000
00000000
00000023
00000000
00000000
00002030
00000000
,
00013000
00001000
00010000
00000000
00001000
00000000
00100000
00000000
01000000
00000000
00100000
00000000
00010000
00000000
10000000
00000000
,
00100000
01000000
00100000
00000000
01000000
00000000
00001000
00000000
00010000
00000000
00000010
00000000
00010000
00000000
00001000
00000000
,
00000020
00000000
00000000
00000230
00000000
00000000
00020300
00000000
00032000
00000000
00000000
00023000
00000000
00000000
00030200
00000000
,
00000320
00000000
00000000
00000032
00000000
00000000
00000203
00000000
00002300
00000000
00003000
00000000
00011000
00000000
00000000
00000000
,
00010000
00001000
00010000
00000000
00001000
00000000
00100000
00000000
01000000
00000000
00100000
00000000
00010000
00000000
01000000
00000000
,
00100000
10000000
00100000
00000000
10000000
00000000
01000000
00000000
00010000
00000000
01000000
00000000
00100000
00000000
00001000
00000000
,
00020000
00000000
00000000
00230000
00000000
00000000
00320000
00000000
00032000
00000000
00000000
00003020
00000000
00000000
00002030
00000000
,
00023000
00000000
00000000
02030000
00000000
00000000
03020000
00000000
00032000
00000000
00000000
00003200
00000000
00000000
00002300
00000000
,
00013000
00001000
00010000
00000000
00001000
00000000
00000010
00000000
00000001
00000000
00000100
00000000
00000001
00000000
00000010
00000000
,
00000100
00001000
00000100
00000000
00010000
00000000
00001000
00000000
01000000
00000000
00010000
00000000
00100000
00000000
01000000
00000000
,
20000000
00000000
00000000
30200000
00000000
00000000
00320000
00000000
00032000
00000000
00000000
00003020
00000000
00000000
00000032
00000000
,
00000203
00000000
00000000
00001300
00000100
00000100
00000001
00000010
,
00000220
00000000
00000330
00000000
00000100
00010000
00001000
00100000
,
01000000
00000000
00100000
00001000
01000000
00010000
10000000
00200000
,
00010000
00000000
01000000
00000000
10300000
00000000
00100000
01000000
,
00001000
00010000
00000010
00000100
00000001
00000010
00000100
00000000
,
00000110
00000000
00000010
00000001
00000100
00001000
00000100
00000001
,
00000010
00000000
00000100
00010000
00001000
00100000
01000000
00200000
,
00010000
00000000
01000000
00000000
10300000
00000000
00100000
00001000
,
00010000
00000010
00010000
00001000
01000000
00010000
00100000
00000000
,
01100000
00000000
01000000
10000000
00010000
10000000
00200000
00000000
,
00320000
00000000
00031000
00010000
00000100
00001000
00000020
00000000
,
00000001
00000000
00000100
00000000
00001030
00000000
00000010
00000100
,
00000001
00000010
00001000
00000000
00011000
00000000
00010000
00100000
,
01000000
00010000
01000000
00100000
00010000
00001000
01000000
00000000
,
00010000
00200000
02300000
03020000
,
00032000
00100000
00010000
01003000
,
00011000
00000000
00000000
00010000
00001000
00000010
00000001
00000100
,
00002000
00000000
00000000
00003000
,
00020000
00000000
00000000
00030000
,
00200000
00000000
00300000
20000000
,
30020000
00000000
00030000
00000000
00100000
01000000
00010000
00001000
,
00000020
00000000
00000030
00000200
,
00002300
00000000
00003002
00000000
,
00000203
00002300
00023000
00230000
,
02300000
00000000
03000000
00000000
00010000
00010000
10000000
10000000
,
02000000
00000000
03010000
00000000
00001000
00000010
00000001
00000000
,
00000200
00000000
00001300
00000000
00010000
00100000
10000000
00000000
,
01000000
00100000
00001000
00010000
00000100
00000000
00001000
00000010
,
00010000
00001000
01000000
00000000
00010000
00100000
01000000
00010000
,
00001000
00000010
00001000
00000010
00000001
00000100
00000001
00000100
,
00001000
00010000
00001000
00010000
00100000
01000000
00100000
01000000
,
00010000
00000000
00000000
00000000
00000000
00000000
10000000
00000000
00000000
00000000
00000000
00000000
00010000
00000000
00000000
10000000
00000000
00000000
00010000
00000000
00000000
10000000
00000000
00000000
01000000
00000000
00000000
00000000
00000000
00000000
00000000
00000000
01000000
00000000
00000000
00000000
00000000
00000000
00000000
00000000
01000000
00000000
00000000
00000000
00000000
00000000
00000000
00000000
,
00200000
00000000
00302000
00000000
00013000
00000100
00000120
00000000
,
00000031
00000000
00000000
00000100
00000000
00000000
00002000
00000000
00000000
00000000
00000000
00000000
00023000
00000000
00000000
00000000
00000010
00000000
00000000
00000000
00001000
00000000
00000000
00000000
,
00030100
00000000
00000000
00010000
00000000
00000000
00002000
00000000
00000000
00000000
00000000
00000000
02003000
00000000
00000000
00000000
00010000
00000000
00000000
00000000
00100000
00000000
00000000
00000000
,
13000000
00000000
00000000
01000000
00000000
00000000
00020000
00000000
00000000
00000000
00000000
00000000
00230000
00000000
00000000
00000000
01000000
00000000
00000000
00000000
00010000
00000000
00000000
00000000
,
00302000
00000000
01000000
00000000
00100000
00000000
00023000
00000000
00000100
00000000
00000010
00000000
,
00031000
00000000
00000000
00010000
00000000
00000000
00000200
00000000
00000000
00000000
00000000
00000000
00002300
00000000
00000000
00000000
00000010
00000000
00000000
00000000
00000001
00000000
00000000
00000000
,
00003100
00000000
00000000
00010000
00000000
00000000
00002000
00000000
00000000
00000000
00000000
00000000
02003000
00000000
00000000
00000000
00010000
00000000
00000000
00000000
00100000
00000000
00000000
00000000
,
13000000
00000000
00000000
01000000
00000000
00000000
00020000
00000000
00000000
00000000
00000000
00000000
00230000
00000000
00000000
00000000
01000000
00000000
00000000
00000000
00010000
00000000
00000000
00000000
,
00302000
00000000
01000000
00000000
00100000
00000000
00023000
00000000
00000100
00000000
00030010
00000000
,
00011000
00000000
00000000
00000000
00011000
00000000
00000000
00000000
00000000
00000000
00000000
00000000
00001000
00100000
00010000
00100000
,
01000000
00000000
00000000
00000000
00010000
00000000
00000000
00000000
00000000
00000000
00000000
00000000
00010000
00000010
00001000
00000010
,
00000100
00000000
00000000
00000000
00001000
00000000
00000000
00000000
00000000
00000000
00000000
00000000
01000000
00001000
00010000
00001000
,
00200000
00000000
02300000
00000000
03020000
00000000
00032000
00000000
00003020
00000000
00000130
00000000
,
00000110
00000000
00000000
00000000
00000110
00000000
00000000
00000000
00000010
00000000
00000000
00000000
00000001
00000100
00000010
00001000
,
00000100
00000000
00000000
00000000
00011000
00000000
00000000
00000000
00010000
00000000
00000000
00000000
00001000
01000000
00010000
01000000
,
00100000
00000000
00000000
10000000
00000000
00000000
00100000
00000000
00000000
10000000
00000000
00000000
01000000
00000000
00000000
00000000
00010000
00000000
00000000
00000000
00001000
00000000
00000000
00000000
,
00000020
00000000
00000032
00000000
00000103
00001000
00010000
00000000
,
00100000
00000000
00000000
00000000
00000000
00000000
01000000
00000000
00000000
00000000
00000000
00000000
00010000
00000000
00000000
10000000
00000000
00000000
01000000
00000000
00000000
00100000
00000000
00000000
00010000
00000000
00000000
00000000
00000000
00000000
00000000
00000000
01000000
00000000
00000000
00000000
00000000
00000000
00000000
00000000
00001000
00000000
00000000
00000000
00000000
00000000
00000000
00000000
,
00010000
00000000
00000000
00000000
00000000
00000000
00000100
00000000
00000000
00000000
00000000
00000000
00001000
00000000
00000000
00000001
00000000
00000000
00000100
00000000
00000000
00000010
00000000
00000000
00001000
00000000
00000000
00000000
00000000
00000000
00000000
00000000
00000100
00000000
00000000
00000000
00000000
00000000
00000000
00000000
00010000
00000000
00000000
00000000
00000000
00000000
00000000
00000000
,
00001000
00000000
00000000
00000000
00000000
00000000
01000000
00000000
00000000
00000000
00000000
00000000
00010000
00000000
00000000
00100000
00000000
00000000
01000000
00000000
00000000
10000000
00000000
00000000
00010000
00000000
00000000
00000000
00000000
00000000
00000000
00000000
01000000
00000000
00000000
00000000
00000000
00000000
00000000
00000000
00001000
00000000
00000000
00000000
00000000
00000000
00000000
00000000
,
00200000
00000000
02300000
00000000
03020000
00000000
00032000
00003000
00000020
00000000
00000230
00000000
,
00001300
00000000
00000000
00000000
00000000
00000000
00000001
00000000
00000000
00000000
00000000
00000000
00000100
00000000
00000000
00000010
00000000
00000000
00001000
00000000
00000000
00000010
00000000
00000000
00010000
00000000
00000000
00000000
00000000
00000000
00000000
00000000
00001000
00000000
00000000
00000000
00000000
00000000
00000000
00000000
00100000
00000000
00000000
00000000
00000000
00000000
00000000
00000000
,
01000000
00000000
00000000
00000000
00000000
00000000
10000000
00000000
00000000
00000000
00000000
00000000
00100000
00000000
00000000
01000000
00000000
00000000
00010000
00000000
00000000
10000000
00000000
00000000
00100000
00000000
00000000
00000000
00000000
00000000
00000000
00000000
01000000
00000000
00000000
00000000
00000000
00000000
00000000
00000000
00001000
00000000
00000000
00000000
00000000
00000000
00000000
00000000
,
00010000
00000000
00000000
00000000
00000000
00000000
00000100
00000000
00000000
00000000
00000000
00000000
00001000
00000000
00000000
00000001
00000000
00000000
00000100
00000000
00000000
00000010
00000000
00000000
00001000
00000000
00000000
00000000
00000000
00000000
00000000
00000000
00000001
00000000
00000000
00000000
00000000
00000000
00000000
00000000
00000010
00000000
00000000
00000000
00000000
00000000
00000000
00000000
,
00000002
00000000
00000203
00000000
00002300
00000000
00023000
00000000
00230000
00000000
20300000
00000000
,
31000000
00000000
00000000
00000000
00000000
00000000
00100000
00000000
00000000
00000000
00000000
00000000
00010000
00000000
00000000
10000000
00000000
00000000
01000000
00000000
00000000
00100000
00000000
00000000
00020000
00000000
00000000
00000000
00000000
00000000
00000000
00000000
02030000
00000000
00000000
00000000
00000000
00000000
00000000
00000000
23000000
00000000
00000000
00000000
00000000
00000000
00000000
00000000
,
31000000
00000000
00000000
00000000
00000000
00000000
00010000
00000000
00000000
00000000
00000000
00000000
00100000
00000000
00000000
00001000
00000000
00000000
00010000
00000000
00000000
00000100
00000000
00000000
00002000
00000000
00000000
00000000
00000000
00000000
00000000
00000000
00003020
00000000
00000000
00000000
00000000
00000000
00000000
00000000
00020030
00000000
00000000
00000000
00000000
00000000
00000000
00000000
,
00031000
00000000
00000000
00000000
00000000
00000000
00000010
00000000
00000000
00000000
00000000
00000000
00000100
00000000
00000000
00001000
00000000
00000000
00000001
00000000
00000000
00000010
00000000
00000000
00000002
00000000
00000000
00000000
00000000
00000000
00000000
00000000
00000203
00000000
00000000
00000000
00000000
00000000
00000000
00000000
00002300
00000000
00000000
00000000
00000000
00000000
00000000
00000000
,
00013000
00000000
00011000
00000000
01001000
00000000
00011000
00000000
00010100
00000000
00000110
00000000
,
00000010
00000000
00000000
00000000
00000000
00000000
00000001
00000000
00000000
00000000
00000000
00000000
00001000
00000000
00000000
00000010
00000000
00000000
00010000
00000000
00000000
00001000
00000000
00000000
00020000
00000000
00000000
00000000
00000000
00000000
00000000
00000000
00030200
00000000
00000000
00000000
00000000
00000000
00000000
00000000
00000320
00000000
00000000
00000000
00000000
00000000
00000000
00000000
,
00000031
00000000
00000000
00000000
00000000
00000000
00000100
00000000
00000000
00000000
00000000
00000000
00000001
00000000
00000000
00000010
00000000
00000000
00000100
00000000
00000000
00001000
00000000
00000000
00000020
00000000
00000000
00000000
00000000
00000000
00000000
00000000
00020030
00000000
00000000
00000000
00000000
00000000
00000000
00000000
00032000
00000000
00000000
00000000
00000000
00000000
00000000
00000000
,
01003000
00000000
00000000
00000000
00000000
00000000
00010000
00000000
00000000
00000000
00000000
00000000
00100000
00000000
00000000
01000000
00000000
00000000
10000000
00000000
00000000
00010000
00000000
00000000
02000000
00000000
00000000
00000000
00000000
00000000
00000000
00000000
03200000
00000000
00000000
00000000
00000000
00000000
00000000
00000000
00320000
00000000
00000000
00000000
00000000
00000000
00000000
00000000
,
00031000
00000000
00011000
00000000
00010100
00000000
00000110
00000000
00000011
00000000
00000101
00000000
,
00002200
00000000
00000000
00000000
,
00000000
00000000
00000000
00003300
;
