#VERSION:0.83;
#TITLE:AO-1;
#SUBTITLE:;
#ARTIST:電龍;
#TITLETRANSLIT:;
#SUBTITLETRANSLIT:;
#ARTISTTRANSLIT:Denryu;
#GENRE:DANCE EXPRESS;
#CREDIT:;
#MUSIC:AO-1.ogg;
#BANNER:AO-1.png;
#BACKGROUND:AO-1-bg.png;
#CDTITLE:./CDTitles/bm IIDX 23 copula.png;
#SAMPLESTART:20.743;
#SAMPLELENGTH:15.000;
#SELECTABLE:YES;
#OFFSET:0.167;
#BPMS:0.000=195.000;
#STOPS:;
#TIMESIGNATURES:0.000=4=4;
#BGCHANGES:-0.200=AO-1.mp4=1.000=0=0=0=StretchNoLoop====,
99999.000=-nosongbg-=1.000=0=0=0=StretchNoLoop====
;
#FGCHANGES:;

//--------------- dance-single - forcednature ----------------
#NOTEDATA:;
#STEPSTYPE:dance-single;
#DESCRIPTION:forcednature;
#DIFFICULTY:Beginner;
#METER:4;
#RADARVALUES:0,0,0,0,0;
#CREDIT:forcednature;
#NOTES:
0000
0000
0000
0000
,
0000
0000
0000
0000
,
0000
0000
0000
0000
,
0000
0000
0000
0000
,
0000
0000
0000
0000
,
0000
0000
0000
0000
,
0000
0000
0000
0000
,
0000
0000
0000
0000
,
0000
0000
0000
0000
,
1000
0000
0000
0000
,
0001
0000
0000
0000
,
0100
0000
0000
0000
,
0010
0000
0000
0000
,
1000
0000
0100
0000
,
1000
0000
0001
0000
,
0100
0000
0001
0000
,
0010
0010
0010
0000
,
0110
0000
0000
0000
,
0100
0000
1000
0000
,
0100
0000
0010
0000
,
0001
0000
1000
0000
,
0010
0000
0000
0000
,
0100
0000
0001
0000
,
1000
0000
0100
0000
,
1000
0000
0000
0000
,
1001
0000
0000
0000
,
0001
0000
0100
0000
,
0010
0000
1000
0000
,
0100
0000
0010
0000
,
0001
0000
0000
0000
,
0100
0000
0010
0000
,
1000
0000
0001
0000
,
0010
0000
0010
0000
,
0110
0000
0000
0000
,
0100
0000
0000
0000
,
1000
0000
0000
0000
,
0001
0000
0000
0000
,
0100
0000
0000
0000
,
0010
0000
0000
0000
,
1000
0000
0000
0000
,
0001
0000
0001
0000
,
0010
0000
0010
0000
,
0100
0000
0000
0000
,
1000
0000
1000
0000
,
0001
0000
0000
0000
,
0100
0000
0100
0000
,
0010
0000
0010
0000
,
1000
0000
1000
0000
,
0001
0001
0001
0000
,
0010
0000
0000
0000
,
0000
0000
0000
0000
,
0100
0000
0000
0000
,
0000
0000
0000
0000
,
1000
0000
0000
0000
,
0001
0000
0000
0000
,
1000
0000
0000
0000
,
0001
0000
0000
0000
,
0100
0000
0000
0000
,
0010
0000
0000
0000
,
1000
0000
0000
0000
,
0001
0000
0000
0000
,
0010
0000
0010
0000
,
0100
0000
0100
0000
,
1000
0000
0001
0000
,
0100
0100
0100
0000
,
0010
0000
0000
0000
,
1000
0000
0001
0000
,
1001
0000
1000
0000
,
0010
0000
0100
0000
,
0001
0000
1000
0000
,
0001
0000
0010
0000
,
0100
0000
1000
0000
,
0001
0000
0100
0000
,
0010
0000
1000
0000
,
0001
0000
0010
0000
,
0110
0000
0100
0000
,
1000
0000
0001
0000
,
0100
0000
0001
0000
,
0010
0000
0001
0000
,
0100
0000
0010
0000
,
1000
0000
0001
0000
,
0010
0000
0100
0000
,
1000
0000
0001
0000
,
1001
0000
0000
0000
;

//--------------- dance-single - forcednature ----------------
#NOTEDATA:;
#STEPSTYPE:dance-single;
#DESCRIPTION:forcednature;
#DIFFICULTY:Easy;
#METER:10;
#RADARVALUES:0,0,0,0,0;
#CREDIT:forcednature;
#NOTES:
0000
0000
0000
0000
,
0000
0000
0000
0000
,
0000
0000
0000
0000
,
0000
0000
0000
0000
,
0000
0000
0000
0000
,
0000
0000
0000
0000
,
0000
0000
0000
0000
,
0000
0000
0000
0000
,
0000
0000
0000
0000
,
0001
0100
0001
0100
,
0010
0000
0000
0010
0000
0000
0010
0000
,
1000
0100
1000
0100
,
0010
0000
0000
0010
0000
0000
0010
0000
,
0001
1000
0001
0100
,
0010
1000
0001
1000
,
0100
0010
0001
0010
,
0100
0000
1000
0000
0001
0100
0010
0000
,
1000
0100
1000
0000
0001
0000
0100
0000
,
0010
1000
0010
0000
0100
0000
0001
0000
,
1000
0100
1000
0000
0010
0000
0100
0000
,
0001
0000
0000
0000
0010
0000
0000
0000
0100
0000
0000
1000
0000
0000
0100
0000
,
0010
0001
0010
0000
0100
0000
1000
0000
,
0001
0100
0001
0000
1000
0000
0010
0000
,
0100
0001
0100
0000
0010
0000
1000
0000
,
0100
0000
0000
0000
0010
0000
0000
0000
0001
0000
0000
1000
0000
0000
0001
0000
,
0100
0010
0100
0000
0001
0000
1000
0000
,
0100
0010
0100
0000
1000
0000
0001
0000
,
0100
0010
0100
0000
0001
0000
1000
0000
,
0010
0000
0000
0000
1000
0000
0000
0000
0001
0000
0000
0100
0000
0000
0001
0000
,
1000
0100
1000
0000
0001
0000
0010
0000
,
0100
1000
0100
0000
0010
0000
0001
0000
,
1000
0010
1000
0000
0001
0000
0100
0000
,
0010
0000
0010
0000
1000
0001
1000
0000
,
0100
0010
0000
0010
,
0001
0000
0000
0001
0000
0000
0001
0000
,
0100
0010
0000
0010
,
1000
0000
0000
1000
0000
0000
1000
0000
,
0100
0010
0000
0010
,
0001
0000
0000
0001
0000
0000
0001
0000
,
0100
0010
0000
0010
,
1000
0000
1000
0000
1000
0100
1000
0000
,
0001
0001
0001
0001
,
0100
0000
0100
1000
0000
0100
0001
0000
,
1000
1000
1000
1000
,
0100
0000
0100
0001
0000
0100
1000
0000
,
0010
0010
0010
0010
,
0100
0100
0100
0100
,
0001
1000
0001
0000
1000
0001
1000
0000
,
0100
0000
0010
0000
0001
1000
0001
0000
,
0100
0001
1000
0010
,
1000
0010
1000
0000
,
0100
1000
0001
0010
,
0001
0010
0001
0000
,
0100
0010
1000
0001
,
1000
0001
1000
0000
,
0100
0010
0001
1000
,
0001
1000
0001
0000
,
0100
0000
0000
0100
0000
0000
0100
0000
,
0001
0001
0000
0001
,
1000
0000
0000
1000
0000
0000
1000
0000
,
0100
0100
0000
0100
,
0010
0010
0001
0001
,
1000
1000
0010
0010
,
0100
0001
1000
0100
,
0010
0000
0001
0000
1000
0010
1000
0000
,
0200
0000
0000
0000
,
0310
0000
0010
0000
0001
1000
0001
0000
,
0100
0001
0100
0000
0010
0000
1000
0000
,
0100
0010
0100
0000
1000
0000
0001
0000
,
0100
0010
0100
0000
0001
0000
1000
0000
,
0010
0000
0000
0000
0100
0000
0000
0000
0001
0000
0000
1000
0000
0000
0001
0000
,
0010
0100
1000
0000
0100
0000
0010
0000
,
0001
1000
0010
0000
0100
0000
0001
0000
,
1000
0100
0010
0000
0001
0000
1000
0000
,
0010
0000
0000
0000
0100
0000
0000
0000
0001
0000
0000
1000
0000
0000
0100
0000
,
0010
0100
1000
0000
0001
0000
0100
0000
,
0010
1000
0001
0000
0010
0000
0100
0000
,
0010
0001
1000
0000
0010
0000
0100
0000
,
0001
0000
0000
0000
1000
0000
0000
0000
0001
0000
0000
0010
0000
0000
0100
0000
,
1000
0100
1000
0000
0001
0000
0100
0000
,
0010
1000
0001
0000
0010
0000
0100
0000
,
1000
0001
0100
0000
0010
0000
1000
0000
,
0001
0000
0010
0000
0100
1000
0100
0000
,
0020
0000
0000
0000
,
0000
0000
0030
0000
;

//--------------- dance-single - forcednature ----------------
#NOTEDATA:;
#STEPSTYPE:dance-single;
#DESCRIPTION:forcednature;
#DIFFICULTY:Medium;
#METER:13;
#RADARVALUES:0,0,0,0,0;
#CREDIT:forcednature;
#NOTES:
0000
0000
0000
0000
,
0000
0000
0000
0000
,
0000
0000
0000
0000
,
0000
0000
0000
0000
,
0000
0000
0000
0000
,
0000
0000
0000
0000
,
0000
0000
0000
0000
,
0000
0000
0000
0000
,
0000
0000
0000
0000
,
1000
0000
0001
0100
0000
1000
0100
0000
,
0001
0000
1000
0100
0000
0001
0100
0000
,
1000
0000
0001
0010
0000
1000
0010
0000
,
0001
0000
1000
0010
0000
0001
0010
0000
,
1000
0100
1000
0000
0001
0100
0001
0000
,
1000
0010
1000
0000
0001
0010
0001
0000
,
0100
0010
0100
0010
1000
0001
1000
0001
,
0010
0000
0000
0000
0010
0000
0000
0000
0100
0000
1000
0001
1000
0000
0000
0000
,
0010
0000
0100
0000
0001
0000
0000
1000
0000
0000
0010
0000
1000
0000
0000
0000
,
0001
0000
0010
0000
0100
0000
0000
1000
0000
0000
0100
0000
0010
0000
0001
0000
,
1000
0000
0010
0000
0100
0000
0000
0001
0000
0000
1000
0000
0100
0000
0100
0000
,
0010
0000
0000
0000
0001
0000
0000
0000
1000
0000
0000
0010
0000
0000
0100
0000
,
0001
0000
1000
0000
0100
0000
0000
1000
0000
0000
0010
0000
0100
0000
0000
0000
,
0001
0000
0010
0000
0100
0000
0000
0010
0000
0000
0001
0000
1000
0000
0010
0000
,
0100
0000
0001
0000
1000
0000
0000
0100
0000
0000
1000
0000
0010
0000
0010
0000
,
0100
0000
0000
0000
0100
0000
0000
0000
0001
0000
0000
0010
0000
0000
0100
0000
,
1000
0000
0001
0000
0100
0000
0000
1000
0000
0000
0100
0000
0001
0000
0000
0000
,
1000
0000
0100
0000
0001
0000
0000
0100
0000
0000
0010
0000
0001
0000
1000
0000
,
0001
0000
0100
0000
1000
0000
0000
0100
0000
0000
0010
0000
1000
0000
1000
0000
,
0001
0000
0000
0000
0010
0000
0000
0000
0100
0000
0000
1000
0000
0000
0001
0000
,
0100
0000
0010
0000
1000
0000
0000
0001
0000
0000
0010
0000
0100
0000
0000
0000
,
0001
0000
0100
0000
1000
0000
0000
0001
0000
0000
0100
0000
0010
0000
0100
0000
,
1000
0000
0100
0000
0001
0000
0000
1000
0000
0000
0001
0000
0010
0000
0010
0000
,
0100
0000
0000
0000
1000
0000
0000
0000
0010
0000
1000
0001
1000
0000
0000
0000
,
0100
0000
0010
0001
0000
0010
0001
0000
,
0100
0000
1000
0100
0000
0001
0100
0000
,
0010
0000
1000
0010
0000
1000
0010
0000
,
0100
0000
1000
0100
0000
0001
0100
0000
,
0010
0000
1000
0100
0000
1000
0100
0000
,
0010
0000
1000
0010
0000
0001
0010
0000
,
0100
0000
1000
0001
0000
1000
0001
0000
,
0100
0001
0010
0001
0000
0001
1000
0000
,
0100
1000
0010
1000
0100
1000
0010
1000
,
0100
0000
0001
0100
0000
1000
0100
0000
,
0010
0001
0100
0001
0010
0001
0100
0001
,
0010
0000
1000
0010
0000
0001
0010
0000
,
0100
1000
0100
1000
0001
0100
0001
0100
,
0010
1000
0010
1000
0001
0010
0001
0010
,
0100
1000
0001
0100
0010
1000
0001
0010
,
0100
1000
0100
0001
0100
0100
0010
0000
,
0001
0100
0010
1000
,
0110
1000
0220
0330
,
1000
0100
0010
0001
,
0110
0001
0220
0330
,
0001
0100
0010
1000
,
1001
0010
2002
3003
,
1000
0100
0010
0001
,
1001
0010
2002
3003
,
0001
0000
0100
1000
0000
0100
0001
0000
,
1000
0000
0100
0001
0000
0100
1000
0000
,
0001
0000
0010
1000
0000
0010
0001
0000
,
1000
0000
0010
0000
0001
0010
0100
0000
,
0001
1000
0001
0000
0100
0010
0100
0000
,
0001
1000
0001
0000
0010
0100
0010
0000
,
0001
0100
0001
0100
0010
1000
0010
1000
,
0100
0000
0000
0000
0100
0000
0000
0000
0010
0000
0001
1000
0001
0000
0000
0000
,
0200
0000
0000
0000
,
0310
0000
0000
0000
0010
0000
0000
0000
1000
0001
1000
0001
0010
0000
0000
0000
,
0100
0000
1000
0000
0001
0000
0000
0100
0000
0000
0010
0000
1000
0000
0000
0000
,
0001
0000
0010
0000
0100
0000
0000
1000
0000
0000
0001
0000
0100
0000
1000
0000
,
0100
0000
0001
0000
1000
0000
0000
0100
0000
0000
0010
0000
0001
1000
0001
0000
,
0100
0000
0000
0000
0110
0000
0000
0000
0010
0000
0000
1000
0000
0000
0001
0000
,
1000
0000
0100
0000
0010
0000
0000
0001
0000
0000
1000
0000
0010
0000
0000
0000
,
0100
0000
0001
0000
1000
0000
0000
0100
0000
0000
0010
0000
0001
0000
1000
0000
,
0010
0000
0001
0000
0010
0000
0000
0100
0000
0000
0001
0000
1000
0100
1000
0000
,
0010
0000
0100
0000
0001
0001
0010
0010
,
0100
0000
1000
0000
0001
0000
0000
0100
0000
0000
0010
0000
1000
0000
0000
0000
,
0001
0000
0010
0000
0100
1000
0000
1000
0100
0000
0010
0000
0001
0000
1000
0000
,
0010
0000
0100
0000
0001
1000
0000
1000
0001
0000
0010
0000
0100
1000
0100
0000
,
0010
0000
0000
0000
0001
0000
0000
0000
1000
0000
0000
0010
0000
0000
0100
0000
,
0001
0000
1000
0000
0100
0000
0000
0010
0000
0000
0001
0000
1000
0000
0000
0000
,
0010
0000
0100
0000
0001
0010
0000
0010
0100
0000
1000
0000
0001
0000
0100
0000
,
0010
0000
1000
0000
0100
0010
0000
0010
0001
0000
0100
0000
0001
1000
0001
0000
,
0010
0000
0000
0000
0100
0000
0000
0000
1000
0001
1000
0001
0100
0000
0000
0000
,
0220
0000
0000
0000
,
0000
0000
0000
0330
;

//--------------- dance-single - forcednature ----------------
#NOTEDATA:;
#STEPSTYPE:dance-single;
#DESCRIPTION:forcednature;
#DIFFICULTY:Hard;
#METER:17;
#RADARVALUES:0,0,0,0,0;
#CREDIT:forcednature;
#NOTES:
0000
0000
0000
0000
,
0000
0000
0000
0000
,
0000
0000
0000
0000
,
0000
0000
0000
0000
,
0000
0000
0000
0000
,
0000
0000
0000
0000
,
0000
0000
0000
0000
,
0000
0000
0000
0000
,
0000
0000
0000
0000
,
1001
0000
1000
0100
0000
0001
0100
0000
,
0110
0000
0000
0110
0000
0000
0110
0000
,
1001
0000
0001
0100
0000
1000
0100
0000
,
0010
0000
0010
1000
0000
1000
0100
0000
,
0010
0001
0010
0000
0100
1000
0100
0000
,
1000
0010
1000
0000
0001
0100
0001
0000
,
1000
0100
1000
0010
0100
0001
0010
0001
,
0100
0000
0100
0000
0010
1000
0010
1000
0001
0010
0100
1000
0010
0000
0000
0000
,
0100
0000
0001
0000
1000
0100
0000
0010
0001
0000
0010
0000
0100
0000
0000
0000
,
1000
0000
0001
0000
0100
0010
0000
1000
0001
0000
0010
0000
0100
0000
1000
0000
,
0001
0000
0100
0000
0010
1000
0000
0100
0010
0000
0001
0000
0100
0001
0100
0000
,
0010
1000
0000
0000
1000
0100
0000
0000
0020
0000
0000
1000
0000
0000
0100
0000
,
0031
0000
0010
0000
0100
1000
0000
0001
0100
0000
0010
0000
1000
0000
0000
0000
,
0001
0000
0010
0000
0001
0100
0000
0010
0100
0000
0001
0000
1000
0000
0100
0000
,
1000
0000
0001
0000
0100
0010
0000
1000
0001
0000
0010
0000
0001
1000
0001
0000
,
0200
0000
0000
0000
1000
0000
0000
0000
0301
0000
0000
0100
0000
0000
0010
0000
,
1000
0000
0001
0000
0010
0100
0000
1000
0100
0000
0010
0000
0001
0000
0000
0000
,
1000
0000
0010
0000
0100
1000
0000
0100
0001
0000
1000
0000
0010
0000
1000
0000
,
0001
0000
0010
0000
0100
0001
0000
0100
1000
0000
0001
0000
0100
0010
0100
0000
,
0001
0010
0000
0000
1000
0010
0000
0000
0200
0000
0000
0001
0000
0000
0010
0000
,
1300
0000
0100
0000
0010
0001
0000
0100
0001
0000
1000
0000
0010
0000
0000
0000
,
0100
0000
1000
0000
0100
0001
0000
1000
0100
0000
0010
0000
0001
0000
1000
0000
,
0100
0000
0001
0000
0100
1000
0000
0001
0100
0000
0010
0000
1000
0100
0010
0001
,
0200
0000
0000
0000
1000
0000
0000
0000
0301
0100
0001
0100
0010
0000
0000
0000
,
1100
0000
0100
0001
0000
0100
1000
0000
,
0011
0000
0000
0101
0000
0000
0011
0000
,
0001
0000
0100
1000
0000
0100
0001
0000
,
0010
0000
0100
0001
0000
0100
1000
0000
,
1001
0000
0001
0100
0000
1000
0100
0000
,
0110
0000
0000
1001
0000
0000
0110
0000
,
0001
0000
0010
1000
0000
0010
0001
0000
,
1000
0000
0010
0000
0100
0001
1000
0001
0000
0010
0000
0100
1000
0000
0000
0000
,
0001
0100
1000
0100
0001
0100
1000
0100
,
0010
0000
1000
0010
1000
0010
0100
0000
0001
0010
0001
0010
0100
0000
0000
0000
,
1000
0100
0001
0100
1000
0100
0001
0100
,
0010
0000
0001
0100
0001
0100
0010
0000
1000
0100
0010
0001
1000
0000
0000
0000
,
0001
0100
1000
0100
0001
0010
1000
0010
,
0100
0001
0100
1000
0010
0001
0010
1000
,
0100
0000
0100
0000
0010
0000
0010
0000
0001
0100
0001
0100
0010
1000
0010
1000
,
0001
0000
0001
0000
1000
0100
0010
0001
0100
0010
1000
0001
0010
0000
0000
0000
,
0100
1000
0100
0001
0100
0010
0001
0000
,
1010
0000
0001
0000
1010
0000
0000
0001
,
0100
1000
0100
0000
0001
0010
0100
0000
,
1100
0000
0101
0000
1001
0000
0000
0001
,
0100
1000
0100
0001
0100
1000
0100
0000
,
1010
0000
0100
0000
1010
0000
0000
0001
,
1000
0100
0010
0100
1000
0001
0100
0000
,
0110
1010
0011
0000
,
1000
0000
0100
0000
1000
0000
0000
0010
0000
0000
0100
0000
0001
0000
0000
0000
,
0001
0000
0100
0000
0001
0000
0000
0010
0000
0000
0100
0000
1000
0000
0100
0000
,
0010
0000
0001
0000
0010
0000
0000
0100
0000
0000
1000
0000
0001
0000
1000
0000
,
0010
0000
0000
0000
0010
0000
0000
0000
0100
0000
0000
0001
0000
0000
1000
0000
,
0100
1000
0001
0000
0100
0001
1000
0000
,
0010
1000
0001
0000
0010
0001
1000
0000
,
0010
0100
0001
1000
0100
0010
0001
1000
,
0010
0000
0100
0000
0001
0010
0001
0010
0100
1000
0001
1000
0010
0000
0000
0000
,
0100
0001
0100
1000
0100
0001
0010
0000
,
0100
0000
1000
0001
0100
0001
0100
0001
1000
0100
0001
0100
0010
0000
0000
0000
,
0100
0000
1000
0000
0001
0100
0010
1000
0001
0000
0010
0100
1000
0000
0001
0000
,
0100
0000
0010
0000
1000
0100
0010
0001
0100
0000
0010
1000
0001
0000
0010
0000
,
0100
0000
1000
0000
0001
0100
0010
1000
0001
0000
0010
0000
0100
1000
0100
0000
,
0010
0001
1000
0000
0100
1000
0001
0000
0010
0001
0000
0001
0100
0000
0010
0000
,
1000
0000
0001
0000
0010
0100
1000
0001
0100
0000
0010
0000
1000
0000
0001
0000
,
0010
0000
0001
0000
0100
0010
1000
0100
0010
0000
0001
1000
0010
0000
0100
0000
,
0001
0000
1000
0000
0100
0010
0001
1000
0010
0000
0100
0000
0001
1000
0100
0000
,
0010
0001
0010
0000
0100
1000
0100
0000
1000
0010
0000
0010
0100
0000
0001
0000
,
1001
0000
1000
0100
0010
0000
0001
1000
0010
0100
0001
0000
0010
0000
0100
0000
,
1000
0000
0001
0100
0010
0000
1000
0100
0010
0001
0010
0000
0100
0000
1000
0000
,
0001
0000
0100
0010
1000
0000
0001
0010
0100
1000
0001
0000
0100
0001
0100
0000
,
0010
1000
0001
0000
0010
0001
1000
0000
0001
0100
0000
0010
1000
0000
0001
0000
,
0100
0001
1000
0010
1000
0001
0100
0000
0001
0010
0100
1000
0100
0010
0001
0000
,
0100
0010
1000
0001
0010
0100
1000
0000
0010
0100
0001
1000
0100
0010
0001
0000
,
0100
0001
0100
0001
1000
0100
1000
0100
0010
0001
1000
0010
0100
0001
1000
0100
,
0010
0001
0010
0000
0100
1000
0100
0000
1000
0010
0100
0001
0010
0000
0000
0000
,
2002
0000
0000
0000
,
0000
0000
0000
3003
;

//--------------- dance-double - forcednature ----------------
#NOTEDATA:;
#STEPSTYPE:dance-double;
#DESCRIPTION:forcednature;
#DIFFICULTY:Easy;
#METER:9;
#RADARVALUES:0,0,0,0,0;
#CREDIT:forcednature;
#NOTES:
00000000
00000000
00000000
00000000
,
00000000
00000000
00000000
00000000
,
00000000
00000000
00000000
00000000
,
00000000
00000000
00000000
00000000
,
00000000
00000000
00000000
00000000
,
00000000
00000000
00000000
00000000
,
00000000
00000000
00000000
00000000
,
00000000
00000000
00000000
00000000
,
00000000
00000000
00000000
00000000
,
00001000
00001000
00010000
00000000
,
00010000
00000000
00000000
00010000
00000000
00000000
00010000
00000000
,
00010000
00010000
00001000
00000000
,
00001000
00000000
00000000
00001000
00000000
00000000
00001000
00000000
,
01000000
00010000
01000000
00000000
,
00100000
10000000
00100000
00000000
,
10000000
01000000
00100000
00010000
,
01000000
01000000
00001000
00000000
,
00011000
00000000
00010000
00000100
,
00001000
00000010
00000100
00000000
,
00000001
00000010
00000100
00000000
,
00001000
00000001
00000100
00000000
,
00000110
00000000
00000010
00001000
,
00000010
00010000
00001000
00000000
,
00100000
00010000
00100000
00000000
,
01000000
10000000
01000000
00000000
,
01100000
00000000
00100000
00010000
,
01000000
00001000
00010000
00000000
,
00000100
00001000
00000010
00000000
,
00000100
00000001
00000010
00000000
,
00000110
00000000
00000100
00010000
,
00001000
01000000
00010000
00000000
,
00100000
01000000
10000000
00000000
,
00100000
00100000
00100000
00000000
,
01100000
00000000
00000000
00000000
,
00010000
00000000
00000000
00010000
00000000
00000000
00010000
00000000
,
00000000
00000000
00000000
00000000
,
00001000
00000000
00000000
00001000
00000000
00000000
00001000
00000000
,
00000100
00000000
00000000
00000000
,
00000010
00000000
00000000
00000010
00000000
00000000
00000010
00000000
,
00000000
00000000
00000000
00000000
,
00000000
00000001
00000000
00000001
00000000
00000001
00000000
00000001
,
00000100
00000100
00000010
00001000
,
00000001
00000000
00000000
00000010
00000000
00000000
00000001
00000000
,
00000100
00000100
00001000
00010000
,
00100000
00000000
00000000
01000000
00000000
00000000
00100000
00000000
,
10000000
01000000
10000000
00100000
,
01000000
00001000
00010000
00001000
,
00100000
00010000
00001000
00000100
,
00000010
00000001
00000100
00000000
,
00000110
00000000
00001000
00000001
,
00000010
00000100
00001000
00000000
,
00000010
00000000
00010000
00001000
,
00100000
00010000
01000000
00000000
,
01100000
00000000
00100000
10000000
,
00010000
10000000
01000000
00000000
,
00100000
00000000
00001000
00010000
,
00000010
00001000
00000100
00000000
,
00000110
00000000
00000010
00000001
,
00001000
00000001
00000100
00000000
,
00000010
00010000
00001000
00000000
,
01000000
00001000
00010000
00000000
,
01000000
00000000
00100000
00010000
,
01000000
00010000
00100000
00000000
,
01000000
10000000
01000000
00000000
,
00010000
00001000
00000010
00000220
,
00000000
00000000
00000000
00000330
,
00001000
00000000
00000001
00000000
00000100
00000010
00000100
00000000
,
00001001
00000001
00000010
00000100
,
00010000
00000000
00001000
00000000
01000000
00010000
01000000
00000000
,
00100000
00000000
10000000
00000000
01000000
00100000
01000000
00000000
,
10000000
00010000
01000000
00000000
,
00001000
00010000
00000100
00001000
,
00000010
00000000
00000100
00000000
00000001
00000010
00000001
00000000
,
00000100
00000000
00000010
00000000
00010000
00001000
00010000
00000000
,
00100000
01000000
00010000
00000000
,
10010000
00000000
10000000
01000000
,
00010000
00001000
00100000
00010000
,
01000000
00001000
00010000
00000100
,
00001000
00000010
00000100
00000001
,
00000010
00000000
00000100
00000001
,
00000100
00001000
00000010
00010000
,
00001000
00100000
00010000
01000000
,
00100000
00000000
10000000
00000000
01000000
00100000
01000000
00000000
,
20020000
00000000
00000000
00000000
,
00000000
00000000
00000000
30030000
;

//--------------- dance-double - forcednature ----------------
#NOTEDATA:;
#STEPSTYPE:dance-double;
#DESCRIPTION:forcednature;
#DIFFICULTY:Medium;
#METER:14;
#RADARVALUES:0,0,0,0,0;
#CREDIT:forcednature;
#NOTES:
00000000
00000000
00000000
00000000
,
00000000
00000000
00000000
00000000
,
00000000
00000000
00000000
00000000
,
00000000
00000000
00000000
00000000
,
00000000
00000000
00000000
00000000
,
00000000
00000000
00000000
00000000
,
00000000
00000000
00000000
00000000
,
00000000
00000000
00000000
00000000
,
00000000
00000000
00000000
00000000
,
00011000
00000000
01000000
00010000
00000000
00100000
00001000
00000000
,
00010000
00000000
00000100
00001000
00000000
00000010
00010000
00000000
,
00001000
00000000
00100000
00010000
00000000
01000000
00001000
00000000
,
00010000
00000000
00000010
00001000
00000000
00000100
00010000
00000000
,
00001000
01000000
00001000
00000000
00010000
00000100
00010000
00000000
,
00001000
00100000
00001000
00000000
00010000
00000010
00010000
00000000
,
00001000
00000010
00000100
00000010
00000001
00001000
00000001
00000100
,
00000010
00000000
00001000
00000000
00010000
01000000
01100000
00000000
,
00100000
00000000
10000000
00000000
00010000
00000000
00000000
10000000
00000000
00000000
01000000
00000000
00100000
00000000
00000000
00000000
,
00010000
00000000
01000000
00000000
00001000
00000000
00000000
00010000
00000000
00000000
00000100
00000000
00001000
00000000
00000010
00000000
,
00001000
00000000
00000100
00000000
00000010
00000000
00000000
00000001
00000000
00000000
00001000
00000000
00000010
00000000
00000010
00000000
,
00000100
00000000
00000000
00000000
00000001
00000000
00000000
00000000
00000010
00000000
00000000
00000100
00000000
00000000
00010000
00000000
,
00001000
00000000
00100000
00000000
01000000
00000000
00000000
00100000
00000000
00000000
00010000
00000000
10000000
00000000
00000000
00000000
,
00100000
00000000
01000000
00000000
00001000
00000000
00000000
00010000
00000000
00000000
00000100
00000000
00001000
00000000
00000010
00000000
,
00001000
00000000
00000100
00000000
00000010
00000000
00000000
00000001
00000000
00000000
00001000
00000000
00000001
00000000
00000100
00000000
,
00000010
00000000
00000000
00000000
00001000
00000000
00000000
00000000
00010000
00000000
00000000
01000000
00000000
00000000
00100000
00000000
,
10000000
00000000
00010000
00000000
10000000
00000000
00000000
01000000
00000000
00000000
00010000
00000000
00001000
00000000
00000000
00000000
,
00100000
00000000
00010000
00000000
01000000
00000000
00000000
00001000
00000000
00000000
00010000
00000000
00000100
00000000
00001000
00000000
,
00000010
00000000
00001000
00000000
00000100
00000000
00000000
00010000
00000000
00000000
00001000
00000000
00100000
00000000
00010000
00000000
,
01000000
00000000
00000000
00000000
00100000
00000000
00000000
00000000
10000000
00000000
00000000
00010000
00000000
00000000
00100000
00000000
,
01000000
00000000
10000000
00000000
01000000
00000000
00000000
00010000
00000000
00000000
00001000
00000000
00100000
00000000
00000000
00000000
,
00001000
00000000
00010000
00000000
00000010
00000000
00000000
00001000
00000000
00000000
00000100
00000000
00000010
00000000
00000001
00000000
,
00000100
00000000
00000010
00000000
00001000
00000000
00000000
00000001
00000000
00000000
00000010
00000000
00000100
00000000
00010000
00000000
,
00001000
00000000
01000000
00000000
00100000
00100000
00100000
00000000
,
10000000
00000000
01000000
00010000
00000000
01000000
10000000
00000000
,
11000000
00000000
00000000
00110000
00000000
00000000
01001000
00000000
,
00001000
00000000
00010000
00000100
00000000
00001000
00000010
00000000
,
00000100
00000000
00001000
00000100
00000000
00000001
00000010
00000000
,
00000110
00000000
00000100
00010000
00000000
00001000
01000000
00000000
,
00110000
00000000
00000000
01001000
00000000
00000000
00010100
00000000
,
00000100
00000000
00001000
00000010
00000000
00000100
00001000
00000000
,
00000100
00000001
00000000
00000001
00000010
00000001
00000000
00000001
,
00000100
00001000
00010000
00001000
00100000
00001000
00010000
00001000
,
01000000
00000000
10000000
01000000
00000000
00010000
00100000
00000000
,
01000000
00010000
00001000
00010000
00000010
00010000
00001000
00010000
,
00000100
00000000
00000001
00000100
00000000
00001000
00000100
00000000
,
00000010
00000100
00001000
00000100
00010000
00001000
01000000
00001000
,
00010000
00100000
01000000
00100000
10000000
01000000
00100000
01000000
,
00010000
00010000
00001000
00001000
00000010
00000010
00000100
00000100
,
00001000
00000000
00000001
00000000
00000100
00000100
00000100
00000000
,
00000010
00001000
00010000
01000000
,
01100000
10010000
02200000
03300000
,
00100000
00010000
00001000
00000100
,
00000110
00001001
00000220
00000330
,
00000100
00001000
00010000
00100000
,
01100000
10010000
02200000
03300000
,
01000000
00010000
00001000
00000010
,
00000110
00001001
00000220
00000330
,
00000001
00000000
00000100
00001000
00000000
00000100
00000010
00000000
,
00001000
00000000
00000000
00000000
00000100
00000000
00000000
00010000
00000000
00000000
00001000
00000000
01000000
00000000
00000000
00000000
,
00010000
00000000
00100000
01000000
00000000
10000000
01000000
00000000
,
00010000
00000000
00000000
00000000
00001000
00000000
00000000
00000000
00100000
00000000
00000000
00010000
00000000
00000000
00100000
00000000
,
01000000
10000000
01000000
00000000
00100000
00010000
00100000
00000000
,
00001000
00010000
00001000
00000000
00000100
00000010
00000100
00000000
,
00000001
00000010
00000001
00000010
00000100
00001000
00000100
00001000
,
00000010
00000000
00010000
00000000
00001000
00001000
00001000
00000000
,
00200000
00000000
00000000
00000000
,
01300000
00000000
00000000
00000000
00100000
00000000
00000000
00000000
00010000
10000000
00010000
10000000
00010000
00000000
00000000
00000000
,
01000000
00000000
00001000
00000000
00010000
00000000
00000000
00000100
00000000
00000000
00001000
00000000
00000010
00000000
00000000
00000000
,
00000100
00000000
00001000
00000000
00000100
00000000
00000000
00000001
00000000
00000000
00000010
00000000
00000100
00000000
00010000
00000000
,
00001000
00000000
00100000
00000000
01000000
00000000
00000000
10000000
00000000
00000000
00010000
00000000
01000000
00100000
01000000
00000000
,
00010000
00000000
00000000
00000000
10010000
00000000
00000000
00000000
10000000
00000000
00000000
00100000
00000000
00000000
00010000
00000000
,
00001000
00000000
00100000
00000000
00010000
00000000
00000000
01000000
00000000
00000000
00001000
00000000
00010000
00000000
00000000
00000000
,
00000100
00000000
00001000
00000000
00000010
00000000
00000000
00010000
00000000
00000000
00001000
00000000
00000010
00000000
00000100
00000000
,
00000010
00000000
00000001
00000000
00001000
00000000
00000000
00000010
00000000
00000000
00000100
00000000
00000001
00000010
00000001
00000000
,
00000100
00000000
00000000
00000000
00001000
00000000
00000000
00000000
00010000
00000000
00000000
00100000
00000000
00000000
01000000
00000000
,
00010000
00000000
10000000
00000000
01000000
00100000
00000000
00100000
00010000
00000000
01000000
00000000
00001000
00000000
00000000
00000000
,
00010000
00000000
00000100
00000000
00001000
00000010
00000000
00000010
00000100
00000000
00000001
00000000
00000010
00000000
00000100
00000000
,
00001000
00000000
00000001
00000000
00000100
00000010
00000000
00000010
00010000
00000000
00001000
00000000
00100000
00010000
00100000
00000000
,
01000000
00000000
00000000
00000000
11000000
00000000
00000000
00000000
00010000
00000000
00000000
01000000
00000000
00000000
00001000
00000000
,
00010000
00000000
00000100
00000000
00001000
00000010
00000000
00000010
00000100
00000000
00000001
00000000
00000010
00000000
00000000
00000000
,
00000100
00000000
00010000
00000000
00001000
01000000
00000000
01000000
00010000
00000000
00100000
00000000
01000000
00000000
00100000
00000000
,
00010000
00000000
10000000
00000000
00100000
10000000
00000000
10000000
01000000
00000000
00010000
00000000
00001000
00000000
00000100
00000000
,
00000001
00000000
00000000
00000000
00000010
00000000
00000000
00000000
00000100
00001000
00000100
00001000
00000010
00000000
00000000
00000000
,
00022000
00000000
00000000
00000000
,
00000000
00000000
00000000
00033000
;

//--------------- dance-double - forcednature ----------------
#NOTEDATA:;
#STEPSTYPE:dance-double;
#DESCRIPTION:forcednature;
#DIFFICULTY:Hard;
#METER:17;
#RADARVALUES:0,0,0,0,0;
#CREDIT:forcednature;
#NOTES:
00000000
00000000
00000000
00000000
,
00000000
00000000
00000000
00000000
,
00000000
00000000
00000000
00000000
,
00000000
00000000
00000000
00000000
,
00000000
00000000
00000000
00000000
,
00000000
00000000
00000000
00000000
,
00000000
00000000
00000000
00000000
,
00000000
00000000
00000000
00000000
,
00000000
00000000
00000000
00000000
,
00011000
00000000
00010000
00100000
00000000
01000000
00010000
00000000
,
10010000
00000000
00000000
11000000
00000000
00000000
00101000
00000000
,
00011000
00000000
00001000
00000010
00000000
00000100
00001000
00000000
,
00001001
00000000
00000000
00000101
00000000
00000000
00010010
00000000
,
00010000
00000100
00010000
00000000
00001000
01000000
00001000
00000000
,
00010000
00000010
00010000
00000000
00001000
00100000
00001000
00000000
,
00010000
00100000
01000000
00100000
10000000
00010000
10000000
01000000
,
00010000
00000000
00010000
00000000
00001000
00100000
00001000
00100000
00010000
01000000
00001000
00010000
00000010
00000000
00000000
00000000
,
00000100
00000000
00000001
00000000
00001000
00000100
00000000
00010000
00001000
00000000
01000000
00000000
00010000
00000000
00000000
00000000
,
00100000
00000000
01000000
00000000
10000000
01000000
00000000
00100000
00010000
00000000
01000000
00000000
00001000
00000000
00010000
00000000
,
00000100
00000000
00001000
00000000
00000010
00000100
00000000
00000001
00000100
00000000
00000010
00000000
00001000
00000001
00001000
00000000
,
00000100
00000000
00010000
00000000
00001000
00000000
00010000
00000000
00200000
00000000
00000000
10000000
00000000
00000000
01000000
00000000
,
00310000
00000000
00100000
00000000
01000000
00010000
00000000
10000000
01000000
00000000
00100000
00000000
00001000
00000000
00000000
00000000
,
00010000
00000000
00000010
00000000
00001000
00000001
00000000
00000010
00000001
00000000
00000100
00000000
00000010
00000000
00001000
00000000
,
00000100
00000000
00010000
00000000
00001000
01000000
00000000
00010000
10000000
00000000
01000000
00000000
00100000
00010000
00100000
00000000
,
00002000
00000000
00000000
00000000
00010000
00000000
00000000
00000000
00003100
00000000
00000000
00001000
00000000
00000000
00010000
00000000
,
01000000
00000000
00100000
00000000
00010000
00100000
00000000
01000000
10000000
00000000
00010000
00000000
01000000
00000000
00000000
00000000
,
00001000
00000000
00010000
00000000
00000100
00010000
00000000
00000010
00001000
00000000
00000001
00000000
00000010
00000000
00000001
00000000
,
00000100
00000000
00000010
00000000
00001000
00000100
00000000
00010000
00001000
00000000
01000000
00000000
00010000
00100000
00010000
00000000
,
01000000
00000000
00100000
00000000
10000000
00000000
00100000
00000000
00020000
00000000
00000000
00000100
00000000
00000000
00001000
00000000
,
00030010
00000000
00010000
00000000
00001000
00100000
00000000
00010000
01000000
00000000
00100000
00000000
10000000
00000000
00000000
00000000
,
01000000
00000000
00010000
00000000
00001000
00010000
00000000
00000100
00001000
00000000
00000001
00000000
00000100
00000000
00000010
00000000
,
00000100
00000000
00000001
00000000
00000010
00000100
00000000
00001000
00000010
00000000
00010000
00000000
00001000
00100000
00010000
00100000
,
02000000
00000000
00000000
00000000
00010000
00000000
00000000
00000000
13000000
01000000
10000000
01000000
00100000
00000000
00000000
00000000
,
00101000
00000000
00100000
00001000
00000000
00000100
00001000
00000000
,
00101000
00000000
00000000
00011000
00000000
00000000
01001000
00000000
,
00001000
00000000
00010000
00000100
00000000
00000010
00000100
00000000
,
00001000
00000000
00000010
00000001
00000000
00000010
00001000
00000000
,
00001100
00000000
00000100
00010000
00000000
00001000
01000000
00000000
,
01001000
00000000
00000000
00011000
00000000
00000000
00101000
00000000
,
00100000
00000000
01000000
00010000
00000000
00001000
00010000
00000000
,
00000010
00000000
00001000
00000000
00000100
00000010
00000001
00000010
00000000
00000100
00000000
00010000
00001000
00000000
00000000
00000000
,
01000000
00010000
01000000
10000000
01000000
00010000
01000000
10000000
,
01000000
00000000
00010000
10000000
00010000
00100000
00001000
00000000
00010000
00000010
00001000
00000010
00000100
00000000
00000000
00000000
,
00001000
00000100
00000001
00000100
00001000
00000100
00000001
00000100
,
00000010
00000000
00001000
00000100
00001000
00000100
00010000
00000000
00001000
00100000
00010000
00100000
01000000
00000000
00000000
00000000
,
00010000
00001000
00000010
00001000
00010000
00001000
00000100
00001000
,
01000000
00010000
00100000
00010000
00001000
00000100
00001000
00000010
,
00000100
00000000
00000100
00000000
00001000
00000000
00001000
00000000
00010000
00001000
00010000
00001000
01000000
00010000
01000000
00100000
,
10000000
00000000
10000000
00000000
01000000
00100000
00010000
00100000
00001000
00010000
00000010
00001000
00000010
00000000
00000000
00000000
,
00000100
00001000
00000100
00000001
00000010
00000100
00010000
00000000
,
00010010
00000000
00010100
00000000
00010010
00000000
00000000
00010000
,
00001000
00100000
01000000
00000000
00100000
00001000
01000000
00000000
,
01100000
00000000
01001000
00000000
00110000
00000000
00000000
10000000
,
00010000
00100000
00010000
01000000
00100000
00010000
00001000
00000000
,
00101000
00000000
01001000
00000000
00101000
00000000
00000000
00001000
,
00010000
00000010
00010000
00001000
00000010
00000100
00000010
00000000
,
00000011
00001100
00010010
00000000
,
00000001
00000000
00000100
00000000
00001000
00000000
00000000
00010000
00000000
00000000
00100000
00000000
10000000
00000000
00000000
00000000
,
10000000
00000000
01000000
00000000
00010000
00000000
00000000
00001000
00000000
00000000
00000010
00000000
00000100
00000000
00000010
00000000
,
00000001
00000000
00000100
00000000
00001000
00000000
00000000
00010000
00000000
00000000
00100000
00000000
01000000
00000000
00100000
00000000
,
10000000
00000000
00000000
00000000
10000000
00000000
00000000
00000000
01000000
00000000
00000000
00010000
00000000
00000000
00001000
00000000
,
01000000
00010000
00100000
00000000
00000100
00001000
00000010
00000000
,
00100000
00010000
01000000
00000000
00000010
00001000
00000100
00000000
,
00010000
00001000
01000000
00010000
00100000
01000000
00010000
00001000
,
00000100
00000000
00000010
00000000
00001000
00000001
00001000
00000001
00000010
00000001
00000100
00000010
00001000
00000000
00000000
00000000
,
00000100
00010000
00001000
00010000
00100000
01000000
00010000
00000000
,
00100000
00000000
01000000
10000000
01000000
10000000
01000000
10000000
00100000
01000000
00010000
01000000
00001000
00000000
00000000
00000000
,
00010000
00000000
00000100
00000000
00001000
00000010
00000000
00000100
00000001
00000000
00000010
00000000
00000100
00000000
00010000
00000000
,
00001000
00000000
01000000
00000000
00010000
00100000
00000000
01000000
10000000
00000000
00010000
00000000
01000000
00000000
00001000
00000000
,
00010000
00000000
00000100
00000000
00001000
00000010
00000000
00000100
00000001
00000000
00000010
00000000
00000100
00001000
00000100
00000000
,
00010000
00000000
00001000
00000000
00010000
00000000
00100000
00000000
01000000
00010000
00000000
00010000
10000000
00000000
01000000
00000000
,
00100000
00000000
00001000
00000000
00010000
00000010
00000000
00001000
00000100
00000000
00000010
00000000
00000001
00000000
00000100
00000000
,
00000010
00000000
00001000
00000000
00000100
00010000
00000000
00001000
01000000
00000000
00010000
00000000
00100000
00000000
01000000
00000000
,
00100000
00000000
00010000
00000000
10000000
00100000
00000000
01000000
00010000
00000000
00100000
00000000
00001000
00010000
00001000
00000000
,
00000010
00000000
00000100
00000000
00001000
00000000
00000100
00000000
00020000
00000000
00000000
00001000
00000000
00000000
00030010
00000000
,
00011000
00000000
00001000
00000000
00100000
00010000
00000000
10000000
00100000
00000000
01000000
00000000
00001000
00000000
00010000
00000000
,
00000100
00000000
00001000
00000000
00000010
00000100
00000000
00001000
00000100
00000000
00000001
00000000
00001000
00000000
00000001
00000000
,
00000010
00000000
00000100
00000000
00010000
00001000
00000000
00010000
00100000
00000000
01000000
00000000
00010000
10000000
00010000
00000000
,
00100000
00000000
01000000
00000000
00010000
00000000
00001000
00000000
00000200
00000000
00000000
00000010
00000000
00000000
00000301
00000000
,
00000100
00000000
00000010
00000000
00000100
00001000
00000000
00010000
00001000
00000000
00100000
00000000
01000000
00000000
00100000
00000000
,
00010000
00000000
01000000
00000000
00100000
10000000
00000000
01000000
00010000
00000000
00001000
00000000
00000010
00000000
00000100
00000000
,
00000010
00000001
00000010
00000000
00000100
00001000
00000100
00000000
00010000
00001000
00010000
00000000
00001000
01000000
00001000
00000000
,
00100000
00000000
01000000
00000000
10000000
00000000
01000000
00000000
00010000
00001000
00010000
00000100
00001000
00000000
00000000
00000000
,
00000022
00000000
00000000
00000000
,
00000000
00000000
00000000
00000033
;
