#VERSION:0.83;
#TITLE:ANCHOR;
#SUBTITLE:;
#ARTIST:BEMANI Sound Team "HuΣeR Vs. SYUNN";
#TITLETRANSLIT:;
#SUBTITLETRANSLIT:;
#ARTISTTRANSLIT:HuΣeR Vs. SYUNN;
#GENRE:STYLISH CROSSOVER;
#CREDIT:;
#MUSIC:ANCHOR.ogg;
#BANNER:ANCHOR.png;
#BACKGROUND:ANCHOR-bg.png;
#CDTITLE:./CDTitles/bm IIDX 25 CANNON BALLERS.png;
#SAMPLESTART:98.367;
#SAMPLELENGTH:15.000;
#SELECTABLE:YES;
#OFFSET:0.286;
#BPMS:0.000=180.000;
#STOPS:;
#BGCHANGES:0.000=ANCHOR.mp4=1.000=0=0=0=StretchNoLoop====,
99999.000=-nosongbg-=1.000=0=0=0=StretchNoLoop====
;
#FGCHANGES:;

//--------------- dance-single - P1989 vs. forcednature ----------------
#NOTEDATA:;
#STEPSTYPE:dance-single;
#DESCRIPTION:P1989 vs. forcednature;
#DIFFICULTY:Beginner;
#METER:6;
#RADARVALUES:0,0,0,0,0;
#CREDIT:P1989 vs. forcednature;
#NOTES:
0000
0000
0000
0000
,
0000
0000
0000
0000
,
0000
0000
0000
0000
,
0000
0000
0000
0000
,
0000
0000
0000
0000
,
0000
0000
0000
0000
,
1000
0000
0000
1000
0000
0000
0000
0000
,
0001
0000
0000
0001
0000
0000
0000
0000
,
0100
0000
0000
0100
0000
0000
0000
0000
,
0010
0000
0000
0010
0000
0000
0000
0000
,
1000
0000
0000
0100
0000
0000
0000
0000
,
1000
0000
0000
0010
0000
0000
0000
0000
,
0001
0000
0000
0100
0000
0000
0000
0000
,
0001
0000
0000
0010
0000
0000
0000
0000
,
1000
0000
0000
0001
0000
0000
0000
0000
,
0010
0000
0000
0100
0000
0000
0000
0000
,
0001
1000
0001
1000
,
2002
0000
0000
3003
,
0001
0000
0100
0000
,
0001
0001
0001
0000
,
1000
0000
0100
0000
,
1000
1000
1000
0000
,
0010
0100
0010
0000
,
0100
0001
0100
0000
,
0001
0000
0010
0000
,
0110
0000
1000
0001
,
2000
0000
3010
0100
,
0001
0100
0010
0000
,
1000
0001
0010
0000
,
0001
1000
0100
0000
,
0010
0000
0001
0100
,
0001
0000
1000
0010
,
1000
0000
0100
0000
,
0010
0001
1000
0001
,
0100
0000
0010
1000
,
0001
0000
0100
0000
,
0010
0000
1000
0001
,
0010
0000
0110
0000
,
1000
0000
0001
0100
,
0010
0000
1000
0000
,
0001
0000
0010
0100
,
1000
1000
0010
0100
,
0001
0000
0020
0000
,
0000
0030
0200
0000
,
2300
0000
0000
3000
,
0002
0000
0000
0003
,
0200
0000
0320
0000
,
2030
0000
3002
0000
,
0023
0000
0230
0000
,
2300
0001
0001
3001
,
1000
0000
0010
0000
,
0100
0010
1000
0000
,
0001
0010
0100
0000
,
0010
0000
0001
0100
,
0010
0000
1000
0001
,
0010
0000
0100
0000
,
1000
0001
0100
0001
,
0010
0000
0100
0000
,
1001
0000
0001
0100
,
0001
0000
0010
0000
,
0100
0000
1000
0010
,
1000
0000
0100
0000
,
0010
0010
0010
0000
,
0001
0001
0001
0000
,
0100
0100
0100
0000
,
0110
0000
1000
0001
,
2000
0000
3010
0100
,
0001
0100
0010
0000
,
1000
0001
0010
0001
,
1000
0100
0010
0000
,
0210
0000
1300
0001
,
0010
0001
1000
0000
,
0010
0100
0001
0000
,
0010
0100
2000
0000
,
3020
0000
0130
0001
,
0020
0000
0130
1000
,
0001
0100
0010
0100
,
0001
1000
0010
0100
,
0002
0000
1003
0100
,
0010
0100
0010
0001
,
1000
1000
0001
0001
,
0100
0010
0100
0000
,
1001
0000
0000
1000
0000
0000
0000
0000
,
1001
0000
0000
0001
0000
0000
0000
0000
,
0110
0000
0000
0100
0000
0000
0000
0000
,
0110
0000
0000
0010
0000
0000
0000
0000
,
1001
0000
0000
1001
0000
0000
0000
0000
,
0110
0000
0000
0110
0000
0000
0000
0000
,
1001
0000
0000
0110
0000
0000
0000
0000
,
0110
0000
0000
1001
0000
0000
0010
0000
;

//--------------- dance-single - P1989 vs. forcednature ----------------
#NOTEDATA:;
#STEPSTYPE:dance-single;
#DESCRIPTION:P1989 vs. forcednature;
#DIFFICULTY:Easy;
#METER:11;
#RADARVALUES:0,0,0,0,0;
#CREDIT:P1989 vs. forcednature;
#NOTES:
0000
0000
0000
0000
,
0000
0000
0000
0000
,
0000
0000
0000
0000
,
0000
0000
0000
0000
,
0000
0000
0000
0000
,
0000
0000
0000
0000
,
1001
0000
0000
1001
0000
0000
0000
0000
,
0110
0000
0000
0110
0000
0000
0000
0000
,
1100
0000
0000
1100
0000
0000
0000
0000
,
0101
0000
0000
0101
0000
0000
0000
0000
,
1001
0000
0000
1000
0010
0000
0100
0000
,
1001
0000
0000
0001
0010
0000
0100
0000
,
0110
0000
0000
0010
0001
0000
0100
0000
,
0110
0000
0000
0010
1000
0000
0100
0000
,
1100
0000
0000
0001
0010
0000
0001
0000
,
0101
0000
0000
1000
0010
0000
1000
0000
,
0001
0010
0001
0000
0010
0100
0010
0000
,
0200
0000
0000
1300
,
0011
0001
0100
0100
,
0010
0010
1000
1000
,
0001
0010
0100
0010
,
0001
1000
0100
0110
,
0010
0001
0010
0000
0001
0000
0100
0000
,
0010
1000
0010
0000
1000
0000
0100
0000
,
1000
0001
1000
0000
0010
0100
0010
0000
,
2000
0000
0100
0000
3001
0001
1000
0001
,
0020
0000
0000
0000
0130
1000
0001
0000
,
0010
0001
1000
0000
0010
0000
0100
0000
,
0001
0010
0100
0000
0010
0001
0100
0000
,
0010
1000
1100
0001
,
0021
0000
0000
0000
0130
1000
0001
0000
,
0100
0010
1000
0000
1100
0000
0001
0000
,
0100
0010
0100
0000
0001
0000
1000
0000
,
0020
0230
0300
0002
0000
1000
1003
0000
,
0001
0010
0100
0000
0010
0001
0100
0000
,
0010
1000
0100
0000
1100
0000
0011
0000
,
1000
0010
0100
0000
0010
1000
0001
0000
,
0010
0100
1000
0000
1001
0000
0110
0000
,
0001
0010
0100
0000
0010
0001
1000
0000
,
0010
0100
0001
0000
1001
0000
1100
0000
,
0001
0010
0100
0000
0010
0001
1000
0000
,
0010
0000
0110
0000
0100
0001
1000
0000
,
1001
0000
0000
0000
0002
0000
0003
0020
,
0000
0000
0000
0000
0000
0000
0000
0000
0000
0030
0000
0000
0100
0000
0000
0000
1000
0000
0000
0000
0001
0000
0000
0000
,
0200
0000
0000
0000
0300
0020
0000
1030
,
0002
0023
0000
0030
,
0200
0000
1300
0002
0000
0103
0020
0000
,
2030
0000
3000
0001
0020
0000
0230
0000
,
2300
0000
0000
3000
0001
0000
0200
0000
,
0310
2000
0000
0010
0000
3001
0000
1000
,
0100
0110
0010
0110
,
1000
0000
0001
0000
0010
0000
0001
0000
1000
0000
0010
0000
,
0200
0302
0023
0032
,
2003
0000
0000
3010
0100
0000
0001
0000
,
0020
0000
0000
0130
2000
0000
0001
0001
,
3002
0000
0000
0103
0010
0000
1000
0000
,
0001
0010
0001
0000
1000
0010
1000
0000
,
2002
3003
0020
0030
,
1000
0100
1000
0010
,
1000
0001
0100
0001
,
0010
0001
0100
0010
,
1000
0001
0010
0110
,
0100
1000
0100
0000
1000
0000
0010
0000
,
0100
0001
0100
0000
0001
0000
0010
0000
,
0001
0100
0001
0000
1000
0100
1000
0000
,
0020
0000
0100
0000
0130
0010
0100
0000
,
0220
0000
0330
0000
1001
0000
1000
0100
,
0010
0000
0100
0000
0010
0001
1000
0000
,
0010
0100
0001
0000
0010
0100
1000
0000
,
0010
0100
0001
0000
1000
1000
0010
0000
,
0101
0000
0010
0000
0001
1000
0010
0000
,
0100
0001
0010
0000
0100
1000
0001
0000
,
0011
0000
0110
0000
0100
1000
0001
0000
,
2000
3020
0000
0230
0001
0001
0301
0000
,
0200
0000
0000
0320
0000
0000
1030
0001
,
0020
0000
0000
0130
1000
0100
0010
0001
,
1000
0010
0100
0000
0001
0010
0100
0000
,
1000
0001
0100
0000
0020
0000
1030
0000
,
0102
0000
0000
0003
0010
0100
0010
0100
,
1000
0001
1000
0001
0100
0000
0110
0000
,
0010
0010
0010
0000
1000
1000
1000
0000
,
0001
0100
0010
0100
0001
1000
0010
0000
,
0110
0000
0000
0110
0000
0000
0000
0000
,
1001
0000
0000
1001
0000
0000
0000
0000
,
1100
0000
0000
1100
0000
0000
0000
0000
,
0101
0000
0000
0101
0000
0000
0000
0000
,
1010
0000
0000
1100
0000
0000
0000
0000
,
0011
0000
0000
0101
0000
0000
0000
0000
,
0011
0000
0000
1010
0000
0000
0000
0000
,
1001
0000
0000
0110
0000
0000
2002
0000
,
0000
0000
0000
0000
,
0000
0000
0000
3003
;

//--------------- dance-single - P1989 vs. forcednature ----------------
#NOTEDATA:;
#STEPSTYPE:dance-single;
#DESCRIPTION:P1989 vs. forcednature;
#DIFFICULTY:Medium;
#METER:15;
#RADARVALUES:0,0,0,0,0;
#CREDIT:P1989 vs. forcednature;
#NOTES:
0000
0000
0000
0000
,
0000
0000
0000
0000
,
0000
0000
0000
0000
,
0000
0000
0000
0000
,
0000
0000
0000
0000
,
0000
0000
0000
0000
,
1001
0000
0000
1001
0000
0001
0100
0000
,
0110
0000
0000
0110
0000
1000
0010
1000
,
1001
0000
0000
1001
0000
0001
0010
0010
,
0110
0000
0000
1001
0000
1000
0100
0010
,
0001
0000
1000
0100
0001
0000
0100
0000
,
1000
0000
0001
0100
1000
0000
0100
0001
,
0010
0000
0001
0010
1000
0010
0001
0001
,
0100
0000
0010
1000
0001
0100
0110
0000
,
1000
0000
0010
0000
0100
0001
0100
0000
0010
0000
1000
0000
0100
0000
1000
0000
,
0001
0000
0010
0000
0100
1000
0100
0000
0010
0000
0001
1000
0001
0000
0000
0000
,
0100
0000
0100
0000
0010
0000
0010
0000
1000
0001
1000
0001
1000
0000
0100
0000
,
0220
0000
0000
0330
,
2001
0001
0100
0100
,
0001
0001
3010
1000
,
0002
0100
1000
1000
,
0010
0013
0110
1001
,
1000
0100
1000
0100
0010
0001
0010
0001
,
1000
0010
1000
0010
0100
0100
0110
0000
,
0001
0000
0001
0000
0010
0000
0010
0000
0100
1000
0100
1000
0100
0000
0000
0000
,
1002
0000
0000
0000
0100
0000
0000
0000
0013
0000
0010
0000
0100
0010
0100
0010
,
0200
0000
0000
0000
1300
0000
1000
0000
1000
0000
0001
0000
0010
0001
0010
0001
,
0010
0000
0000
0000
0001
0000
0100
0000
0110
0000
0000
1000
0010
0000
0100
0000
,
0001
0000
0001
0000
0010
0000
0100
0000
1000
0000
0010
0000
0100
0001
1000
0000
,
0010
0000
0000
0110
0000
0000
0001
0000
0010
0000
0100
0000
1000
0100
1000
0000
,
0020
0000
0000
0000
0130
0001
0100
0001
2000
0000
0000
0000
3100
0010
0100
0010
,
0001
0000
0001
0000
1000
0000
0010
0100
0010
0000
0000
0100
0002
0000
0000
0000
,
0023
0000
0000
0000
0130
0000
0100
0000
1000
0000
0001
0000
1000
0010
1000
0000
,
0002
0023
0030
0200
1000
1000
0310
0000
,
0120
0000
0000
0000
0031
1000
0001
1000
0001
0000
0100
0000
0010
1000
0010
0000
,
0100
0000
0001
0000
0010
0000
0100
0000
0000
0110
0000
0000
1001
0000
0000
0000
,
1000
0000
0100
0000
0001
0000
0100
0000
1000
0000
0001
0000
0010
0001
0010
0001
,
1000
0000
0010
0000
0100
0000
1000
0000
0000
0000
0100
0001
0100
0000
0000
0000
,
1002
0000
0000
0000
0100
0000
0000
0000
1003
0010
1000
0010
1000
0000
0000
0000
,
0001
0010
0000
0000
0100
0000
1000
0000
0000
1001
0000
0000
0110
0000
0000
0000
,
0001
0000
0100
0000
1000
0000
0100
0000
0001
0000
0010
0000
0100
1000
0100
1000
,
0002
0000
0203
0000
0320
1000
1030
0000
,
1001
0000
0000
0000
0002
0000
0013
0200
,
0000
0000
0000
0000
0000
0000
0000
0000
0000
0300
0000
0000
1000
0000
0001
0000
0100
0000
0001
0000
1000
0000
0010
0000
,
2000
0000
0000
0000
0000
3002
0000
0013
,
0100
0000
1000
0001
0020
0000
0000
0000
0000
0000
0000
0000
0030
0000
0000
0000
,
0002
0000
0103
0020
0000
1030
0100
0010
,
0002
0000
0000
0000
0003
0000
1000
0010
2000
0000
0000
3002
0000
0000
0013
0000
,
0200
0000
0000
0300
2000
0000
3002
0000
,
0103
0020
0000
2030
0000
0100
0000
3001
,
1000
0010
0100
0001
0010
0100
1000
0010
,
0100
0000
0001
0000
0100
0000
0001
0000
0010
0000
0001
0000
1000
0000
0010
0000
1000
0000
0100
0000
0000
1000
0000
0000
,
0010
0100
0001
0010
1000
0010
0001
0100
,
0020
0000
0000
0000
0000
0030
1000
0010
1000
0000
0001
0000
0100
0000
0010
0000
,
2000
0000
0000
0000
0000
0000
3100
0010
0200
0000
0000
0000
0310
0001
0010
0001
,
2000
0000
0000
0000
0000
3000
0010
0100
0010
0000
0000
0100
0000
0000
0001
0000
,
1000
0000
1000
0000
0100
0000
0100
0000
0010
0000
0010
0000
0001
1000
0001
1000
,
0002
0000
0200
0303
,
1001
0000
1000
0010
1000
0000
0100
0000
,
0010
0000
0001
0010
0001
0000
0100
0000
,
0010
0000
1000
0001
1000
0000
0100
0000
,
0010
0000
0001
1000
0001
0000
0101
0000
,
1000
0100
1000
0010
0100
0001
0010
0001
,
0100
0010
1000
0001
0010
0100
0110
0000
,
0010
0010
0001
0001
1000
1000
0010
0010
,
0210
0000
0000
0000
0001
0000
0000
0000
0310
0000
0010
0000
1000
0001
1000
0001
,
0200
0000
0000
0000
0000
0000
0000
0000
0310
0000
1000
0000
0001
0010
0001
0010
,
0100
1000
0001
0100
1000
0100
0101
0000
,
0001
0000
0000
0000
0000
0000
0010
0000
0000
0000
0000
0000
1000
0000
0000
0000
0000
0000
0010
0000
0000
0000
0000
0000
0001
0000
0000
0000
0100
0000
0000
0000
0001
0000
0000
0000
1000
0000
0000
0010
0000
0000
1000
0000
0000
0000
0000
0000
,
0001
0000
0100
0000
1000
0000
0100
0000
0001
0000
1000
0010
1000
0000
0001
0000
,
0021
0000
0000
0000
0130
1000
0100
1000
0001
0000
0100
0000
0010
0000
0001
0000
,
0010
0000
1000
0000
0001
0000
0100
0000
0001
0010
0001
0000
0110
0000
0000
0000
,
2000
0000
0000
0000
3001
0000
0001
0000
0100
0000
0010
0000
1000
0001
1000
0001
,
0020
0230
0000
2300
0010
3010
1010
0000
,
0002
0000
0100
0203
0000
0010
0320
2030
,
3002
0000
0000
0000
0000
0003
0010
0100
0010
0000
0100
1000
0100
0000
0010
0001
,
1000
0010
1000
0100
0001
0100
1000
0001
,
0010
0000
0000
0100
0000
0000
0010
0000
0000
0000
0000
0000
0001
0000
0000
0000
0000
0000
0100
0000
0000
0000
0000
0000
0010
0000
0000
0000
1000
0000
0000
0000
0001
0000
0000
0000
0100
0000
0000
0000
0001
0000
0000
0000
1000
0000
0000
0000
,
0020
0000
0000
0000
0000
0000
0030
0000
0100
0001
0100
0000
0001
0010
0001
0000
,
1000
0010
1000
0000
0100
1000
0100
0000
0010
0000
0100
0010
0001
0000
0000
0000
,
1000
0100
1000
0100
1000
0000
0100
0000
0010
0001
0010
0001
0010
0000
0001
0000
,
1000
0010
1000
0000
0001
0010
0001
0000
0100
0010
0100
0010
0100
0000
0000
0000
,
1001
0000
0000
1001
0000
0001
0010
1000
,
0110
0000
0000
0000
0000
0000
0110
0000
0000
0000
1000
0100
0010
0000
0001
0000
,
1001
0000
0000
0000
0000
0000
1001
0000
0000
0000
1000
0010
1000
0010
1000
0010
,
0100
0000
0000
0000
0000
0000
0110
0000
0000
0000
0001
0010
0100
0000
0010
0000
,
0011
0000
0000
0000
0001
0000
1100
0000
0000
0000
1000
0001
1000
0000
0010
0000
,
1010
0000
0000
0000
1000
0000
0101
0000
0000
0000
0001
0010
0001
0000
0000
0000
,
0110
0000
0100
1001
0000
0001
0010
0010
,
0110
0000
0000
0000
0010
0000
1001
0000
0000
0000
1000
0100
0010
0002
0000
0000
,
0000
0000
0000
0000
,
0000
0000
0000
0003
;

//--------------- dance-single - P1989 vs. forcednature ----------------
#NOTEDATA:;
#STEPSTYPE:dance-single;
#DESCRIPTION:P1989 vs. forcednature;
#DIFFICULTY:Hard;
#METER:17;
#RADARVALUES:0,0,0,0,0;
#CREDIT:P1989 vs. forcednature;
#NOTES:
0000
0000
0000
0000
,
0000
0000
0000
0000
,
0000
0000
0000
0000
,
0000
0000
0000
0000
,
0000
0000
0000
0000
,
0000
0000
0000
0000
,
1001
0000
0000
0110
0000
0001
1000
0000
,
0110
0000
0000
0000
0000
0000
1001
0000
0000
0000
1000
0001
0100
0000
0010
0000
,
1001
0000
0000
0110
0000
1000
0001
0001
,
0011
0000
0000
0000
1000
0000
1100
0000
0000
0000
0001
1000
0010
0000
1000
0001
,
0100
0001
0010
0011
0000
0001
1000
0000
,
1100
0000
0100
0000
1000
0000
1010
0000
0000
0000
0001
1000
0001
0000
0010
0000
,
0110
0000
0100
0000
1000
0000
1010
0000
0000
0000
0001
0100
0001
0100
0001
0000
,
1000
0000
0100
0000
0010
0000
0110
0000
0000
0000
0100
1000
0001
0000
0010
0000
,
0001
0000
0100
0000
0010
0100
0001
0000
1000
0000
0010
1000
0001
0000
0100
0000
,
0001
0000
1000
0000
0100
0010
0001
0000
1000
0000
0001
0010
0100
0000
0000
0000
,
1000
0010
1000
0010
0100
0001
0100
0001
1000
0100
1000
0100
0010
0001
1000
0001
,
0200
0000
0000
0000
0000
0000
0000
0000
0000
0300
0010
0100
0010
0000
0000
0000
,
1002
1000
0100
0100
,
1000
0000
1000
0000
0013
0001
1000
0100
,
2000
0001
0100
0100
,
0001
0001
3010
1001
,
1000
0100
1000
0010
1000
0100
1000
0010
,
0100
0001
0010
0001
0100
0001
0011
0000
,
0001
0100
0010
0100
0001
1000
0010
1000
0001
0010
0100
1000
0100
0010
0001
1000
,
0020
0000
0000
0000
0100
0000
0000
0000
1030
0000
0001
0000
1000
0100
0010
0001
,
0200
0000
0000
0000
0310
1000
0010
1000
0001
0000
0100
0000
0001
0010
0001
0010
,
0100
1000
0100
0000
0010
0000
0001
1000
0010
0000
0100
0001
1000
0001
0100
0000
,
0002
0000
0023
0000
0230
0000
2300
0000
3001
0010
0001
0000
1000
0010
0100
0001
,
1000
0100
0000
0010
0100
0010
0001
1000
0010
0000
0100
0000
0001
1000
0100
0010
,
0002
0000
0000
0000
1003
0010
0100
0010
1000
0000
0001
0000
0010
0100
0010
0100
,
1000
0001
0010
0001
1000
0000
0010
0100
0001
0000
1000
0001
0010
0000
0001
0000
,
0200
0000
0000
0000
2300
0000
3200
0000
0301
0000
1000
0010
1000
0001
0100
0001
,
2000
0100
3002
0100
0013
0110
1001
0000
,
1200
0000
0000
0000
0310
0001
0010
0001
1000
0000
0010
0100
0001
0100
0010
1000
,
0001
0000
0010
0100
1000
0000
0010
0000
0000
0110
0000
0000
0102
0000
1000
0000
,
0013
0000
0001
1000
0100
0000
0010
0000
0001
1000
0010
0000
0100
0001
1000
0001
,
0100
0000
0010
1000
0100
1000
0001
0010
0000
0100
0010
0100
1000
0000
0010
0000
,
0210
0000
0000
0000
0301
0000
0010
0000
0100
1000
0100
0010
0001
1000
0010
0100
,
0001
0000
0000
0000
0011
0000
1000
0000
0000
0110
0000
0000
1002
0000
0000
0000
,
0203
0000
0000
0000
0310
0000
1000
0000
0001
0010
0100
0010
0001
1000
0100
1000
,
0001
0000
0100
0000
0110
0000
0010
0000
1000
0100
0010
0001
0100
0000
0000
0000
,
1001
0000
0000
0000
0002
0000
0203
0320
,
0000
0000
0000
0000
0000
0000
0000
0000
0000
0030
0000
0000
1000
0000
0100
0000
0010
0000
0100
0000
0010
0000
0001
0000
,
2000
0000
0000
0000
0000
3020
0000
0130
,
0001
0000
1000
0001
0020
0000
0000
0000
0000
0000
0000
0000
0030
0000
0000
0000
,
0200
0000
1300
0020
0000
1030
0001
0010
,
0200
0000
0000
0000
0300
0000
0010
0001
2000
0000
0000
3002
0000
0000
0103
0000
,
0020
0000
0000
0030
2000
0000
3002
0000
,
0013
0200
0000
2300
0000
3010
0010
1000
,
0001
0010
0100
0010
0001
1000
0010
0100
,
0001
0000
0000
0000
1000
0000
0000
0000
0010
0000
0000
0000
1000
0000
0000
0000
0001
0000
0000
0000
0010
0000
0000
0000
0100
0000
0000
0000
1000
0000
0000
0000
0001
0000
0000
0000
0100
0000
0000
0010
0000
0000
1000
0000
0000
0001
0000
0000
,
0100
0010
1000
0100
0001
0100
1000
0001
,
0020
0000
0000
0000
0000
0000
0031
1000
0010
0000
0100
0000
0001
0000
1000
0000
,
0020
0000
0000
0000
0000
0000
1030
0001
0200
0000
0000
0000
0301
1000
0100
0010
,
0002
0000
0000
0000
0000
0000
1003
0001
0200
0000
0000
0320
0000
0000
1030
0000
,
0001
0010
0001
0000
0010
0100
0010
0000
0100
1000
0100
0000
1000
0001
0100
0010
,
2000
0000
0020
3030
,
1000
0000
0001
0000
0100
0000
0001
0000
1000
0000
0010
0100
0000
0010
1000
0000
,
0001
0000
0010
0000
0100
0000
0010
0000
0001
0000
1000
0100
0000
1000
0001
0000
,
0100
0000
0010
0000
1000
0000
0010
0000
0100
0000
0001
1000
0000
0100
1000
0000
,
0001
0000
0010
0000
0001
0000
1000
0000
0010
0000
0100
0001
1000
0000
0000
0000
,
0010
0000
0100
0010
0100
0000
0001
0100
0001
0000
0010
0001
0000
1000
0010
0000
,
1000
0000
0100
1000
0100
0000
0010
0100
0010
0000
0001
0100
0010
0000
0000
0000
,
1000
0001
0100
0001
1000
0010
1000
0001
0010
0001
1000
0100
0010
0001
1000
0001
,
0200
0000
0000
0000
0001
0000
0000
0000
0310
0000
0010
0000
0010
1000
0001
0100
,
0020
0000
0000
0000
0000
0000
0000
0000
1030
0001
0100
0001
1000
0010
0100
0001
,
1000
0000
0100
0010
0001
0000
0100
0000
0010
1000
0001
1000
0100
0010
0100
0010
,
0001
0000
0000
0000
0000
0000
0000
0000
0000
0000
0000
0000
0000
0000
0000
0000
0000
0000
0000
0000
0000
0000
0000
0000
0200
0000
0000
0300
0000
0000
0000
0000
0000
0000
0000
0000
0000
0000
0000
0000
0000
0000
0000
0000
0000
0000
0000
0000
0200
0000
0000
0300
0000
0000
0000
0000
0000
0000
0000
0000
0000
0000
0000
0000
0000
0000
0000
0000
0000
0000
0000
0000
1000
0000
0000
0000
0000
0000
0000
0000
0000
0000
0000
0000
0000
0000
0000
0000
0000
0000
0000
0000
0000
0000
0000
0000
0001
0000
0000
0000
0000
0000
0000
0000
0000
0000
0000
0000
0000
0000
0000
0000
0100
0000
0000
0000
0000
0000
0000
0000
0000
0000
0000
0000
0000
0000
0000
0000
0010
0000
0000
0000
0000
0000
0000
0000
0000
0000
0000
0000
0000
0000
0000
0000
1000
0000
0000
0000
0000
0000
0000
0000
0000
0000
0000
0000
0001
0000
0000
0000
0000
0000
0000
0000
0000
0000
0000
0000
0100
0000
0000
0000
0000
0000
0000
0000
0000
0000
0000
0000
0001
0000
0000
0000
0000
0000
0000
0000
0000
0000
0000
0000
,
1000
0000
0010
0100
0002
0000
0023
0000
0031
0100
1000
0000
0100
0000
0001
0000
,
2001
0000
0000
0000
3100
0010
0001
0010
0100
0000
1000
0001
0100
0000
0100
0010
,
1000
0000
0100
0000
0110
0000
0001
0000
1000
0010
0100
0000
0002
0000
0000
0000
,
0013
0100
1000
0000
1000
0001
0010
0000
0001
0000
1000
0000
0010
0100
0001
1000
,
0200
0000
0302
0000
0000
0000
0203
0000
1300
0001
0010
0001
0100
0010
1000
0100
,
0020
0000
0031
2000
0000
3010
0200
0302
,
2003
0000
0000
0000
3010
0000
0100
0001
0100
0010
1000
0001
1000
0100
0010
0001
,
0200
0010
0302
0010
2003
3200
0302
0203
,
0310
0000
0000
0001
0000
0000
0020
0000
0000
0000
0000
0000
0230
0000
0000
0000
0000
0000
2300
0000
0000
0000
0000
0000
3001
0000
0000
0000
0100
0000
0000
0000
0010
0000
0000
0000
1000
0000
0000
0000
0100
0000
0000
0000
0010
0000
0000
0000
,
0002
0000
0000
0000
0000
0000
0003
0000
1000
0010
0100
0010
1000
0001
0100
0001
,
1000
0100
0010
0001
0010
0100
1000
0001
0010
0000
0001
0100
0010
1000
0001
0010
,
0001
0100
1000
0100
0001
0000
1000
0010
1000
0100
0001
0100
1000
0000
0001
0010
,
0001
0100
0010
1000
0100
1000
0010
0100
0001
0010
0100
1000
0010
0100
0001
1000
,
0200
0000
0000
0010
0000
1000
1300
1000
,
1001
0000
0000
0000
0000
0000
0110
0000
0000
0000
0001
1000
0010
0000
0100
0000
,
0110
0000
0000
0000
0010
1000
0100
0000
0000
0000
0010
0001
1000
0001
0010
0001
,
1000
0000
0000
0000
0001
0000
0101
0000
0000
0000
1000
0010
0100
0000
0001
0000
,
1001
0000
0000
0000
0100
0010
0110
0000
0000
0000
0001
1000
0100
0000
0010
0000
,
0110
0000
0000
0000
0100
0000
1001
0000
0000
0000
1000
0010
0100
0000
0001
0000
,
0011
0000
0000
0000
0010
0001
0100
0000
0000
0000
0010
1000
0010
0000
0100
0000
,
0110
0000
0000
0000
0000
0000
1001
0000
0000
0000
1000
0100
1000
0002
0000
0000
,
0000
0000
0000
0000
,
0000
0000
0000
0003
;

//--------------- dance-double - forcednature ----------------
#NOTEDATA:;
#STEPSTYPE:dance-double;
#DESCRIPTION:forcednature;
#DIFFICULTY:Easy;
#METER:10;
#RADARVALUES:0,0,0,0,0;
#CREDIT:forcednature;
#NOTES:
00000000
00000000
00000000
00000000
,
00000000
00000000
00000000
00000000
,
00000000
00000000
00000000
00000000
,
00000000
00000000
00000000
00000000
,
00000000
00000000
00000000
00000000
,
00000000
00000000
00000000
00000000
,
00011000
00000000
00000000
00011000
00000000
00000000
00000000
00000000
,
01001000
00000000
00000000
01001000
00000000
00000000
00000000
00000000
,
00011000
00000000
00000000
00011000
00000000
00000000
00000000
00000000
,
00010100
00000000
00000000
00010100
00000000
00000000
00000000
00000000
,
00001001
00001000
00000100
00010000
,
00011000
00000000
00001000
00000000
,
01000000
01000000
00010000
00100000
,
01000000
00100000
00010000
01000000
,
10010000
10000000
01000000
00100000
,
01100000
00000000
00001000
00010000
,
00000100
00001000
00000100
00000000
00000010
00000000
00000001
00000000
,
00002002
00000000
00000000
00003003
,
00001000
00000100
00001000
00000100
,
00010000
00001000
01000000
00000000
,
00010000
00100000
00010000
00100000
,
00001000
00010000
00000010
00000000
,
00001000
00000001
00001000
00000000
00000100
00000000
00010000
00000000
,
00001000
00100000
00010000
00000000
,
01000000
00010000
01000000
00000000
00100000
10000000
00100000
00000000
,
20000000
01000000
00020000
30030000
,
01100000
00000000
10000000
00010000
,
01000000
00001000
00010000
00000000
,
00000100
00001000
00000100
00000000
00000010
00000000
00000001
00000000
,
00000100
00000010
00000110
00000000
,
00002002
00003003
00001000
00000100
,
00010000
00001000
00011000
00000000
,
01000000
00010000
01000000
00000000
00100000
00000000
10000000
00000000
,
00020000
00230000
00300000
02000000
00000000
00000000
03000000
00000000
,
10010000
10000000
01000000
00010000
,
00001000
00010000
00011000
00000000
,
00000100
00001000
00000100
00000010
,
00000001
00001000
00000001
00000000
00000100
00000000
00000110
00000000
,
00000001
00001000
00000100
00010000
,
00001000
00010000
00001000
00000000
01000000
00000000
00010000
00000000
,
00100000
01000000
00100000
00000000
00010000
00000000
10000000
00000000
,
00100000
01100000
01000000
00010000
,
10010000
00000000
00000000
00000000
20000000
00000000
30000000
02000000
,
00000000
00000000
00000000
00000000
00000000
00000000
00000000
00000000
00000000
03000000
00000000
00000000
00010000
00000000
00000000
00000000
00010000
00000000
00000000
00000000
00001000
00000000
00000000
00000000
,
00200000
00000000
00000000
00000000
00300000
00002000
00000000
00013000
,
00000200
00002300
00000000
00003000
,
00000002
00000000
00000103
00000020
00000000
00001030
00000002
00000000
,
00000023
00000000
00000030
00000100
00002000
00000000
00003200
00000000
,
00020300
00000000
00000000
00030000
00001000
00000000
02000000
00000000
,
03010000
20000000
00000000
00100000
00000000
30010000
00000000
10000000
,
01000000
00100000
00001000
00010000
,
00000200
00002300
00003020
00000230
,
00000301
00000010
00001000
00010000
,
02000000
00000000
00000000
13000000
00010000
00000000
01000000
00000000
,
00002000
00000000
00000000
00013000
00020000
00000000
00030200
00000000
,
00002300
00000000
00000000
00003000
00000001
00000000
00000100
00000000
,
00001000
00000000
00010000
00000000
00001000
00010000
00001000
00000000
,
00022000
00000000
00033000
00000000
,
01000000
01000000
00010000
00100000
,
00001000
00010000
00000010
00001000
,
00000100
00000100
00001000
00000010
,
00010000
00001000
00100000
00000000
,
00010000
10000000
00010000
00000000
10000000
00000000
01000000
00000000
,
00100000
00001000
00010000
00000100
,
00001000
00000100
00001000
00000000
00000100
00000010
00000100
00000000
,
00000020
00000000
00000001
00000000
00000031
00000001
00000001
00000000
,
00002002
00003003
00000110
00001000
,
00000100
00000000
00010000
00000000
00001000
00010000
00001000
00000000
,
01000000
00010000
00100000
01000000
,
10000000
00010000
10000000
00000000
00100000
00000000
01000000
00000000
,
10010000
10000000
01000000
00010000
,
00001000
00000000
00100000
00000000
00010000
00100000
00010000
00000000
,
00100000
00001000
00011000
00000100
,
00002000
00003002
00000000
00000203
00000010
00000010
00000310
00000000
,
00002000
00000000
00000000
00003002
00000000
00000000
00000023
00000000
,
00000230
00000000
00000000
00000300
00001000
00000000
00000100
00000000
,
00010000
00001000
00010000
00000000
00001000
00000000
00100000
00000000
,
00010000
10000000
00010000
00000000
02000000
00000000
03100000
00000000
,
20010000
00000000
00000000
30000000
01000000
00000000
00100000
00000000
,
00001000
00010000
00000100
00000110
,
00000001
00000001
00000001
00000000
00001000
00001000
00001000
00000000
,
00000010
00000000
00000100
00000000
00001000
00010000
00001000
00000000
,
00011000
00000000
00000000
00011000
00000000
00000000
00000000
00000000
,
00101000
00000000
00000000
00101000
00000000
00000000
00000000
00000000
,
00011000
00000000
00000000
00011000
00000000
00000000
00000000
00000000
,
00010010
00000000
00000000
00010010
00000000
00000000
00000000
00000000
,
00011000
00000000
00000000
00011000
00000000
00000000
00000000
00000000
,
01100000
00000000
00000000
01100000
00000000
00000000
00000000
00000000
,
00011000
00000000
00000000
00011000
00000000
00000000
00000000
00000000
,
00000110
00000000
00000000
00000110
00000000
00000000
00002002
00000000
,
00000000
00000000
00000000
00000000
,
00000000
00000000
00000000
00003003
;

//--------------- dance-double - forcednature ----------------
#NOTEDATA:;
#STEPSTYPE:dance-double;
#DESCRIPTION:forcednature;
#DIFFICULTY:Medium;
#METER:15;
#RADARVALUES:0,0,0,0,0;
#CREDIT:forcednature;
#NOTES:
00000000
00000000
00000000
00000000
,
00000000
00000000
00000000
00000000
,
00000000
00000000
00000000
00000000
,
00000000
00000000
00000000
00000000
,
00000000
00000000
00000000
00000000
,
00000000
00000000
00000000
00000000
,
00011000
00000000
00000000
00011000
00000000
00000000
00000000
00000000
,
01100000
00000000
00000000
01100000
00000000
00000000
00000000
00000000
,
00011000
00000000
00000000
00011000
00000000
00000000
00000000
00000000
,
00000110
00000000
00000000
00001001
00000000
00000000
00000000
00000000
,
00001000
00000000
00000001
00000100
00001000
00000000
00010000
00000000
,
00001000
00000000
00010000
00100000
10000000
00000000
00100000
00010000
,
00001000
00000000
00010000
00100000
10000000
00000000
01000000
00000000
,
10000000
00000000
00100000
00010000
00001000
00010000
00001000
00000000
,
00000010
00001000
00000010
00000001
00000100
00000001
00000010
00001000
,
00010000
00100000
10000000
00010000
10000000
01000000
00010000
00000000
,
00001000
00001000
00000010
00000010
00000001
00000001
00000100
00001000
,
00020000
00000000
00000000
00030010
,
00012000
00010000
01000000
01000000
,
00010000
00010000
00103000
00001000
,
00020000
00001000
00000100
00000100
,
00001000
00001000
00030010
00011000
,
01000000
00010000
01000000
00001000
00010000
00000010
00001000
00000010
,
00010000
00001000
00100000
00010000
00100000
00001000
00000010
00000000
,
00000100
00000000
00001000
00000000
00000100
00000000
00010000
00000000
00001000
00010000
00001000
00010000
00001000
00000000
00000000
00000000
,
00200000
00000000
00000000
00000000
00010000
00000000
00000000
00000000
00301000
00000000
00001000
00000000
00010000
00001000
00010000
00001000
,
00020000
00000000
00000000
00000000
00030010
00000000
00000010
00000000
00000010
00000000
00001000
00000000
00000001
00000100
00000001
00000100
,
00000001
00000000
00000000
00000000
00000010
00000000
00001000
00000000
00010000
00000000
00000000
00001000
00100000
00000000
00010000
00000000
,
01000000
00000000
01000000
00000000
00100000
00000000
10000000
00000000
01000000
00000000
10000000
00000000
00100000
01000000
00010000
00000000
,
00100000
00000000
00000000
00100000
00001000
00000000
00010000
00000000
00000100
00000000
00001000
00000000
00000001
00000000
00000010
00000000
,
00000210
00000000
00000000
00000000
00001300
00000100
00001000
00000100
00020000
00000000
00000000
00000000
00031000
00100000
00001000
00100000
,
00020000
00000000
00000000
00000000
10030000
00000000
00100000
10000000
00100000
00000000
00000000
01000000
00020000
00000000
00000000
00000000
,
00230000
00000000
01300000
00010000
00001000
00010000
00001000
00000010
,
00000002
00002003
00003000
00000020
00010000
00010030
00001000
00000000
,
00021000
00000000
00000000
00000000
00031000
00100000
00001000
00100000
00010000
00000000
10000000
00000000
00100000
10000000
00100000
00000000
,
01000000
00000000
00010000
00000000
00100000
00000000
01000000
00000000
00000000
00010000
00000000
00000000
00011000
00000000
00000000
00000000
,
00001000
00000000
00000010
00000000
00000001
00000000
00000100
00000000
00000001
00000000
00000010
00000000
00000100
00001000
00000100
00001000
,
00000001
00000000
00000100
00000000
00001000
00000000
00000000
00000000
00010000
00000000
00001000
00010000
00001000
00000000
00000000
00000000
,
00021000
00000000
00000000
00000000
00000100
00000000
00000000
00000000
00031000
00100000
00001000
00100000
00010000
00000000
00000000
00000000
,
10010000
00000000
00000000
00000000
10000000
00000000
01000000
00000000
00000000
00010000
00000000
00000000
00011000
00000000
00000000
00000000
,
00001000
00000000
00000010
00000000
00000001
00000000
00000100
00000000
00000001
00000000
00000010
00000000
00001000
00010000
00001000
00010000
,
00000020
00002030
00023000
01030000
,
10010000
00000000
00000000
00000000
20000000
00000000
31000000
00200000
,
00000000
00000000
00000000
00000000
00000000
00000000
00000000
00000000
00000000
00300000
00000000
00000000
00010000
00000000
00100000
00000000
00001000
00000000
00010000
00000000
00000100
00000000
00001000
00000000
,
00000002
00000000
00000000
00000000
00000000
00000203
00000000
00001300
,
00010000
00000000
00001000
00100000
00020000
00000000
00000000
00000000
00000000
00000000
00000000
00000000
00030000
00000000
00000000
00000000
,
20000000
00000000
30100000
02000000
00000000
03010000
00100000
00001000
,
00020000
00000000
00000000
00000000
00030000
00000000
00000010
00001000
00000020
00000000
00000000
00000230
00000000
00000000
00000301
00000000
,
00002000
00000000
00000000
00003000
00000002
00000000
00000023
00000000
,
00001030
00020000
00000000
00030200
00000000
00001000
00000000
00000310
,
00000100
00010000
00001000
00100000
00001000
00010000
01000000
10000000
,
00100000
00000000
10000000
00000000
00100000
00000000
01000000
00000000
00010000
00000000
01000000
00000000
00001000
00000000
00010000
00000000
00001000
00000000
00100000
00000000
00000000
00010000
00000000
00000000
,
00100000
00001000
00000010
00000100
00010000
00001000
00000010
00000001
,
00000200
00000000
00000000
00000000
00000000
00000000
00000301
00001000
00000010
00000000
00000100
00000000
00001000
00000000
00010000
00000000
,
00200000
00000000
00000000
00000000
00000000
00000000
01300000
00010000
20000000
00000000
00000000
00000000
30100000
01000000
00100000
01000000
,
00020000
00000000
00000000
00000000
00030000
00000000
00100000
00010000
00100000
00000000
00000000
00001000
00000000
00000000
00010000
00000000
,
00000010
00000010
00001000
00001000
00000001
00000001
00000100
00001000
,
00020000
00000000
00000020
00030030
,
00011000
00001000
00100000
00010000
,
01000000
00001000
00010000
00000010
,
00001000
00000100
00010000
00001000
,
01000000
00010000
00100000
01100000
,
01000000
10000000
01000000
00010000
00001000
00100000
00010000
00100000
,
00001000
00000010
00000100
00000010
00000001
00000000
00001001
00000000
,
00000001
00000100
00000010
00001000
00010000
01000000
00100000
10000000
,
00020000
00000000
00000000
00000000
01000000
00000000
00000000
00000000
00130000
00000000
00100000
00000000
00010000
10000000
00010000
10000000
,
02000000
00000000
00000000
00000000
00000000
00000000
00000000
00000000
03100000
00000000
00001000
00000000
00010000
00000100
00010000
00000100
,
00001000
00000001
00000010
00001000
00000010
00000000
00000011
00000000
,
00000001
00000000
00000000
00000000
00000000
00000000
00000100
00000000
00000000
00000000
00000000
00000000
00001000
00000000
00000000
00000000
00000000
00000000
00010000
00000000
00000000
00000000
00000000
00000000
00001000
00000000
00000000
00000000
00010000
00000000
00000000
00000000
00001000
00000000
00000000
00000000
00100000
00000000
00000000
00010000
00000000
00000000
00100000
00000000
00000000
00000000
00000000
00000000
,
01000000
00000000
10000000
00000000
01000000
00000000
00010000
00000000
00001000
00000000
00100000
00010000
00100000
00000000
00001000
00000000
,
00020000
00000000
00000000
00000000
00030010
00001000
00000010
00001000
00000010
00000000
00000100
00000000
00000001
00000000
00000010
00000000
,
00000001
00000000
00000100
00000000
00001000
00000000
00010000
00000000
00001000
00100000
00010000
00000000
00110000
00000000
00000000
00000000
,
20000000
00000000
00000000
00000000
31000000
00000000
01000000
00000000
10000000
00000000
00100000
00000000
10000000
00010000
10000000
00010000
,
00200000
02300000
00000000
03020000
00000000
00031000
00011000
00000000
,
00002000
00000000
00000000
00003020
00000000
00000000
00000032
00000203
,
00000302
00000000
00000000
00000000
00000000
00000003
00001000
00000000
00000010
00000000
00010000
00001000
00010000
00000000
00001000
01000000
,
00010000
00100000
01000000
00010000
01000000
10000000
00100000
10000000
,
01000000
00000000
00000000
00100000
00000000
00000000
01000000
00000000
00000000
00000000
00000000
00000000
00100000
00000000
00000000
00000000
00000000
00000000
00001000
00000000
00000000
00000000
00000000
00000000
00010000
00000000
00000000
00000000
00000100
00000000
00000000
00000000
00001000
00000000
00000000
00000000
00000100
00000000
00000000
00000000
00010000
00000000
00000000
00000000
00001000
00000000
00000000
00000000
,
00200000
00000000
00000000
00000000
00000000
00000000
00300000
00000000
00010000
01000000
00010000
00000000
01000000
00100000
01000000
00000000
,
00100000
10000000
00100000
00000000
10000000
00010000
10000000
00000000
01000000
00000000
00010000
00000000
00011000
00000000
00000000
00000000
,
00000100
00001000
00000100
00001000
00000100
00000000
00010000
00000000
00001000
00010000
00001000
00010000
00001000
00000000
00100000
00000000
,
00010000
01000000
00010000
00000000
01000000
00100000
01000000
00000000
00100000
10000000
00100000
10000000
00010000
00000000
00000000
00000000
,
01100000
00000000
00000000
01100000
00000000
00000000
00000000
00000000
,
00011000
00000000
00000000
00011000
00000000
00000000
00000000
00000000
,
00000110
00000000
00000000
00000110
00000000
00000001
00000100
00001000
,
00010000
00000000
00000000
00000000
00000000
00000000
00011000
00000000
00000000
00000000
00001000
00100000
00010000
00000000
00000000
00000000
,
00110000
00000000
00000000
11000000
00000000
10000000
01000000
00010000
,
00011000
00000000
00000000
00000000
00000000
00000000
00010100
00000000
00000000
00000000
00000100
00001000
00000001
00000000
00000000
00000000
,
00000101
00000000
00000000
00001010
00000000
00000001
00000100
00001000
,
00011000
00000000
00000000
00000000
00000000
00000000
01100000
00000000
00000000
00000000
00010000
10000000
00020000
00000000
00000000
00000000
,
00000000
00000000
00000000
00000000
,
00000000
00000000
00000000
00030000
;

//--------------- dance-double - forcednature ----------------
#NOTEDATA:;
#STEPSTYPE:dance-double;
#DESCRIPTION:forcednature;
#DIFFICULTY:Hard;
#METER:17;
#RADARVALUES:0,0,0,0,0;
#CREDIT:forcednature;
#NOTES:
00000000
00000000
00000000
00000000
,
00000000
00000000
00000000
00000000
,
00000000
00000000
00000000
00000000
,
00000000
00000000
00000000
00000000
,
00000000
00000000
00000000
00000000
,
00000000
00000000
00000000
00000000
,
00011000
00000000
00000000
00011000
00000000
00100000
00010000
00000000
,
00011000
00000000
00000000
00000000
00000000
00000000
00011000
00000000
00000000
00000000
00000010
00001000
00000010
00000000
00010000
00000000
,
00011000
00000000
00000000
00011000
00000000
01000000
00010000
00010000
,
00110000
00000000
10000000
11000000
00000000
01000000
00010000
00001000
,
00011000
00000000
00001000
00000010
00000100
00010000
00001000
00000000
,
00000010
00000001
00000100
00000001
00000010
00001000
00010000
00000000
,
01000000
00000000
00100000
00000000
00001000
00000000
00011000
00000000
00000000
00000000
01000000
00010000
01000000
00010000
01000000
00000000
,
00100000
00000000
10000000
00000000
00100000
00000000
01000000
00000000
00000000
00000000
00010000
10000000
00010000
00000000
00100000
00000000
,
01000000
00010000
00001000
00010000
00001000
00000010
00000001
00000000
,
00000100
00001000
00010000
00001000
00010000
00100000
10000000
00000000
,
01000000
10000000
01000000
00000000
00100000
01000000
00100000
00000000
00010000
00100000
00010000
00100000
00001000
00010000
00000100
00001000
,
00000200
00000000
00000000
00000310
,
00002001
00000100
00000001
00000010
,
00000001
00000100
00000001
00000010
,
00023000
01000000
10000000
00100000
,
10000000
01000000
10030000
10010000
,
10000000
01000000
00010000
01000000
10000000
01000000
00010000
00001000
,
00000010
00000001
00000010
00001000
00000010
00000001
00001001
00000000
,
00001000
00000010
00001000
00000010
00010000
00000000
00001000
00000000
01000000
00010000
01000000
00010000
10000000
00000000
00100000
00000000
,
02000000
00000000
00000000
00000000
00010000
00000000
00000000
00000000
03100000
00000000
00100000
00000000
00100000
10000000
00010000
01000000
,
00200000
00000000
00000000
00000000
10300000
00010000
10000000
00010000
00100000
00000000
00000000
00000000
00001000
00010000
00001000
00010000
,
00000100
00001000
00000100
00000000
00000010
00000000
00000100
00000010
00000001
00000000
00000010
00000000
00000001
00001000
00000100
00000000
,
00020000
00000000
00032000
00000000
00003020
00000000
00000032
00000000
00000103
00000000
00000010
00000000
00001000
00000010
00001000
00000010
,
00010000
00000000
00001000
00010000
00000000
00001000
01000000
00010000
01000000
00000000
00010000
00000000
10000000
00100000
10000000
00100000
,
02000000
00000000
00000000
00000000
03010000
10000000
00010000
10000000
01000000
00000000
00000000
00000000
00100000
00010000
00100000
00001000
,
00010000
00001000
01000000
00010000
01000000
00000000
00100000
01000000
00100000
00000000
10000000
00010000
00100000
00000000
00000000
00000000
,
02000000
00000000
00000000
00000000
03020000
00000000
00032000
00000000
00003010
00000000
00000100
00000010
00000100
00000010
00000001
00001000
,
00000002
00000203
00000000
00002300
00013000
00001000
00011000
00000000
,
02001000
00000000
00000000
00000000
03100000
10000000
00100000
10000000
00010000
00000000
00100000
00010000
00100000
00000000
00001000
00010000
,
00001000
00000000
00010000
00000100
00001000
00000000
00000001
00000000
00000000
00000101
00000000
00000000
00002010
00000000
00000000
00000000
,
00003001
00000000
00000010
00000000
00000001
00000000
00000100
00000000
00000010
00001000
00000010
00000000
00010000
00001000
00010000
00001000
,
00100000
00000000
00010000
10000000
00010000
00000000
01000000
00000000
00100000
00000000
10000000
00010000
10000000
00000000
01000000
00000000
,
01200000
00000000
00000000
00000000
00301000
00000000
00010000
00000000
00000100
00001000
00000100
00001000
00000001
00000010
00000100
00000010
,
00000001
00000000
00000000
00000000
00000100
00000000
00001000
00000000
00000000
00011000
00000000
00000000
00201000
00000000
00000000
00000000
,
00320000
00000000
00000000
00000000
01030000
00000000
00100000
00000000
10000000
00010000
10000000
00010000
00100000
01000000
00100000
01000000
,
10000000
00000000
01000000
00000000
00010000
00000000
01000000
00000000
00100000
00000000
00001000
00010000
00001000
00000000
00000000
00000000
,
00011000
00000000
00000000
00000000
00000200
00000000
00002300
00003002
,
00000000
00000000
00000000
00000000
00000000
00000000
00000000
00000000
00000000
00000003
00000000
00000000
00000100
00000000
00000001
00000000
00000100
00000000
00000010
00000000
00001000
00000000
00000010
00000000
,
00020000
00000000
00000000
00000000
00000000
00032000
00000000
01003000
,
00010000
00000000
01000000
00100000
20000000
00000000
00000000
00000000
00000000
00000000
00000000
00000000
30000000
00000000
00000000
00000000
,
02000000
00000000
03010000
00002000
00000000
00003010
00000100
00000010
,
00000002
00000000
00000000
00000000
00000003
00000000
00000100
00000001
00002000
00000000
00000000
00003020
00000000
00000000
00010030
00000000
,
00002000
00000000
00000000
00003000
02000000
00000000
03020000
00000000
,
00130000
02000000
00000000
23000000
00000000
31000000
00010000
00000000
,
00001000
00100000
00010000
00100000
00001000
00000010
00000100
00000010
,
00000001
00000000
00000000
00000000
00001000
00000000
00000000
00000000
00000100
00000000
00000000
00000000
00001000
00000000
00000000
00000000
00000100
00000000
00000000
00000000
00010000
00000000
00000000
00000000
00001000
00000000
00000000
00000000
00100000
00000000
00000000
00000000
00010000
00000000
00000000
00000000
00100000
00000000
00000000
00010000
00000000
00000000
00100000
00000000
00000000
01000000
00000000
00000000
,
10000000
00100000
10000000
01000000
00010000
00001000
00000100
00000001
,
00000020
00000000
00000000
00000000
00000000
00000000
00000130
00001000
00000100
00000000
00010000
00000000
00001000
00000000
00100000
00000000
,
00020000
00000000
00000000
00000000
00000000
00000000
01030000
00100000
20000000
00000000
00000000
00000000
31000000
00100000
00010000
00100000
,
00002000
00000000
00000000
00000000
00000000
00000000
00013000
00000100
00020000
00000000
00000000
00032000
00000000
00000000
00003010
00000000
,
00000001
00000000
00000001
00000000
00000100
00000000
00000100
00000000
00001000
00000000
00001000
00000000
00010000
00001000
00010000
00001000
,
02000000
00000000
00200000
03300000
,
10010000
00000000
10000000
01000000
00010000
00000000
00001000
00000000
,
00100000
00000000
00010000
00100000
00001000
00000000
00000010
00000000
,
00000100
00000000
00010000
00001000
00000010
00000000
00000001
00000000
,
00000100
00000000
00000010
00010000
00001000
00000000
00011000
00000000
,
00000010
00001000
00000010
00010000
00100000
00010000
00000010
00001000
,
00000100
00010000
00000100
00000010
00001000
00000000
00011000
00000000
,
00100000
00010000
00100000
00010000
10000000
01000000
10000000
01000000
00100000
00010000
00100000
00001000
00010000
00000100
00001000
00000100
,
00000020
00000000
00000000
00000000
00000001
00000000
00000000
00000000
00000130
00000000
00000100
00000000
00000100
00001000
00000001
00001000
,
00000020
00000000
00000000
00000000
00000000
00000000
00000000
00000000
00010030
00001000
00010000
00000100
00001000
00000010
00001000
00000010
,
00000100
00000000
00001000
00000000
00010000
00000000
00100000
00000000
01000000
00010000
10000000
00000000
00100000
01000000
00100000
01000000
,
00010000
00000000
00000000
00000000
00000000
00000000
00100000
00000000
00000000
00000000
00000000
00000000
00001000
00000000
00000000
00000000
00000000
00000000
00000010
00000000
00000000
00000000
00000000
00000000
00000100
00000000
00000000
00000000
00001000
00000000
00000000
00000000
00000100
00000000
00000000
00000000
00000010
00000000
00000000
00000001
00000000
00000000
00001000
00000000
00000000
00000001
00000000
00000000
,
00000100
00000000
00001000
00000000
00020000
00000000
00230000
00000000
01300000
00100000
10000000
00000000
00010000
00000000
00100000
00000000
,
02100000
00000000
00000000
00000000
13000000
00010000
10000000
00010000
00100000
00000000
00010000
00100000
00001000
00000000
00010000
00000100
,
00001000
00000000
00000001
00000000
00000100
00000000
00001000
00000000
00010000
00001000
00010000
00001000
00200000
00000000
00000000
00000000
,
00310000
10000000
01000000
00000000
10000000
00010000
00100000
00000000
00001000
00000000
00010000
00000000
00000010
00001000
00000010
00001000
,
00000002
00000000
00000203
00000000
00000000
00000000
00002300
00000000
00013000
00000000
00001000
00010000
00001000
01000000
00010000
01000000
,
00200000
00000000
00000000
20300000
00000000
00000000
32000000
03020000
,
00032000
00000000
00000000
00000000
00003000
00000000
00100000
00010000
00100000
00001000
00010000
00001000
01000000
00010000
01000000
00100000
,
20000000
32000000
03020000
00032000
00203000
00320000
00230000
00302000
,
00003020
00000000
00000000
00000230
00000000
00000000
00020300
00000000
00000000
00032000
00000000
00000000
00003010
00000000
00000001
00000000
00001000
00000000
00000100
00000000
00001000
00000000
00000001
00000000
,
00000200
00000000
00000000
00000000
00000000
00000000
00000300
00000000
00001000
00010000
00001000
01000000
00010000
01000000
00100000
10000000
,
00010000
00100000
01000000
00100000
00010000
10000000
01000000
10000000
00010000
00000000
00100000
00001000
00010000
00001000
00010000
00000100
,
00001000
00000001
00001000
00000001
00000100
00000000
00001000
00010000
00000010
00001000
00000010
00001000
00000010
00000000
00010000
00001000
,
00100000
00010000
10000000
00010000
00100000
01000000
10000000
01000000
00100000
00010000
00100000
00001000
00010000
00000010
00001000
00000010
,
00000200
00000000
00000000
00000010
00000000
00000001
00000301
00000000
,
00000110
00000000
00000000
00001001
00000000
00000001
00000100
00001000
,
00011000
00000000
00000000
00000000
00100000
00010000
00100000
00000000
00000000
00000000
01000000
10000000
00010000
10000000
01000000
10000000
,
00010000
00000000
00000000
00000000
00100000
00000000
00110000
00000000
00000000
00000000
00001000
00010000
00001000
00000000
00000000
00000000
,
00011000
00000000
00000000
00000000
00000010
00001000
00000001
00000000
00000000
00000000
00000010
00000001
00001000
00000000
00000100
00000000
,
00000110
00000000
00000000
00000000
00000000
00000000
00011000
00000000
00000000
00000000
00100000
00010000
01000000
00000000
00000000
00000000
,
01100000
00000000
00000000
00000000
00100000
10000000
00010000
00000000
00000000
00000000
00100000
00010000
00100000
00000000
00001000
00000000
,
00011000
00000000
00000000
00000000
00000000
00000000
00000110
00000000
00000000
00000000
00000001
00000100
00000001
00002000
00000000
00000000
,
00000000
00000000
00000000
00000000
,
00000000
00000000
00000000
00003000
;
