#VERSION:0.83;
#TITLE:AKASHIC BREAK;
#SUBTITLE:;
#ARTIST:BEMANI Sound Team "TAG";
#TITLETRANSLIT:;
#SUBTITLETRANSLIT:;
#ARTISTTRANSLIT:;
#GENRE:LAPLACE CORE;
#CREDIT:;
#MUSIC:AKASHIC BREAK.ogg;
#BANNER:AKASHIC BREAK.png;
#BACKGROUND:AKASHIC BREAK-bg.png;
#CDTITLE:./CDTitles/bm IIDX 27 HEROIC VERSE.png;
#SAMPLESTART:50.079;
#SAMPLELENGTH:15.000;
#SELECTABLE:YES;
#OFFSET:0.244;
#BPMS:0.000=205.000;
#STOPS:168.000=0.878;
#TIMESIGNATURES:0.000=4=4,
168.000=1=4,
169.000=4=4
;
#DISPLAYBPM:205.000;
#JACKET:AKASHIC BREAK-jacket.png;
#BGCHANGES:0.000=AKASHIC BREAK.mp4=1.000=0=0=0=StretchNoLoop====,
99999.000=-nosongbg-=1.000=0=0=0=StretchNoLoop====
;
#FGCHANGES:;

//--------------- dance-single - forcednature ----------------
#NOTEDATA:;
#STEPSTYPE:dance-single;
#DESCRIPTION:forcednature;
#CREDIT:forcednature;
#DIFFICULTY:Beginner;
#METER:8;
#RADARVALUES:0,0,0,0,0;
#NOTES:
0000
0000
0000
0000
,
0000
0000
0000
0000
,
0000
0000
0000
0000
,
0000
0000
0000
0000
,
0000
0000
0000
0000
,
0001
1000
0000
0001
0000
1000
0001
1000
,
0000
0000
0000
0000
,
1000
0001
0000
1000
0000
0001
1000
0001
,
0000
0000
0100
0010
,
0110
0100
0001
1000
,
0001
0010
0100
1000
,
0010
0010
0100
0001
,
1000
0100
0010
0001
,
1000
1000
0100
1000
,
0001
0001
0100
0001
,
0010
0000
0100
0000
0010
0100
0010
0000
,
0002
0000
1000
1003
,
2002
0000
0000
0000
,
0000
0000
0000
3003
,
1000
0000
0000
0000
,
0001
0000
0001
0000
,
0100
0000
0010
0000
,
1000
0000
0000
0000
,
0100
0000
0000
0000
,
0010
0000
0000
0000
,
0001
0000
1000
0000
,
0001
0000
0000
0000
,
0100
0000
0100
0000
,
0010
0000
0010
0000
,
1000
0000
0001
0000
,
1000
0000
0000
0000
,
0100
0000
0010
0000
,
0001
0000
0010
0000
,
0200
0000
0300
0000
,
2000
0000
3000
0000
,
0001
0000
0100
0000
,
0001
0000
0100
0000
,
0010
0000
1000
0000
,
0010
0000
1000
0000
,
0100
0010
0100
0010
,
0001
1000
0001
1000
,
0001
1000
0001
0000
1000
0001
1000
0000
,
0000
0000
0110
0000
0000
0001
0000
1000
,
0000
1000
0000
0000
0010
0000
0100
0000
,
0000
1001
0000
0100
,
0000
0010
0000
0000
1000
0000
0001
0000
,
0000
0110
0000
1000
,
0000
0001
0000
0000
0100
0000
0010
0000
,
0000
0000
1001
0000
0000
0110
0000
0000
,
0000
1001
0000
0000
0010
0000
0010
0000
,
0000
0000
0110
0000
0000
1000
0000
0001
,
0000
1000
0000
0000
0100
0000
0010
0000
,
0000
0000
0110
0000
0000
0001
0000
1000
,
0000
0001
0000
0000
0100
0000
0010
0000
,
0000
0110
0000
1000
,
0001
1000
0000
0100
,
0000
0000
0110
0000
0000
0010
0000
0001
,
0000
1000
0000
0000
0001
0000
0100
0010
,
0100
0002
0000
0000
,
0000
0000
0000
2003
,
0000
3200
0000
0000
,
0000
0320
0000
0000
,
0000
0032
0000
0000
,
0000
0000
0000
2003
,
0000
3020
0100
0100
,
0130
0000
0010
0000
0000
0010
0000
0000
,
0010
1000
0001
1000
,
0001
0010
0100
1000
,
0000
0001
1000
0001
,
1000
0010
0100
0001
,
0000
1000
0100
0010
,
0001
1000
0010
0100
,
0001
0010
0100
1000
,
0001
0100
0100
0100
,
0100
0110
0000
0001
,
1000
0010
0100
0001
,
0000
1000
0100
1000
,
0100
0000
0000
0010
0000
0000
0000
0000
,
0000
0000
0110
0000
0000
1000
0000
1000
,
0000
1000
0000
0000
0001
0000
0100
0010
,
0100
1001
0001
0110
,
0000
0010
0000
1000
0000
0001
0000
0000
,
1000
0110
0001
1000
,
0000
0110
0000
0000
0001
0000
0100
0000
,
0010
0000
1001
0000
0000
0110
0000
1000
,
0000
0001
0000
0000
0100
0000
0100
0000
,
0110
0000
1001
0000
0000
0001
0000
0100
,
0000
0010
0000
0000
1000
0000
0100
0000
,
0010
0110
0000
1001
,
0000
1000
0001
0100
,
0000
0110
0000
0010
,
0000
1000
0000
0000
0001
0000
0010
0000
,
0100
0000
0110
0000
0000
1000
0000
0001
,
0000
1000
0000
0000
0010
0000
0100
0000
,
0000
1001
0001
0010
,
0000
0100
0000
1000
0000
0000
0000
0000
,
0110
0001
1000
0001
,
0100
0000
0010
1000
0010
0000
0100
0001
,
0100
2002
0000
0000
,
0000
3003
0000
0000
;

//--------------- dance-single - forcednature ----------------
#NOTEDATA:;
#STEPSTYPE:dance-single;
#DESCRIPTION:forcednature;
#CREDIT:forcednature;
#DIFFICULTY:Easy;
#METER:12;
#RADARVALUES:0,0,0,0,0;
#NOTES:
0000
0000
0000
0000
,
0000
0000
0000
0000
,
0000
0000
0000
0000
,
0000
0000
0000
0000
,
0000
0000
0000
0000
,
1000
0100
0000
0010
0000
0001
1000
0001
,
0000
0000
0000
0000
,
0001
0100
0000
0010
0000
1000
0001
1000
,
0000
0000
0110
1001
,
1100
0000
0100
0000
0010
0001
1000
0000
,
0001
0100
0010
1000
,
0101
0000
0100
0000
0010
1000
0001
0000
,
1000
0100
0010
0001
,
1001
0000
0000
0000
0001
0000
0000
0000
0100
0000
0000
0100
0000
0000
0100
0000
,
0010
0000
0000
0000
1000
0000
0000
0000
0100
0000
0000
0100
0000
0000
0100
0000
,
0010
0000
0001
0000
1000
0010
1000
0000
,
0001
0100
0001
0100
0010
0000
1000
0000
,
0220
0000
0000
0000
,
0000
0000
0000
0330
,
2000
0000
0000
0000
0000
0000
0000
3002
,
0000
0000
0000
0000
,
0203
0000
0000
0000
0320
0000
0000
2030
,
0000
0000
0000
0000
,
3200
0000
0000
0000
0000
0000
0000
0320
,
0000
0000
0000
0000
,
0032
0000
0000
0203
0000
0000
0000
0320
,
0000
0000
0000
0030
,
1001
1000
0100
0100
,
0010
0010
0001
0001
,
0201
0000
0320
2030
,
3002
0000
0000
0023
0000
0000
0030
0000
,
0120
0000
0000
0000
0130
1000
0100
0020
,
0000
0000
0000
0000
0032
0000
0000
0203
,
0000
0000
0000
0000
,
0020
0000
0000
0330
,
1000
0001
0100
0100
,
0001
1000
0100
0100
,
1000
0001
0010
0010
,
0001
1000
0010
0010
,
0100
0000
0001
1000
0001
0000
0010
0100
,
0010
0000
0100
1000
0100
0000
0010
0001
,
0100
0001
0100
0001
1000
0100
0010
0000
,
2002
3003
0000
0000
0000
0000
0000
0000
0000
0000
0000
0000
0000
0000
0000
0000
1001
0000
0000
0000
0000
0000
0000
0000
0000
0000
0000
0000
0000
0000
0000
0000
1000
0000
0000
0000
0000
0000
0000
0000
0100
0000
0000
0000
0000
0000
0000
0000
0000
0000
0000
0000
0000
0000
0000
0000
0110
0000
0000
0000
0000
0000
0000
0000
,
0000
1001
0000
0001
0100
0000
0010
1000
,
0010
0000
0110
0000
0100
0001
1000
0000
,
0100
0010
0000
0011
0000
0001
1000
0001
,
0100
0110
0010
1000
,
0001
0010
0000
0100
1000
0000
0001
0000
,
0100
0000
0110
0000
0010
1000
0000
1001
,
0000
0110
0000
0001
1000
0000
0010
0100
,
0010
0000
1001
0000
1000
0100
0000
0010
,
0000
0110
0000
0100
1000
0000
0001
0100
,
0010
0000
0110
0000
0100
0001
0000
1000
,
0000
1001
0000
0001
0010
0000
0100
1000
,
0100
0110
0010
0001
,
1000
0010
0000
0100
0000
0001
1000
0000
,
0010
0000
0110
0000
0100
0001
0000
1000
,
0000
1001
0000
0001
0010
0000
0100
1000
,
0100
1000
0020
0000
0000
0000
0000
0000
,
0000
0000
0000
0230
,
0000
0302
0000
0000
,
0000
2003
0000
0000
,
0000
3200
0000
0000
,
0000
0000
0000
0320
,
0000
0032
1000
1000
,
1000
0000
0000
0000
0103
0000
0000
0001
0000
0000
1000
0000
0000
0001
0000
0000
,
0010
0000
0100
0000
1000
0001
0000
0001
,
0100
0000
0100
0010
0000
0010
1000
0001
,
1000
0000
0100
0000
0010
0001
0000
0001
,
0100
0000
0100
0010
0000
0010
1000
0001
,
1000
0000
0100
0010
0100
0010
0001
1000
,
0001
0000
0100
0010
0100
0010
1000
0001
,
1000
0000
0010
0100
0010
0100
0001
1000
,
0001
0000
0000
0010
0000
0100
0000
0010
0000
0100
0000
0010
,
0000
0100
0000
1001
0000
0000
1000
0000
0000
0100
0000
0000
,
1000
0010
0100
0001
,
0010
0000
0100
1000
0100
1000
0001
0100
,
0001
0100
0000
0010
0010
0000
0000
0000
,
0000
0000
1001
0000
1000
0100
0000
0010
,
0000
1001
0000
0001
0100
0000
0010
0010
,
0010
0000
1001
0000
1000
0100
1000
0001
,
0100
0001
0000
0010
0000
0100
1000
0001
,
0100
0000
0110
0000
0010
0000
1000
0001
,
1000
0001
0000
0010
0100
0000
1000
0000
,
0001
0000
0110
0000
0001
1000
0000
1010
,
0000
0000
0000
0010
0000
0000
0100
0000
0000
0000
0100
0000
0000
0000
0100
0000
0000
0000
0100
0000
0000
0000
0000
0000
,
1001
0000
0110
0000
0001
1000
0000
0010
,
0000
0110
0000
0100
0001
0000
1000
0100
,
0010
0000
0110
0000
0010
0001
0101
0000
,
0000
0000
0100
0001
0000
0001
0101
0000
,
1000
0000
1100
0000
0001
0010
0100
0000
,
1000
0001
0000
0100
0000
0010
1000
0000
,
0100
0000
0110
0000
0010
0001
0000
1000
,
0000
1001
0000
0001
0100
0000
0010
0010
,
0010
0000
0110
0000
0100
0000
0001
1000
,
0001
0100
0000
0010
0010
0000
0000
0000
,
1001
0000
1000
0100
1000
0000
0001
0100
,
0001
0000
0010
0100
0010
0100
1000
0001
,
1000
0001
0200
0000
0000
0000
0000
0000
,
0000
0300
0000
0000
;

//--------------- dance-single - forcednature ----------------
#NOTEDATA:;
#STEPSTYPE:dance-single;
#DESCRIPTION:forcednature;
#CREDIT:forcednature;
#DIFFICULTY:Medium;
#METER:15;
#RADARVALUES:0,0,0,0,0;
#NOTES:
0000
0000
0000
0000
,
0000
0000
0000
0000
,
0000
0000
0000
0000
,
0000
0000
0000
0000
,
0000
0000
0000
0000
,
0001
0100
0000
0110
0000
0010
1000
0001
,
0000
0000
0000
0000
,
1000
0100
0000
0110
0000
0010
0001
1000
,
0000
0000
0110
1001
,
1000
0100
1000
0010
1000
0001
1000
0100
,
0010
0011
0101
1001
,
0001
0100
0001
0010
0001
1000
0001
0100
,
0010
1010
1100
1001
,
1000
0000
0100
0000
0010
0000
0100
0000
0001
0000
0000
0100
0000
0000
0010
0000
,
0001
0000
0100
0000
0010
0000
0100
0000
1000
0000
0000
0100
0000
0000
0010
0000
,
1000
0100
0010
0001
0100
0010
1000
0001
,
0010
0100
0010
0100
2000
0000
3002
0000
,
0103
0000
0010
1000
0010
0100
0001
1000
,
0100
0010
0100
0010
0001
1000
0001
1000
0010
0100
0010
0100
,
0002
0000
0000
0000
0000
0000
0000
0023
,
0000
0000
0000
0000
,
0230
0000
0000
0000
2300
0000
0000
3002
,
0000
0000
0000
0000
,
0203
0000
0000
0000
0000
0000
0000
0320
,
0000
0000
0000
0000
,
2030
0000
0000
3200
0000
0000
0000
0320
,
0000
0000
0000
0030
,
0011
0001
0100
0100
,
0010
0010
1000
1000
,
2100
3010
0102
0013
,
1001
0000
0000
0220
0000
0000
0330
0000
,
2002
0000
3003
0000
0001
0100
0010
2000
,
0000
0000
0000
0000
3200
0000
0000
0010
,
0320
0000
0000
0000
,
0002
0000
0000
0033
,
0001
1000
0010
0100
0000
0001
0010
0100
,
0000
1000
0001
0100
0000
0001
1000
0100
,
0000
0010
0001
1000
0000
0010
1000
0001
,
0000
0010
0100
1000
0000
0010
0100
0001
,
2000
0000
3100
0001
0200
0000
1300
0001
,
0200
0000
1300
0100
0002
0000
0013
0100
,
1000
0000
0001
0000
0100
0000
0010
0000
1000
0001
1000
0001
0020
0000
0000
0000
,
0200
0330
0000
0000
0000
0000
0000
0000
0000
0000
0000
0000
0000
0000
0000
0000
1001
0000
0000
0000
0000
0000
0000
0000
0000
0000
0000
0000
0000
0000
0000
0000
0001
0000
0000
0000
0000
0000
0000
0000
0100
0000
0000
0000
0000
0000
0000
0000
0000
0000
0000
0000
0000
0000
0000
0000
1010
0000
0000
0000
0000
0000
0000
0000
,
0000
0101
0000
1000
0100
1000
0010
1000
,
0001
0000
1000
0000
0010
0000
0000
0000
0100
0001
0100
0000
0001
0000
1000
0010
,
1000
0010
0000
0100
0001
1000
0001
0010
,
0100
0000
1000
0000
0100
0000
0000
0000
1000
0001
1000
0000
0010
0000
0100
0000
,
0001
1000
0000
0100
0010
0001
0010
0100
,
1000
0001
0100
0000
0010
1000
0000
0100
,
0010
0100
0000
1000
0001
0000
0100
0100
,
0010
0000
1001
0000
0001
0010
0000
1100
,
0000
0011
0000
1000
0001
0100
0001
0010
,
0001
1000
0001
0000
0100
0010
0000
1001
,
0000
0000
0110
0000
0000
0000
1000
0000
0100
0000
0000
0000
0010
0000
0001
1000
,
0001
0000
0100
0000
0010
0000
0000
0000
1000
0100
1000
0000
0001
0000
0010
0000
,
0100
0010
0000
0001
1000
0001
0100
0000
,
0010
1000
0001
0000
1000
0100
0000
0110
,
0000
1001
0000
0001
0100
0000
0010
0010
,
0010
2000
0000
0000
,
0000
0000
0000
3002
,
0000
0023
0000
0000
,
0000
0230
0000
0000
,
0000
2300
0000
0000
,
0000
0000
0000
3002
,
0000
0203
0010
0010
,
0310
0000
0000
0000
0100
0000
0000
1001
0000
0000
0010
0000
0000
1001
0000
0000
,
0100
0010
1000
0001
0010
0001
1000
0010
,
1000
0001
0010
0001
1000
0010
0100
0001
,
1000
0100
0010
0001
0100
0010
1000
0100
,
0010
0001
0100
0010
1000
0100
0010
1000
,
0010
0001
1000
0100
1000
0010
1000
0100
,
1000
0010
0100
0001
0010
0001
0100
0001
,
0010
0001
0100
0010
1000
0001
0010
0100
,
1000
0000
0000
0001
0000
0000
1000
0000
0010
0000
1000
0000
0010
0000
0100
0000
0001
0000
0100
0000
0001
0000
0010
0000
,
0100
0000
0010
0000
0100
0000
1000
0000
0000
0000
0000
0000
0100
0000
0000
0010
0000
0000
0002
0000
0000
0000
0000
0000
,
0010
0100
0010
0100
,
0010
0000
1003
0001
0100
0010
1000
1000
,
1000
0100
0000
0010
0020
0000
0000
0000
,
0030
0000
1001
0000
0100
0100
0000
0110
,
0000
0000
1001
0000
0000
0000
0010
0000
0010
0000
0000
0000
0001
1000
0001
1000
,
0001
0000
0000
0000
0110
0000
0000
0000
1000
0100
1000
0000
0100
0000
0010
0001
,
0010
0001
0000
0100
0001
1000
0010
1000
,
0001
0000
1000
0000
0100
0000
0000
0000
1000
0010
1000
0000
0001
0000
0010
0000
,
0100
1000
0000
0001
0100
0001
1000
0001
,
0010
0100
1000
0000
0001
0100
0000
0110
,
0000
0000
0000
0010
0000
0000
1000
0000
0001
0000
1000
0000
0001
0000
1000
0000
0001
0000
1000
0000
0001
0000
1000
0000
,
0100
0000
0110
0000
0010
0001
0000
1001
,
0000
0110
0000
0001
0100
0010
1000
0001
,
1000
0100
1000
0000
0010
0000
0000
0000
0100
0000
0001
0000
0010
0000
0100
0000
,
0000
0000
0010
0000
0001
0000
0100
0000
0010
0000
0000
0000
1000
0000
0001
0010
,
0001
0000
1000
0000
0010
0000
0000
0000
0100
0001
0100
0000
0010
0000
1000
0000
,
0001
0010
0000
0100
1000
0001
0100
0000
,
0010
1000
0100
0000
0010
0110
0000
1001
,
0000
0000
0110
0000
0000
0000
1000
0000
0001
0000
0000
0000
1000
0001
1000
0001
,
1000
0000
0000
0000
0010
0000
0000
0000
0100
0001
0100
0000
0010
0000
0010
0000
,
0010
1001
0000
0100
0100
0000
0010
1000
,
0001
0000
1000
0100
0010
0001
1000
0010
,
0100
0000
0001
0000
1000
0001
1000
0000
0001
1000
0001
0000
1000
0001
1000
0000
,
0001
1000
0001
0000
0020
0000
0000
0000
0000
0000
0000
0000
0000
0000
0000
0000
,
0000
0030
0000
0000
;

//--------------- dance-single - forcednature ----------------
#NOTEDATA:;
#STEPSTYPE:dance-single;
#DESCRIPTION:forcednature;
#CREDIT:forcednature;
#DIFFICULTY:Hard;
#METER:18;
#RADARVALUES:0,0,0,0,0;
#NOTES:
0000
0000
0000
0000
,
0000
0000
0000
0000
,
0000
0000
0000
0000
,
0000
0000
0000
0000
,
0000
0000
0000
0000
,
0001
0101
0000
1100
0000
0010
0100
1001
,
0000
0000
0000
0000
,
1000
1100
0000
0101
0000
0010
0100
1001
,
0000
0000
0110
1001
,
1100
0000
1000
0100
0010
0100
0001
0100
,
0010
0001
1000
0001
0100
0010
0100
1000
,
0100
0000
0001
1000
0010
0001
0010
0100
,
0001
1000
0100
0010
0001
1000
0010
0100
,
0001
0000
1000
0100
1000
0000
0010
0000
0100
0001
0000
0001
0010
0000
0100
0000
,
1000
0000
0001
0100
0001
0000
1000
0000
0010
0100
0000
0100
0001
0000
1000
0000
,
0100
0000
0100
0000
0010
0000
0010
0000
0001
1000
0001
1000
0001
1000
0001
0000
,
1000
0010
0100
0001
1000
0100
0010
0001
0100
0001
0100
0001
1000
0100
1000
0100
,
0010
0000
0000
0000
0001
0100
0001
0100
0010
1000
0010
1000
0001
0010
0100
1000
,
0001
0100
0001
1000
0100
1000
0001
0010
0001
1000
0010
1000
,
0100
0000
0010
0010
0000
0001
0000
0100
,
0000
0010
1000
0001
1000
0100
1000
0001
,
0010
0000
0000
0000
0100
1000
0001
1000
0010
0000
0100
0001
1000
0001
0010
0000
,
0000
0100
1000
0100
0010
0001
1000
0001
,
0100
0000
0000
0000
0010
1000
0010
0100
0001
0000
1000
0000
0001
0000
0010
0000
,
0000
0100
1000
0100
0001
0100
0010
0001
,
1000
0000
0010
0001
0000
0010
0100
0002
,
0000
0000
0000
1003
0100
1000
0010
0100
,
0001
0000
1000
0010
0000
0001
0000
0010
,
0000
0100
0001
1000
0100
1000
0010
1000
,
0200
0000
0320
0032
,
0203
0000
0000
0320
0000
0000
0030
0000
,
1002
0000
0000
0000
1003
0100
0010
0002
,
0000
0000
0000
0000
0203
0000
0000
0010
,
0320
0000
0000
0000
,
2000
0000
0000
3030
,
1000
0000
0100
0000
0010
0000
0001
0000
1000
0010
0000
0010
0100
0000
0001
0000
,
1000
0000
0100
0000
0010
0000
0001
0000
0100
0010
0000
0010
1000
0000
0001
0000
,
0010
0000
0100
0000
1000
0000
0001
0000
0010
0100
0000
0100
1000
0000
0001
0000
,
0100
0000
0010
0000
1000
0000
0010
0000
0100
0001
0000
0001
0010
0000
0100
0000
,
1000
0000
0001
0100
0001
0000
1000
0000
0010
0000
1000
0100
1000
0000
0001
0000
,
0100
0000
0001
0010
0001
0000
0100
0000
0001
0000
1000
0010
1000
0000
0100
0000
,
0010
0001
0010
0001
1000
0010
1000
0010
0100
0001
1000
0100
0020
0000
0000
0000
,
0200
0330
0000
0000
0000
0000
0000
0000
0000
0000
0000
0000
0000
0000
0000
0000
1001
0000
0000
0000
0000
0000
0000
0000
0000
0000
0000
0000
0000
0000
0000
0000
0001
0000
0000
0000
0000
0000
0000
0000
0010
0000
0000
0000
0000
0000
0000
0000
0000
0000
0000
0000
0000
0000
0000
0000
0110
0000
0000
0000
0000
0000
0000
0000
,
0000
0000
1100
0000
0000
0000
1000
0000
0001
0000
0100
0000
0010
1000
0010
1000
,
0001
1000
0100
0010
0001
0000
0000
0000
1000
0010
0100
0001
1000
0000
0001
0010
,
0100
1000
0001
0000
0000
0000
0100
0000
1000
0000
0100
0000
0001
0000
0010
0100
,
1000
0000
0001
0000
1001
0000
0000
0000
1000
0010
1000
0100
0010
0000
0001
0000
,
0100
0110
0000
0001
1000
0100
0010
0100
,
0001
0100
0110
0000
0010
0001
0000
1000
,
0010
0000
0110
0000
0000
0000
0100
0000
0001
0000
0000
0000
1000
0100
0010
0001
,
0100
0001
0100
0001
1000
0000
0000
0000
0100
0000
0010
0000
0000
0000
0011
0000
,
0000
0101
0000
0001
1000
0010
0100
0010
,
0001
0010
0110
0000
1000
0001
0000
0110
,
0000
0000
1001
0000
0000
0000
1000
0000
1100
0000
0000
0000
0100
0000
0010
0001
,
1000
0000
0001
0000
0101
0000
0000
0000
0001
0010
0100
1000
0001
0000
0100
0000
,
0010
0110
0000
0100
1000
0100
0001
0000
,
1000
0000
0100
0010
0001
0000
0000
0000
0100
0000
0110
0000
0000
0000
1010
0000
,
0000
0000
0011
0000
0000
0000
0100
0000
0110
0000
0000
0000
1000
0100
0010
0001
,
0100
0010
1000
0001
0020
0000
0000
0000
0000
0000
0000
0000
0100
0000
0000
0000
,
0000
0000
0000
0032
,
0000
2003
0000
0010
,
0000
3200
0000
0010
,
0000
2300
0000
0001
,
0000
0000
0000
3020
,
0000
0000
0000
0000
0230
0000
0000
0000
0301
0100
0001
0100
0010
1000
0010
1000
,
0001
1000
0100
0010
0001
0000
0000
0110
0000
0000
1000
0000
0000
0110
0000
0000
,
0001
0000
1000
0000
0001
0100
0001
0100
0010
0000
1000
0100
1000
0100
0010
0000
,
0001
1000
0001
1000
0010
0000
0100
0001
0100
0001
1000
0000
0100
0010
0001
0010
,
0100
1000
0001
1000
0010
0100
0010
0100
0001
0000
0010
0100
0010
0100
1000
0000
,
0001
0100
0001
0100
0010
0000
1000
0100
1000
0100
0010
0000
0001
1000
0001
0100
,
0010
1000
0001
1000
0100
1000
0100
1000
0001
0010
0100
1000
0001
0010
0001
0010
,
0001
1000
0001
0000
0100
0001
0100
0001
1000
0010
0100
0001
1000
0010
1000
0010
,
1000
0001
1000
0000
0100
0010
0001
1000
0010
0100
0001
1000
0100
1000
0001
0100
,
0010
0000
0000
1000
0000
0000
0001
0000
0000
0000
0000
0000
1000
0000
0000
0000
0100
0000
0000
0000
1000
0000
0000
0000
0001
0000
0000
0000
0100
0000
0000
0000
0001
0000
0000
0000
1000
0000
0000
0000
0010
0000
0000
0000
1000
0000
0000
0000
,
0001
0000
0010
0000
0001
0000
0100
0000
0000
0000
0000
0000
0010
0000
0000
1000
0000
0000
0002
0000
0000
0000
0000
0000
,
0010
1000
0100
1000
,
0013
0000
0000
0000
0001
0000
1000
0000
0001
0000
0100
0000
0010
1000
0010
1000
,
0100
0010
0001
0000
0000
0000
0100
0000
0200
0000
0000
0000
0000
0000
0000
0000
,
0000
0000
0310
0000
0100
0110
0000
1001
,
0000
0000
0110
0000
0000
0000
1000
0000
0001
0000
0001
0000
0010
0100
1000
0010
,
0100
0000
0000
0000
1001
0000
0000
0000
1000
0100
0010
0001
1000
0000
0001
0100
,
0010
1000
0001
0000
0000
0000
0010
0000
0100
0000
0010
0000
1000
0000
0010
0100
,
1000
0000
0001
0000
1001
0000
0000
0000
0001
0100
0010
1000
0001
0000
0010
0000
,
0100
0110
0000
0010
0001
1000
0001
0100
,
1000
0100
0110
0000
0010
1010
0000
0011
,
0000
0000
0000
1000
0000
0000
0100
0000
0010
0000
0001
0000
0100
0000
0010
0000
0100
0000
0001
0000
0010
0000
0100
0000
,
1000
0000
1001
0000
0001
0101
0000
1100
,
0000
0110
0000
1000
0001
0001
0010
0010
,
0100
1000
0100
1000
0010
0000
0000
0000
0100
0000
1000
0000
0100
0000
0001
0000
,
0000
0000
0010
0000
0100
0000
0001
0000
0100
0000
0000
0000
0010
0000
0001
1000
,
0001
0100
0010
1000
0001
0000
0000
0000
1000
0100
0010
0001
1000
0000
0010
0000
,
0100
0110
0000
0001
1000
0000
0100
0001
,
0100
0000
0010
0001
1000
0000
0000
0000
0001
0000
0101
0000
0000
0000
1100
0000
,
0000
0000
0110
0000
0000
0000
0010
0000
1001
0000
0000
0000
0001
0100
0010
1000
,
0001
1000
0100
0010
0001
0000
0100
0000
0001
0000
0010
0000
0100
1000
0100
1000
,
0001
1000
0010
0000
0000
0000
0100
0000
0110
0000
0000
0000
0001
0000
1000
0000
,
1001
0000
1000
0100
0001
0100
0010
0001
,
1000
0000
0010
0000
1000
0001
1000
0001
1000
0001
1000
0001
1000
0001
1000
0001
,
1000
0001
1000
0001
0020
0000
0000
0000
0000
0000
0000
0000
0000
0000
0000
0000
,
0000
0030
0000
0000
;

//--------------- dance-single - forcednature ----------------
#NOTEDATA:;
#STEPSTYPE:dance-single;
#DESCRIPTION:forcednature;
#CREDIT:forcednature;
#DIFFICULTY:Challenge;
#METER:19;
#RADARVALUES:0,0,0,0,0;
#NOTES:
0000
0000
0000
0000
,
0000
0000
0000
0000
,
0000
0000
0000
0000
,
0000
0000
0000
0000
,
0000
0000
0000
0000
,
1000
1100
0000
0011
0000
0001
0100
0110
,
0000
0000
0001
1000
0001
0000
0000
0000
0010
0000
0000
0000
0000
0000
0000
0000
,
0001
0101
0000
1010
0000
1000
0100
0110
,
0000
0000
1000
0001
1000
0000
0000
0000
1100
0000
0000
0000
0101
0000
0000
0000
,
1001
0000
1000
0100
0001
0100
0010
0100
,
1000
0010
0100
0010
0001
0010
1000
0001
,
0010
0000
0001
0100
0010
0100
1000
0100
,
0001
0010
0100
0010
1000
0010
0001
1000
,
0001
0000
1000
0010
0100
0000
0001
1000
0001
0010
0000
0100
1000
0000
0001
0100
,
0010
0000
1000
0100
0010
0000
0100
1000
0001
1000
0000
0010
0100
0000
0001
0010
,
0100
1000
0100
1000
0100
1000
0100
1000
0001
0100
0001
0100
0001
0100
0001
0100
,
0010
1000
0100
0010
0001
0100
0010
1000
0100
0010
0001
0100
0010
1000
0100
0010
,
0001
0000
0000
0000
1000
0010
1000
0010
0100
0001
0100
0001
1000
0100
1000
0100
,
0010
0001
1000
0010
0001
0010
1000
0001
0010
0100
0001
0100
,
1000
0000
0010
0010
0000
0100
0000
0001
,
0000
0010
0100
0100
0001
0001
0100
0100
,
1000
0000
0000
0000
0001
0010
0100
1000
0001
0000
1000
0010
0100
0001
1000
0000
,
0000
0100
0100
0001
0001
0100
0100
0010
,
0001
0000
0000
0000
1000
0010
0100
0001
1000
0000
0100
0000
0001
0000
0100
0000
,
0000
0010
0001
0001
1000
1000
0010
0010
,
0100
0000
0001
0010
0000
0100
1000
0001
,
0000
0000
0000
0100
0010
0001
0010
1000
,
0001
0000
0100
1000
0000
0001
0000
0010
,
0000
1000
0100
0100
0001
0001
1000
1000
,
0020
0001
0230
2300
,
3020
0000
0001
0230
1000
0000
0010
0000
,
0302
0000
0010
0000
1003
0100
1000
0020
,
0001
0000
0100
0000
2030
0000
3100
0020
,
0001
0100
1000
0001
,
0200
0000
0000
0330
,
1000
0000
0001
0100
0010
0000
1000
0000
0001
0010
0000
0100
1000
0000
0001
0000
,
0100
0000
0010
1000
0100
0000
0010
0000
0001
1000
0000
0001
0100
0000
0010
0000
,
1000
0000
0100
0010
0001
0000
1000
0000
0010
0100
0000
0100
0001
0000
0010
0000
,
0100
0000
1000
0001
0100
0000
0010
0000
1000
0100
0000
0100
0010
0000
0001
0000
,
0100
0000
0001
1000
0001
1000
0001
1000
0010
0000
1000
0001
1000
0001
1000
0001
,
0010
0000
0100
1000
0100
1000
0100
1000
0010
0000
0100
0001
0100
0001
0100
0001
,
1000
0100
0010
0001
0100
0010
1000
0001
0010
0100
1000
0001
0100
0010
1000
0001
,
0020
0030
0000
0000
0000
0000
0000
0000
0000
0000
0000
0000
0000
0000
0000
0000
0110
0000
0000
0000
0000
0000
0000
0000
0000
0000
0000
0000
0000
0000
0000
0000
1100
0000
0000
0000
0000
0000
0000
0000
0101
0000
0000
0000
0000
0000
0000
0000
0000
0000
0000
0000
0000
0000
0000
0000
1001
0000
0000
0000
0000
0000
0000
0000
,
0000
0000
0110
0000
0000
0000
0001
0000
0100
0000
1000
0000
0001
0010
0100
0010
,
1000
0001
1000
0100
0010
0000
0000
0000
0001
0100
1000
0100
0010
0000
1000
0100
,
0001
0000
0000
0100
0000
0000
0010
0000
0000
0000
0000
0000
0000
0000
0000
0000
0000
0000
0001
0000
0000
0000
0000
0000
1000
0000
0000
0000
0000
0000
1000
0000
0000
0000
0000
0000
0100
0000
0000
0000
0000
0000
0010
0000
0001
0000
1000
0000
,
0001
0000
0100
0000
0110
0000
0000
0000
0010
1000
0100
0010
0001
0000
0010
0000
,
1000
0110
0000
0001
0100
0100
1000
1000
,
0001
0001
0110
0000
1000
1100
0000
0001
,
0100
0000
0110
0000
0000
0000
1001
0000
1001
0000
0000
0000
1000
0100
0010
0001
,
0010
1000
0010
0001
1000
0000
0000
0000
0010
0000
0101
0000
0000
0000
1100
0000
,
0000
0110
0000
0001
1000
1000
0100
0100
,
0010
0010
1001
0000
0100
1010
0000
0011
,
0000
0000
0110
0000
0000
0000
0010
0000
1001
0000
0000
0000
0001
0000
0100
0010
,
1000
0100
0010
0001
0100
0000
0000
0000
1000
0100
0001
1000
0001
0000
0010
0000
,
0100
0110
0000
0010
1001
0100
0110
0000
,
1000
0001
1001
0000
0001
0101
0000
1100
,
0000
0000
0110
0000
0000
0000
1000
0000
1001
0000
0000
0000
1000
0100
0010
0001
,
0100
0010
1000
0001
0010
0000
0100
0000
2000
0000
0010
0000
0000
0000
3100
0000
,
2000
0010
0000
3100
1000
0010
0100
0001
,
0010
0001
0100
0001
0020
0100
0000
0031
,
0020
0100
0000
0031
0010
0100
1000
0001
,
0100
0010
1000
0100
0020
0001
0000
0130
,
0020
0001
0000
0130
0010
0001
1000
0001
,
0100
0000
0010
0000
0110
0000
0000
0000
1000
0100
0010
0001
0100
0010
1000
0001
,
0010
0100
1000
0001
0100
0000
0000
0101
0000
0000
1100
0000
0000
0110
0000
0000
,
1001
0000
0110
0000
1000
0100
0010
0100
0001
0000
0100
0010
0001
1000
0001
0000
,
0100
1000
0100
0001
1000
0000
0010
0100
0010
1000
0001
0000
1000
0100
0010
0100
,
0001
0100
0010
0001
1000
0010
0100
0010
0001
0000
0010
1000
0001
1000
0100
0000
,
0001
0100
1000
0001
1000
0000
0010
0100
0001
1000
0100
0000
0010
0001
1000
0001
,
0100
0010
1000
0001
1000
0100
0010
0001
0100
0010
0001
0010
0100
0001
1000
0010
,
1000
0100
0010
0001
1000
0010
0100
0001
0010
1000
0010
0001
1000
0010
0100
0001
,
0010
0100
1000
0010
0100
1000
0100
0010
0100
0001
1000
0001
0010
0001
0010
0100
,
0010
0000
0000
1000
0000
0000
0010
0000
0000
0100
0000
0000
1000
0000
0000
0000
0010
0000
0000
0000
0001
0000
0000
0000
1000
0000
0000
0000
0100
0000
0000
0000
0001
0000
0000
0000
1000
0000
0000
0000
0100
0000
0000
0000
0001
0000
0000
0000
,
1000
0000
0010
0000
0001
0000
1001
0000
0000
0000
0000
0000
1000
0000
0000
0100
0000
0000
0020
0000
0000
0000
0000
0000
,
1000
0001
1000
0001
,
1030
0000
0000
0000
0110
0000
0010
0000
0001
0000
0001
0000
1000
0010
0100
0001
,
1000
0100
0001
0000
0000
0000
0100
0000
0220
0000
0000
0000
0000
0000
0000
0000
,
0330
0000
1001
0000
0010
0110
0000
1001
,
0000
0000
0110
0000
0000
0000
1000
0000
0001
0000
0001
0000
0100
1000
0100
0001
,
0100
0000
0000
0000
0110
0000
0000
0000
0001
0100
0010
1000
0010
0000
0001
0010
,
0100
0000
0000
0010
0000
0000
1000
0000
0000
0000
0000
0000
0000
0000
0000
0000
0000
0000
1100
0000
0000
0000
0000
0000
0001
0000
0000
0000
0000
0000
0001
0000
0000
0000
0000
0000
0100
0000
0000
0000
0000
0000
0001
0000
0010
0000
0100
0000
,
1000
0000
0010
0000
0110
0000
0000
0000
0100
0001
1000
0001
0010
0000
1000
0000
,
0010
0110
0000
0100
1000
1000
0010
0010
,
0001
0001
0110
0000
1000
0101
0000
1100
,
0001
0000
0000
1000
0000
0000
0010
0000
0001
0000
1000
0000
0100
0000
0001
0000
1000
0000
0100
0000
0001
0000
1000
0000
,
0010
0000
0110
0000
1000
1100
0000
0101
,
0000
1001
0000
0001
0010
0010
0100
0100
,
1000
0010
0001
0010
0100
0000
0000
0000
0001
0000
1000
0000
1100
0000
0100
0000
,
0000
0000
0000
0010
0000
0000
0001
0000
0000
1000
0010
0100
0001
0000
0000
1000
0000
0000
0010
0000
0000
1000
0100
0010
,
0001
0010
0100
1000
0001
0000
0000
0000
1000
0010
0100
0010
0001
0000
0010
0000
,
1000
0000
1001
0000
0000
0000
0001
0000
0010
0000
0100
1000
0001
0000
0100
0000
,
1000
0000
0100
0010
1000
0000
0001
0000
0010
0000
0110
0000
0000
0000
1000
0000
,
0001
0000
1001
0000
0000
0000
0010
0000
0110
0000
0000
0000
1000
0100
0010
0001
,
0010
1000
0010
0001
1000
0000
0001
0000
0100
1000
0100
0001
1000
0100
0010
0100
,
0001
0100
0010
0000
0000
0000
0100
0000
0110
0000
0000
0000
1000
0000
0100
0100
,
0001
0000
0110
0000
1000
0001
0100
0010
,
1000
0000
0001
0000
0010
0100
1000
0001
0100
1000
0100
0001
1000
0100
0010
0001
,
0100
0010
1000
0001
0020
0000
0000
0000
0000
0000
0000
0000
0000
0000
0000
0000
,
0000
0030
0000
0000
;

//--------------- dance-double - forcednature ----------------
#NOTEDATA:;
#STEPSTYPE:dance-double;
#DESCRIPTION:forcednature;
#CREDIT:forcednature;
#DIFFICULTY:Easy;
#METER:12;
#RADARVALUES:0,0,0,0,0;
#NOTES:
00000000
00000000
00000000
00000000
,
00000000
00000000
00000000
00000000
,
00000000
00000000
00000000
00000000
,
00000000
00000000
00000000
00000000
,
00000000
00000000
00000000
00000000
,
00001000
00010000
00000000
00100000
00000000
01000000
00010000
01000000
,
00000000
00000000
00000000
00000000
,
00001000
00010000
00000000
00000100
00000000
00001000
00000001
00001000
,
00000000
00000000
00010100
01001000
,
00011000
00000000
00010000
00000000
00100000
10000000
00010000
00000000
,
10000000
01000000
00010000
00001000
,
00000100
00000000
00000001
00000000
00000010
00000100
00001000
00000000
,
00000010
00010000
00001000
00100000
,
01000000
00000000
00000000
00000000
10000000
00000000
00000000
00000000
00010000
00000000
00000000
00010000
00000000
00000000
00010000
00000000
,
01000000
00000000
00000000
00000000
00001000
00000000
00000000
00000000
00010000
00000000
00000000
00010000
00000000
00000000
00010000
00000000
,
00000100
00000000
00001000
00000000
00000001
00000100
00000001
00000000
,
00000010
00000100
00000010
00000100
00010000
00000000
00001000
00000000
,
00022000
00000000
00000000
00000000
,
00000000
00000000
00000000
00033000
,
02000000
00000000
00000000
00000000
00000000
00000000
00000000
03020000
,
00000000
00000000
00000000
00000000
,
00230000
00000000
00000000
00000000
00302000
00000000
00000000
00023000
,
00000000
00000000
00000000
00000000
,
00030020
00000000
00000000
00000000
00000000
00000000
00000000
00002030
,
00000000
00000000
00000000
00000000
,
00003200
00000000
00000000
00020300
00000000
00000000
00000000
00032000
,
00000000
00000000
00000000
00003000
,
00011000
00010000
00100000
00100000
,
10000000
10000000
01000000
01000000
,
00020000
00000000
00032000
00003020
,
00000230
00000000
00000000
00002300
00000000
00000000
00003000
00000000
,
00001002
00000000
00000000
00000000
00000103
00000001
00000100
00000020
,
00000000
00000000
00000000
00000000
00020030
00000000
00000000
00032000
,
00000000
00000000
00000000
00000000
,
00200000
00000000
00000000
00303000
,
00100000
01000000
10000000
10000000
,
00010000
01000000
00001000
00001000
,
00010000
00000100
00001000
00001000
,
00000001
00000100
00000010
00000010
,
00010000
00000000
00001000
00010000
00001000
00000000
00100000
00010000
,
00100000
00000000
00001000
00010000
00001000
00000000
00000100
00000010
,
00001000
00000001
00001000
00000001
00000010
00000100
00010000
00000000
,
00022000
00033000
00000000
00000000
00000000
00000000
00000000
00000000
00000000
00000000
00000000
00000000
00000000
00000000
00000000
00000000
01001000
00000000
00000000
00000000
00000000
00000000
00000000
00000000
00000000
00000000
00000000
00000000
00000000
00000000
00000000
00000000
01000000
00000000
00000000
00000000
00000000
00000000
00000000
00000000
00010000
00000000
00000000
00000000
00000000
00000000
00000000
00000000
00000000
00000000
00000000
00000000
00000000
00000000
00000000
00000000
00110000
00000000
00000000
00000000
00000000
00000000
00000000
00000000
,
00000000
11000000
00000000
10000000
00010000
00000000
01000000
00010000
,
01000000
00000000
00011000
00000000
00000100
00001000
00000010
00000000
,
00000100
00000001
00000000
00000011
00000000
00000010
00000100
00001000
,
00000100
00011000
00010000
00001000
,
01000000
00010000
00000000
00100000
01000000
00000000
10000000
00000000
,
00010000
00000000
01100000
00000000
00010000
01000000
00000000
01001000
,
00000000
00010100
00000000
00000100
00001000
00000000
00000001
00000100
,
00000010
00000000
00000110
00000000
00000100
00000001
00000000
00000010
,
00000000
00000110
00000000
00000100
00001000
00000000
00000010
00010000
,
00001000
00000000
00011000
00000000
00001000
01000000
00000000
00010000
,
00000000
10010000
00000000
10000000
01000000
00000000
00010000
00001000
,
00010000
00011000
00001000
00000010
,
00000100
00001000
00000000
00000001
00000000
00000100
00001000
00000000
,
00010000
00000000
00011000
00000000
00001000
01000000
00000000
00010000
,
00000000
10010000
00000000
10000000
01000000
00000000
00010000
00001000
,
00010000
00001000
00000200
00000000
00000000
00000000
00000000
00000000
,
00000000
00000000
00000000
00000302
,
00000000
00000023
00000000
00000000
,
00000000
00000230
00000000
00000000
,
00000000
00020300
00000000
00000000
,
00000000
00000000
00000000
00032000
,
00000000
02003000
00010000
00010000
,
00010000
00000000
00000000
00000000
03100000
00000000
00000000
01000000
00000000
00000000
00010000
00000000
00000000
01000000
00000000
00000000
,
00001000
00000000
00010000
00000000
00000100
00001000
00000000
00000100
,
00010000
00000000
00000100
00001000
00000000
00000001
00000100
00000010
,
00001000
00000000
00000100
00000000
00010000
00001000
00000000
01000000
,
00001000
00000000
00010000
00001000
00000000
00100000
00010000
00100000
,
01000000
00000000
10000000
00010000
10000000
00010000
01000000
00001000
,
00010000
00000000
00000100
00001000
00000100
00001000
00000001
00000100
,
00000010
00000000
00010000
00001000
00010000
00001000
00100000
00010000
,
00100000
00000000
00000000
01000000
00000000
00010000
00000000
00001000
00000000
00010000
00000000
00001000
,
00000000
00000010
00000000
00000110
00000000
00000000
00000100
00000000
00000000
00001000
00000000
00000000
,
00000001
00000100
00000010
00010000
,
00001000
00000000
00100000
00010000
00100000
00010000
10000000
00100000
,
10000000
00100000
00000000
00010000
00010000
00000000
00000000
00000000
,
00000000
00000000
00011000
00000000
00001000
00000010
00000000
00000100
,
00000000
00000110
00000000
00000010
00000001
00000000
00000100
00000100
,
00000100
00000000
00001001
00000000
00001000
00000100
00001000
00000010
,
00010000
00000010
00000000
00001000
00000000
00000100
00010000
00001000
,
01000000
00000000
01100000
00000000
00100000
00000000
10000000
01000000
,
00100000
00010000
00000000
00100000
00001000
00000000
00010000
00000000
,
00000010
00000000
00000110
00000000
00000100
00000001
00000000
00001001
,
00000000
00000000
00000000
00001000
00000000
00000000
00000100
00000000
00000000
00000000
00000100
00000000
00000000
00000000
00000100
00000000
00000000
00000000
00000100
00000000
00000000
00000000
00000000
00000000
,
00011000
00000000
01001000
00000000
01000000
00010000
00000000
00100000
,
00000000
01100000
00000000
01000000
10000000
00000000
00010000
01000000
,
00001000
00000000
00011000
00000000
00010000
00000100
00001100
00000000
,
00000000
00000000
00000001
00000100
00000000
00000100
00001000
00000000
,
00010000
00000000
00011000
00000000
00001000
00100000
00010000
00000000
,
01000000
00010000
00000000
00100000
00000000
01000000
10000000
00000000
,
00010000
00000000
01100000
00000000
10000000
00010000
00000000
00100000
,
00000000
00011000
00000000
00000010
00001000
00000000
00000100
00000100
,
00000100
00000000
00000110
00000000
00000010
00000000
00000001
00000100
,
00000001
00001000
00000000
00000100
00000100
00000000
00000000
00000000
,
00011000
00000000
01000000
00001000
00010000
00000000
00000100
00010000
,
00001000
00000000
00100000
00010000
00100000
00010000
10000000
00100000
,
01000000
00010000
00200000
00000000
00000000
00000000
00000000
00000000
,
00000000
00300000
00000000
00000000
;

//--------------- dance-double - forcednature ----------------
#NOTEDATA:;
#STEPSTYPE:dance-double;
#DESCRIPTION:forcednature;
#CREDIT:forcednature;
#DIFFICULTY:Medium;
#METER:15;
#RADARVALUES:0,0,0,0,0;
#NOTES:
00000000
00000000
00000000
00000000
,
00000000
00000000
00000000
00000000
,
00000000
00000000
00000000
00000000
,
00000000
00000000
00000000
00000000
,
00000000
00000000
00000000
00000000
,
00001000
00010000
00000000
01100000
00000000
10000000
00010000
00100000
,
00000000
00000000
00000000
00000000
,
00010000
00001000
00000000
00000110
00000000
00000001
00001000
00000010
,
00000000
00000000
00000110
00011000
,
01000000
00010000
10000000
00010000
00100000
00001000
00010000
00001000
,
00000010
00000110
00001100
00001001
,
00000001
00000100
00000010
00000100
00001000
00010000
00100000
00010000
,
00001000
00101000
10010000
01001000
,
00001000
00000000
00010000
00000000
00000100
00000000
00001000
00000000
00000100
00000000
00000000
00000010
00000000
00000000
00000001
00000000
,
00001000
00000000
00000001
00000000
00000100
00000000
00000010
00000000
00010000
00000000
00000000
00001000
00000000
00000000
00100000
00000000
,
00010000
01000000
10000000
01000000
00100000
10000000
00010000
10000000
,
01000000
00010000
00001000
00010000
00000200
00000000
00002300
00000000
,
00003010
00000000
00001000
00000100
00000010
00000100
00000001
00000100
,
00001000
00000100
00001000
00000100
00010000
00001000
00010000
00001000
01000000
00010000
01000000
00010000
,
00200000
00000000
00000000
00000000
00000000
00000000
00000000
02300000
,
00000000
00000000
00000000
00000000
,
23000000
00000000
00000000
00000000
30020000
00000000
00000000
02030000
,
00000000
00000000
00000000
00000000
,
03002000
00000000
00000000
00000000
00000000
00000000
00000000
00023000
,
00000000
00000000
00000000
00000000
,
00030200
00000000
00000000
00002300
00000000
00000000
00000000
00003002
,
00000000
00000000
00000000
00000003
,
00001001
00001000
00000100
00000100
,
00010000
00010000
00001000
00001000
,
02000000
00000000
03020000
00230000
,
02300000
00000000
00000000
23000000
00000000
00000000
30000000
00000000
,
20020000
00000000
30030000
00000000
10000000
01000000
00100000
00020000
,
00000000
00000000
00000000
00000000
02030000
00000000
00000000
00001000
,
03002000
00000000
00000000
00000000
,
00020000
00000000
00000000
00033000
,
00010000
00000100
00001000
00000100
00000000
00000010
00000001
00001000
,
00000000
00000010
00010000
00001000
00000000
00100000
00001000
00010000
,
00000000
00100000
10000000
01000000
00000000
00100000
00010000
01000000
,
00000000
00001000
00010000
00000100
00000000
00010000
00001000
01000000
,
00020000
00000000
10030000
01000000
00020000
00000000
00031000
00000100
,
00000002
00000000
00000013
00000100
00002000
00000000
00003010
00000100
,
00000001
00000000
00000010
00000000
00000100
00000000
00001000
00000000
00000100
00010000
00000100
00010000
00002000
00000000
00000000
00000000
,
02000000
03003000
00000000
00000000
00000000
00000000
00000000
00000000
00000000
00000000
00000000
00000000
00000000
00000000
00000000
00000000
10010000
00000000
00000000
00000000
00000000
00000000
00000000
00000000
00000000
00000000
00000000
00000000
00000000
00000000
00000000
00000000
10000000
00000000
00000000
00000000
00000000
00000000
00000000
00000000
01000000
00000000
00000000
00000000
00000000
00000000
00000000
00000000
00000000
00000000
00000000
00000000
00000000
00000000
00000000
00000000
00010000
00000000
00000000
00000000
00000000
00000000
00000000
00000000
,
00000000
00011000
00000000
00000100
00001000
00000010
00001000
00000100
,
00000010
00000000
00000001
00000000
00001000
00000000
00000000
00000000
00000010
00001000
00000010
00000000
00010000
00000000
00001000
00100000
,
00001000
00010000
00000000
00100000
10000000
00010000
10000000
01000000
,
00010000
00000000
00001000
00000000
00010000
00000000
00000000
00000000
00000100
00001000
00000100
00000000
00000010
00000000
00000001
00000000
,
00001000
00000001
00000000
00000100
00001000
00010000
00100000
01000000
,
00010000
10000000
00010000
00000000
00100000
01000000
00000000
00010000
,
00001000
00010000
00000000
00000010
00001000
00000000
00000100
00000100
,
00000010
00000000
00001001
00000000
00000001
00000100
00000000
00001010
,
00000000
00011000
00000000
00100000
00010000
01000000
00010000
10000000
,
00010000
00100000
01000000
00000000
10000000
00010000
00000000
01001000
,
00000000
00000000
00010100
00000000
00000000
00000000
00000001
00000000
00001000
00000000
00000000
00000000
00000100
00000000
00000010
00000001
,
00000010
00000000
00000100
00000000
00010000
00000000
00000000
00000000
00001000
00010000
00001000
00000000
01000000
00000000
00010000
00000000
,
00100000
00010000
00000000
10000000
00100000
00010000
00100000
00000000
,
01000000
00001000
00010000
00000000
00000100
00001000
00000000
00001001
,
00000000
00000110
00000000
00000001
00001000
00000000
00000100
00000100
,
00000100
00020000
00000000
00000000
,
00000000
00000000
00000000
00032000
,
00000000
02003000
00000000
00000000
,
00000000
03020000
00000000
00000000
,
00000000
20030000
00000000
00000000
,
00000000
00000000
00000000
32000000
,
00000000
03020000
00001000
00001000
,
00031000
00000000
00000000
00000000
00010000
00000000
00000000
00001000
00000000
00000000
00000010
00000000
00000000
00000100
00000000
00000000
,
00001000
00000001
00000100
00001000
00010000
00100000
10000000
00010000
,
10000000
01000000
00010000
00001000
00000010
00000100
00001000
00000001
,
00000100
00001000
00010000
01000000
00100000
00001000
00010000
00100000
,
10000000
01000000
00010000
00001000
00000100
00000010
00001000
00000001
,
00000010
00001000
00010000
00001000
01000000
00001000
00010000
00001000
,
00000100
00001000
00010000
00100000
00010000
00001000
00010000
01000000
,
00010000
00001000
00000010
00000100
00001000
00000100
00000010
00000001
,
00001000
00000000
00000000
00000001
00000000
00000000
00001000
00000000
00000010
00000000
00001000
00000000
00000010
00000000
00010000
00000000
00001000
00000000
00010000
00000000
00001000
00000000
00100000
00000000
,
00010000
00000000
00100000
00000000
00010000
00000000
10000000
00000000
00000000
00000000
00000000
00000000
00100000
00000000
00000000
00010000
00000000
00000000
00002000
00000000
00000000
00000000
00000000
00000000
,
00100000
00010000
00000010
00010000
,
00103000
00000000
00001000
00010000
00000100
00001000
00000010
00000010
,
00000010
00000100
00000000
00000001
00000002
00000000
00000000
00000000
,
00000003
00000000
00001001
00000000
00000100
00000100
00000000
00011000
,
00000000
00000000
01010000
00000000
00000000
00000000
00100000
00000000
00100000
00000000
00000000
00000000
10000000
00010000
10000000
00010000
,
10000000
00000000
00000000
00000000
01100000
00000000
00000000
00000000
00010000
01000000
00010000
00000000
01000000
00000000
00001000
00010000
,
00001000
00010000
00000000
00000100
00001000
00000010
00001000
00000100
,
00000100
00000000
00000010
00000000
00000001
00000000
00000000
00000000
00000100
00000010
00000100
00000000
00001000
00000000
00010000
00000000
,
00001000
00010000
00000000
00100000
10000000
00010000
10000000
01000000
,
00010000
00001000
00010000
00000000
00000010
00001000
00000000
00001001
,
00000000
00000000
00000000
00000001
00000000
00000000
00000010
00000000
00000100
00000000
00000010
00000000
00000100
00000000
00001000
00000000
00000100
00000000
00001000
00000000
00000100
00000000
00010000
00000000
,
00001000
00000000
01001000
00000000
01000000
00010000
00000000
10010000
,
00000000
01100000
00000000
10000000
01000000
00010000
00001000
00000100
,
00000010
00001000
00000010
00000000
00000100
00000000
00000000
00000000
00000001
00000000
00000010
00000000
00000001
00000000
00000100
00000000
,
00000000
00000000
00001000
00000000
00010000
00000000
00001000
00000000
00010000
00000000
00000000
00000000
00100000
00000000
10000000
00010000
,
10000000
00000000
01000000
00000000
00100000
00000000
00000000
00000000
00010000
01000000
00010000
00000000
00100000
00000000
00001000
00000000
,
00010000
00001000
00000000
00000010
00000100
00001000
00000100
00000000
,
00000010
00000001
00001000
00000000
00000010
00010000
00000000
00100000
,
00000000
00000000
01100000
00000000
00000000
00000000
10000000
00000000
00010000
00000000
00000000
00000000
00100000
00001000
00100000
00001000
,
00010000
00000000
00000000
00000000
00000010
00000000
00001000
00000000
00000010
00001000
00000010
00000000
00000100
00000000
00001000
00000000
,
00000100
00000001
00000000
00000010
00000010
00000000
00000100
00010000
,
00001000
00000000
01000000
00010000
00100000
00001000
00010000
00000010
,
00001000
00000000
00000100
00000000
00010000
00001000
00010000
00000000
00001000
00010000
00001000
00000000
00010000
00001000
00010000
00000000
,
00001000
00010000
00001000
00000000
02000000
00000000
00000000
00000000
00000000
00000000
00000000
00000000
00000000
00000000
00000000
00000000
,
00000000
03000000
00000000
00000000
;

//--------------- dance-double - forcednature ----------------
#NOTEDATA:;
#STEPSTYPE:dance-double;
#DESCRIPTION:forcednature;
#CREDIT:forcednature;
#DIFFICULTY:Hard;
#METER:18;
#RADARVALUES:0,0,0,0,0;
#NOTES:
00000000
00000000
00000000
00000000
,
00000000
00000000
00000000
00000000
,
00000000
00000000
00000000
00000000
,
00000000
00000000
00000000
00000000
,
00000000
00000000
00000000
00000000
,
00001000
01001000
00000000
00010100
00000000
00001000
00010000
00011000
,
00000000
00000000
00000000
00000000
,
00100000
00101000
00000000
00010010
00000000
00001000
00010000
00011000
,
00000000
00000000
01001000
00010100
,
00011000
00000000
00001000
00010000
00100000
01000000
00100000
10000000
,
00010000
10000000
01000000
00010000
00001000
00000010
00000100
00001000
,
00000001
00000000
00000100
00001000
00010000
00001000
00100000
00010000
,
01000000
00100000
10000000
01000000
00010000
00001000
00000100
00000001
,
00000010
00000000
00000100
00001000
00000100
00000000
00010000
00000000
00001000
01000000
00000000
01000000
00010000
00000000
00100000
00000000
,
01000000
00000000
10000000
00010000
10000000
00000000
00100000
00000000
01000000
00010000
00000000
00010000
00100000
00000000
00001000
00000000
,
00010000
00000000
00010000
00000000
00000010
00000000
00000010
00000000
00001000
00000001
00001000
00000001
00001000
00000001
00001000
00000001
,
00000100
00000001
00000100
00000001
00001000
00000100
00001000
00000100
00010000
00001000
00010000
00001000
01000000
00010000
01000000
00010000
,
00100000
00000000
00000000
00000000
01000000
10000000
01000000
10000000
00010000
01000000
00010000
01000000
00001000
00010000
00000100
00001000
,
00000100
00000010
00000001
00001000
00000001
00000100
00001000
00010000
01000000
10000000
00100000
10000000
,
01000000
00000000
00010000
00010000
00000000
00001000
00000000
00000100
,
00000000
00000010
00001000
00000010
00000001
00000010
00000100
00000001
,
00001000
00000000
00000000
00000000
00000100
00010000
00001000
00100000
00010000
00000000
01000000
00001000
00010000
00000010
00001000
00000000
,
00000000
00000100
00010000
00001000
00010000
01000000
10000000
00010000
,
01000000
00000000
00000000
00000000
00100000
10000000
01000000
00100000
00010000
00000000
01000000
00000000
00001000
00000000
01000000
00000000
,
00000000
00100000
00010000
00001000
00010000
00000100
00001000
00000010
,
00000100
00000000
00001000
00000100
00000000
00000001
00000010
00000200
,
00000000
00000000
00000000
00010300
00001000
00010000
00100000
01000000
,
00010000
00000000
10000000
01000000
00000000
00010000
00000000
00001000
,
00000000
00000100
00000001
00000010
00000001
00000100
00000001
00001000
,
00000200
00000000
00020300
00032000
,
02003000
00000000
00000000
03020000
00000000
00000000
00030000
00000000
,
20010000
00000000
00000000
00000000
31000000
00010000
00001000
00020000
,
00000000
00000000
00000000
00000000
00030200
00000000
00000000
00002300
,
00000000
00000010
00000010
00000010
,
00000002
00000000
00000000
00003003
,
00000001
00000000
00000100
00000000
00000010
00000000
00001000
00000000
00000100
00000000
00000000
00010000
00000000
00000000
00001000
00000000
,
01000000
00000000
00010000
00000000
00100000
00000000
01000000
00000000
10000000
00000000
00000000
00010000
00000000
00000000
01000000
00000000
,
00001000
00000000
00010000
00000000
00000100
00000000
00001000
00000000
00000010
00000000
00000000
00000100
00000000
00000000
00000001
00000000
,
00001000
00000000
00000100
00000000
00010000
00000000
00001000
00000000
01000000
00000000
00000000
00010000
00000000
00000000
00100000
00000000
,
01000000
00000000
10000000
00010000
10000000
00000000
00100000
00000000
01000000
00000000
00010000
01000000
00010000
00000000
00100000
00000000
,
00001000
00000000
00010000
00000010
00010000
00000000
00000100
00000000
00001000
00000000
00000001
00000100
00000001
00000000
00000010
00000000
,
00000100
00001000
00000100
00001000
00000100
00010000
00001000
00010000
00001000
01000000
00010000
01000000
00200000
00000000
00000000
00000000
,
20000000
30300000
00000000
00000000
00000000
00000000
00000000
00000000
00000000
00000000
00000000
00000000
00000000
00000000
00000000
00000000
10010000
00000000
00000000
00000000
00000000
00000000
00000000
00000000
00000000
00000000
00000000
00000000
00000000
00000000
00000000
00000000
10000000
00000000
00000000
00000000
00000000
00000000
00000000
00000000
01000000
00000000
00000000
00000000
00000000
00000000
00000000
00000000
00000000
00000000
00000000
00000000
00000000
00000000
00000000
00000000
01100000
00000000
00000000
00000000
00000000
00000000
00000000
00000000
,
00000000
00000000
00011000
00000000
00000000
00000000
00000100
00000000
00001000
00000000
00000010
00000000
00000100
00000001
00000100
00000001
,
00001000
00000100
00000010
00000001
00000100
00000000
00000000
00000000
00000010
00010000
00000100
00010000
00001000
00000000
00100000
00001000
,
01000000
00001000
00010000
00000000
00000000
00000000
00100000
00000000
10000000
00000000
01000000
00000000
00010000
00000000
00001000
00010000
,
00001000
00000000
00000010
00000000
00000110
00000000
00000000
00000000
00000100
00001000
00000001
00001000
00000010
00000000
00000100
00000000
,
00001000
00011000
00000000
00010000
00100000
10000000
01000000
00010000
,
00001000
00010000
00011000
00000000
00000100
00001000
00000000
00000010
,
00010000
00000000
00011000
00000000
00000000
00000000
00001000
00000000
00100000
00000000
00000000
00000000
01000000
10000000
00010000
01000000
,
00001000
00010000
00001000
00010000
00000100
00000000
00000000
00000000
00001000
00000000
00000001
00000000
00000000
00000000
00000101
00000000
,
00000000
00001010
00000000
00000010
00010000
00001000
00100000
00010000
,
00100000
01000000
01100000
00000000
10000000
00010000
00000000
01001000
,
00000000
00000000
00010100
00000000
00000000
00000000
00001000
00000000
00001001
00000000
00000000
00000000
00000001
00000000
00000100
00000010
,
00001000
00000000
00000001
00000000
00001001
00000000
00000000
00000000
00000001
00000010
00000100
00001000
00000100
00000000
00010000
00000000
,
00001000
00011000
00000000
01000000
10000000
01000000
00010000
00000000
,
00100000
00000000
01000000
10000000
00010000
00000000
00000000
00000000
01000000
00000000
01001000
00000000
00000000
00000000
00010100
00000000
,
00000000
00000000
00011000
00000000
00000000
00000000
00000010
00000000
00000110
00000000
00000000
00000000
00000100
00001000
00000001
00001000
,
00000010
00010000
00001000
00010000
00200000
00000000
00000000
00000000
00000000
00000000
00000000
00000000
10000000
00000000
00000000
00000000
,
00000000
00000000
00000000
00320000
,
00000000
00032000
00000000
01000000
,
00000000
00003020
00000000
00000100
,
00000000
00000032
00000000
00001000
,
00000000
00000000
00000000
00000203
,
00000000
00000000
00000000
00000000
00002300
00000000
00000000
00000000
00013000
00001000
00010000
00001000
01000000
00010000
01000000
00010000
,
10000000
01000000
00100000
00010000
01000000
00000000
00000000
00011000
00000000
00000000
00000100
00000000
00000000
00011000
00000000
00000000
,
00100000
00000000
00001000
00000000
00010000
00000010
00010000
00000010
00001000
00000000
00000100
00010000
00000100
00010000
00001000
00000000
,
01000000
00010000
01000000
00010000
00100000
00000000
01000000
10000000
01000000
10000000
00010000
00000000
01000000
00001000
00010000
00000010
,
00001000
00000010
00000100
00000001
00000010
00000100
00001000
00000100
00010000
00000000
00001000
01000000
00010000
01000000
00100000
00000000
,
10000000
01000000
00100000
00010000
00100000
00000000
00001000
00010000
00000010
00001000
00000010
00000000
00000100
00000001
00001000
00000001
,
00000010
00000100
00001000
00000100
00010000
00001000
00010000
00001000
01000000
00010000
10000000
01000000
00100000
00010000
00100000
00010000
,
01000000
00001000
00010000
00000000
00000100
00001000
00000100
00001000
00000001
00000100
00000010
00001000
00000010
00010000
00000010
00010000
,
00001000
00100000
00010000
00000000
01000000
00100000
10000000
00010000
10000000
01000000
00100000
00010000
00100000
00001000
00010000
00000010
,
00001000
00000000
00000000
00000100
00000000
00000000
00000010
00000000
00000000
00000000
00000000
00000000
00000100
00000000
00000000
00000000
00010000
00000000
00000000
00000000
00001000
00000000
00000000
00000000
01000000
00000000
00000000
00000000
00001000
00000000
00000000
00000000
00010000
00000000
00000000
00000000
00000010
00000000
00000000
00000000
00010000
00000000
00000000
00000000
00001000
00000000
00000000
00000000
,
00100000
00000000
00001000
00000000
00010000
00000000
00100000
00000000
00000000
00000000
00000000
00000000
10000000
00000000
00000000
00010000
00000000
00000000
00200000
00000000
00000000
00000000
00000000
00000000
,
10000000
01000000
00010000
00001000
,
00010000
00000000
00000000
00000000
01300000
00000000
00100000
00000000
00010000
00000000
00100000
00000000
00001000
00010000
00001000
00010000
,
00000010
00001000
00000001
00000000
00000000
00000000
00000010
00000000
00000020
00000000
00000000
00000000
00000000
00000000
00000000
00000000
,
00000000
00000000
00000130
00000000
00001000
00001001
00000000
00011000
,
00000000
00000000
10010000
00000000
00000000
00000000
10000000
00000000
00100000
00000000
00100000
00000000
01000000
00010000
10000000
00010000
,
00200000
00000000
00000000
00000000
01300000
00000000
00000000
00000000
00010000
00001000
00010000
00000100
00001000
00000000
00000001
00000100
,
00000010
00001000
00000010
00000000
00000000
00000000
00000100
00000000
00001000
00000000
00010000
00000000
00001000
00000000
00100000
00010000
,
10000000
00000000
00100000
00000000
10100000
00000000
00000000
00000000
10000000
01000000
00100000
00010000
00100000
00000000
00001000
00000000
,
00010000
00011000
00000000
00000100
00001000
00000010
00010000
00001000
,
00000010
00000100
00000110
00000000
00000010
00001001
00000000
00011000
,
00000000
00000000
00000000
01000000
00000000
00000000
00010000
00000000
00100000
00000000
01000000
00000000
10000000
00000000
00100000
00000000
01000000
00000000
00010000
00000000
00100000
00000000
00001000
00000000
,
00010000
00000000
00011000
00000000
00000010
00001010
00000000
00010100
,
00000000
01001000
00000000
10000000
00010000
00010000
00100000
00100000
,
01000000
00010000
01000000
00010000
00001000
00000000
00000000
00000000
00000100
00000000
00000001
00000000
00000100
00000000
00001000
00000000
,
00000000
00000000
00010000
00000000
01000000
00000000
10000000
00000000
01000000
00000000
00000000
00000000
00100000
00000000
00001000
00010000
,
00000100
00001000
00000100
00000010
00000001
00000000
00000000
00000000
00000100
00001000
00010000
00001000
00100000
00000000
00010000
00000000
,
10000000
10100000
00000000
00100000
00010000
00000000
00001000
00000010
,
00000100
00000000
00001000
00000001
00000100
00000000
00000000
00000000
00001000
00000000
00011000
00000000
00000000
00000000
01100000
00000000
,
00000000
00000000
10010000
00000000
00000000
00000000
00100000
00000000
00011000
00000000
00000000
00000000
00000100
00001000
00000100
00010000
,
00001000
01000000
00010000
01000000
00100000
00000000
00100000
00000000
10000000
01000000
00100000
00010000
00100000
00001000
00010000
00001000
,
00010000
00000010
00001000
00000000
00000000
00000000
00000100
00000000
00000110
00000000
00000000
00000000
00000001
00000000
00000100
00001000
,
00010000
00000000
00100000
00010000
00001000
00000010
00001000
00010000
,
01000000
00000000
10000000
00000000
00010000
10000000
00010000
10000000
00010000
01000000
00010000
01000000
00001000
00010000
00001000
00010000
,
00000100
00001000
00000100
00001000
00000002
00000000
00000000
00000000
00000000
00000000
00000000
00000000
00000000
00000000
00000000
00000000
,
00000000
00000003
00000000
00000000
;

//--------------- dance-double - forcednature ----------------
#NOTEDATA:;
#STEPSTYPE:dance-double;
#DESCRIPTION:forcednature;
#CREDIT:forcednature;
#DIFFICULTY:Challenge;
#METER:19;
#RADARVALUES:0,0,0,0,0;
#NOTES:
00000000
00000000
00000000
00000000
,
00000000
00000000
00000000
00000000
,
00000000
00000000
00000000
00000000
,
00000000
00000000
00000000
00000000
,
00000000
00000000
00000000
00000000
,
00001000
01001000
00000000
00010100
00000000
00010000
00001000
00011000
,
00000000
00000000
00001000
01000000
00001000
00000000
00000000
00000000
00010000
00000000
00000000
00000000
00000000
00000000
00000000
00000000
,
00100000
01100000
00000000
10010000
00000000
10000000
01000000
01100000
,
00000000
00000000
00010000
10000000
00010000
00000000
00000000
00000000
01001000
00000000
00000000
00000000
00010100
00000000
00000000
00000000
,
00011000
00000000
00001000
00000100
00000001
00000010
00010000
00000010
,
00000100
00010000
00001000
01000000
00100000
00001000
00100000
10000000
,
00010000
00000000
10000000
01000000
00010000
00001000
00000100
00000001
,
00000010
00010000
00000010
00000100
00001000
00000001
00000100
00001000
,
00010000
00000000
00100000
01000000
00010000
00000000
10000000
01000000
00100000
00010000
00000000
00100000
00001000
00000000
00010000
00000010
,
00001000
00000000
00000100
00000001
00000100
00000000
00000010
00000001
00001000
00000010
00000000
00000100
00001000
00000000
00010000
00100000
,
01000000
00001000
01000000
00001000
01000000
00001000
01000000
00001000
00010000
00000100
00010000
00000100
00010000
00000100
00010000
00000100
,
00010000
00001000
01000000
00010000
00100000
00001000
00010000
00000010
00001000
00000100
00010000
00001000
01000000
00010000
00100000
01000000
,
10000000
00000000
00000000
00000000
00100000
01000000
00010000
01000000
00001000
00010000
00000100
00001000
00000100
00000010
00000001
00001000
,
00000001
00000100
00001000
00010000
01000000
10000000
00100000
00010000
00001000
00000010
00001000
00010000
,
01000000
00000000
10000000
10000000
00000000
00100000
00000000
00011000
,
00000000
00000010
00010000
00010000
00001000
00001000
00000010
00000010
,
00000001
00000000
00000000
00000000
00000100
00001000
00010000
00001000
00100000
00000000
01000000
00010000
00001000
00010000
00000010
00000000
,
00000000
00000100
00000100
00001000
00001000
00010000
00010000
00100000
,
10000000
00000000
00000000
00000000
01000000
00010000
00001000
00010000
00001000
00000000
00000100
00000000
00000001
00000000
00000100
00000000
,
00000000
00000010
00010000
00010000
00001000
00001000
00100000
00100000
,
01000000
00000000
10000000
00100000
00000000
00010000
00001000
00000020
,
00000000
00000000
00000000
00000130
00001000
00000001
00000100
00001000
,
00010000
00000000
00100000
10000000
00000000
01000000
00000000
00010000
,
00000000
00001000
00000010
00000010
00000100
00000100
00001000
00001000
,
00000002
00000100
00000023
00002030
,
00203000
00000000
00010000
02300000
10000000
00000000
00010000
00000000
,
03002000
00000000
00000100
00000000
00013000
00001000
00000010
00000200
,
00000001
00000000
00001000
00000000
00020300
00000000
00031000
02000000
,
10000000
00010000
00001000
00010000
,
00200000
00000000
00000000
03300000
,
10000000
00000000
01000000
00100000
00010000
00000000
01000000
00000000
00001000
00010000
00000000
00010000
00000100
00000000
00001000
00000000
,
00000001
00000000
00000100
00000010
00001000
00000000
00000100
00000000
00010000
00001000
00000000
00001000
01000000
00000000
00100000
00000000
,
10000000
00000000
01000000
00010000
00001000
00000000
00000010
00000000
00000100
00001000
00000000
00001000
00000001
00000000
00000100
00000000
,
00001000
00000000
00010000
00100000
01000000
00000000
00010000
00000000
10000000
01000000
00000000
01000000
00010000
00000000
00001000
00000000
,
00000010
00000000
00000100
00001000
00000100
00010000
00001000
00100000
00010000
00000000
01000000
00010000
01000000
00001000
00010000
00000010
,
00001000
00000000
00000100
00001000
00000100
00010000
00001000
00100000
00010000
00000000
01000000
00001000
00010000
00000010
00010000
00001000
,
00100000
00010000
01000000
00001000
00010000
00000100
00001000
00000010
00000100
00001000
00010000
00100000
10000000
01000000
00010000
00001000
,
00000020
00000030
00000000
00000000
00000000
00000000
00000000
00000000
00000000
00000000
00000000
00000000
00000000
00000000
00000000
00000000
00000110
00000000
00000000
00000000
00000000
00000000
00000000
00000000
00000000
00000000
00000000
00000000
00000000
00000000
00000000
00000000
00000101
00000000
00000000
00000000
00000000
00000000
00000000
00000000
00001100
00000000
00000000
00000000
00000000
00000000
00000000
00000000
00000000
00000000
00000000
00000000
00000000
00000000
00000000
00000000
00011000
00000000
00000000
00000000
00000000
00000000
00000000
00000000
,
00000000
00000000
01010000
00000000
00000000
00000000
10000000
00000000
00100000
00000000
00010000
00000000
00001000
00010000
00001000
00000010
,
00000100
00001000
00000001
00000100
00001000
00000000
00000000
00000000
00010000
00100000
10000000
00010000
10000000
00000000
01000000
00010000
,
00001000
00000000
00000000
00000010
00000000
00000000
00001000
00000000
00000000
00000000
00000000
00000000
00000000
00000000
00000000
00000000
00000000
00000000
00010000
00000000
00000000
00000000
00000000
00000000
00001000
00000000
00000000
00000000
00000000
00000000
00001000
00000000
00000000
00000000
00000000
00000000
00000100
00000000
00000000
00000000
00000000
00000000
00000001
00000000
00001000
00000000
00000001
00000000
,
00000010
00000000
00000100
00000000
00000110
00000000
00000000
00000000
00000010
00001000
00010000
00001000
00100000
00000000
00010000
00000000
,
10000000
01100000
00000000
10000000
00010000
00010000
00001000
00001000
,
00000001
00000001
00000110
00000000
00000001
00000101
00000000
00001000
,
00000010
00000000
00011000
00000000
00000000
00000000
01100000
00000000
01100000
00000000
00000000
00000000
10000000
01000000
00100000
00010000
,
00001000
00000100
00000010
00000001
00001000
00000000
00000000
00000000
00000010
00000000
00011000
00000000
00000000
00000000
01100000
00000000
,
00000000
00011000
00000000
00000100
00001000
00001000
00000010
00000010
,
00000100
00000100
00011000
00000000
01000000
10100000
00000000
00101000
,
00000000
00000000
00010010
00000000
00000000
00000000
00000100
00000000
00000110
00000000
00000000
00000000
00000001
00000000
00000100
00000010
,
00000100
00001000
00010000
00001000
00100000
00000000
00000000
00000000
01000000
00010000
00001000
00010000
00000010
00000000
00001000
00000000
,
00000100
00000110
00000000
00000001
00001000
00010000
10000000
00000000
,
00100000
00000000
01000000
00010000
00100000
00000000
00000000
00000000
01000000
00000000
01100000
00000000
00000000
00000000
00011000
00000000
,
00000000
00000000
00000110
00000000
00000000
00000000
00000010
00000000
00001001
00000000
00000000
00000000
00000001
00000100
00001000
00010000
,
00001000
00010000
01000000
10000000
00100000
00000000
10000000
00000000
01000000
00000000
00010000
00000000
00000000
00000000
00001000
00000000
,
00000100
00000001
00000000
00000010
00000100
00010000
00001000
00000100
,
00000001
00000010
00000100
00010000
00001000
00100000
00000000
01000000
,
00010000
00001000
00000000
00000100
00001000
00010000
00100000
10000000
,
00010000
10000000
01000000
00010000
00001000
00000010
00000000
00000100
,
00010000
00000010
00000000
00000100
00001000
00010000
00001000
00100000
,
00010000
00000000
01000000
00000000
01100000
00000000
00000000
00000000
00100000
10000000
00010000
10000000
01000000
00100000
00010000
00100000
,
00001000
00010000
00000010
00001000
00000010
00000000
00000000
00000110
00000000
00000000
00001001
00000000
00000000
00010100
00000000
00000000
,
01001000
00000000
00011000
00000000
00001000
00010000
00001000
00010000
00100000
00000000
01000000
00100000
10000000
00100000
01000000
00000000
,
00010000
00100000
00001000
00010000
00001000
00000000
00000010
00000100
00001000
00000100
00000010
00000000
00000001
00000100
00000010
00000100
,
00001000
00010000
00100000
01000000
00100000
10000000
00010000
10000000
01000000
00000000
00010000
00001000
00010000
00000100
00001000
00000000
,
00000010
00010000
00001000
00000010
00000100
00000000
00001000
00000001
00000100
00001000
00010000
00000000
00100000
10000000
00010000
10000000
,
01000000
00010000
00001000
00000010
00000100
00010000
00001000
00000100
00001000
00010000
00100000
00010000
00001000
00000010
00001000
00010000
,
00001000
00010000
01000000
10000000
00010000
01000000
10000000
01000000
00010000
00100000
00001000
00010000
00000010
00001000
00000100
00000001
,
00000100
00000010
00000001
00000100
00000010
00000100
00001000
00010000
00000100
00001000
00010000
00100000
00001000
00010000
00100000
01000000
,
00010000
00000000
00000000
00100000
00000000
00000000
01000000
00000000
00000000
10000000
00000000
00000000
00100000
00000000
00000000
00000000
00010000
00000000
00000000
00000000
00001000
00000000
00000000
00000000
00000010
00000000
00000000
00000000
00001000
00000000
00000000
00000000
00010000
00000000
00000000
00000000
01000000
00000000
00000000
00000000
00010000
00000000
00000000
00000000
00001000
00000000
00000000
00000000
,
00000100
00000000
00001000
00000000
00010000
00000000
00011000
00000000
00000000
00000000
00000000
00000000
01000000
00000000
00000000
00001000
00000000
00000000
00020000
00000000
00000000
00000000
00000000
00000000
,
01000000
00000010
01000000
00000010
,
01030000
00000000
00000000
00000000
00010000
00000000
00001000
00000000
00000010
00000000
00000001
00000000
00000010
00000100
00010000
00001000
,
01000000
00010000
00100000
00000000
00000000
00000000
01000000
00000000
02200000
00000000
00000000
00000000
00000000
00000000
00000000
00000000
,
03300000
00000000
10010000
00000000
10000000
01000000
00000000
00001000
,
00000000
00000000
00000100
00000000
00000000
00000000
00000010
00000000
00000001
00000000
00000001
00000000
00000100
00001000
00010000
00001000
,
00100000
00000000
00000000
00000000
01100000
00000000
00000000
00000000
01000000
10000000
00010000
10000000
00100000
00000000
00010000
00001000
,
00010000
00000000
00000000
00000100
00000000
00000000
00001000
00000000
00000000
00000000
00000000
00000000
00000000
00000000
00000000
00000000
00000000
00000000
00000010
00000000
00000000
00000000
00000000
00000000
00010000
00000000
00000000
00000000
00000000
00000000
00010000
00000000
00000000
00000000
00000000
00000000
00100000
00000000
00000000
00000000
00000000
00000000
10000000
00000000
00010000
00000000
10000000
00000000
,
00010000
00000000
00100000
00000000
01100000
00000000
00000000
00000000
01000000
00010000
00001000
00010000
00000010
00000000
00000100
00000000
,
00000001
00001001
00000000
00001000
00000100
00000100
00010000
00010000
,
00100000
00100000
01100000
00000000
10000000
00010000
00000000
00001000
,
00000001
00000000
00000000
00000100
00000000
00000000
00000010
00000000
00001000
00000000
00010000
00000000
01000000
00000000
00001000
00000000
00010000
00000000
00000100
00000000
00001000
00000000
00010000
00000000
,
00100000
00000000
01100000
00000000
10000000
00010000
00000000
00001100
,
00000000
00000011
00000000
00000001
00000100
00001000
00010000
00001000
,
00100000
00010000
10000000
00010000
01000000
00000000
00000000
00000000
00100000
00000000
10000000
00000000
01000000
00000000
00010000
00000000
,
00000000
00000000
00000000
00001000
00000000
00000000
00000010
00000000
00000000
00000001
00001000
00000001
00000100
00000000
00000000
00001000
00000000
00000000
00010000
00000000
00000000
00100000
10000000
00010000
,
10000000
01000000
00100000
00010000
01000000
00000000
00000000
00000000
00001000
00010000
00001000
00000010
00000100
00000000
00001000
00000000
,
00000001
00000000
00001001
00000000
00000000
00000000
00000001
00000000
00000100
00000000
00001000
00010000
00100000
00000000
01000000
00000000
,
00010000
00000000
10000000
01000000
00010000
00000000
00001000
00000000
00010000
00000000
00010100
00000000
00000000
00000000
00001000
00000000
,
01000000
00000000
01001000
00000000
00000000
00000000
00100000
00000000
01100000
00000000
00000000
00000000
10000000
01000000
00010000
00001000
,
00000100
00000001
00000010
00000100
00001000
00000000
00000001
00000000
00000100
00001000
00010000
00001000
00100000
00010000
10000000
00010000
,
01000000
00100000
10000000
00000000
00000000
00000000
01000000
00000000
01100000
00000000
00000000
00000000
10000000
00000000
00100000
00010000
,
00001000
00000000
00000010
00000100
00001000
00000100
00000100
00000010
,
00000001
00000000
00001000
00000000
00000001
00000010
00000100
00001000
00000001
00000100
00001000
00010000
01000000
10000000
00100000
01000000
,
10000000
01000000
00010000
00100000
02200000
00000000
00000000
00000000
00000000
00000000
00000000
00000000
00000000
00000000
00000000
00000000
,
00000000
03300000
00000000
00000000
;
