#VERSION:0.83;
#TITLE:AIR RAID FROM THA UNDAGROUND;
#SUBTITLE:;
#ARTIST:GUHROOVY;
#TITLETRANSLIT:;
#SUBTITLETRANSLIT:;
#ARTISTTRANSLIT:;
#GENRE:SPEEDCORE;
#CREDIT:;
#MUSIC:AIR RAID FROM THA UNDAGROUND.ogg;
#BANNER:AIR RAID FROM THA UNDAGROUND.png;
#BACKGROUND:AIR RAID FROM THA UNDAGROUND-bg.png;
#CDTITLE:./CDTitles/bm IIDX 17 SIRIUS.png;
#SAMPLESTART:96.296;
#SAMPLELENGTH:15.000;
#SELECTABLE:YES;
#OFFSET:0.996;
#BPMS:0.000=180.000;
#STOPS:63.500=1.333
,124.000=1.000
,281.000=1.000
;
#TIMESIGNATURES:0.000=4=4,
124.000=1=4,
125.000=4=4,
280.000=1=4,
282.000=4=4
;
#BGCHANGES:0.000=AIR RAID FROM THA UNDAGROUND.mp4=1.000=0=0=0=StretchNoLoop====,
99999.000=-nosongbg-=1.000=0=0=0=StretchNoLoop====
;
#FGCHANGES:;

//--------------- dance-single - forcednature ----------------
#NOTEDATA:;
#STEPSTYPE:dance-single;
#DESCRIPTION:forcednature;
#DIFFICULTY:Beginner;
#METER:3;
#RADARVALUES:0,0,0,0,0;
#CREDIT:forcednature;
#NOTES:
0000
0000
0000
0000
,
0000
0000
0000
0000
,
0000
0000
0000
0000
,
0000
0000
0000
0000
,
0000
0000
0000
0000
,
0000
0000
0000
0000
,
0000
0000
0000
0000
,
0000
0000
0000
0000
,
0000
0000
0000
0000
,
1000
0000
0000
0000
,
0000
0000
0000
0000
,
0001
0000
0000
0000
,
0000
0000
0000
0000
,
0100
0000
0000
0000
,
0000
0000
0000
0000
,
0010
0000
0000
0000
,
1000
0000
0000
0000
,
0100
0000
0000
0000
,
1000
0000
0000
0000
,
0001
0000
0000
0000
,
0100
0000
0000
0000
,
0010
0000
0000
0000
,
1000
0000
0001
0000
,
0010
0000
0000
0000
,
0100
0000
0000
0000
,
1000
0000
0000
0000
,
0001
0000
0000
0000
,
0100
0000
0000
0000
,
0010
0000
0000
0000
,
1000
0000
0000
0000
,
0001
0000
1000
0000
,
0010
0100
0000
0100
,
0000
0100
0000
0000
,
0000
0001
0000
0001
,
0000
0001
0000
0000
,
0000
1000
0000
1000
,
0000
1000
0000
0000
,
0000
0100
0000
0100
,
0000
0110
0000
0000
,
0000
0010
0000
0000
,
0000
0001
0000
0000
,
0000
0100
0000
0000
,
0000
0001
0000
0000
,
0000
1000
0000
0000
,
0000
0010
0000
0000
,
0000
1000
0000
0000
,
0000
0100
0000
0000
,
0000
0010
0000
0000
,
0000
0001
0000
0000
,
0000
0100
0000
0000
,
0000
0010
0000
0000
,
0000
1000
0000
0000
,
0000
0001
0000
0000
,
0000
0010
0000
0000
,
0000
0100
0000
0000
,
0000
1000
0000
0000
,
0000
0000
0000
0000
,
0000
0010
0000
0000
,
0000
0100
0000
0000
,
0000
0001
0000
0000
,
0000
0000
0000
0000
,
0000
1000
0000
0000
,
0000
0100
0000
0000
,
0000
0110
0000
0000
,
0000
0000
0000
0000
,
0000
1001
0000
0000
,
0000
0000
0000
0000
,
0000
0110
0000
0000
,
0000
0000
0000
0000
,
0000
1001
0000
0000
,
0000
0000
0001
0000
,
0000
0000
0100
0000
,
0000
0000
0010
0000
,
0000
0000
1000
0000
,
0000
0000
0100
0000
,
0000
0000
1000
0000
,
0000
0000
0001
0000
,
0000
0000
0100
0000
,
0000
0000
0010
0000
,
0000
0000
1000
0000
,
0000
0000
0001
0000
,
0000
0000
0010
0000
,
0000
0000
0001
0000
,
0000
0000
0100
0000
,
0000
0000
0010
0000
,
0010
0000
1000
0000
,
0001
0000
1001
0000
;

//--------------- dance-single - forcednature ----------------
#NOTEDATA:;
#STEPSTYPE:dance-single;
#DESCRIPTION:forcednature;
#DIFFICULTY:Easy;
#METER:8;
#RADARVALUES:0,0,0,0,0;
#CREDIT:forcednature;
#NOTES:
0000
0000
0000
0000
,
0000
0000
0000
0000
,
0000
0000
0000
0000
,
0000
0000
0000
0000
,
0000
0000
0000
0000
,
0000
0000
0000
0000
,
0000
0000
0000
0000
,
0000
0000
0000
0000
,
0000
0000
0000
0000
,
0002
0000
0000
0000
,
0000
0000
0000
0000
,
0203
0000
0000
0000
,
0000
0000
0000
0000
,
0320
0000
0000
0000
,
0000
0000
0000
0000
,
2030
0000
0000
0000
0000
0000
0000
0000
0000
0000
0000
0000
0000
0000
0000
0000
0000
0000
0000
0000
0000
0000
0000
0000
0000
0000
0000
0000
0000
3000
0000
0000
,
0100
0000
0010
0001
,
0010
0000
0100
1000
,
0001
0000
0100
0010
,
0100
0000
0001
1000
,
0010
0000
1000
0100
,
1000
0000
0010
0100
,
0002
0003
0020
0030
,
0100
1000
2200
3300
,
1000
0010
0100
0000
,
0001
1000
0100
0010
,
0001
1000
0010
0000
,
0100
0001
1000
0001
,
0010
0100
1000
0000
,
0010
0100
0001
0010
,
0001
0001
1000
0010
,
0200
0300
0000
0000
0000
0000
0000
0000
0001
0000
0000
0000
0000
0000
0000
0000
0001
0000
0000
0000
0000
0000
0000
0000
1000
0000
0000
0000
0000
0000
0000
0000
,
0001
1000
1000
0010
,
0100
0001
0001
1000
,
0001
1000
1000
0100
,
0010
0010
0010
0100
,
0010
0001
1000
0010
,
0100
0001
0001
1000
,
0100
0220
0000
0000
,
0330
0010
0001
0000
,
0100
0001
0010
0000
,
0001
1000
0010
0000
,
1000
0100
0010
0000
,
0100
1000
0001
0000
,
0100
0001
0010
0000
,
0010
0100
1000
0000
,
0010
0100
0001
0000
,
1000
1001
0001
0000
,
0010
0100
1000
0100
,
0010
0001
1000
0000
,
0010
0100
0001
0100
,
0010
1000
0001
0000
,
0001
0010
0100
1000
,
0010
0100
0001
0000
,
0001
0020
0000
0000
,
0030
0100
1000
0002
,
0000
0000
0000
0103
,
0010
1000
0000
0001
,
0000
0020
0000
0000
0000
0000
0000
0000
,
0030
0100
1000
0001
,
0200
0000
0000
0310
,
1000
0001
0010
0001
,
1000
0010
0100
0001
,
0000
2002
0000
0000
,
0000
0000
0000
0000
,
3003
0220
0000
0000
,
0000
0000
0000
0000
,
0330
2002
0000
0000
,
0000
0000
0000
0000
,
3003
0220
0000
0000
,
0000
0000
0000
0000
0000
0000
0000
0000
0000
0330
0000
0000
0000
0000
0000
0000
1000
0000
0000
0000
0000
0000
0000
0000
0100
0000
0000
0000
0010
0000
0000
0000
,
0100
0000
1000
0000
0001
0000
0100
0010
,
0100
0000
0001
0000
1000
0000
0001
0010
,
0001
0000
0100
0000
0010
0000
1000
0010
,
1000
0000
0000
0000
0001
0000
0010
0100
,
0010
0000
0001
0000
1000
0000
0010
0100
,
0010
0000
1000
0000
0001
0000
0100
0001
,
0100
0000
0010
0000
1000
0000
0001
0001
,
0002
0000
0000
0000
0013
0000
0100
1000
,
0100
0000
0010
0000
0001
0000
1000
0010
,
1000
0000
0001
0000
0010
0000
0100
1000
,
0100
0010
0002
0100
,
1003
0000
0000
0000
0001
0000
1000
0010
,
1000
0000
0001
0000
0010
0000
0100
0010
,
0100
1000
0002
0100
,
1000
0000
0013
0000
0001
0100
0001
0000
,
1000
0100
1000
0000
2002
0000
3003
0000
;

//--------------- dance-single - forcednature ----------------
#NOTEDATA:;
#STEPSTYPE:dance-single;
#DESCRIPTION:forcednature;
#DIFFICULTY:Medium;
#METER:12;
#RADARVALUES:0,0,0,0,0;
#CREDIT:forcednature;
#NOTES:
0000
0000
0000
0000
,
0000
0000
0000
0000
,
0000
0000
0000
0000
,
0000
0000
0000
0000
,
0000
0000
0000
0000
,
0000
0000
0000
0000
,
0000
0000
0000
0000
,
0000
0000
0000
0000
,
0000
0000
0000
0000
,
1000
0100
0010
0002
0000
0000
0000
0000
,
0000
0000
0000
0003
,
1000
0010
0100
0002
0000
0000
0000
0000
,
0000
0000
0000
0003
,
0010
0100
1000
0020
0000
0000
0000
0000
,
0000
0000
0000
0030
,
0100
0000
0000
0000
0001
0000
0000
0000
0010
0000
0000
0000
0002
0000
0000
0000
0000
0000
0000
0000
0000
0000
0000
0000
0000
0000
0000
0000
0000
0003
0000
0000
,
1000
0010
1000
0000
0001
0010
0100
0010
,
0001
1000
0010
0000
0100
0001
1000
1000
,
0100
0010
0001
0000
1000
0010
0100
0001
,
0010
0001
0100
0000
0010
1000
0100
0100
,
0010
0001
1000
0000
0010
0100
0001
0010
,
0001
1000
0010
0000
0100
0001
1000
1000
,
0200
0300
0020
0030
,
1001
0110
2002
3003
,
0001
0100
0010
1000
0100
0010
0100
0000
,
1000
0001
0010
0001
0100
0010
2000
0000
,
3100
0010
0100
1000
0001
0100
0010
0000
,
1000
0001
0010
0001
0100
0100
0100
0000
,
0010
1000
0001
0010
0100
0010
0001
0000
,
1000
0010
1000
0100
0010
0001
0100
0000
,
0110
1010
0011
1001
,
0220
0000
0000
0330
0000
0000
0000
0000
0000
0000
0000
0000
0000
0000
0000
0000
0000
0000
0000
0000
0000
0000
0000
0000
0001
0000
0000
0000
0000
0000
0000
0000
0000
0000
0000
0000
0000
0000
0000
0000
0001
0000
0000
0000
0000
0000
0000
0000
0100
0000
0000
0000
0000
0000
0000
0000
0000
0000
0000
0000
0000
0000
0000
0000
0100
0000
0000
0000
0000
0000
0000
0000
0010
0000
0000
0000
0000
0000
0000
0000
0000
0000
0000
0000
0000
0000
0000
0000
0010
0000
0000
0000
0000
0000
0000
0000
,
1000
0000
1000
0001
0000
0001
0100
0000
0100
0010
1000
0010
,
1000
0000
0000
1000
0000
1000
0100
0000
0100
0010
0000
0010
,
0001
0000
0001
1000
0000
1000
0100
0000
0100
0010
0001
0010
,
0001
0000
0000
0001
0000
0001
0100
0000
0100
0010
0000
0010
,
1000
0000
1000
0100
0000
0100
0010
0000
0010
0001
1000
0001
,
1000
0000
0000
1000
0000
1000
0100
0000
0100
0010
0000
0010
,
0001
0000
0001
0200
0000
0000
0000
0000
0000
0000
0000
0000
,
0300
0000
0110
0000
1000
0001
0010
0000
,
0100
0000
0010
0000
0001
0200
0300
0001
,
0200
0300
0010
0000
1000
0001
0010
0001
,
0100
0000
0010
0000
1000
0100
0000
0010
,
0100
0000
1000
0000
0001
0100
0010
1000
,
0001
0000
0010
0000
0100
2000
3000
0100
,
2000
3000
0010
0000
0100
0001
1000
0001
,
0010
0000
0100
0000
1000
0001
0000
0100
,
0010
0000
0110
0000
0100
0001
1000
0000
,
0100
0010
0001
0000
1000
0010
0100
0000
,
0001
0000
1000
0000
0100
0010
0100
0000
,
1000
0001
0100
0000
0010
1000
0001
0000
,
0010
0000
0100
0000
1000
0001
0100
0000
,
0010
1000
0001
0000
0010
0100
0010
0000
,
0001
0000
1000
0000
0010
0100
0001
0000
,
1000
0220
0000
0000
,
0330
0000
1000
0000
0001
0100
0020
0000
,
1000
1000
1000
0230
,
0301
0000
1000
0000
0100
0010
0001
0000
,
1000
0020
1000
0000
1000
0000
0130
0010
,
1000
0000
0001
0000
0010
0100
0010
0000
,
0002
0100
0100
2003
,
3010
0000
1000
0000
0100
0010
0001
0000
,
1000
1000
0010
0000
0100
0001
0010
0000
,
0100
0220
0000
0000
,
0000
0000
0000
0000
0000
0000
0000
0330
,
0000
0010
2002
0000
0000
0000
0000
0000
,
0000
0000
0000
3003
,
1000
0001
0220
0000
0000
0000
0000
0000
,
0000
0000
0000
0330
,
0001
1000
2002
0000
0000
0000
0000
0000
,
0000
0000
0000
0000
0000
0000
0000
0000
0000
3003
0000
0000
0000
0000
0000
0000
1000
0000
0000
0000
0100
0000
0000
0000
0010
0000
0000
0000
0100
0000
0000
0000
,
1000
0010
0001
0010
0100
0001
0010
0001
,
0100
1000
0100
0001
0010
0100
1000
0001
,
0100
0010
1000
0001
0010
0100
0001
0100
,
2000
0000
3010
0010
0100
1000
0100
0001
,
1000
1000
1000
0010
0100
1000
0100
0001
,
0010
0010
0100
1000
0001
0100
1000
0100
,
0010
0010
1000
0001
0020
0000
0030
0000
,
0002
0203
0320
2030
3001
0010
0001
0100
,
0010
0001
0010
1000
0100
0010
1000
0010
,
0001
1000
0010
0100
1000
0100
0010
1000
,
0001
0010
0100
0001
0100
1000
0010
1000
,
0100
0000
0020
0000
0031
0100
1000
1000
,
0100
0010
1000
0001
0010
0100
0001
0001
,
0100
0010
0001
0000
1000
1000
0010
0010
,
0100
0100
0001
0001
0010
0100
1000
0001
,
0100
0010
1000
0000
2002
0000
3003
0000
;

//--------------- dance-single - forcednature ----------------
#NOTEDATA:;
#STEPSTYPE:dance-single;
#DESCRIPTION:forcednature;
#DIFFICULTY:Hard;
#METER:17;
#RADARVALUES:0,0,0,0,0;
#CREDIT:forcednature;
#NOTES:
0000
0000
0000
0000
,
0000
0000
0000
0000
,
0000
0000
0000
0000
,
0000
0000
0000
0000
,
0000
0000
0000
0000
,
0000
0000
0000
0000
,
0000
0000
0000
0000
,
0000
0000
0000
0000
,
0000
0000
0000
0000
,
0001
0001
0100
0020
0000
0000
0000
0000
,
0000
0000
0000
0000
,
1030
1000
0001
0200
0000
0000
0000
0000
,
0000
0000
0000
0000
,
0310
0010
1000
0002
0000
0000
0000
0000
,
0000
0000
0000
0000
,
0013
0000
0000
0000
0010
0000
0000
0000
0100
0000
0000
0000
2000
0000
0000
0000
0000
0000
0000
0000
0000
0000
0000
0000
0000
0000
0000
0000
0000
3000
0000
0000
,
0100
0000
1000
0000
0001
0000
0100
0010
0100
0000
0010
0000
1000
0000
0001
0000
,
0010
0000
0100
0000
0010
0000
0001
1000
0001
0000
0100
0000
0001
0000
1000
0100
,
0010
0000
0100
0000
1000
0000
0001
0100
0001
0000
1000
0000
0001
0000
0010
0000
,
0100
0000
0010
0000
0001
0000
1000
0010
1000
0000
0001
0000
0010
0100
0010
0100
,
1000
0000
0001
0000
0100
0000
0010
1000
0010
0000
0100
0000
0001
0000
0100
0000
,
0010
0000
1000
0000
0001
0000
0010
0100
0010
0000
0001
0000
1000
0000
0010
1000
,
0020
0100
1030
0000
0002
0010
1003
0001
,
0200
1000
1000
0010
0002
0000
0303
0000
,
1000
0000
0001
0000
0100
0000
0010
1000
0001
0000
0010
0000
0100
0000
0010
0000
,
0001
0000
0100
0000
0010
0000
1000
0001
0010
0000
0100
0000
2000
0000
0010
0000
,
3100
0000
1000
0000
0001
0000
0100
0010
1000
0000
0001
0000
0010
0000
0100
0000
,
0010
0000
0001
0000
1000
0000
0010
0100
0001
0000
1000
0000
0100
0010
0100
0010
,
0001
0000
1000
0000
0010
0000
0100
0001
1000
0000
0100
0000
0010
0000
1000
0000
,
0010
0000
0001
0000
1000
0000
0001
0100
0010
1000
0010
1000
0001
0000
0010
0000
,
0100
1000
0100
0000
0010
0001
0010
0000
0001
0100
0001
0100
0010
1000
0010
0000
,
0200
0000
0000
0300
0000
0000
0000
0000
0000
0000
0000
0000
0000
0000
0000
0000
0000
0000
0000
0000
0000
0000
0000
0000
0010
0000
0000
0000
0000
0000
0000
0000
0000
0000
0000
0000
0000
0000
0000
0000
0010
0000
0000
0000
0000
0000
0000
0000
1000
0000
0000
0000
0000
0000
0000
0000
0000
0000
0000
0000
0000
0000
0000
0000
0001
0000
0000
0000
0000
0000
0000
0000
0010
0000
0000
0000
0000
0000
0000
0000
0100
0000
0000
0000
0000
0000
0000
0000
0010
0000
0000
0000
0000
0000
0000
0000
,
0001
0100
0010
1000
0000
1000
0100
0000
0100
0010
1000
0010
,
0001
0000
0001
0100
0000
0100
0010
0000
0010
1000
0001
0010
,
0100
0010
0001
1000
0000
1000
0010
0000
0010
0100
1000
0100
,
0001
0010
0001
1000
0000
1000
0010
0000
0010
0100
0001
0010
,
0001
1000
0010
1000
0000
1000
0100
0000
0100
0010
0001
0100
,
1000
0100
0001
0010
0000
0010
0100
0000
0100
1000
0001
0100
,
0001
0000
0010
0000
0100
0000
2000
0000
0000
0000
0000
0000
0010
0000
0000
0000
0000
0000
0001
0000
0000
0001
0000
0000
,
3001
0000
1000
0010
0100
0001
0001
0010
,
0100
0000
1000
0000
0010
0000
0100
0000
1000
0000
0100
0001
0100
0000
0010
0000
,
0100
0001
0100
0000
0010
0000
1000
0000
0001
0000
0010
0000
0010
0000
0100
0000
,
0010
0000
0001
0000
1000
0000
0010
0000
0100
0000
0000
0100
0001
0000
0010
0000
,
0100
0010
0100
0000
1000
0000
0010
0000
0100
0000
1000
0000
1000
0000
0100
0000
,
0001
0000
0010
0000
0100
0000
1000
0000
0010
0000
0100
1000
0100
0000
0001
0000
,
0100
1000
0100
0000
0010
0000
0010
0000
1000
0000
0001
0000
0010
0000
0100
0000
,
0010
0000
0001
0000
0100
0000
0100
0000
0010
0000
0000
0010
1000
0000
0001
0000
,
0010
0100
0000
0000
1000
0000
1000
0000
0010
0000
1000
0100
1000
0000
0001
0000
,
0100
0000
0010
0000
0100
0000
0100
0000
0001
0000
0010
0100
0010
0000
0001
0000
,
0100
0000
0000
0000
0010
0000
0010
0000
1000
0000
0001
0010
0100
0000
0010
0000
,
0001
0000
1000
0000
0010
0000
0010
0000
0100
0000
0001
1000
0100
0000
0010
0000
,
0002
0000
1000
0000
0013
0000
0010
0000
0001
0000
0100
0010
1000
0000
0001
0000
,
0010
0000
0100
0000
1000
0000
1000
0000
0010
0000
0100
0001
0100
0000
0010
0000
,
1000
0000
0001
0000
0010
0000
0010
0000
0100
0000
1000
0001
1000
0000
0010
0000
,
0100
0001
0012
0000
1000
0000
0100
0100
,
0103
0000
0001
1000
0001
0010
0200
0000
,
0001
1000
0001
0320
,
0031
0000
1000
0001
1000
0000
0000
0000
0100
0000
1000
0000
0010
0000
0100
0000
,
0001
0020
0100
0100
0100
0000
1030
0010
,
0001
0010
0001
0010
0100
0000
1000
0000
0001
0000
0100
0000
0010
0000
1000
0000
,
0200
0000
0001
0000
1000
0000
0301
0100
,
0010
0001
0010
0000
0100
0000
1000
0000
0001
0000
0100
0000
0010
0000
0010
1000
,
0010
0000
0100
0000
0001
0000
0001
0000
1000
0000
0000
1000
0100
0000
0010
0000
,
0002
0000
0000
0000
0103
0000
0001
0100
0001
0000
1000
0000
0000
0000
1000
0000
,
0000
0000
0010
0000
0000
0000
0100
0001
0100
0000
0010
0000
0000
0000
0010
0000
,
1000
0000
0001
0000
1001
0000
1000
0100
1000
0000
0001
0000
0000
0000
0001
0000
,
0000
0000
0010
0000
0000
0000
0100
1000
0100
0000
0010
0000
0000
0000
0001
0000
,
0200
0000
0010
0000
0301
0000
1000
0010
1000
0000
0100
0000
0000
0000
0100
0000
,
0000
0000
1000
0000
0000
0000
0001
0010
0001
0000
0100
0000
0000
0000
0100
0000
,
0002
0000
1000
0000
0013
0000
0100
1000
0100
0000
0010
0000
0000
0000
0010
0000
,
0000
0000
0000
0000
0002
0000
0000
0000
0000
0003
0000
0000
0000
0000
0000
0000
0100
0000
0000
0000
0001
0000
1000
0000
0010
0000
0000
0000
0100
0000
0000
0000
,
0001
0010
0100
0000
1000
0001
0100
0010
1000
0000
0001
0010
0100
0000
0010
0000
,
0001
1000
0010
0000
0100
0001
1000
0001
0010
0000
0100
1000
0001
0000
0100
0000
,
0010
1000
0100
0000
0010
0001
1000
0001
0100
0000
0010
1000
0001
0000
0010
0000
,
0200
0000
0000
0000
1300
0010
1000
0010
0100
0000
0001
0010
0100
0000
0010
0000
,
0001
1000
0010
0000
1000
0001
0010
0000
0100
0000
1000
0001
0100
0000
0010
0000
,
1000
0100
0010
0000
0100
1000
0010
1000
0001
0000
0010
0100
0010
0000
0001
0000
,
1000
0010
0100
0000
0001
0100
0010
0000
2000
0000
0000
0000
3100
0010
0100
0010
,
0001
1000
0001
0100
0010
1000
0010
0100
0001
0000
1000
0100
0010
0100
1000
0000
,
0001
1000
0010
0000
0100
0001
1000
0001
0010
0000
0100
0010
0001
1000
0001
0000
,
0100
0010
1000
0010
0100
0001
1000
0001
0010
0000
0100
1000
0100
0010
0001
0000
,
1000
0010
1000
0001
0010
0000
0100
0000
1000
0010
0000
0010
0000
0010
0000
0010
,
0200
0000
0000
0000
0301
1000
0100
0010
0001
0000
0100
0001
1000
0010
1000
0000
,
0001
0010
0100
0000
0010
0001
1000
0001
0100
0000
0010
1000
0100
1000
0100
0000
,
0010
0001
1000
0000
0010
0000
0100
0000
0001
0010
0001
0010
0100
1000
0100
1000
,
0010
0100
0010
0100
0001
1000
0001
0000
1000
0100
0010
0001
1000
0100
0010
0001
,
1000
0010
0100
0001
0100
0010
1000
0001
0020
0000
0000
0000
0030
0000
0000
0000
;

//--------------- dance-double - forcednature ----------------
#NOTEDATA:;
#STEPSTYPE:dance-double;
#DESCRIPTION:forcednature;
#DIFFICULTY:Easy;
#METER:9;
#RADARVALUES:0,0,0,0,0;
#CREDIT:forcednature;
#NOTES:
00000000
00000000
00000000
00000000
,
00000000
00000000
00000000
00000000
,
00000000
00000000
00000000
00000000
,
00000000
00000000
00000000
00000000
,
00000000
00000000
00000000
00000000
,
00000000
00000000
00000000
00000000
,
00000000
00000000
00000000
00000000
,
00000000
00000000
00000000
00000000
,
00000000
00000000
00000000
00000000
,
00020000
00000000
00000000
00000000
,
00000000
00000000
00000000
00000000
,
00030200
00000000
00000000
00000000
,
00000000
00000000
00000000
00000000
,
00002300
00000000
00000000
00000000
,
00000000
00000000
00000000
00000000
,
00003002
00000000
00000000
00000000
00000000
00000000
00000000
00000000
00000000
00000000
00000000
00000000
00000000
00000000
00000000
00000000
00000000
00000000
00000000
00000000
00000000
00000000
00000000
00000000
00000000
00000000
00000000
00000000
00000000
00000003
00000000
00000000
,
00000100
00000000
00000010
00010000
,
00001000
00000000
00100000
00010000
,
10000000
00000000
00100000
01000000
,
00001000
00000000
00010000
00000100
,
00000010
00000000
00000001
00001000
,
00000010
00000000
00010000
00001000
,
00200000
00300000
02000000
03000000
,
10000000
00010000
20020000
30030000
,
00010000
01000000
00001000
00000000
,
00010000
00000100
00001000
00000001
,
00001000
00000010
00010000
00000000
,
00001000
00100000
01000000
00100000
,
00010000
10000000
00100000
00000000
,
01000000
00001000
00010000
00000100
,
00001000
00001000
00000001
00000100
,
00000020
00000030
00000000
00000000
00000000
00000000
00000000
00000000
00010000
00000000
00000000
00000000
00000000
00000000
00000000
00000000
00010000
00000000
00000000
00000000
00000000
00000000
00000000
00000000
00001000
00000000
00000000
00000000
00000000
00000000
00000000
00000000
,
00100000
00010000
00010000
01000000
,
00100000
10000000
10000000
01000000
,
00010000
00001000
00001000
00100000
,
00010000
01000000
01000000
00001000
,
00010000
00000100
00000100
00001000
,
00000010
00000100
00000100
00000001
,
00000010
00000220
00000000
00000000
,
00000330
00000100
00010000
00000000
,
00001000
01000000
00010000
00000000
,
00100000
01000000
10000000
00000000
,
00010000
01000000
00001000
00000000
,
00010000
00000100
00001000
00000000
,
00000010
00010000
00001000
00000000
,
00000010
00000100
00001000
00000000
,
00000001
00000100
00000010
00000000
,
00010000
00011000
00001000
00000000
,
00100000
00010000
01000000
00010000
,
10000000
00100000
01000000
00000000
,
00001000
00010000
00000100
00001000
,
00000100
00000010
00000001
00000000
,
00000100
00000001
00001000
00000010
,
00010000
00001000
00100000
00000000
,
01000000
20000000
00000000
00000000
,
30000000
00010000
01000000
00002000
,
00000000
00000000
00000000
00013000
,
00000100
00001000
00000000
00000001
,
00000000
00000200
00000000
00000000
00000000
00000000
00000000
00000000
,
00000300
00000010
00010000
00001000
,
00200000
00000000
00000000
01300000
,
00100000
00010000
10000000
00010000
,
01000000
00001000
00010000
00000100
,
00000000
00000220
00000000
00000000
,
00000000
00000000
00000000
00000000
,
00000330
00002002
00000000
00000000
,
00000000
00000000
00000000
00000000
,
00003003
00020200
00000000
00000000
,
00000000
00000000
00000000
00000000
,
00030300
02002000
00000000
00000000
,
00000000
00000000
00000000
00000000
00000000
00000000
00000000
00000000
00000000
03003000
00000000
00000000
00000000
00000000
00000000
00000000
01000000
00000000
00000000
00000000
00000000
00000000
00000000
00000000
00010000
00000000
00000000
00000000
10000000
00000000
00000000
00000000
,
00010000
00000000
00100000
00000000
01000000
00000000
00100000
00010000
,
00100000
00000000
00001000
00000000
00010000
00000000
00000010
00001000
,
00000010
00000000
00000100
00000000
00000001
00000000
00001000
00000100
,
00001000
00000000
00000000
00000000
00000010
00000000
00010000
00001000
,
00010000
00000000
00000100
00000000
00010000
00000000
00001000
01000000
,
00001000
00000000
00100000
00000000
00010000
00000000
10000000
00100000
,
10000000
00000000
01000000
00000000
00010000
00000000
00001000
00001000
,
00002000
00000000
00000000
00000000
00013000
00000000
00000100
00001000
,
00000100
00000000
00000010
00000000
00000001
00000000
00001000
00000010
,
00001000
00000000
00000100
00000000
00010000
00000000
00001000
01000000
,
00001000
00100000
00020000
01000000
,
10030000
00000000
00000000
00000000
00010000
00000000
00100000
00001000
,
00100000
00000000
00010000
00000000
01000000
00000000
00001000
00010000
,
00001000
00000100
00000002
00000010
,
00001000
00000000
00000103
00000000
00000001
00000010
00000001
00001000
,
00000010
00010000
00022000
00033000
;

//--------------- dance-double - forcednature ----------------
#NOTEDATA:;
#STEPSTYPE:dance-double;
#DESCRIPTION:forcednature;
#DIFFICULTY:Medium;
#METER:13;
#RADARVALUES:0,0,0,0,0;
#CREDIT:forcednature;
#NOTES:
00000000
00000000
00000000
00000000
,
00000000
00000000
00000000
00000000
,
00000000
00000000
00000000
00000000
,
00000000
00000000
00000000
00000000
,
00000000
00000000
00000000
00000000
,
00000000
00000000
00000000
00000000
,
00000000
00000000
00000000
00000000
,
00000000
00000000
00000000
00000000
,
00000000
00000000
00000000
00000000
,
00010000
00001000
01000000
00020000
00000000
00000000
00000000
00000000
,
00000000
00000000
00000000
00030000
,
00100000
01000000
10000000
00200000
00000000
00000000
00000000
00000000
,
00000000
00000000
00000000
00300000
,
01000000
00001000
00010000
00000200
00000000
00000000
00000000
00000000
,
00000000
00000000
00000000
00000300
,
00001000
00000000
00000000
00000000
00000001
00000000
00000000
00000000
00000100
00000000
00000000
00000000
00000020
00000000
00000000
00000000
00000000
00000000
00000000
00000000
00000000
00000000
00000000
00000000
00000000
00000000
00000000
00000000
00000000
00000030
00000000
00000000
,
00001000
00000100
00010000
00000000
00001000
01000000
00010000
01000000
,
00100000
10000000
00010000
00000000
00100000
01000000
00100000
00100000
,
00001000
00010000
00000010
00000000
00001000
00000100
00000010
00000100
,
00001000
00000001
00000100
00000000
00000010
00010000
00001000
00001000
,
00100000
00010000
10000000
00000000
00100000
01000000
00010000
01000000
,
00001000
00010000
00000100
00000000
00001000
00000010
00000100
00000100
,
00000002
00000003
00000020
00000030
,
00010100
00101000
02020000
03030000
,
10000000
00010000
10000000
01000000
00100000
00010000
00100000
00000000
,
00001000
00010000
00000010
00001000
00000010
00000100
00000002
00000000
,
00000013
00000100
00000010
00000100
00010000
00001000
01000000
00000000
,
00010000
00100000
00010000
01000000
00100000
00100000
00100000
00000000
,
10000000
00010000
10000000
01000000
00010000
00001000
00010000
00000000
,
00000010
00001000
00000001
00000010
00000100
00000010
00000001
00000000
,
00000101
00001010
00001100
00010100
,
00022000
00000000
00000000
00033000
00000000
00000000
00000000
00000000
00000000
00000000
00000000
00000000
00000000
00000000
00000000
00000000
00000000
00000000
00000000
00000000
00000000
00000000
00000000
00000000
01000000
00000000
00000000
00000000
00000000
00000000
00000000
00000000
00000000
00000000
00000000
00000000
00000000
00000000
00000000
00000000
01000000
00000000
00000000
00000000
00000000
00000000
00000000
00000000
00010000
00000000
00000000
00000000
00000000
00000000
00000000
00000000
00000000
00000000
00000000
00000000
00000000
00000000
00000000
00000000
00010000
00000000
00000000
00000000
00000000
00000000
00000000
00000000
10000000
00000000
00000000
00000000
00000000
00000000
00000000
00000000
00000000
00000000
00000000
00000000
00000000
00000000
00000000
00000000
10000000
00000000
00000000
00000000
00000000
00000000
00000000
00000000
,
01000000
00000000
01000000
00100000
00000000
00100000
00001000
00000000
00001000
00010000
00000010
00001000
,
00000010
00000000
00000000
00000100
00000000
00000100
00000001
00000000
00000001
00001000
00000000
00001000
,
00000100
00000000
00000100
00010000
00000000
00010000
00001000
00000000
00001000
01000000
00010000
01000000
,
00100000
00000000
00000000
10000000
00000000
10000000
00010000
00000000
00010000
00100000
00000000
00100000
,
00001000
00000000
00001000
00010000
00000000
00010000
00000010
00000000
00000010
00001000
00000001
00000010
,
00000001
00000000
00000000
00000100
00000000
00000100
00000010
00000000
00000010
00010000
00000000
00010000
,
00001000
00000000
00001000
00200000
00000000
00000000
00000000
00000000
00000000
00000000
00000000
00000000
,
00300000
00000000
01100000
00000000
01000000
10000000
00010000
00000000
,
01000000
00000000
00001000
00000000
00010000
00000200
00000300
00001000
,
00000200
00000300
00000010
00000000
00000001
00001000
00000010
00001000
,
00000100
00000000
00010000
00000000
00001000
01000000
00000000
00100000
,
01000000
00000000
00010000
00000000
10000000
01000000
00100000
00010000
,
01000000
00000000
00001000
00000000
00010000
00000020
00000030
00001000
,
00000020
00000030
00000100
00000000
00000001
00000010
00000100
00000010
,
00000001
00000000
00001000
00000000
00000010
00010000
00000000
00001000
,
00100000
00000000
01100000
00000000
01000000
10000000
00010000
00000000
,
01000000
00001000
00010000
00000000
00000100
00001000
00000010
00000000
,
00000100
00000000
00000001
00000000
00000010
00000100
00010000
00000000
,
00001000
00100000
01000000
00000000
10000000
00010000
01000000
00000000
,
00001000
00000000
00010000
00000000
00000010
00001000
00000001
00000000
,
00000010
00000100
00001000
00000000
00000010
00010000
00001000
00000000
,
01000000
00000000
00100000
00000000
00010000
00100000
10000000
00000000
,
00010000
00200000
00000000
00000000
,
00300000
00000000
00001000
00000000
00010000
00000010
00002000
00000000
,
00000100
00000100
00000100
00003020
,
00010030
00000000
00000010
00000000
00001000
00000001
00000010
00000000
,
00000100
00020000
00001000
00000000
00001000
00000000
00030010
00010000
,
00001000
00000000
00100000
00000000
00010000
01000000
00010000
00000000
,
20000000
01000000
01000000
30020000
,
00130000
00000000
00010000
00000000
01000000
00001000
00010000
00000000
,
00000100
00000100
00001000
00000000
00000001
00000100
00000010
00000000
,
00010000
00022000
00000000
00000000
,
00000000
00000000
00000000
00000000
00000000
00000000
00000000
00033000
,
00000000
01000000
02020000
00000000
00000000
00000000
00000000
00000000
,
00000000
00000000
00000000
03030000
,
00001000
00010000
00020200
00000000
00000000
00000000
00000000
00000000
,
00000000
00000000
00000000
00030300
,
00000100
00000010
00000220
00000000
00000000
00000000
00000000
00000000
,
00000000
00000000
00000000
00000000
00000000
00000000
00000000
00000000
00000000
00000330
00000000
00000000
00000000
00000000
00000000
00000000
00000010
00000000
00000000
00000000
00000001
00000000
00000000
00000000
00000100
00000000
00000000
00000000
00000001
00000000
00000000
00000000
,
00000010
00001000
00010000
00001000
01000000
00010000
00100000
00010000
,
01000000
10000000
01000000
00010000
00100000
01000000
10000000
00010000
,
01000000
00001000
00010000
00000100
00001000
00000010
00000001
00000010
,
00000200
00000000
00000301
00000001
00000010
00000100
00010000
00001000
,
00000100
00000100
00000100
00000010
00010000
00001000
01000000
00010000
,
00100000
00100000
01000000
10000000
01000000
00010000
00001000
00000100
,
00000001
00000001
00000010
00000100
00020000
00000000
00030000
00000000
,
00002000
02003000
03020000
02030000
03100000
10000000
00010000
10000000
,
01000000
00010000
00001000
00010000
00000010
00000100
00001000
00000100
,
00000001
00000010
00000100
00010000
00001000
01000000
00100000
00010000
,
00100000
10000000
00010000
10000000
01000000
00010000
00001000
00000100
,
00000001
00000000
00000020
00000000
00000130
00010000
00001000
00001000
,
00000100
00001000
00010000
01000000
00100000
00001000
00010000
00010000
,
00100000
10000000
00010000
00000000
00100000
00100000
00010000
00010000
,
00001000
00001000
00000100
00000100
00010000
00001000
00000100
00000010
,
00001000
00000100
00000001
00000000
00000220
00000000
00000330
00000000
;

//--------------- dance-double - forcednature ----------------
#NOTEDATA:;
#STEPSTYPE:dance-double;
#DESCRIPTION:forcednature;
#DIFFICULTY:Hard;
#METER:17;
#RADARVALUES:0,0,0,0,0;
#CREDIT:forcednature;
#NOTES:
00000000
00000000
00000000
00000000
,
00000000
00000000
00000000
00000000
,
00000000
00000000
00000000
00000000
,
00000000
00000000
00000000
00000000
,
00000000
00000000
00000000
00000000
,
00000000
00000000
00000000
00000000
,
00000000
00000000
00000000
00000000
,
00000000
00000000
00000000
00000000
,
00000000
00000000
00000000
00000000
,
00010000
00010000
00000100
00002000
00000000
00000000
00000000
00000000
,
00000000
00000000
00000000
00000000
,
00003001
00000001
00000100
00000020
00000000
00000000
00000000
00000000
,
00000000
00000000
00000000
00000000
,
00010030
00010000
00001000
00200000
00000000
00000000
00000000
00000000
,
00000000
00000000
00000000
00000000
,
01300000
00000000
00000000
00000000
01000000
00000000
00000000
00000000
10000000
00000000
00000000
00000000
00020000
00000000
00000000
00000000
00000000
00000000
00000000
00000000
00000000
00000000
00000000
00000000
00000000
00000000
00000000
00000000
00000000
00030000
00000000
00000000
,
01000000
00000000
00001000
00000000
00010000
00000000
00000100
00001000
00000100
00000000
00000010
00000000
00000001
00000000
00000010
00000000
,
00000100
00000000
00010000
00000000
00001000
00000000
01000000
00010000
01000000
00000000
00100000
00000000
10000000
00000000
00100000
01000000
,
00010000
00000000
01000000
00000000
00001000
00000000
00010000
00000100
00010000
00000000
00000100
00000000
00001000
00000000
00000100
00000000
,
00000010
00000000
00000001
00000000
00001000
00000000
00000001
00000100
00000001
00000000
00001000
00000000
00000010
00010000
00000010
00010000
,
00001000
00000000
00100000
00000000
00010000
00000000
00100000
01000000
00100000
00000000
00010000
00000000
10000000
00000000
00100000
00000000
,
01000000
00000000
00001000
00000000
00010000
00000000
00000100
00001000
00000100
00000000
00000010
00000000
00000001
00000000
00001000
00000010
,
00001000
00000100
00010000
00000000
00001000
01000000
01000000
00000000
,
00100000
10000000
00100000
00001000
00020000
00000000
00030000
00000000
,
00100000
00000000
10000000
00000000
00010000
00000000
10000000
01000000
10000000
00000000
00010000
00000000
00100000
00000000
00010000
00000000
,
01000000
00000000
00001000
00000000
00010000
00000000
00000100
00001000
00000100
00000000
00000010
00000000
00000002
00000000
00001000
00000000
,
00000103
00000000
00000001
00000000
00001000
00000000
00000010
00001000
00000010
00000000
00010000
00000000
00001000
00000000
00100000
00000000
,
00010000
00000000
00100000
00000000
01000000
00000000
10000000
00010000
10000000
00000000
00100000
00000000
01000000
00001000
01000000
00001000
,
00010000
00000000
00000100
00000000
00001000
00000000
00000100
00000010
00000100
00000000
00001000
00000000
00000001
00000000
00001000
00000000
,
00000010
00000000
00010000
00000000
00001000
00000000
00100000
00010000
10000000
00100000
10000000
00100000
01000000
00000000
00010000
00000000
,
01000000
00001000
01000000
00000000
00001000
00010000
00001000
00000000
00010000
00000100
00010000
00000100
00001000
00000001
00001000
00000000
,
00000020
00000000
00000000
00000030
00000000
00000000
00000000
00000000
00000000
00000000
00000000
00000000
00000000
00000000
00000000
00000000
00000000
00000000
00000000
00000000
00000000
00000000
00000000
00000000
00000100
00000000
00000000
00000000
00000000
00000000
00000000
00000000
00000000
00000000
00000000
00000000
00000000
00000000
00000000
00000000
00000100
00000000
00000000
00000000
00000000
00000000
00000000
00000000
00001000
00000000
00000000
00000000
00000000
00000000
00000000
00000000
00000000
00000000
00000000
00000000
00000000
00000000
00000000
00000000
00001000
00000000
00000000
00000000
00000000
00000000
00000000
00000000
00010000
00000000
00000000
00000000
00000000
00000000
00000000
00000000
00001000
00000000
00000000
00000000
00000000
00000000
00000000
00000000
01000000
00000000
00000000
00000000
00000000
00000000
00000000
00000000
,
00010000
00100000
01000000
10000000
00000000
10000000
01000000
00000000
01000000
00010000
01000000
00100000
,
00010000
00000000
00010000
01000000
00000000
01000000
00001000
00000000
00001000
00010000
00000100
00000010
,
00000100
00001000
00000010
00000100
00000000
00000100
00001000
00000000
00001000
00000100
00000001
00000010
,
00000100
00010000
00001000
01000000
00000000
01000000
00010000
00000000
00010000
00100000
10000000
00100000
,
00010000
10000000
00010000
01000000
00000000
01000000
00001000
00000000
00001000
00010000
00000100
00001000
,
00000010
00000001
00000010
00001000
00000000
00001000
00000100
00000000
00000100
00000010
00000001
00000100
,
00001000
00000000
00010000
00000000
01000000
00000000
20000000
00000000
00000000
00000000
00000000
00000000
00100000
00000000
00000000
00000000
00000000
00000000
00010000
00000000
00000000
00010000
00000000
00000000
,
30010000
00000000
10000000
01000000
00010000
00001000
00001000
00000100
,
00000010
00000000
00000001
00000000
00000010
00000000
00000100
00000000
00010000
00000000
00001000
00100000
00001000
00000000
01000000
00000000
,
00001000
00100000
00001000
00000000
00010000
00000000
00100000
00000000
10000000
00000000
01000000
00000000
01000000
00000000
00010000
00000000
,
00001000
00000000
00000010
00000000
00000001
00000000
00000100
00000000
00001000
00000000
00000000
00001000
00010000
00000000
00000010
00000000
,
00001000
00000100
00001000
00000000
00010000
00000000
01000000
00000000
00010000
00000000
00100000
00000000
00100000
00000000
10000000
00000000
,
00100000
00000000
00010000
00000000
01000000
00000000
00001000
00000000
00010000
00000000
00000010
00001000
00000010
00000000
00000100
00000000
,
00000010
00001000
00000010
00000000
00010000
00000000
00010000
00000000
00001000
00000000
01000000
00000000
00100000
00000000
00010000
00000000
,
00100000
00000000
10000000
00000000
01000000
00000000
01000000
00000000
00010000
00000000
00000000
00010000
00001000
00000000
00000010
00000000
,
00000100
00001000
00000000
00000000
00000001
00000000
00000001
00000000
00000100
00000000
00000010
00001000
00000010
00000000
00010000
00000000
,
00001000
00000000
00100000
00000000
01000000
00000000
01000000
00000000
00100000
00000000
00001000
00010000
00001000
00000000
01000000
00000000
,
00010000
00000000
00000000
00000000
10000000
00000000
10000000
00000000
01000000
00000000
00010000
00001000
00010000
00000000
00000100
00000000
,
00001000
00000000
00000010
00000000
00000100
00000000
00000100
00000000
00001000
00000000
00000100
00000001
00000100
00000000
00000010
00000000
,
00020000
00000000
00001000
00000000
00030100
00000000
00000100
00000000
00010000
00000000
00001000
00100000
00001000
00000000
00010000
00000000
,
00001000
00000000
01000000
00000000
00010000
00000000
00010000
00000000
00100000
00000000
01000000
10000000
01000000
00000000
00010000
00000000
,
00001000
00000000
00000100
00000000
00000001
00000000
00000001
00000000
00000010
00000000
00000100
00001000
00000100
00000000
00010000
00000000
,
00001000
01000000
01020000
00000000
10000000
00000000
00100000
00100000
,
00130000
00000000
00010000
10000000
00100000
00010000
00002000
00000000
,
00000100
00010000
00100000
00023000
,
00030010
00000000
00001000
00000010
00001000
00000000
00000000
00000000
00000001
00000000
00000010
00000000
00000100
00000000
00010000
00000000
,
00001000
00200000
01000000
01000000
01000000
00000000
00310000
00100000
,
00010000
01000000
00010000
01000000
00100000
00000000
10000000
00000000
00010000
00000000
10000000
00000000
01000000
00000000
00010000
00000000
,
00002000
00000000
00000100
00000000
00010000
00000000
00003010
00001000
,
00010000
00000100
00010000
00000000
00001000
00000000
00000010
00000000
00000001
00000000
00001000
00000000
00000010
00000000
00001000
00000010
,
00001000
00000000
00000100
00000000
00010000
00000000
00010000
00000000
00001000
00000000
00000000
00001000
01000000
00000000
00010000
00000000
,
20000000
00000000
00000000
00000000
31000000
00000000
00100000
01000000
00100000
00000000
00001000
00000000
00000000
00000000
00001000
00000000
,
00000000
00000000
00010000
00000000
00000000
00000000
00000010
00001000
00000010
00000000
00000100
00000000
00000000
00000000
00000100
00000000
,
00001000
00000000
00000100
00000000
00000101
00000000
00000001
00000010
00000001
00000000
00000100
00000000
00000000
00000000
00000100
00000000
,
00000000
00000000
00001000
00000000
00000000
00000000
01000000
00001000
01000000
00000000
00010000
00000000
00000000
00000000
00100000
00000000
,
02000000
00000000
10000000
00000000
03100000
00000000
01000000
10000000
01000000
00000000
00010000
00000000
00000000
00000000
00010000
00000000
,
00000000
00000000
00001000
00000000
00000000
00000000
00000010
00000100
00000010
00000000
00000001
00000000
00000000
00000000
00000001
00000000
,
00000200
00000000
00000010
00000000
00000301
00000000
00001000
00000010
00001000
00000000
00000100
00000000
00000000
00000000
00000100
00000000
,
00000000
00000000
00000000
00000000
00020000
00000000
00000000
00000000
00000000
00030000
00000000
00000000
00000000
00000000
00000000
00000000
00001000
00000000
00000000
00000000
01000000
00000000
00010000
00000000
10000000
00000000
00000000
00000000
01000000
00000000
00000000
00000000
,
00100000
00001000
00010000
00000000
00000010
00001000
00000010
00000100
00000001
00000000
00000010
00000100
00000010
00000000
00000001
00000000
,
00001000
00000010
00010000
00000000
00001000
00100000
00010000
00100000
01000000
00000000
10000000
00010000
01000000
00000000
00001000
00000000
,
00010000
00000100
00001000
00000000
00000100
00000010
00000001
00000010
00000001
00000000
00001000
00000010
00010000
00000000
00001000
00000000
,
00200000
00000000
00000000
00000000
01300000
10000000
01000000
10000000
00010000
00000000
01000000
00001000
00010000
00000000
00000100
00000000
,
00001000
00000100
00000010
00000000
00000001
00001000
00000010
00000000
00010000
00000000
00001000
00100000
00010000
00000000
00100000
00000000
,
01000000
10000000
00010000
00000000
01000000
00010000
01000000
00001000
00010000
00000000
00000100
00001000
00000100
00000000
00000010
00000000
,
00000001
00001000
00000010
00000000
00010000
00001000
01000000
00000000
00020000
00000000
00000000
00000000
00130000
00000000
00100000
00000000
,
01000000
10000000
01000000
00100000
00010000
00100000
00001000
00010000
00000010
00000000
00001000
00000100
00000010
00000100
00001000
00000000
,
00000001
00001000
00000010
00000000
00010000
00001000
00100000
00010000
00100000
00000000
01000000
10000000
00010000
01000000
00010000
00000000
,
01000000
00001000
00010000
00001000
00010000
00000100
00001000
00000100
00000010
00000000
00000001
00001000
00000001
00000100
00000010
00000000
,
00001000
00000010
00010000
00001000
01000000
00000000
00010000
00000000
00100000
01000000
00000000
01000000
00000000
01000000
00000000
01000000
,
20000000
00000000
00000000
00000000
30100000
10000000
00010000
01000000
00010000
00000000
00100000
00001000
00010000
00000100
00010000
00000000
,
00000010
00001000
00000001
00000000
00000010
00000100
00001000
00000100
00010000
00000000
00001000
01000000
00010000
01000000
00010000
00000000
,
00100000
01000000
10000000
00000000
00010000
00000000
01000000
00000000
00001000
00010000
00001000
00010000
00000100
00001000
00000100
00001000
,
00000001
00000100
00000001
00000100
00000010
00001000
00000001
00000000
00000010
00000100
00001000
00000100
00010000
00001000
01000000
00010000
,
01000000
00100000
10000000
00010000
10000000
01000000
00100000
00010000
02000000
00000000
00000000
00000000
03000000
00000000
00000000
00000000
;
