#VERSION:0.83;
#TITLE:ABSOLUTE EVIL;
#SUBTITLE:;
#ARTIST:Yuta Imai;
#TITLETRANSLIT:;
#SUBTITLETRANSLIT:;
#ARTISTTRANSLIT:;
#GENRE:EUPHORIC FRENCHCORE;
#CREDIT:;
#MUSIC:ABSOLUTE EVIL.ogg;
#BANNER:ABSOLUTE EVIL.png;
#BACKGROUND:ABSOLUTE EVIL-bg.png;
#CDTITLE:./CDTitles/bm IIDX 29 CastHour.png;
#SAMPLESTART:82.582;
#SAMPLELENGTH:15.000;
#SELECTABLE:YES;
#OFFSET:1.406;
#BPMS:0.000=100.000
,12.000=200.000
,108.000=100.000
,148.000=200.000
,180.000=100.000
,196.000=200.000
,208.000=100.000
,210.000=200.000
,305.000=400.000
,306.000=200.000
,318.000=100.000
,320.000=200.000
,336.000=100.000
,339.000=200.000
;
#STOPS:305.000=0.150
,339.000=0.037
,339.125=0.037
,339.250=0.037
,339.375=0.037
,339.500=0.037
,339.625=0.037
,339.750=0.037
,339.875=0.037
;
#TIMESIGNATURES:0.000=4=4,
208.000=2=4,
210.000=4=4
;
#DISPLAYBPM:100.000:200.000;
#BGCHANGES:4.000=ABSOLUTE EVIL.mp4=1.000=0=0=1,
417.500=ABSOLUTE EVIL-bg.png=1.000=0=0=1,
99999.000=-nosongbg-=1.000=0=0=0=StretchNoLoop====
;
#FGCHANGES:;

//--------------- dance-single - forcednature ----------------
#NOTEDATA:;
#STEPSTYPE:dance-single;
#DESCRIPTION:forcednature;
#DIFFICULTY:Beginner;
#METER:5;
#RADARVALUES:0,0,0,0,0;
#CREDIT:forcednature;
#NOTES:
0000
0000
0000
0000
,
0000
0000
0000
0000
,
0000
0000
0000
0000
,
0001
0000
0001
0000
,
1000
0000
1000
0000
,
0100
0000
0100
0000
,
0010
0000
0000
0000
,
1001
0000
0000
0000
,
0001
0000
0000
0000
,
1000
0000
0000
0000
,
0010
0000
0010
0000
,
0100
0000
0000
0000
,
0001
0000
0000
0000
,
1000
0000
1000
0000
,
1000
0000
0100
0000
,
0010
0000
0001
0000
,
0010
0000
0000
0000
,
0001
0000
0100
0000
,
0001
0000
0000
0000
,
1000
0000
0010
0000
,
1000
0000
0000
0000
,
0100
0000
1000
0000
,
0100
0000
0000
0000
,
0110
0000
0000
0000
,
0010
0000
0010
0000
,
0010
0000
0000
0000
,
0001
0000
0000
0000
,
2002
0000
0000
0000
,
0000
0000
3003
0000
,
1000
0000
0010
0000
,
0100
0000
0000
0000
,
0001
0000
0010
0000
,
0100
0000
0000
0000
,
1000
0000
0001
0000
,
0100
0000
0000
0000
,
0020
0000
0030
0000
,
2002
0000
0000
3003
,
0001
0000
0100
0000
,
0000
0000
0001
0000
,
1000
0000
0100
0000
,
0000
0000
1000
0000
,
0001
0000
0010
0000
,
0000
0000
0001
0000
,
1000
0000
0010
0000
,
0000
0000
1000
0000
,
0100
0000
0010
0000
,
0001
0000
1000
0000
,
0010
0000
0100
0000
,
0001
0000
1000
0000
,
0100
0000
0100
0000
,
0010
0000
0010
0000
,
0001
1000
0001
1000
,
0000
0000
1001
0000
,
1000
0000
0100
0000
,
0010
0000
0001
0000
,
0100
0000
0001
0000
,
1000
0000
0010
0000
,
1000
0000
0001
0000
,
0010
0000
0100
0000
,
1000
0000
0100
0100
,
0100
0000
0110
0000
,
0010
0000
0001
0000
,
1000
1000
1000
0000
,
0001
0000
0100
0000
,
0010
0000
1000
0000
,
0001
0000
0010
0000
,
0100
0000
1001
0000
,
1001
0000
0200
0000
,
0300
0000
0110
0000
,
0001
0000
1000
0000
,
0010
0000
1000
0000
,
0001
0000
0010
0000
,
0100
0000
1000
0000
,
0001
0000
0100
0000
,
0010
0000
1000
0000
,
1000
0000
0001
0000
,
0010
0000
0100
0000
,
1000
0000
0001
0000
,
0100
0000
0010
0000
,
1000
0000
0001
0000
,
0010
0010
0010
0000
,
0100
0100
0100
0000
,
1000
0001
1000
0001
,
0100
0100
0010
0000
,
2002
0000
0000
3003
;

//--------------- dance-single - t7r ----------------
#NOTEDATA:;
#STEPSTYPE:dance-single;
#DESCRIPTION:t7r;
#DIFFICULTY:Easy;
#METER:11;
#RADARVALUES:0,0,0,0,0;
#CREDIT:t7r;
#NOTES:
0000
0000
0000
0000
,
0000
0000
0000
0000
,
0000
0000
0000
0000
,
1000
1000
0100
0100
,
0010
0010
0001
0001
,
0100
0000
0100
0000
0010
0100
0010
0000
,
2000
0001
0010
3001
,
1000
0100
1000
0001
,
1000
0000
0100
1000
0000
1000
0001
1000
,
0001
0100
0001
1000
,
0001
0000
0010
0100
1000
0000
1000
0000
,
0001
0000
0010
0000
0001
0000
1000
0001
,
1000
0010
1000
0002
,
0103
1000
0100
0010
,
1000
0000
0100
0000
0001
0000
0100
0010
,
0100
1100
0100
1100
,
0100
0000
1000
0001
1000
0010
1000
0000
,
0010
0000
1010
0000
0010
0000
1000
0001
,
1000
0000
0100
0010
0001
0000
0110
0000
,
0001
1000
0001
0000
0010
0000
0001
1000
,
0001
0000
0100
0001
1000
0100
1000
0000
,
0001
0000
0000
0001
0000
0000
0000
0000
1000
0000
0000
0000
1000
0000
0000
0000
,
0010
0001
0010
0100
,
0001
0000
0011
0000
,
1000
0000
1010
0000
,
0100
0000
0100
0000
0010
0100
0010
0000
,
0120
0001
0100
1030
,
0220
0000
0000
0000
,
0000
0000
0330
0000
,
2000
0000
0000
0000
0000
0000
0000
3000
,
0020
0000
0000
0000
0000
0000
0000
0030
,
0200
0000
0000
0000
0000
0000
0000
0300
,
0002
0000
0000
0000
0000
0000
0000
0003
,
2000
3100
0010
0000
,
0002
0103
0010
0000
,
2000
0100
3001
0000
,
0002
0000
0000
0000
0100
0000
0000
0000
1003
0000
0000
0000
0000
0100
0010
0000
,
1001
0000
0000
1000
0100
0000
0000
0010
,
0000
0010
0000
0010
0100
0000
0000
0000
,
1001
0000
0000
0001
0100
0000
0000
0010
,
0000
0010
0000
0010
0200
0000
0300
0000
,
0110
0000
0000
1000
0001
0000
0000
0010
,
0000
0010
0000
0010
0100
0000
0000
0000
,
0110
0000
0000
0000
0000
0000
0001
0000
1000
0000
0001
0000
0100
0000
0000
0100
,
0000
0100
0000
0000
0110
0000
0000
0000
,
2000
0000
0000
0000
3000
0000
0100
0000
0020
0000
0030
0002
0000
0003
0100
0000
,
0020
0000
0001
0000
0130
0000
0000
0000
0020
0000
0030
2000
0000
3000
0100
0000
,
0020
0000
1000
0000
0130
0000
0000
0000
2000
0000
3000
0020
0000
0030
0200
0000
,
0302
0000
0010
0000
1003
0000
0010
0100
0020
0000
0000
0000
2030
0000
0000
0000
,
3002
0010
0010
1000
,
2003
0010
0010
0001
,
3001
0100
0001
0000
1000
0100
1000
0000
,
0001
0100
0010
0010
1001
0000
1100
0000
,
1100
0000
1000
0001
0100
0000
0001
1000
,
0000
0001
0010
0000
0011
0000
1001
0000
,
1001
0001
0101
0101
,
0100
0010
0100
0000
1001
0000
0101
0000
,
0101
0000
0001
1000
0100
0000
1000
0001
,
0000
1000
0010
0000
1010
0000
1001
0000
,
1001
0000
1000
0000
0001
0100
0001
0100
,
0001
0000
1000
0000
0100
0010
0100
0000
,
1100
0000
1100
0000
1000
0000
0001
0010
,
0000
0001
1000
0000
1010
0000
1010
0000
,
1010
0000
0010
0100
0001
1000
0001
0000
,
0100
0100
0001
0011
,
0011
0000
0001
1000
0001
0000
1001
0000
,
1001
0000
1000
0100
2000
0000
0100
0000
,
3002
0010
1003
0020
,
0031
0000
0110
0000
1000
0000
0100
1000
,
0100
1000
0100
0000
1000
0000
0001
0100
,
0001
0100
0001
0000
1000
0000
0010
1000
,
0010
1000
0010
0000
0100
0000
0001
1000
,
0001
1000
0001
0000
0010
0000
0100
0010
,
0001
0010
0100
0000
0010
0000
0100
1000
,
0001
1000
0100
0000
1000
0000
0010
0100
,
0001
0100
0010
0000
0100
0010
0100
0000
,
0010
0000
1001
0000
0001
0010
0001
0010
,
0001
1000
0001
1000
0001
0010
0001
0010
,
0001
1000
0001
0000
1000
0010
1000
0010
,
1000
0001
1000
0001
1000
0100
0001
0100
,
1000
0010
1000
0010
0100
0010
0200
0000
,
0301
0010
0001
0010
0100
0010
0200
0000
,
1300
0100
0020
0000
0031
0100
0020
0000
,
1030
0010
0100
0001
0010
0100
1000
0001
,
2002
0000
0000
3003
;

//--------------- dance-single - forcednature ----------------
#NOTEDATA:;
#STEPSTYPE:dance-single;
#DESCRIPTION:forcednature;
#DIFFICULTY:Medium;
#METER:13;
#RADARVALUES:0,0,0,0,0;
#CREDIT:forcednature;
#NOTES:
0000
0000
0000
0000
,
0000
0000
0000
0000
,
0000
0000
0000
0000
,
0001
0100
0001
0100
,
0010
1000
0010
1000
,
0001
0010
0100
1000
0100
0010
0001
1000
,
0000
0020
0100
0130
,
0001
0101
1000
1010
,
0001
0000
0010
0100
1000
0100
0010
0000
,
0001
0000
1100
0000
1000
0000
0001
0100
,
0010
1000
0001
1000
0100
0010
0002
0000
,
0103
0100
0001
0000
1010
0000
1000
0100
,
0010
0000
0001
1000
0010
1000
0001
0000
,
0110
0000
0000
0110
0000
0000
0001
0000
1000
0100
0000
0010
,
0001
0000
1001
0000
0101
0000
1000
0010
,
1000
0000
0100
0010
0001
0000
0100
0010
,
1000
0000
0001
0001
0100
0010
1000
0010
,
0100
0000
0001
1000
0100
0000
0010
0001
,
1000
1000
1000
0000
0010
0100
0001
0000
,
0010
0100
1000
0000
0001
0000
1000
0010
,
0100
0000
0001
0010
0100
0010
0001
1000
,
0010
0000
0000
0010
0000
0000
0010
0000
1000
0000
0000
0000
0001
0000
0000
0000
,
0220
0300
0100
0130
,
0001
0000
0000
1000
0000
0000
0001
0000
0101
0000
0000
0000
1000
0000
0010
0000
,
1000
0000
0000
0001
0000
0000
1000
0000
0100
0000
0010
0000
0001
0000
0000
0000
,
0100
0100
0100
0010
2000
0000
3001
0010
,
0100
2000
0010
3010
,
2002
0000
0000
0000
,
0000
0000
3003
0000
,
0102
0000
0000
0000
0000
0003
0000
2000
0000
0000
3000
0000
0020
0000
0000
2030
,
0000
3200
0000
0000
0300
0000
0000
0000
0000
0000
0000
0000
0000
0000
0010
0000
,
0001
0000
0000
1000
0000
0000
0001
0000
0100
0000
0000
0010
0000
0000
2000
0000
0000
0000
0000
0000
3001
0000
0000
0000
1000
0000
0000
0000
0100
0000
0020
0000
,
0000
0032
0000
0000
0000
0003
0000
0000
0000
0000
0000
0000
0000
0000
0000
0000
,
0200
0000
0302
0000
0000
0000
1003
0020
0000
0000
0030
1000
0100
0000
0010
0002
,
0000
2003
0000
0000
0000
0000
3000
0000
0000
0000
0000
0000
0000
0000
0010
0000
,
0100
0000
0001
0000
0000
1000
0000
0000
0001
0000
0000
0010
0000
0000
0200
0000
0000
0000
0000
0000
0000
0000
0000
0000
0300
0000
0000
0000
1000
0000
0000
0000
,
0020
0000
0000
0000
0001
0000
0000
0000
0100
0000
0000
0000
1000
0000
0000
0000
0100
0000
0000
0000
0001
0000
0000
0000
0000
0000
0000
0000
0000
0000
0130
0000
0000
0000
0000
0000
0001
0000
0000
1000
0000
0000
1001
0000
0000
0000
0000
0000
,
1200
0000
0000
0010
0001
0000
0000
1000
,
0000
1000
0000
0010
0301
0100
0010
0001
,
0200
0000
0000
0010
1000
0010
0000
0001
,
0000
0001
0000
0010
1300
0100
0001
0010
,
0200
0000
0000
0001
1000
0000
0000
0010
,
0000
0010
0000
0001
1300
0100
0010
0001
,
0200
0000
0000
0000
0000
0000
0010
0000
1000
0000
0010
0000
0001
0000
0000
0001
,
0000
0000
0001
0000
0000
0001
0000
0000
0320
0000
0000
0000
2030
0000
0000
0000
,
3002
0000
0000
0000
0003
0010
0100
1000
0200
0000
0300
0020
0000
0030
0002
0000
,
2003
0000
0000
0000
0000
0000
3000
0000
0020
0000
0030
0200
0000
0300
0002
0000
,
2003
0000
0000
0000
0000
0000
3000
0000
0200
0000
0300
0020
0000
0030
0002
0000
,
0203
0000
0010
0000
0010
0000
0310
1000
0002
0000
0010
0000
0200
0000
0303
0000
,
0011
1001
0101
1001
,
1010
1001
1100
1001
,
1000
0100
0010
0001
1000
0010
0100
0001
,
0010
0200
0310
0110
1002
0000
0100
0000
,
1003
0010
0100
0001
0020
0000
1030
0020
,
0000
0031
2000
0000
3020
0000
0001
0000
,
0100
1030
0002
0100
,
1003
0001
0010
0010
0200
0000
0001
0000
,
0310
0100
1000
0001
2000
0000
3010
0002
,
0000
0013
1000
1000
0200
0000
0001
0000
,
0010
0000
1300
0000
0100
0010
0001
1000
,
0001
0100
1000
0000
0100
0001
2000
0000
,
3010
1000
0100
0010
0002
0000
0103
0010
,
1000
0100
0001
0100
0020
0000
1000
0000
,
0100
0000
0031
0010
0100
0100
1000
0000
,
0001
0100
0001
0100
0001
0100
0020
0000
0000
0100
0000
0000
,
1000
0000
0130
0010
2000
0000
3100
0010
,
0001
1000
0001
1000
2100
0000
3010
0000
,
0102
0013
0210
1000
,
0301
0000
0110
0000
0001
0100
0001
0010
,
0100
1000
0010
0000
0100
0001
1000
0100
,
1000
0001
0100
0100
0010
1000
0001
1000
,
0100
0010
0001
0000
0100
0010
1000
0001
,
0100
1000
0100
0001
0100
0000
0010
1000
,
0001
1000
0100
0000
0110
0000
0010
0001
,
1000
0001
0100
0000
0010
0010
0001
0010
,
2000
0000
3100
0010
0001
1000
0001
0100
,
1000
0100
0010
0000
1000
0100
0010
0001
,
1000
0100
0010
0001
1000
0010
0100
0001
,
1000
0010
0100
0001
0010
0100
1000
0001
,
0010
0100
1000
0001
0200
0010
0010
0310
,
0100
0001
1000
0010
0100
0001
1000
1000
,
0100
1000
0001
0010
0100
0001
0100
1000
,
0001
0100
2000
0000
3001
0010
2000
0000
,
3100
0100
0010
0010
0001
0100
1000
0100
,
0020
0000
0000
0030
;

//--------------- dance-single - 47R ----------------
#NOTEDATA:;
#STEPSTYPE:dance-single;
#DESCRIPTION:47R;
#DIFFICULTY:Hard;
#METER:16;
#RADARVALUES:0,0,0,0,0;
#CREDIT:47R;
#NOTES:
0000
0000
0000
0000
,
0000
0000
0000
0000
,
0000
0000
0000
0000
,
1100
0100
0010
0010
,
0001
0001
1000
1000
,
0001
0100
0001
0010
0100
1000
0010
1000
,
0000
0200
0320
0032
,
0103
0001
1000
0001
0010
0001
1000
0001
,
0100
0000
0010
0000
1000
0100
1000
0000
0001
0010
0001
0000
0100
0000
0100
0000
,
0001
0000
1000
0000
0010
0000
1000
0000
0001
0000
1000
0000
0100
0000
1000
0001
,
0010
0100
0001
0100
1000
0001
0010
0000
,
0001
0100
0010
1000
0001
0000
0010
0000
0100
0000
0010
0000
1000
0000
1000
0000
,
0010
0000
0001
0000
1000
0000
0001
0100
0000
0010
1000
0000
0001
0000
0000
0000
,
1000
0000
1000
0100
0000
0100
0010
0001
1000
0010
1000
0001
,
0100
0000
0101
0000
1010
0000
0001
0010
,
0100
0001
0100
0010
0100
1000
0001
1000
,
0010
0000
0001
0000
0010
0000
0100
0001
1000
0000
0100
0000
1000
0000
0010
0000
,
0001
0010
0100
0010
1000
0001
1000
1000
,
0001
0010
0001
0010
0100
0000
1000
0000
0001
0000
0001
0000
0000
0000
1000
0010
,
0100
0000
0001
0000
0101
0000
0000
0000
1000
0000
0010
0000
1000
0000
0100
0010
,
0001
0000
0000
0000
0100
0000
0010
1000
0001
0000
0010
0000
0100
0000
0010
0000
,
0001
0000
0000
0101
0000
0000
1010
0000
1000
0100
1000
0000
0001
0100
0001
0000
,
2002
0003
0010
3010
,
1000
0000
0100
1000
0100
0000
0010
0000
0011
0000
0000
0000
0100
0000
0001
1000
,
0001
0000
0000
0101
0000
0000
1010
0000
1000
0000
0001
0010
0100
0000
0000
0000
,
1000
0100
0010
0001
1000
0000
0001
1000
0020
0000
0000
0000
0130
0001
1000
0001
,
0010
0200
2300
3010
,
2002
0000
0000
0000
,
0000
0000
3003
0000
,
2000
0000
0100
0000
0001
0000
3010
0100
0000
0100
0000
0001
0010
0000
0001
1000
,
0000
0020
0000
0000
0031
0000
0010
0100
0000
0100
0000
0001
1000
0100
0010
0000
,
0002
0000
0000
0010
0000
0000
1000
0000
1000
0000
0000
0100
0000
0000
0013
0000
0000
0000
0100
0000
1000
0000
0000
0000
0001
0000
0010
0000
1000
0000
0010
0000
,
0000
0100
0010
0000
0100
0000
1000
0010
0000
0010
0000
0100
1000
0100
0010
0000
,
2000
0000
0010
0000
3002
0000
1003
0100
0000
0100
0000
0010
0100
0001
0100
0010
,
0000
0010
0000
0001
1000
0000
0010
1000
0000
1000
0000
0001
0100
0010
1000
0000
,
0100
0000
0010
0000
0000
1000
0000
0000
0010
0000
0100
0000
0000
0010
0000
0000
0000
0000
0001
0000
0100
0000
0010
0000
1000
0000
0001
0000
0010
0000
0001
0000
,
0100
0000
0010
0000
0000
0001
0000
0000
0010
0000
0100
0000
0000
0000
0002
0000
0000
0000
0000
0000
1000
0000
0000
0000
0103
0000
0010
0000
1001
0000
0000
0000
,
2100
0000
0000
0100
3001
0000
0000
0100
,
0000
0000
0100
0000
0000
0000
0100
0010
1000
0000
0000
0000
0000
0000
0000
0000
,
0102
0000
0000
0000
0000
0000
0103
0001
1000
0000
0100
0000
0000
0000
0100
0000
,
0000
0000
0100
0000
0000
0000
0100
0010
0002
0000
0203
0000
0320
0000
0230
0000
,
0302
0000
0000
0010
1003
0000
0000
0100
,
0000
0000
0100
0000
0000
0000
0100
0010
0001
0000
0000
0000
0000
0000
0000
0000
,
0202
0000
0000
0000
0303
0000
0010
1000
0010
0000
0010
0000
0100
0000
0000
0100
,
0000
0000
0001
0000
0000
0001
1000
0100
0020
0000
0000
0000
0032
0000
0000
0000
,
0203
0001
0001
0001
,
0320
0000
0000
0000
0100
0000
0030
0000
2000
0000
3000
0002
0000
0003
0020
0000
,
0230
0000
1000
0000
1000
0000
1000
0000
0320
0000
0030
0002
0000
0003
2000
0000
,
3020
0000
0100
0000
0100
0000
1030
0001
0020
0000
0100
0000
0002
0000
0033
0000
,
0011
1100
1010
1001
,
0101
0011
0110
1001
,
1000
0100
1000
0010
0100
0001
0010
0001
,
0100
0000
0020
0000
2030
0000
3002
0000
0013
0100
1000
0000
0001
0000
0100
0000
,
0010
0000
1000
0000
0100
0000
0001
0000
0100
0010
0001
0000
0100
0000
0001
0010
,
0100
0000
0010
0000
0001
1000
0010
0000
0100
0001
1000
0000
0100
0000
0010
0000
,
0100
0000
1000
0000
0010
0000
0100
0000
0001
1000
0100
0000
0010
0000
0001
0000
,
1000
0000
1000
0000
1000
0010
0100
0001
1000
0001
0010
0000
0100
0000
1000
0000
,
0001
0000
0100
0000
1000
0000
0100
0000
0010
1000
0001
0000
0100
0000
0001
1000
,
0010
0000
1000
0000
0100
0010
0001
0010
0100
1000
0001
0000
0100
0000
1000
0000
,
0100
0000
0001
0000
0010
0000
0000
0000
0100
1000
0100
0000
0010
0000
0010
0000
,
0001
0000
0100
0000
1000
0000
0100
0010
1000
0000
0100
0000
0001
0000
0000
0000
,
0100
0000
0010
0000
0001
0000
1000
0000
0010
0100
1000
0000
0100
0000
0010
1000
,
0001
0000
0010
0000
1000
0000
0010
0000
0001
1000
0100
0000
0010
0000
0001
0000
,
1000
0000
0001
0000
0100
0000
0100
0000
0010
0100
0010
0100
0010
0000
0000
0000
,
1000
0000
0000
0000
0100
0000
0000
0000
1000
0000
0000
0000
0001
0000
0000
0000
1000
0000
0000
0000
0001
0000
0000
0000
0200
0000
0000
0000
0000
0000
0001
0000
0000
1000
0000
0000
0000
0000
0000
0000
0000
0000
0000
0000
0000
0000
0000
0000
,
0001
0000
0310
0100
0110
0100
1000
0010
,
0100
0100
0010
0010
2001
0100
0002
3003
,
1002
0100
2000
3003
1001
0010
0210
0000
,
0301
1000
0100
0010
0001
0000
0000
0000
0100
0000
1000
0000
0100
0000
0010
0000
,
0100
0001
1000
0001
0010
1000
0010
0100
,
0010
0001
1000
1000
0100
0001
0100
0010
,
0100
0000
1000
0000
0001
0000
1000
0000
0010
0000
0001
0000
0010
0000
0100
0010
,
0100
0100
0001
0001
0010
1000
0010
0100
,
0010
0001
1000
0001
0100
1000
0100
0010
,
0100
0001
1000
1000
0100
0100
0100
0100
,
2001
0000
0000
0000
3010
0000
0100
0000
0001
1000
0100
0000
1000
0000
1000
0000
,
0001
0100
2010
0000
3001
0001
0001
0001
,
0010
0010
0100
0100
0001
0001
0001
0001
,
0100
0000
0100
0000
0010
0001
1000
0001
1000
0000
1000
0000
1000
0000
1000
0000
,
0010
0000
0000
0000
0010
0000
0000
0000
0100
0000
0000
0000
0100
0000
0000
0000
1000
0000
0100
0010
1000
0000
0100
0010
0002
0000
0203
0000
0320
0000
2030
0000
,
3001
0000
0001
0000
0001
0000
0001
0000
0010
0000
0010
0000
0100
0010
0001
1000
,
0001
0000
0001
0000
0001
0000
0001
0000
0100
0010
0100
0010
2000
0010
0000
3001
,
1000
0000
1000
0000
0100
0010
0100
0010
0100
0000
0100
0000
1000
0010
1000
0010
,
1000
0001
1000
0001
1000
0001
1000
0001
0100
0010
0100
0010
2000
0100
0000
3001
,
0020
0000
0000
0030
;

//--------------- dance-single - 47R ----------------
#NOTEDATA:;
#STEPSTYPE:dance-single;
#DESCRIPTION:47R;
#DIFFICULTY:Challenge;
#METER:18;
#RADARVALUES:0,0,0,0,0;
#CREDIT:47R;
#NOTES:
0000
0000
0000
0000
,
0000
0000
0000
0000
,
0000
0000
0000
0000
,
0001
0100
1000
0100
0010
0100
1000
0100
,
0001
0010
1000
0001
0100
1000
0001
0000
,
1000
1000
0100
0100
0001
0001
1000
0010
,
0001
0000
0100
0000
0010
0000
0000
0000
1000
0001
0100
0001
0020
0000
0000
0000
,
0031
1000
0100
0000
1000
0001
0100
0000
0001
1000
0100
0000
1000
0001
0100
0000
,
0001
1000
0100
0000
0001
0100
0010
0000
0001
0100
0010
0000
1000
0000
0010
0000
,
0010
0100
0001
0000
0010
0100
1000
0000
0010
0100
0001
0000
0010
0000
0100
1000
,
0010
0001
1000
0100
0001
0010
0200
0000
,
1300
0000
0001
0000
1000
0000
0001
0000
0000
0100
0000
0000
0010
0000
0000
1000
0000
0000
0001
0000
0000
0000
0000
0000
0010
0000
0000
0001
0000
0000
1000
0000
0000
0000
0000
0000
0010
0000
0000
0000
0000
0000
0100
0000
0000
0000
0000
0000
,
0100
1000
0100
0000
0010
0000
1000
0100
0000
0010
0100
1000
0002
0000
0000
0000
,
0013
0000
1000
0010
0000
0001
0100
1000
0100
0001
1000
0100
,
0010
0000
0001
0100
0010
0000
1000
0100
0010
0000
0001
1000
0010
0000
0100
0000
,
0100
0000
0001
0010
0100
0000
0010
0001
1000
0000
0010
0100
0001
0000
0010
0100
,
1000
0000
0000
0000
0000
0000
0010
0000
0000
1000
0000
0000
0001
0000
0000
0000
0000
0000
1000
0000
0001
0000
1000
0000
0010
0000
0000
0000
0000
0000
0100
0000
0000
0000
0000
0000
1000
0000
0000
0000
0000
0000
0100
0000
0000
0000
0000
0000
,
0001
0000
0010
0100
1000
0000
0010
0100
0001
0000
0010
0100
1000
0000
1000
0000
,
0001
0010
1000
0010
0001
0000
1000
0000
0010
0000
0001
0010
0100
0000
0001
1000
,
0001
0000
0100
0010
1000
0000
0100
0010
0001
0000
0100
0010
1000
0000
0001
1000
,
0001
0000
0000
0000
0000
0000
0010
0000
0000
0100
0000
0000
1000
0000
0000
0000
0000
0000
0010
0000
0100
0000
0010
0000
1000
0000
0000
0000
0000
0000
0100
0000
0000
0000
0000
0000
0001
0000
0000
0000
0000
0000
0100
0000
0000
0000
0000
0000
,
1000
0000
0010
0100
0000
0000
0010
0000
1000
0001
0010
0000
0001
1000
0010
0000
,
0100
1000
0001
0010
1000
0100
0001
0100
,
1000
0000
0010
0001
0010
0000
0100
0000
0101
0000
0000
0000
1001
0000
0001
0010
,
0001
0000
0010
1000
0010
0000
0100
0000
1100
0000
1000
0001
0010
0000
0000
0000
,
0001
0000
0000
0100
0000
0000
1000
0000
0000
0100
0000
0000
0001
0000
0000
0000
0000
0000
1000
0000
0000
0001
0000
0000
1000
0000
0100
0000
1000
0000
0100
0000
1000
0000
0100
0000
1000
0000
0000
0001
0000
0000
1000
0000
0000
0100
0000
0000
,
1000
0020
0032
0013
,
2002
0000
0000
0000
,
0000
0000
3003
0000
,
1000
0100
0010
0100
1000
0001
0000
0010
0001
0100
0010
0100
0001
1000
0000
0010
,
0200
0000
0001
0000
0010
0010
0000
1000
1000
0000
1000
0000
0010
0010
0000
0001
,
0301
1000
0100
1000
0001
0010
0000
0100
1000
0001
0100
0001
1000
0010
0000
0100
,
0002
0000
0010
0000
1000
1000
0000
0100
0100
0000
0100
0000
1000
1000
0000
0010
,
0013
0001
0100
0010
1000
0100
0000
1000
0010
1000
0100
0010
0001
0100
0000
0001
,
0020
0000
1000
0000
0100
0100
0000
0001
0001
0000
0001
0000
0100
0100
0000
1000
,
1030
0000
0010
0000
0001
0000
0100
0000
0010
0000
0220
0000
0000
0000
0000
0000
0000
0000
0030
0000
0000
0301
0000
0000
,
0101
0000
0000
0000
0011
0000
0000
0000
0110
0000
0000
0000
1100
0000
0000
0000
1010
0000
0000
0000
0210
0000
0000
0000
0000
0000
0000
0000
0000
0000
0301
0000
0000
0000
0000
0000
0010
0000
0000
0001
0000
0000
1001
0000
0000
0000
0000
0000
,
1020
0000
0000
0001
0001
0000
0000
1000
,
0000
0000
0100
0000
0000
0030
0001
0010
1000
0000
0001
0000
0001
0000
0001
0000
,
0021
0000
0000
0000
0000
0000
1030
0020
1000
0000
1000
0000
0000
0000
0100
0000
,
0000
0000
0001
0000
0000
0030
0100
0010
0002
0000
0203
0000
2300
0000
3002
0000
,
0023
0000
0000
1000
0001
0000
0000
1000
,
0000
0000
0100
0000
0000
0030
0001
0010
1000
0000
0001
0000
0001
0000
0001
0000
,
0020
0000
0000
0000
0000
0000
1030
0020
0001
0000
0001
0000
0001
0000
0000
0100
,
0000
0000
1000
0000
0000
0130
0010
0001
0200
0000
0000
0000
0310
0000
0000
0000
,
2001
0000
0100
0000
0001
0000
3010
0100
0002
0000
0010
2003
0100
0000
3001
0000
,
0200
0000
1000
0000
0010
0000
0001
0000
0320
0000
0100
2030
0100
0000
3002
0000
,
0023
0000
1000
0000
0100
0000
0001
0000
0230
0000
1300
0020
0001
0000
0230
0000
,
0302
0000
0010
0000
1000
0000
0103
0010
2000
0000
0100
0000
3002
0000
0013
0000
,
1001
0000
1000
0100
0010
0000
0001
0100
0010
0000
1000
0100
0010
0000
0001
1000
,
0001
0000
0100
0010
1000
0000
0100
0010
0001
0000
0100
0010
1000
0000
0001
1000
,
0001
0001
0010
0010
1000
1000
0001
0100
,
1000
0000
0010
0000
0210
0000
0000
0000
0301
1000
0010
1000
0001
0000
0000
0000
1000
0000
0000
0000
0100
0000
0010
0000
0001
0000
0000
0000
0100
0000
0010
0000
,
1000
0000
0010
0100
0001
0000
0100
0000
0001
0000
0010
0100
1000
0000
0010
0100
,
0001
0000
0100
0001
1000
0000
0001
0000
0010
0000
0100
1000
0001
0000
0100
0001
,
1000
0000
0100
1000
0001
0000
0010
0000
0001
0000
0100
0010
1000
0000
0100
0010
,
0001
0000
0000
0000
0000
0000
0100
0000
0000
0000
0000
0000
0001
0000
1000
0000
0001
0000
1000
0000
0000
0001
0000
0000
1000
0000
0000
0000
0000
0000
0100
0000
0000
0010
0000
0000
0001
0000
0000
0000
0000
0000
0100
0000
0000
0010
0000
0000
,
1000
0000
0100
0010
0001
0000
1000
0000
0010
0000
0100
0001
0010
0000
0100
1000
,
0010
0000
0100
0001
0010
0000
0001
0000
1000
0000
0010
1000
0100
0000
0010
0001
,
0100
0000
0010
1000
0100
0000
1000
0000
0001
0100
1000
0000
0100
0000
0100
0000
,
0001
0000
0000
0000
0000
0000
0001
0000
0000
0000
0000
0000
1001
0000
0000
0000
0000
0000
1000
0000
0001
0000
1000
0000
0010
0000
0000
0000
0000
0000
0100
0000
0000
0000
0000
0000
0110
0000
0000
0000
0000
0000
0100
0000
0000
0001
0000
0000
,
1000
0000
0100
1000
0001
0000
1000
0000
0100
0000
0010
0100
1000
0000
0010
0100
,
0001
0000
0110
0000
1000
0000
0110
0000
1000
0000
0010
0100
0001
0000
0010
0100
,
1000
0000
0010
0100
0001
0000
0110
0000
1000
0100
0001
0100
1000
0000
0000
0000
,
0001
0000
0000
0000
0010
0000
0000
0000
0100
0000
0000
0000
1000
0000
0000
0000
0010
0000
0000
0000
0100
0000
0000
0000
0020
0000
0000
0000
0000
0000
1000
0000
0000
0001
0000
0000
0000
0000
0000
0000
0000
0000
0001
0000
0000
1000
0000
0000
,
0000
0000
1000
0001
0000
0000
0130
1000
0010
0000
0100
0000
0110
0000
0000
0001
,
0010
0000
0010
0000
0011
0000
0001
0000
1000
0200
0001
0000
2300
0000
0000
0000
,
3001
0020
1000
0000
0032
0000
0000
0000
0103
0010
1000
0001
0200
0000
0000
0000
,
0320
0000
0000
0000
1030
0000
0000
0000
0001
0000
1000
0001
0010
0000
0001
1000
,
0010
0000
0100
0001
0010
0000
0100
1000
0010
0000
0100
0000
0101
0000
0001
0000
,
0010
0000
0100
0000
1100
0000
1100
0000
0001
0000
0010
0100
1000
0000
0010
0100
,
0001
0000
0010
0001
0100
0000
0010
1000
0100
0000
0010
0000
0110
0000
0100
1000
,
0001
0000
0100
0000
0110
0000
0110
0000
1010
0000
1000
0001
0010
0000
0100
1000
,
0010
0000
0100
0001
0010
0000
0100
0000
1001
0000
0001
1000
0010
0000
0100
0001
,
0010
0000
0100
1000
0010
0000
0100
0000
0201
0000
0010
1000
0000
0000
0010
0001
,
0000
0000
0010
1000
0000
0000
0310
0001
1000
0010
1000
0010
0100
0000
0001
0000
,
0101
0000
0101
0000
1000
0000
0000
0000
0001
0010
0001
0010
0100
1000
0100
1000
,
0001
0000
0100
0010
1000
0000
0100
0000
1000
0010
1000
0010
0100
0001
0100
0001
,
1000
0000
0100
0010
0001
0010
0100
0010
0001
0100
0001
0100
0010
1000
0010
1000
,
0001
0000
0000
0000
0011
0000
0000
0000
0110
0000
0000
0000
1100
0000
0000
0000
0002
0000
0000
0000
0010
0003
0010
0001
0200
0000
0320
0000
2030
0000
3002
0000
,
0013
0100
0010
0100
1000
0001
1000
0001
0010
0100
0010
0100
1000
0001
0100
0010
,
1000
0100
1000
0100
0010
0001
0010
0001
1000
0010
0100
0001
0100
0010
1000
0001
,
0010
0000
0100
0010
0001
0100
0010
1000
0100
0000
0010
0100
1000
0010
0100
0001
,
0010
0100
1000
0100
0010
0001
1000
0001
0100
0010
1000
0100
0010
0001
0100
0010
,
2002
0000
0000
0000
0000
0000
0000
0000
0000
0000
0000
0000
0000
0000
0000
0000
0003
0000
0000
0000
0000
0000
0000
0000
3100
0010
0001
0010
0100
0010
0001
0010
;

//--------------- dance-double - forcednature ----------------
#NOTEDATA:;
#STEPSTYPE:dance-double;
#DESCRIPTION:forcednature;
#DIFFICULTY:Easy;
#METER:11;
#RADARVALUES:0,0,0,0,0;
#CREDIT:forcednature;
#NOTES:
00000000
00000000
00000000
00000000
,
00000000
00000000
00000000
00000000
,
00000000
00000000
00000000
00000000
,
00001000
00001000
00010000
00010000
,
00000100
00000100
00001000
00001000
,
00000001
00000000
00000001
00000000
00000100
00000010
00000100
00000000
,
00002000
00010000
00010000
00103000
,
00001000
00010000
00001000
01000000
,
00010000
00000000
10000000
01000000
00000000
01000000
00100000
01000000
,
00100000
00010000
00100000
00001000
,
00010000
00000000
00000010
00001000
00000010
00000000
00000010
00000000
,
00000100
00000000
00000001
00000000
00001000
00000000
00000100
00010000
,
00000100
00001000
00000010
00020000
,
00031000
01001000
00001000
00101000
,
00200000
00000000
02300000
00000000
23000000
00000000
30010000
01000000
,
00010000
01010000
00010000
00110000
,
00010000
00000000
01000000
00010000
01000000
00000000
00001000
00000000
,
00010000
00000000
00010100
00000000
00010000
00000000
00000010
00001000
,
00000020
00000000
00000130
00000001
00000100
00000000
00001000
00000000
,
00010000
00001000
00010000
00000000
00100000
00000000
01000000
00010000
,
01000000
00000000
00100000
10000000
00010000
10000000
01000000
00000000
,
00100000
00000000
00000000
00100000
00000000
00000000
00100000
00000000
00010000
00000000
00000000
00000000
01000000
00000000
00000000
00000000
,
00002000
00000000
00100000
00103000
,
00001000
00000000
00000000
00001000
00000000
00000000
00010000
00000000
00000010
00000000
00000000
00000000
00000000
00000000
00000000
00000000
,
00010000
00000000
00000000
00010000
00000000
00000000
00001000
00000000
00100000
00000000
00000000
00000000
00000000
00000000
00000000
00000000
,
00001000
00010000
00000200
00001000
,
00000310
00000002
00002003
00003010
,
00002002
00000000
00000000
00000000
,
00000000
00000000
00003003
00000000
,
00002000
00000000
00000000
00003000
,
00000200
00000000
00000000
00000300
,
00020000
00000000
00000000
00030000
,
00002000
00000000
00000000
00003000
,
02000000
03010000
01000000
00000000
,
00200000
10300000
00100000
00000000
,
02000000
00010000
03001000
00000000
,
00022000
00000000
00000000
00000000
00000000
00000000
00000000
00033000
,
00011000
00000000
00000000
01000000
00010000
00000000
00000000
01000000
,
00000000
01000000
00000000
01000000
00001000
00000000
00000000
00000000
,
00011000
00000000
00000000
00000100
00001000
00000000
00000000
00000100
,
00000000
00000100
00000000
00000100
00000020
00000000
00000030
00000000
,
00011000
00000000
00000000
00100000
00010000
00000000
00000000
00100000
,
00000000
00100000
00000000
00100000
00001000
00000000
00000000
00000000
,
00011000
00000000
00000000
00000000
00000000
00000000
00000010
00000000
00001000
00000000
00000010
00000000
00010000
00000000
00000000
00010000
,
00000000
00010000
00000000
00000000
00011000
00000000
00000000
00000000
,
02000000
00000000
00000000
00000000
03000000
00000000
01000000
00000000
00020000
00000000
00030000
00200000
00000000
00300000
00001000
00000000
,
00020000
00000000
00000100
00000000
00031000
00000000
00000000
00000000
00002000
00000000
00003000
00000020
00000000
00000030
00000100
00000000
,
00000200
00000000
00001000
00000000
00010300
00000000
00000000
00000000
00020000
00000000
00030000
00002000
00000000
00003000
02000000
00000000
,
03020000
00100000
10030000
00010000
02000000
00000000
03002000
00000000
,
00023000
00000100
00000100
00001000
,
00001000
00000010
00000010
00031000
,
00010000
00000010
00010000
00000000
00001000
00100000
00001000
00000000
,
00010000
00200000
02300000
03100000
01100000
00000000
01000000
00000000
,
00010000
10000000
00010000
00000000
00100000
00000000
00001000
00010000
,
00000000
00000010
00001000
00000000
00002001
00000000
00000100
00000000
,
00000001
00003010
00010200
00001000
,
00010300
00001000
00010000
00000000
00011000
00000000
00001000
00000000
,
01000000
00010000
01000000
00000000
00100000
00000000
10000000
01000000
,
00000000
00100000
00010000
00100000
00002000
00000000
01000000
00000000
,
00010000
00000000
00103000
00000000
00001000
00010000
00001000
00010000
,
00001000
00000000
00000010
00000000
00000100
00001000
00000010
00000000
,
00000100
00000000
00000001
00001000
00000001
00000000
00000010
00000100
,
00000000
00001000
00000100
00000000
00020000
00000000
00000100
00000000
,
00001000
00000000
00030010
00010000
00001000
00001000
00001000
00000000
,
01000000
01000000
00020000
00100000
,
10000000
00000000
01030000
00010000
00100000
00000000
00001000
00010000
,
00000000
00010000
00000010
00010000
00002000
00000000
00003000
00000000
,
00020000
00030000
00022000
00000000
,
00000000
00000000
00033000
00000000
00010000
00000000
00000100
00001000
,
00000100
00001000
00000100
00000000
00000010
00000000
00000001
00000100
,
00000001
00000100
00000001
00000000
00000010
00000000
00001000
00010000
,
00001000
00010000
00001000
00000000
01000000
00000000
00100000
10000000
,
00100000
10000000
00100000
00000000
01000000
00000000
00001000
00010000
,
00000100
00010000
00001000
00000000
00100000
00000000
01000000
10000000
,
01000000
00100000
00010000
00000000
02000000
00000000
03200000
00000000
,
00320000
00000000
00031000
00010000
00002000
00000000
00003020
00000000
,
00000130
00000000
00001001
00000000
00000001
00000100
00000001
00000100
,
00000010
00001000
00000010
00001000
00000100
00010000
00000100
00010000
,
00001000
00100000
00010000
00000000
10000000
01000000
10000000
01000000
,
00100000
00010000
00100000
00010000
02000000
00010000
03001000
00010000
,
00000100
00001000
00000100
00001000
00000010
00010000
00002000
00000000
,
01003000
00010000
01000000
00010000
00200000
00000000
00302000
00000000
,
00013000
00000100
00020000
00000000
00031000
01000000
00002000
00000000
,
00103000
00001000
00010000
00001000
01000000
00010000
10000000
00100000
,
02000000
00000000
00000000
03000000
;

//--------------- dance-double - t7r ----------------
#NOTEDATA:;
#STEPSTYPE:dance-double;
#DESCRIPTION:t7r;
#DIFFICULTY:Medium;
#METER:13;
#RADARVALUES:0,0,0,0,0;
#CREDIT:t7r;
#NOTES:
00000000
00000000
00000000
00000000
,
00000000
00000000
00000000
00000000
,
00000000
00000000
00000000
00000000
,
10000000
01000000
10000000
01000000
,
00100000
00001000
00010000
00010000
,
00001000
00000000
00000010
00000001
00000100
00000000
00001000
00010000
,
00000000
00002000
00010000
00013000
,
01000000
11000000
01000000
11000000
,
10000000
00100000
01000000
00010000
10000000
00000000
00020000
00000000
,
10030000
00000000
01000000
00000000
00010000
00000000
00001000
00010000
,
00001000
00000000
00000100
00000001
00001000
00000010
00002000
00000000
,
00003001
00000011
00000001
00001001
,
00000001
00000000
00000100
00000010
00001000
00000000
00000200
00000000
,
00010300
00011000
00001000
00011000
,
00010000
00000000
01000000
10000000
00010000
01000000
00100000
10000000
,
00010000
00100000
00001000
00000000
00010000
00000010
00001000
00000000
,
00000010
00000000
00000110
00000000
00000001
00000010
00000100
00000000
,
00001000
00000100
00010000
00000000
00001000
01000000
00010000
00000000
,
00100000
00100000
00100000
00000000
00010000
10000000
00100000
01000000
,
00100000
10000000
00100000
10000000
00010000
01000000
00010000
01000000
,
00001000
00000000
00101000
00000000
00001000
00010000
00001000
00000010
,
00000100
00000000
00000000
00000100
00000000
00000000
00000100
00000000
00010000
00000000
00000000
00000000
00001000
00000000
00000000
00000000
,
00022000
00030000
00010000
00013000
,
00001000
00000000
00000100
00000001
00001000
00000000
00000100
00010000
,
00001000
00000000
00010000
01000000
10000000
00000000
10010000
00000000
,
10000000
00100000
00010000
00000000
00001000
00000010
00000001
00000000
,
00000100
00002000
00010000
00013000
,
00022000
00000000
00000000
00000000
,
00000000
00000000
00033000
00000000
,
00200000
00000000
00000000
00000000
00000000
00000000
00000000
00310000
00000000
00010000
00000000
00000000
10000000
00000000
00100000
00010000
,
00000000
00002000
00000000
00000000
00000000
00000000
00000000
00000000
00003000
00000000
00000000
00000000
00000000
00000000
00000010
00000000
,
00000100
00000000
00001000
00000000
00000020
00000000
00000130
00000001
00000000
00000000
00000010
00000000
00000100
00000000
00010000
00001000
,
00000000
00020000
00000000
00000000
00000000
00000000
00000000
00000000
00030000
00000000
00000000
00000000
00000000
00000000
00000000
00000000
,
00001000
00000000
00010000
00000000
01000000
00000000
00100000
00001000
00000000
00010000
00000000
00001000
00000100
00000000
00000010
00000100
,
00000000
00000002
00000000
00000000
00000000
00000000
00000000
00000000
00000003
00000000
00000000
00000000
00000000
00000000
00000010
00000000
,
00000100
00000000
00010000
00000000
00001000
00000000
01000000
00020000
00000000
00000000
00000000
00000000
00000000
00000000
00130000
00000000
,
00002000
00000000
01000000
00000000
00010000
00000000
00000000
00000000
00103000
00000000
00001000
00000000
00010000
00001000
00010000
00000000
,
00021000
00000000
00000000
00031000
00000100
00000000
00000000
00000010
,
00000000
00000010
00000000
00000100
00000001
00000000
00000010
00000000
,
00002000
00000000
00000000
00013000
01000000
00010000
00000000
01000000
,
00000000
01000000
00000000
10000000
00100000
00010000
00002000
00000000
,
00023000
00000000
00000000
00031000
00000010
00000000
00000000
00000100
,
00000000
00000100
00000000
00000010
00000001
00000000
00000100
00000000
,
00002000
00000000
00000000
00000000
00000000
00000000
00013000
00000000
00100000
00000000
01000000
00000000
01000000
00000000
00000000
01000000
,
00000000
01000000
00010000
10000000
02000000
00000000
03200000
00000000
,
00320000
00000000
10000000
00000000
00100000
00000000
10030000
01000000
00200000
00000000
01300000
20000000
00000000
30100000
01000000
00000000
,
00200000
00000000
00010000
00000000
01000000
00000000
10300000
00000000
02000000
00000000
03010000
00002000
00000000
00003100
00000010
00000000
,
00000200
00000000
00001000
00000000
00000010
00000000
00000301
00000000
00000020
00000000
00000130
00000002
00000000
00000103
00000010
00000000
,
00000002
00000000
00000100
00000000
00001000
00000000
00000013
00000100
00020000
00000000
00000100
00000000
00032000
00000000
01000000
00000000
,
00013000
00011000
00011000
00011000
,
00000100
00011000
00011000
00011000
,
01000000
00010000
10000000
01000000
00100000
00010000
00100000
00001000
,
00010000
00001000
00000100
00000000
00000010
00000000
00001000
00000000
00001002
00000000
00000000
00000000
00000010
00000000
00000000
00000000
,
00001003
00000100
00000010
00000001
00000200
00000000
00001300
00000200
,
00000000
00000310
00001000
00000000
00000200
00000000
00000001
00000000
,
00000010
00001300
00000010
00000110
,
00000001
00000010
00001000
00010000
00002000
00000000
01000000
00000000
,
00013000
00001000
00010000
00100000
02000000
00000000
03010000
20000000
,
00000000
31000000
00100000
01000000
20000000
00000000
00100000
00000000
,
00010000
00000000
31000000
00000000
00100000
00001000
00100000
00001000
,
00010000
00001000
00010000
00001000
00000010
00000001
00001000
00000000
,
00001010
00000000
00000010
00000100
00000002
00000000
00000013
00000200
,
00000000
00001300
00000010
00001000
00000002
00000000
00000100
00000000
,
00001000
00000000
00000013
00000100
00010000
00001000
00010000
00001000
,
00010000
00000000
01000000
10000000
00000000
00100000
02000000
00000000
00000000
10000000
00000000
00000000
,
00100000
00000000
03010000
00100000
00002000
00000000
00013000
00000010
,
00000100
00000100
00000010
00001000
00000002
00000000
00000023
00000000
,
00002030
00000000
00013000
00100000
01000000
00010000
00200000
00000000
,
00301000
00010000
00001000
00000010
00000100
00001000
00000010
00000100
,
00000001
00001000
00000010
00000000
00000100
00000001
00000010
00000100
,
00001000
00000100
00010000
00010000
00001000
01000000
00010000
00100000
,
01000000
10000000
00100000
00000000
01000000
00010000
10000000
01000000
,
00100000
00001000
00010000
00010000
00001000
00000100
00000010
00001000
,
00000100
00000010
00001000
00000000
00010000
01000000
00100000
00010000
,
01000000
00100000
00010000
00010000
00001000
00000010
00000100
00000100
,
00020000
00000000
00031000
00010000
00100000
10000000
01000000
00100000
,
00010000
00010000
10000000
00000000
00100000
01000000
00100000
01000000
,
00010000
00010000
10000000
10000000
01000000
00100000
01000000
00010000
,
00001000
00001000
00010000
00010000
00001000
00000100
00001000
00000100
,
00000010
00000000
00000100
00000000
00000001
00000000
00000100
00000000
00000002
00000000
00000023
00000000
00000230
00000000
00001300
00000001
,
00001000
00001000
00000100
00000100
00010000
00010000
00002000
00000000
,
01003000
01000000
00010000
00010000
10000000
10000000
02000000
00000000
,
03100000
00001000
00020000
00000000
00031000
00000010
00000002
00000000
,
00000103
00001000
00010000
01000000
10000000
00010000
00100000
00001000
,
00020000
00000000
00000000
00030000
;

//--------------- dance-double - 47R ----------------
#NOTEDATA:;
#STEPSTYPE:dance-double;
#DESCRIPTION:47R;
#DIFFICULTY:Hard;
#METER:16;
#RADARVALUES:0,0,0,0,0;
#CREDIT:47R;
#NOTES:
00000000
00000000
00000000
00000000
,
00000000
00000000
00000000
00000000
,
00000000
00000000
00000000
00000000
,
00110000
00010000
10000000
10000000
,
01000000
01000000
00100000
00100000
,
00001000
00010000
00001000
00010000
00001000
00010000
00001000
00010000
,
00001000
00000200
00000302
00000023
,
00000031
00000100
00000001
00000100
00000010
00001000
00000010
00001000
,
00000100
00000000
00010000
00000000
00001000
00010000
00001000
00000000
00010000
00001000
00010000
00000000
00001000
00000000
00001000
00000000
,
01000000
00000000
00010000
00000000
01000000
00000000
00010000
00000000
01000000
00000000
00100000
00000000
01000000
00000000
00010000
00100000
,
00010000
10000000
01000000
00010000
01000000
00100000
00002000
00000000
,
00013000
00001000
00010000
00001000
00010000
00000000
00000000
00000000
00010100
00000000
00000000
00000000
00011000
00000000
00001000
00000000
,
00001000
00000000
00010000
00000000
01000000
00000000
00100000
01000000
00000000
01000000
10000000
00000000
00200000
00000000
00000000
00000000
,
10300000
00000000
10000000
00010000
00000000
00010000
10000000
01000000
10000000
00010000
01000000
00010000
,
00100000
00001000
00010000
00001000
00000010
00000100
00001000
00001000
,
00000001
00000100
00001000
00000100
00000001
00000100
00001000
00010000
,
01000000
00000000
10000000
00000000
01000000
00000000
00100000
01000000
00100000
00000000
00100000
00000000
01000000
00000000
01000000
00000000
,
10000000
00100000
00010000
00100000
10000000
00100000
00010000
00001000
,
00000010
00000100
00000010
00000100
00000010
00000000
00000001
00000000
00000100
00000000
00000100
00000000
00001000
00000000
00010000
00001000
,
00010000
00000000
01000000
00000000
10000000
00000000
01000000
00000000
00010000
00000000
01000000
00000000
00100000
00000000
00001000
00010000
,
00001000
00000000
00000100
00000000
00000001
00000000
00000100
00000010
00000100
00000000
00000100
00000000
00000001
00000000
00000001
00000000
,
00000010
00000000
00000000
00000011
00000000
00000000
00000001
00000000
00001000
00000100
00001000
00000000
00000100
00010000
00000100
00000000
,
00020000
00000010
00001000
00030100
,
00010100
00000000
00000000
00000100
00000000
00000000
00010000
00000000
00011000
00000000
00000000
00000000
00001000
00000000
01000000
00010000
,
01000000
00000000
00000000
01010000
00000000
00000000
00010000
00000000
10000000
00000000
01000000
00100000
00010000
00000000
00000000
00000000
,
10000000
00100000
10000000
00010000
10000000
00000000
01000000
00100000
00002000
00000000
00023000
00000000
00030100
00001000
00000100
00001000
,
00000001
00000100
00001000
00010000
,
00022000
00000000
00000000
00000000
,
00000000
00000000
00033000
00000000
,
00000200
00000000
00001000
00000000
00000010
00000000
00000301
00000100
00000000
00000100
00000000
00001000
00000010
00000000
00010000
00001000
,
00000000
00200000
00000000
00000000
00310000
00000000
00100000
01000000
00000000
01000000
00000000
10000000
00010000
01000000
00010000
00000000
,
02000000
00000000
00000000
00100000
00000000
00000000
00010000
00000000
00010000
00000000
00000000
00001000
00000000
00000000
03010000
00000000
00000000
00000000
01000000
00000000
00001000
00000000
00000000
00000000
00010000
00000000
00000100
00000000
00001000
00000000
00000100
00000000
,
00000000
00000010
00000001
00000000
00000100
00000000
00001000
00010000
00000000
00010000
00000000
00100000
01000000
00100000
10000000
00000000
,
00020000
00000000
00100000
00000000
02030000
00000000
03001000
01000000
00000000
01000000
00000000
00010000
00100000
01000000
00100000
00001000
,
00000000
00001000
00000000
00010000
00000010
00000000
00001000
00000100
00000000
00000100
00000000
00000010
00000001
00001000
00000010
00000000
,
00000100
00000000
00001000
00000000
00000000
00010000
00000000
00000000
00100000
00000000
00010000
00000000
00000000
00001000
00000000
00000000
00000000
00000000
00010000
00000000
00000100
00000000
00001000
00000000
00000010
00000000
00010000
00000000
00001000
00000000
00100000
00000000
,
01000000
00000000
00010000
00000000
00000000
00001000
00000000
00000000
00000010
00000000
00001000
00000000
00000000
00000000
00020000
00000000
00000000
00000000
00000000
00000000
00100000
00000000
00000000
00000000
00031000
00000000
00010000
00000000
00011000
00000000
00000000
00000000
,
00010200
00000000
00000000
00001000
00000010
00000000
00000000
00010000
,
00000000
00000000
00010000
00000000
00000000
00000000
00010300
00001000
01000000
00000000
00000000
00000000
00000000
00000000
00000000
00000000
,
01020000
00000000
00000000
00000000
00000000
00000000
10030000
00010000
00100000
00000000
01000000
00000000
00000000
00000000
01000000
00000000
,
00000000
00000000
01000000
00000000
00000000
00000000
01000000
10000000
00200000
00000000
20300000
00000000
32000000
00000000
03020000
00000000
,
00032000
00000000
00000000
00010000
00100000
00000000
00000000
00000100
,
00000000
00000000
00000100
00000000
00000000
00000000
00003100
00000001
00001000
00000000
00000000
00000000
00000000
00000000
00000000
00000000
,
00000102
00000000
00000000
00000000
00000000
00000000
00000103
00000010
00001000
00000000
00000100
00000000
00000100
00000000
00000000
00010000
,
00000000
00000000
00010000
00000000
00000000
00001000
00010000
00001000
00010000
00000000
00000000
00000000
02000000
00000000
00000000
00000000
,
23000000
00000000
00000000
00000000
30100000
01000000
00010000
00100000
00002000
00000000
00013000
00000020
00000000
00001030
00000002
00000000
,
00000023
00000000
00001000
00000000
00000100
00000000
00000031
00000000
00000200
00000000
00001300
00020000
00000000
01030000
10000000
00010000
,
02000000
00000000
10000000
00000000
00100000
00000000
03010000
00000000
00200000
00000000
00301000
00020000
00000000
00000000
00031000
00000000
,
00000200
00000000
00001000
00000000
00000010
00000000
00000301
00000010
00000200
00000000
00000001
00000000
00002300
00000000
00003001
00001000
,
00000001
00000011
00000001
00000101
,
00001000
00001010
00001000
00001100
,
00000100
00010000
00001000
00010000
01000000
10000000
00100000
01000000
,
00010000
00100000
00002000
00000000
00023000
00000000
00032000
00000000
00003100
00000000
00000010
00000000
00000100
00000000
00000001
00000000
,
00000010
00000100
00000010
00000001
00000100
00001000
00010000
00100000
,
01000000
00100000
10000000
01000000
00100000
01000000
00010000
01000000
,
00100000
01000000
10000000
00100000
00010000
00001000
00000010
00000100
,
00000010
00000000
00000010
00000000
00000001
00001000
00000001
00001000
00000001
00000000
00000100
00000000
00000010
00000000
00000100
00000000
,
00001000
00000100
00000010
00001000
00000100
00001000
00010000
01000000
,
00100000
10000000
00010000
00010000
10000000
01000000
00100000
01000000
,
00010000
00000000
00001000
00000000
00000010
00000000
00000100
00000000
00010000
00001000
00010000
00000000
00001000
00000000
00001000
00000000
,
00011000
00000000
00010000
00000000
00001000
00000000
00000100
00000010
00000100
00000000
00000001
00000000
00000011
00000000
00000000
00000000
,
00001001
00001000
00000100
00000010
00000011
00000001
00001000
00000100
,
00001100
00000100
00010100
00010000
00011000
00010000
01000000
10000000
,
00100000
00000000
01000000
00000000
00010000
00000000
10000000
00000000
00010000
01000000
00010000
01000000
00100000
00000000
00000000
00000000
,
10000000
00000000
00000000
00000000
01000000
00000000
00000000
00000000
00100000
00000000
00000000
00000000
01000000
00000000
00000000
00000000
00010000
00000000
00000000
00000000
00001000
00000000
00000000
00000000
00020000
00000000
00000000
00000000
00000000
00000000
00001000
00000000
00000000
01000000
00000000
00000000
00000000
00000000
00000000
00000000
00000000
00000000
00000000
00000000
00000000
00000000
00000000
00000000
,
00130000
00000000
00001000
00010000
00011000
00000000
00001000
00000010
,
00000100
00000001
00000100
00001000
00020100
00001000
00000020
00030030
,
01002000
00010000
00200000
00303000
00011000
00001000
02001000
00000000
,
03100000
01000000
00010000
01000000
00001000
00000000
00000000
00000000
01000000
00000000
10000000
00000000
01000000
00000000
00010000
00000000
,
00100000
01000000
00010000
00001000
00100000
00010000
00001000
00000100
,
00010000
00001000
00000100
00000100
00000010
00010000
00001000
00000010
,
00000100
00000000
00001000
00000000
00000001
00000000
00000100
00000000
00001000
00000000
00000100
00000000
00000010
00000000
00001000
00000001
,
00001000
00001000
00000100
00000100
00000010
00000001
00000100
00001000
,
00000100
00000010
00001000
00010000
01000000
00001000
00010000
01000000
,
00100000
00001000
00010000
00010000
00100000
00100000
00100000
00100000
,
20010000
00000000
00000000
00000000
30100000
00000000
10000000
00000000
01000000
00100000
00010000
00000000
01000000
00000000
01000000
00000000
,
00001000
00010000
00000200
00000000
00000310
00000010
00000010
00000010
,
00000001
00000001
00000100
00000100
00001000
00001000
00001000
00001000
,
00010000
00000000
00010000
00000000
00100000
01000000
00100000
01000000
00010000
00000000
00010000
00000000
00010000
00000000
00010000
00000000
,
10000000
00000000
00000000
00000000
10000000
00000000
00000000
00000000
01000000
00000000
00000000
00000000
01000000
00000000
00000000
00000000
00100000
00000000
00001000
00010000
00000010
00000000
00001000
00000010
00020000
00000000
00032000
00000000
00003200
00000000
00000320
00000000
,
00001030
00000000
00001000
00000000
00001000
00000000
00002000
00000000
00003100
00000000
00000100
00000000
00000010
00000001
00001000
00000001
,
00000100
00000000
00000100
00000000
00000100
00000000
00000100
00000000
00001000
00010000
00001000
00010000
00002000
00010000
00000000
01003000
,
00001000
00000000
00001000
00000000
00100000
00010000
00100000
00010000
00100000
00000000
00100000
00000000
01000000
10000000
01000000
10000000
,
00010000
01000000
00010000
01000000
00010000
01000000
00010000
01000000
00001000
00010000
00001000
00010000
00000200
00010000
00000000
00001300
,
00000020
00000000
00000000
00000030
;

//--------------- dance-double - 47R ----------------
#NOTEDATA:;
#STEPSTYPE:dance-double;
#DESCRIPTION:47R;
#DIFFICULTY:Challenge;
#METER:18;
#RADARVALUES:0,0,0,0,0;
#CREDIT:47R;
#NOTES:
00000000
00000000
00000000
00000000
,
00000000
00000000
00000000
00000000
,
00000000
00000000
00000000
00000000
,
00001000
01000000
00010000
10000000
01000000
00010000
00001000
01000000
,
00100000
00010000
00001000
00000100
00000010
00001000
00000001
00000000
,
00000010
00000010
00001000
00001000
00010000
00010000
01000000
01000000
,
10000000
00000000
00100000
00000000
01000000
00000000
00000000
00000000
00001000
00010000
00001000
00010000
00000200
00000000
00000000
00000000
,
00001300
00000001
00000100
00000000
00000001
00001000
00000100
00000000
00001000
00000001
00000100
00000000
00000001
00001000
00000100
00000000
,
00001000
00000001
00000100
00000000
00001000
00010000
00100000
00000000
10000000
00010000
00100000
00000000
00010000
00000000
01000000
00000000
,
01000000
00010000
10000000
00000000
01000000
10000000
00010000
00000000
01000000
00010000
10000000
00000000
01000000
10000000
00100000
00000000
,
00010000
00001000
00000100
00000001
00000010
00000100
00002000
00000000
,
00003001
00000000
00001000
00000000
00000001
00000000
00001000
00000000
00000000
00000010
00000000
00000000
00000100
00000000
00000000
00000001
00000000
00000000
00001000
00000000
00000000
00000000
00000000
00000000
00000100
00000000
00000000
00001000
00000000
00000000
00000001
00000000
00000000
00000000
00000000
00000000
00000100
00000000
00000000
00000000
00000000
00000000
00001000
00000000
00000000
00000000
00000000
00000000
,
00001000
00010000
00001000
00000000
00010000
00000000
01000000
10000000
00000000
00100000
01000000
00010000
20000000
00000000
00000000
00000000
,
31000000
00000000
10000000
00010000
00000000
00010000
00001000
00000001
00001000
00000010
00000100
00000010
,
00001000
00000000
00000001
00000100
00000010
00000000
00001000
00000000
00010000
00000000
00100000
00000000
01000000
00000000
01000000
00000000
,
10000000
00000000
00010000
01000000
00001000
00000000
00010000
00000100
00001000
00000000
00000100
00010000
00001000
00000000
01000000
00001000
,
00010000
00000000
00000000
00000000
00000000
00000000
00001000
00000000
00000000
00010000
00000000
00000000
00000100
00000000
00000000
00000000
00000000
00000000
00010000
00000000
00001000
00000000
00010000
00000000
00001000
00000000
00000000
00000000
00000000
00000000
00000010
00000000
00000000
00000000
00000000
00000000
00000001
00000000
00000000
00000000
00000000
00000000
00000100
00000000
00000000
00000000
00000000
00000000
,
00001000
00000000
00010000
00000010
00001000
00000000
00000010
00010000
00001000
00000000
00100000
00001000
00010000
00000000
00000010
00010000
,
00001000
00010000
00001000
01000000
00010000
00000000
10000000
00000000
00100000
00000000
00010000
00000000
00011000
00000000
00001000
00010000
,
00001000
00000000
00010000
01000000
00010000
00000000
00001000
00000100
00001000
00000000
00010000
01000000
00010000
00000000
00001000
00000010
,
00001000
00000000
00010000
00100000
00010000
00000000
00001000
00000010
00001000
00000000
00010000
00000000
01000000
00000000
10000000
00000000
,
00100000
00000000
00000000
00011000
00000000
00000000
00010100
00000000
00000100
00001000
00000001
00000000
00000100
00000001
00001000
00000000
,
00000001
00000100
00001000
00010000
00000010
00001000
00010000
10000000
,
01000000
00000000
00010000
00001000
00010000
00000000
00001000
00000000
00011000
00000000
00000000
00000000
00001000
00000000
00000100
00000001
,
00000100
00000000
00000001
00000010
00000001
00000000
00000010
00000000
00001010
00000000
00001000
00010000
00001000
00000000
00000000
00000000
,
00010000
00000000
00000000
01000000
00000000
00000000
10000000
00000000
00000000
00010000
00000000
00000000
00100000
00000000
00000000
00000000
00000000
00000000
00001000
00000000
00000000
00000000
00000000
00000000
00010000
00000000
00001000
00000000
00010000
00000000
00001000
00000000
00010000
00000000
00001000
00000000
00010000
00000000
00000000
00001000
00000000
00000000
00010000
00000000
00000000
00001000
00000000
00000000
,
00010000
00002000
00003020
00000130
,
00022000
00000000
00000000
00000000
,
00000000
00000000
00033000
00000000
,
01000000
00010000
01000000
00100000
10000000
01000000
00000000
00010000
00001000
00000010
00001000
00010000
00000100
00001000
00000000
00000010
,
00000200
00000000
00000001
00000000
00000010
00000010
00000000
00001000
00001000
00000000
00010000
00000000
00001000
00001000
00000000
00000010
,
00000310
00000100
00000001
00000010
00000100
00010000
00000000
00001000
00000010
00001000
00010000
00100000
00010000
00001000
00000000
00010000
,
02000000
00000000
10000000
00000000
00100000
00100000
00000000
00010000
00010000
00000000
00001000
00000000
00010000
00010000
00000000
00100000
,
03100000
01000000
10000000
00100000
01000000
10000000
00000000
01000000
00010000
00100000
00001000
00000010
00000100
00001000
00000000
00000001
,
00000020
00000000
00000100
00000000
00001000
00001000
00000000
00010000
00010000
00000000
00001000
00000000
00000100
00000100
00000000
00000001
,
00000031
00000000
00000010
00000000
00001000
00000000
00010000
00000000
00100000
00000000
20000000
00000000
00000000
00000000
00000000
00000000
00000000
00000000
00000000
00000000
00000000
31000000
00000000
00000000
,
10100000
00000000
00000000
00000000
01010000
00000000
00000000
00000000
00101000
00000000
00000000
00000000
00010010
00000000
00000000
00000000
00001100
00000000
00000000
00000000
00000012
00000000
00000000
00000000
00000000
00000000
00000000
00000000
00000000
00000000
00000103
00000000
00000000
00000000
00000000
00000000
00000001
00000000
00000000
00000010
00000000
00000000
00001000
00000000
00000000
00000000
00000000
00000000
,
00020100
00000000
00000000
00100000
00100000
00000000
00000000
00000100
,
00000000
00000000
00000100
00000000
00000000
00000000
00031000
00010000
00100000
00000000
10000000
00000000
01000000
00000000
00010000
00000000
,
00002000
00000000
00000000
00000000
00000000
00000000
00003010
00002000
00000010
00000000
00000010
00000000
00000000
00000000
01000000
00000000
,
00000000
00000000
01000000
00000000
00000000
00000000
00013000
00001000
00000020
00000000
00000032
00000000
00000203
00000000
00002300
00000000
,
00023000
00000000
00000000
00100000
00100000
00000000
00000000
00000010
,
00000000
00000000
00000100
00000000
00000000
00000000
00031000
00010000
00100000
00000000
10000000
00000000
01000000
00000000
00010000
00000000
,
02000000
00000000
00000000
00000000
00000000
00000000
03100000
00002000
00010000
00000000
00010000
00000000
00010000
00000000
00000000
00000100
,
00000000
00000000
00000100
00000000
00000000
00013000
00000010
00001000
00000002
00000000
00000000
00000000
00000103
00000000
00000000
00000000
,
00000020
00000000
00000001
00000000
00000130
00000001
00000010
00000100
00001000
00000000
00000001
00000100
00000000
00001000
00010000
00000000
,
02000000
00000000
00010000
00000000
00100000
00000000
13000000
00000000
00200000
00000000
00310000
10000000
00000000
01000000
00010000
00000000
,
00200000
00000000
00010000
00000000
00001000
00000000
00010000
00000000
00302000
00000000
00013000
00000200
00000001
00000000
00000310
00001000
,
00000002
00000000
00000203
00000000
00020300
00000000
00031000
01000000
00200000
00000000
00010000
00000000
02300000
00000000
13000000
01000000
,
00100000
00000000
10000000
01000000
00100000
00000000
00010000
00000000
01000000
00000000
00100000
00000000
00010000
00000000
00001000
00000000
,
00010000
00000000
00000100
00001000
00000010
00000000
00001000
00000000
00000001
00000000
00000010
00000000
00000100
00000000
00001000
00000000
,
00000001
00000001
00000100
00000100
00001000
00001000
00010000
00010000
,
00002000
00000000
00000000
00000000
00000100
00000000
00000000
00000000
01003000
00000000
00010000
10000000
00010000
00000000
00000000
00000000
10000000
00000000
00000000
00000000
01000000
00000000
10000000
00000000
00010000
00000000
00000000
00000000
01000000
00000000
00010000
00000000
,
10000000
00000000
01000000
00000000
00010000
00000000
00001000
00000000
00000100
00000000
00000001
00001000
00000010
00000000
00001000
00000001
,
00000010
00000000
00000001
00000000
00000100
00000000
00001000
00000000
00010000
00000000
00000100
00010000
00001000
00000000
01000000
00010000
,
10000000
00000000
00010000
00000000
00100000
00000000
01000000
00000000
10000000
00000000
00100000
01000000
00010000
00000000
00100000
01000000
,
10000000
00000000
10000000
00000000
01000000
00100000
00001000
00010000
00001000
00000000
00010000
00000100
00001000
00000000
00000001
00000100
,
00000010
00000000
00001000
00000000
00000001
00000000
00000100
00000000
00001000
00000000
00010000
00000100
00001000
00000000
00000100
00010000
,
00001000
00000000
00010000
00000000
00001000
00000000
00100000
00000000
00010000
00000000
01000000
00100000
10000000
00000000
01000000
00100000
,
00010000
00000000
10000000
00000000
00100000
00000000
01000000
00000000
00001000
00010000
00001000
00000000
00000100
00000000
00000100
00000000
,
00000001
00000000
00000000
00000000
00000000
00000000
00000001
00000000
00000000
00000000
00000000
00000000
00001001
00000000
00000000
00000000
00000000
00000000
00000001
00000000
00001000
00000000
00000001
00000000
00001000
00000000
00000000
00000000
00000000
00000000
00000100
00000000
00000000
00000000
00000000
00000000
00010100
00000000
00000000
00000000
00000000
00000000
00000100
00000000
00000000
00010000
00000000
00000000
,
00001000
00000000
00010000
00000000
01000000
00000000
10000000
00000000
00100000
00000000
01000000
00010000
10000000
00000000
00100000
01000000
,
00001000
00000000
00010000
00000000
00011000
00000000
00010000
00000000
00001000
00000000
00010000
00100000
00010000
00000000
00100000
10000000
,
00100000
00000000
10000000
01000000
00100000
00000000
01100000
00000000
00010000
00100000
00001000
00010000
00000100
00000000
00000000
00000000
,
00001000
00000000
00000000
00000000
00000010
00000000
00000000
00000000
00001000
00000000
00000000
00000000
00010000
00000000
00000000
00000000
01000000
00000000
00000000
00000000
00010000
00000000
00000000
00000000
00200000
00000000
00000000
00000000
00000000
00000000
00001000
00000000
00000000
00010000
00000000
00000000
00000000
00000000
00000000
00000000
00000000
00000000
00010000
00000000
00000000
00001000
00000000
00000000
,
00000000
00000000
00001000
00010000
00000000
00000000
00310000
00001000
00000010
00000000
00000100
00000000
00000110
00000000
00000000
00001000
,
00000001
00000000
00000001
00000000
00000101
00000000
00001000
00000000
00000001
00000010
00002000
00000000
00023000
00000000
00000000
00000000
,
01030000
10000000
00100000
00000000
00020000
00000000
00000000
00000000
00031000
00100000
00001000
00010000
00000200
00000000
00000000
00000000
,
00000320
00000000
00000000
00000000
00000031
00000000
00000000
00000000
00001000
00000000
00000010
00000100
00001000
00000000
00010000
00001000
,
00000100
00000000
00001000
00010000
00100000
00000000
01000000
00010000
10000000
00000000
01000000
00000000
11000000
00000000
00010000
00000000
,
00100000
00000000
00001000
00000000
00011000
00000000
00011000
00000000
00100000
00000000
00001000
00010000
00100000
00000000
00010000
00001000
,
01000000
00000000
00010000
00100000
01000000
00000000
00010000
00001000
00100000
00000000
00001000
00000000
00011000
00000000
00000100
00001000
,
00000010
00000000
00000100
00000000
00000110
00000000
00000110
00000000
00001001
00000000
00000001
00000100
00001000
00000000
00010000
00001000
,
00000100
00000000
00001000
00010000
00100000
00000000
10000000
00000000
10010000
00000000
10000000
01000000
00010000
00000000
00001000
00010000
,
01000000
00000000
00010000
00001000
00000010
00000000
00000001
00000000
00000012
00000000
00002003
00000000
00023000
00000000
20030000
00000000
,
30200000
00000000
00000000
00000000
10300000
00000000
00010000
00100000
01000000
10000000
01000000
10000000
01000000
00000000
00010000
00000000
,
00011000
00000000
00011000
00000000
00000010
00000000
00000000
00000000
00000100
00000001
00000100
00000001
00001000
00000010
00001000
00000010
,
00000100
00000000
00001000
00000000
00010000
00000000
00100000
00000000
10000000
01000000
10000000
01000000
00100000
00010000
00100000
00010000
,
10000000
00000000
01000000
00000000
00010000
00001000
00010000
00001000
00100000
00010000
00100000
00010000
00001000
00000100
00001000
00000100
,
00000010
00000000
00000001
00000000
00000100
00000000
00001000
00000000
00020000
00000000
01030000
10000000
00020000
00230000
00302000
00003020
,
00000130
00001000
00000100
00001000
00000001
00000010
00000001
00000010
00001000
00010000
00001000
00010000
00200000
00000000
00000000
00000000
,
10300000
01000000
10000000
01000000
00100000
00010000
00100000
00010000
20000000
00000000
31000000
00010000
00002000
00000000
00003010
00001000
,
00010000
00000000
00011000
00000000
00001000
00010000
00000010
00001000
00000100
00000000
00000110
00000000
00000010
00000001
00000100
00000010
,
00001000
00000100
00001000
00000100
00010000
00001000
00010000
00001000
01000000
00010000
00100000
00010000
10000000
01000000
00010000
00001000
,
00200000
00000000
00000000
00000000
00000000
00000000
00000000
00000000
00000000
00000000
00000000
00000000
00000000
00000000
00000000
00000000
00000000
00000000
00000000
00000000
00000000
00000000
00000000
00000000
00310000
00100000
00001000
00010000
00000100
00001000
00000010
00000100
;
