#VERSION:0.83;
#TITLE:8 -eight-;
#SUBTITLE:;
#ARTIST:Tom-H@ck feat.Nadia;
#TITLETRANSLIT:;
#SUBTITLETRANSLIT:;
#ARTISTTRANSLIT:;
#GENRE:;
#CREDIT:;
#MUSIC:8 -eight-.ogg;
#BANNER:8 -eight-.png;
#BACKGROUND:8 -eight--bg.png;
#CDTITLE:./CDTitles/GITADORA.png;
#SAMPLESTART:44.166;
#SAMPLELENGTH:15.000;
#SELECTABLE:YES;
#OFFSET:1.225;
#BPMS:0.000=230.000;
#STOPS:;
#TIMESIGNATURES:0.000=4=4;
#BGCHANGES:0.000=../BGAs/17ho.mp4=1.000=0=0=0=StretchNoLoop====,
99999.000=-nosongbg-=1.000=0=0=0=StretchNoLoop====
;
#FGCHANGES:;

//--------------- dance-single - forcednature ----------------
#NOTEDATA:;
#STEPSTYPE:dance-single;
#DESCRIPTION:forcednature;
#DIFFICULTY:Beginner;
#METER:2;
#RADARVALUES:0,0,0,0,0;
#CREDIT:forcednature;
#NOTES:
0000
0000
0000
0000
,
0000
0000
0000
0000
,
0000
0000
0000
0000
,
0000
0000
0000
0000
,
0000
0000
0000
0000
,
0000
0000
0000
0000
,
1000
0000
0000
0000
,
0001
0000
0000
0000
,
0100
0000
0000
0000
,
0000
0000
0000
0000
,
1001
0000
0000
0000
,
0000
0000
0000
0000
,
0001
0000
0000
0000
,
1000
0000
0000
0000
,
0001
0000
0000
0000
,
0000
0000
0000
0000
,
1000
0000
0000
0000
,
0001
0000
0000
0000
,
1000
0000
0000
0000
,
0000
0000
0000
0000
,
0010
0000
0000
0000
,
0100
0000
0000
0000
,
0001
0000
0000
0000
,
0000
0000
0000
0000
,
0001
0000
0000
0000
,
0000
0000
0000
0000
,
1000
0000
0000
0000
,
0000
0000
0000
0000
,
0001
0000
0000
0000
,
0010
0000
0000
0000
,
0100
0000
0000
0000
,
0000
0000
0000
0000
,
0100
0000
0000
0000
,
0000
0000
0000
0000
,
1000
0000
0000
0000
,
0000
0000
0000
0000
,
0001
0000
0000
0000
,
0000
0000
0000
0000
,
0100
0000
0000
0000
,
0000
0000
0000
0000
,
0010
0000
0000
0000
,
0010
0000
0000
0000
,
0010
0000
0000
0000
,
0100
0000
0000
0000
,
1001
0000
0000
0000
,
0000
0000
0000
0000
,
0001
0000
0000
0000
,
0100
0000
0000
0000
,
0001
0000
0000
0000
,
0000
0000
0000
0000
,
1000
0000
0000
0000
,
0100
0000
0000
0000
,
1000
0000
0000
0000
,
0000
0000
0000
0000
,
0010
0000
0000
0000
,
0100
0000
0000
0000
,
0010
0000
0000
0000
,
0000
0000
0000
0000
,
1000
0000
0000
0000
,
0001
0000
0000
0000
,
1001
0000
0000
0000
,
0000
0000
0000
0000
,
1000
0000
0000
0000
,
1000
0000
0000
0000
,
1000
0000
0000
0000
,
0000
0000
0000
0000
,
0001
0000
0000
0000
,
0001
0000
0000
0000
,
0001
0000
0000
0000
,
0001
0000
0000
0000
,
0100
0000
0000
0000
,
0100
0000
0000
0000
,
0100
0000
0000
0000
,
0010
0000
0000
0000
,
0010
0000
0000
0000
,
0100
0000
0000
0000
,
0010
0000
0000
0000
,
0000
0000
0000
0000
,
0000
0000
0000
0000
,
0100
0000
0000
0000
,
1001
0000
0000
0000
,
0000
0000
0000
0000
,
1000
0000
0000
0000
,
0100
0000
0000
0000
,
1000
0000
0000
0000
,
0000
0000
0000
0000
,
0001
0000
0000
0000
,
0100
0000
0000
0000
,
0001
0000
0000
0000
,
0000
0000
0000
0000
,
1000
0000
0000
0000
,
0010
0000
0000
0000
,
1000
0000
0000
0000
,
0000
0000
0000
0000
,
0001
0000
0000
0000
,
0010
0000
0000
0000
,
0001
0000
0000
0000
0000
0000
0000
0000
0000
0000
0000
1001
;

//--------------- dance-single - forcednature ----------------
#NOTEDATA:;
#STEPSTYPE:dance-single;
#DESCRIPTION:forcednature;
#DIFFICULTY:Easy;
#METER:8;
#RADARVALUES:0,0,0,0,0;
#CREDIT:forcednature;
#NOTES:
0000
0000
0000
0000
,
0000
0000
0000
0000
,
0000
0000
0000
0000
,
0000
0000
0000
0000
,
0000
0000
0000
0000
,
0000
0000
0000
0000
,
2002
0000
3003
0000
,
2002
0000
3003
0000
,
1000
0001
1000
0000
,
0001
1000
0001
0000
,
0110
0000
0010
0000
,
1000
0000
0001
0000
,
0010
0010
0010
0000
,
0100
0100
0100
0000
,
0110
0000
0010
0000
,
0001
0000
1000
0000
,
0010
0100
0010
0000
,
0100
0000
0100
0000
,
0001
1000
0001
0000
,
1000
0001
1000
0000
,
0010
0100
0010
0000
,
0100
0000
0110
0000
,
2002
3003
0000
0000
,
1000
0001
1000
0000
,
0220
0330
0000
0000
,
0001
0000
1000
0000
,
0001
0100
0001
0000
,
1000
0100
1000
0000
,
0010
0100
0010
0000
,
1000
0000
0001
0000
,
2002
3003
0000
0000
,
0100
0010
0100
0000
,
0220
0330
0000
0000
,
0001
0000
1000
0000
,
0001
0000
0001
0000
,
0001
0001
0001
0000
,
0010
0000
0010
0000
,
0010
0010
0010
0000
,
0100
0000
0100
0000
,
0100
0100
0100
0000
,
1000
0001
1000
0000
,
0001
1000
0001
0000
,
0100
0010
0100
0000
,
0220
0000
0330
0000
,
1000
0000
0001
0000
,
0100
0010
1000
0000
,
0001
0000
0010
0000
,
0100
0000
0000
1001
0000
0000
0000
0000
,
1000
0010
1000
0000
,
0001
0010
0001
0000
,
0100
0100
0100
0000
,
0010
0000
0000
1001
0000
0000
0000
0000
,
1000
0000
0001
0000
,
0010
0100
1000
0000
,
0001
0000
0100
0000
,
0010
0000
0000
0000
0000
1001
0000
0000
0000
0000
0000
0000
,
1000
1000
1000
0000
,
0001
0001
0001
0000
,
0100
0000
0110
0000
,
0010
0000
1001
0000
,
1000
0000
0100
0000
,
1000
0001
0100
0000
,
0010
0000
1000
0000
,
0100
0000
0000
1001
0000
0000
0000
0000
,
0001
0010
0100
0000
,
1000
0010
0100
0000
,
0001
1000
0100
0000
,
0010
0000
0000
0110
0000
0000
0000
0000
,
1000
0000
0001
0000
,
0100
0010
1000
0000
,
0001
1000
0100
0000
,
0010
0000
0000
0000
0000
1001
0000
0000
0000
0000
0000
0000
,
0001
0100
0001
0000
,
1000
0100
1000
0000
,
1001
0000
0110
0000
,
1000
0000
0000
0000
0000
0000
0001
0000
0000
0000
0000
2002
,
0000
0000
0000
0000
,
3003
0000
0000
0000
,
0000
0000
0000
0000
,
0010
0000
0100
0000
,
1001
0000
1000
0100
,
0010
0000
0001
0100
,
0010
0000
1000
0001
,
0010
0000
0100
0000
,
1001
0000
0001
0100
,
0010
0000
1000
0000
,
0010
0100
0010
0100
,
0001
1000
0001
0000
,
0010
0000
0100
0000
,
1000
0010
1000
0000
,
0001
0010
0001
0000
,
0100
0001
0100
0000
,
0110
0000
0010
0000
,
1000
0001
1000
0000
,
0100
0010
0100
0010
,
0001
1000
0001
0000
,
0200
0000
0000
0000
0000
0000
0000
0000
0300
0000
0000
2002
,
0000
0000
0000
0000
0000
0000
0000
0000
3003
0000
0000
0000
;

//--------------- dance-single - forcednature ----------------
#NOTEDATA:;
#STEPSTYPE:dance-single;
#DESCRIPTION:forcednature;
#DIFFICULTY:Medium;
#METER:13;
#RADARVALUES:0,0,0,0,0;
#CREDIT:forcednature;
#NOTES:
0000
0000
0000
0000
,
0000
0000
0000
0000
,
0000
0000
0000
0000
,
0000
0000
0000
0000
,
0000
0000
0000
0000
,
0000
0000
0000
0000
,
2002
0000
3003
0000
,
0220
0000
0330
0000
,
1000
1000
0001
0001
,
0100
0010
0110
1001
,
1000
0000
0000
1000
0000
0100
0000
0000
0000
0010
0000
0000
,
0010
0000
0002
0000
0000
0000
0103
0000
0000
0010
0000
0000
,
1000
0000
0000
1000
0000
0001
0000
0000
0000
0010
0000
0000
,
0010
0000
0200
0000
0000
0000
1300
0000
0000
0001
0000
0000
,
0110
0000
0000
1000
0000
0001
0000
0000
0000
0100
0000
0000
,
0010
0000
2000
0000
0000
0000
3001
0000
0000
0010
0000
0000
,
0100
0100
1000
1000
,
0001
0000
0000
0001
0000
0000
0100
0000
0000
0010
0000
1000
,
0000
0000
0000
0001
0000
0000
1001
0000
0000
0000
0000
0001
,
0000
0000
0000
1000
0000
0000
1001
0000
0000
0000
0000
0110
,
0000
1000
0001
0010
,
0100
0110
0010
0110
,
1001
0000
0000
1000
0000
0100
0000
0000
0010
0001
0000
0000
,
0100
0110
0010
0110
,
1001
0000
0000
0001
0000
0100
0000
0000
0010
1000
0000
0000
,
0001
0000
0010
0000
0000
0100
1000
0000
0000
0010
0000
0100
,
0000
0000
0000
0001
0000
0000
1010
0000
0000
0000
0000
0100
,
0000
0000
0000
1000
0000
0000
0011
0000
0000
0000
0000
1001
,
0000
1000
0010
0100
,
0001
0011
1000
1010
,
1001
0000
0000
0001
0000
0010
0000
0000
0100
1000
0000
0000
,
0010
0110
0100
0110
,
1001
0000
0000
1000
0000
0010
0000
0000
0100
0001
0000
0000
,
0010
0100
2000
3002
,
0103
0000
0100
0000
0000
0010
0100
0000
0000
0010
0000
0010
,
0000
0000
0100
0010
0000
0000
2002
0000
0000
3003
0000
0000
,
1000
0000
1000
0000
0000
0001
1000
0000
0000
0001
0000
0001
,
0000
0000
1000
0001
0000
0000
0220
0000
0000
0330
0000
0000
,
1000
0000
0100
0000
0000
0100
0010
0000
0000
0001
0000
0100
,
0000
0000
0100
0010
0000
0000
1000
0000
0000
0001
0000
0000
,
0010
0000
0000
0110
0000
0000
2002
0000
0000
3003
0000
1000
,
0000
0001
0010
0100
,
1000
0000
0001
1000
0000
0000
0001
0000
1000
0001
0000
0200
,
0000
0000
0000
0000
0000
0000
0310
0000
0000
0010
0000
1000
,
0000
0000
0001
0010
0000
0000
0001
0000
1000
0010
0000
0000
,
0100
0000
0000
0100
0000
0010
0000
0000
1000
0000
0000
1001
,
0000
0000
0001
0010
0000
0000
0100
0000
0000
1000
0000
0000
,
1001
0000
0000
0220
0000
0000
0330
0000
,
0001
0000
0000
0100
0000
0001
0100
0000
0000
0010
0000
0000
,
1000
0000
0001
0000
0000
2000
0000
0000
0000
3000
0000
0000
,
0100
0000
0010
0000
0000
0001
0010
0000
0100
0000
0000
1000
,
0001
0000
0000
0000
0000
0000
0000
0000
0000
0220
0000
0000
0000
0000
0000
0000
0330
0000
0000
0000
0000
0000
1001
0000
,
0000
0001
0110
1000
,
0001
0000
0000
0001
0000
0100
0000
0000
0010
0000
0000
1000
,
0000
0000
0100
0010
0000
0000
0001
0000
0100
0010
0000
0000
,
1001
0000
0000
0000
0000
0220
0000
0000
0000
0330
0000
0000
,
1000
0000
0000
0100
0000
1000
0000
0000
0100
1000
0000
0000
,
0001
0000
0100
0000
0000
0001
0000
0000
0010
0001
0000
0000
,
0202
0303
2200
3300
,
0022
0000
0000
0033
0000
0000
2020
0000
0000
3030
0000
1001
,
0000
0000
1000
0100
0000
0000
1000
0000
0001
0100
0000
0000
,
0010
0000
0000
1000
0000
0001
0000
0000
0011
0000
0000
1100
,
0000
0000
1000
0001
0000
0000
0100
0000
0001
1000
0000
0000
,
1010
0000
0000
0202
0000
0000
0303
0000
,
1000
0000
0100
1000
0000
0000
0100
0000
0000
0010
0000
0001
,
0010
0000
0001
0000
0000
1000
0000
0000
0001
0100
0000
0000
,
0010
0000
1000
0000
0000
0001
0010
0000
0001
0000
0000
1000
,
0010
0000
0000
0000
0000
0000
0000
0000
0000
0220
0000
0000
0000
0000
0000
0000
0330
0000
0000
0000
0000
0000
1001
0000
,
0000
0000
0000
0110
0000
0000
0001
0000
0100
0001
0000
0000
,
1000
0000
0010
1000
0000
0001
0000
0000
0010
0000
0000
0110
,
0000
0000
0100
1000
0000
0000
0001
0000
0100
0001
0000
0000
,
0011
0000
0000
0000
0000
0202
0000
0000
0000
0303
0000
0000
,
0001
0000
0000
0001
0000
0100
0001
0000
0000
1000
0000
0010
,
1000
0000
0000
0001
0000
0010
0001
0000
0000
1000
0000
0000
,
2200
3300
0022
0033
,
0202
0000
0000
0303
0000
0000
2020
0000
3030
0000
0000
2002
,
0000
0000
0000
0000
,
3003
0000
0000
0000
,
0000
0000
0000
0000
,
1000
0001
1001
0110
,
1001
0000
0000
0001
0000
0100
0000
0000
0000
0010
0000
0000
,
0010
0000
2000
0000
0000
0000
3100
0000
0000
0010
0000
0000
,
0001
0000
1000
0001
0000
1000
0000
0000
0000
0010
0000
0100
,
0010
0000
0200
0000
0000
0000
0301
0000
0000
1000
0000
0000
,
0110
0000
0000
0001
0000
1000
0000
0000
0000
0100
0000
0000
,
0010
0000
0002
0000
0000
0000
1003
0000
0000
0010
0000
0000
,
0100
0000
0001
0100
0000
0000
0001
0000
0100
0001
0000
0000
,
1000
0000
0100
1000
0000
0000
0010
0000
0000
0110
0000
0000
,
1001
0000
0000
1000
0000
0010
0000
0000
0000
0100
0000
0000
,
0100
0000
0002
0000
0000
0000
0013
0000
0000
0100
0000
0000
,
1000
0000
0001
1000
0000
0001
0000
0000
0000
0100
0000
0010
,
0100
0000
0020
0000
0000
0000
1030
0000
1000
0001
0000
0001
,
0010
0000
0000
0100
0000
1000
0000
0000
0000
0001
0000
0000
,
0100
0000
0020
0000
0000
0000
1030
0000
0000
0001
0000
0000
,
0010
0000
0100
0010
0000
0000
0001
0000
0100
0001
0000
0000
,
1000
0000
0100
1000
0000
0000
0010
0000
0100
0010
0000
0000
,
2002
0000
0000
0000
0000
0000
0000
0000
3003
0000
0000
0220
,
0000
0000
0000
0000
0000
0000
0000
0000
0330
0000
0000
0000
;

//--------------- dance-single - forcednature ----------------
#NOTEDATA:;
#STEPSTYPE:dance-single;
#DESCRIPTION:forcednature;
#DIFFICULTY:Hard;
#METER:15;
#RADARVALUES:0,0,0,0,0;
#CREDIT:forcednature;
#NOTES:
0000
0000
0000
0000
,
0000
0000
0000
0000
,
0000
0000
0000
0000
,
0000
0000
0000
0000
,
0000
0000
0000
0000
,
0000
0000
0000
0000
,
2002
0000
3003
0000
,
0220
0000
0330
0000
,
1000
1000
0001
0001
,
0010
0000
0000
0100
0000
0010
0100
0000
0000
0110
0000
0000
,
1001
0000
0000
1000
0000
0010
0000
0000
1000
0001
0000
0000
,
1000
0000
0100
0000
0000
0010
0100
0000
0010
0001
0000
0000
,
1000
0000
1000
0010
0000
0010
0000
0000
0100
0001
0000
0000
,
1000
0000
1000
0100
0000
0100
0010
0000
0010
0001
0000
0000
,
1001
0000
0000
1000
0000
0010
0000
0000
0100
0010
0000
0000
,
1000
0000
0001
0000
0000
0010
0100
0000
0010
0001
0000
0000
,
0001
0000
0001
0100
0000
0100
0010
0000
0010
1000
0000
1000
,
0001
0000
0001
0010
0000
0010
0100
0000
0000
0010
0000
1002
,
0000
0000
0000
0100
0000
0000
0013
0000
0000
0000
0000
2001
,
0000
0000
0000
0100
0000
0000
3010
0000
0000
0000
0000
0102
,
0000
1000
0010
1003
,
2001
3010
1002
0013
,
0110
0000
0000
0010
0000
0001
0000
0000
0100
0001
0000
0000
,
0010
0000
0001
0000
0000
0100
0001
0000
0000
0010
0000
0000
,
0100
0000
0100
1000
0000
1000
0001
0000
0001
0100
0000
0000
,
0010
0000
1000
0010
0000
0000
0100
0000
0000
0001
0000
0012
,
0000
0000
0000
0100
0000
0000
0013
0000
0000
0000
0000
2010
,
0000
0000
0000
0100
0000
0000
3010
0000
0000
0000
0000
1002
,
0000
0100
1000
0013
,
0001
0000
0001
0100
0000
0100
0010
0000
0010
1000
0000
0000
,
1001
0000
0000
1000
0000
0010
0000
0000
1000
0100
0000
0000
,
1000
0000
0010
0000
0000
1000
0100
0000
0000
0010
0000
0000
,
0001
0000
0001
0100
0000
0100
0010
0000
0010
1000
0000
0000
,
0001
0010
0001
0010
0000
0000
0200
0000
0000
2300
0000
0000
,
3001
0000
0100
0000
0000
0010
0100
0000
0000
1000
0000
0100
,
0000
0000
0010
0100
0000
0000
0220
0000
0000
0330
0000
0000
,
0001
0000
0010
0000
0000
0100
0010
0000
0000
1000
0000
0010
,
0000
0000
0100
0010
0000
0000
2002
0000
0000
3003
0000
0000
,
1000
0000
0100
0000
0000
0010
0100
0000
0000
0001
0000
0100
,
0000
0000
0010
0100
0000
0100
1000
0000
0010
0000
0000
0100
,
0001
0000
0000
0101
0000
0000
1010
0000
0000
0001
0000
1000
,
0000
0000
0100
0010
0000
0000
1001
0000
0000
0001
0000
0200
,
0000
0000
0000
1000
0000
0000
1000
0000
0000
0010
0000
0020
,
0000
0000
0000
0330
0000
0000
1000
0001
1000
0001
1000
0010
,
0000
0000
0100
0001
0000
0000
0011
0000
0100
1000
0000
0000
,
0001
0000
1000
0010
0000
0100
0000
0000
1001
0000
0000
0101
,
0000
0000
0001
0010
0000
0000
1100
0000
1000
0010
0000
0000
,
0120
0000
0000
0000
0000
0000
1000
0000
0000
0230
0000
0000
0000
0000
0000
0000
0301
0000
0010
0000
0100
0000
1000
0000
,
0001
0000
0001
0100
0000
0100
1000
0000
0000
0100
0000
0100
,
0001
0000
0001
0010
0000
0100
0000
0000
1000
0100
0000
0000
,
0010
0000
0010
0001
0000
0100
0010
0000
0010
1000
0000
0100
,
0010
0000
0100
0000
0010
0000
0100
0000
0000
2002
0000
0000
0000
0000
0000
0000
0000
0000
3003
0000
0000
0000
0110
0000
,
0000
0000
0001
0010
0000
0000
1100
0000
1000
0010
0000
0000
,
0100
0000
0010
1000
0000
0100
0000
0000
0110
0000
0000
1001
,
0000
0000
0001
0100
0000
0000
1001
0000
1000
0100
0000
0000
,
0110
0000
0000
0010
0000
2002
0000
0000
0000
3003
0000
0000
,
0101
0000
0000
0100
0000
0100
1000
0000
1000
0100
0000
0000
,
0001
0000
0001
0010
0000
0100
0000
0000
1000
0001
0000
0000
,
0102
0013
2100
3010
,
0220
0000
0000
0330
0000
0000
1000
0100
0010
0001
0000
0101
,
0000
0000
0100
1000
0000
0000
0101
0000
0001
0010
0000
0000
,
0100
0000
0100
1000
0000
0010
0000
0000
0110
0000
0000
1001
,
0000
0000
0001
0010
0000
0000
1100
0000
1000
0010
0000
0000
,
0210
0000
0000
0000
0000
0000
0010
0000
0000
0002
0300
0000
0000
0000
0000
0000
0013
0000
0001
0000
0010
0000
0001
0000
,
0010
0000
0100
0010
0000
0100
1000
0000
0000
0001
0000
0100
,
0010
0000
1000
0001
0000
0010
0000
0000
0100
1000
0000
0000
,
0010
0000
1001
0000
0000
0001
0010
0000
0010
0100
0000
0100
,
1000
0000
0000
0000
0000
0000
0010
0000
0000
2002
0000
0000
0000
0000
0000
0000
3003
0000
0000
0000
0000
0000
0110
0000
,
0000
0000
1000
0100
0000
0000
0110
0000
0001
0100
0000
0010
,
1000
0000
0001
0010
0000
0100
0000
0000
0110
0000
0000
1001
,
0000
0000
1000
0010
0000
0010
0100
0000
0100
0001
0000
0000
,
0011
0000
0000
0100
0000
2200
0000
0000
0000
3300
0000
0000
,
0001
0000
0001
0100
0000
0100
0010
0000
0010
1000
0000
1000
,
0100
0000
0100
0010
0000
0010
0001
0000
0001
1000
0000
0000
,
2010
3100
0012
0103
,
0001
1000
0001
1000
0001
1000
0010
0000
0000
0100
0000
2002
,
0000
0000
0000
0000
,
3003
0000
0000
0000
,
0000
0000
0000
0000
,
1001
0000
0000
0001
0100
0010
1000
0000
0000
0110
0000
0000
,
1001
0000
0000
1000
0000
0100
0000
0000
0010
0100
0000
0000
,
1000
0000
0010
0000
0000
0100
0010
0000
0100
0001
0000
0000
,
1001
0000
0001
0010
0000
0100
0000
0000
1000
0100
0000
0000
,
0010
0000
0001
1000
0000
0001
0100
0000
0010
0000
0000
1000
,
0001
0000
0000
0010
0000
0100
0000
0000
1000
0100
0000
0010
,
0001
0000
1000
0000
0000
0001
0100
0000
0010
1000
0000
0000
,
0001
0000
0001
0010
0000
0010
0100
0000
0100
1000
0000
1000
,
0001
0000
0001
0100
0000
0100
0010
0000
0000
0110
0000
0000
,
1001
0000
0001
0010
0000
0100
0000
0000
0010
0001
0000
0000
,
1000
0000
0010
0000
0000
0100
0010
0000
1000
0001
0000
0000
,
0010
0000
0100
1000
0100
1000
0200
0000
0000
0320
0000
0000
,
0031
0100
0001
0100
0001
0100
0010
1000
0010
1000
0010
1000
,
0001
0000
0000
0010
0000
0100
0000
0000
0010
0001
0000
0000
,
1000
0000
0010
0000
0000
0100
0010
0000
1000
0001
0000
0000
,
0011
0000
0001
0100
0000
0100
0010
0000
0010
1000
0000
1000
,
0001
0000
0001
0010
0100
1000
0010
0000
0000
1001
0000
0000
,
0220
0000
0000
0000
0000
0000
0000
0000
0330
0000
0000
2002
,
0000
0000
0000
0000
0000
0000
0000
0000
3003
0000
0000
0000
;

//--------------- dance-double - forcednature ----------------
#NOTEDATA:;
#STEPSTYPE:dance-double;
#DESCRIPTION:forcednature;
#DIFFICULTY:Easy;
#METER:8;
#RADARVALUES:0,0,0,0,0;
#CREDIT:forcednature;
#NOTES:
00000000
00000000
00000000
00000000
,
00000000
00000000
00000000
00000000
,
00000000
00000000
00000000
00000000
,
00000000
00000000
00000000
00000000
,
00000000
00000000
00000000
00000000
,
00000000
00000000
00000000
00000000
,
00022000
00000000
00033000
00000000
,
00022000
00000000
00033000
00000000
,
00000100
00010000
00001000
00000000
,
00010000
00001000
01000000
00000000
,
02200000
00000000
00000000
00000000
00000000
03300000
00000000
00000000
,
10000000
00000000
00010000
00000000
,
00100000
00100000
00100000
00000000
,
01000000
01000000
01000000
00000000
,
01100000
00000000
00100000
00000000
,
00001000
00000000
00010000
00000000
,
00000010
00001000
00000010
00000000
,
00001000
00000000
00000100
00000000
,
00000010
00000001
00000010
00000000
,
00000001
00000100
00000001
00000000
,
00000100
00001000
00000100
00000000
,
00001000
00000000
00011000
00000000
,
02002000
03003000
00000000
00000000
,
00001000
00010000
00001000
00000000
,
00020200
00030300
00000000
00000000
,
00010000
00000000
00001000
00000000
,
01000000
00010000
01000000
00000000
,
00010000
00100000
00010000
00000000
,
00100000
10000000
00100000
00000000
,
00001000
00000000
00010000
00000000
,
00022000
00033000
00000000
00000000
,
00010000
00000100
00010000
00000000
,
00022000
00033000
00000000
00000000
,
00001000
00000000
01000000
00000000
,
00010000
00000000
00010000
00000000
,
00010000
00100000
01000000
00000000
,
00100000
00000000
00100000
00000000
,
00100000
00001000
00010000
00000000
,
00000010
00000000
00000010
00000000
,
00000010
00001000
00000001
00000000
,
00000010
00000100
00010000
00000000
,
00001000
00100000
01000000
00000000
,
10000000
00010000
10000000
00000000
,
20020000
00000000
30030000
00000000
,
00010000
00000000
01000000
00000000
,
00001000
00010000
00000010
00000000
,
00001000
00000000
00000100
00000000
,
00010000
00000000
00000000
00011000
00000000
00000000
00000000
00000000
,
00001000
00100000
00010000
00000000
,
00100000
00001000
00010000
00000000
,
00000010
00000010
00000010
00000000
,
00000100
00000000
00000000
00001001
00000000
00000000
00000000
00000000
,
00001000
00000000
00000100
00000000
,
00010000
00001000
00100000
00000000
,
00010000
00000000
01000000
00000000
,
00001000
00000000
00000000
00000000
00000000
00011000
00000000
00000000
00000000
00000000
00000000
00000000
,
00010000
00010000
00010000
00000000
,
00000100
00000100
00000100
00000000
,
00001000
00000000
00001001
00000000
,
00000010
00000000
00000110
00000000
,
00000001
00000000
00000100
00000000
,
00000001
00001000
00000010
00000000
,
00010000
00000000
00001000
00000000
,
00100000
00000000
00000000
10010000
00000000
00000000
00000000
00000000
,
00010000
10000000
01000000
00000000
,
10000000
00010000
01000000
00000000
,
00001000
00010000
00000010
00000000
,
00000100
00000000
00000000
00001001
00000000
00000000
00000000
00000000
,
00001000
00000000
00000100
00000000
,
00010000
00001000
00100000
00000000
,
00001000
00010000
00000010
00000000
,
00000100
00000000
00000000
00000000
00000000
00001001
00000000
00000000
00000000
00000000
00000000
00000000
,
00001000
00000100
00010000
00000000
,
00001000
01000000
00010000
00000000
,
10010000
00000000
01100000
00000000
,
00010000
00000000
00000000
00000000
00000000
00000000
01000000
00000000
00000000
00000000
00000000
00022000
,
00000000
00000000
00000000
00000000
,
00033000
00000000
00000000
00000000
,
00000000
00000000
00000000
00000000
,
00010000
00000000
00001000
00000000
,
00011000
00000000
00010000
00000100
,
00001000
00000000
00000001
00001000
,
00000010
00000000
00010000
00001000
,
01000000
00000000
00010000
00000000
,
10010000
00000000
10000000
01000000
,
00100000
00000000
00010000
00000000
,
01000000
00001000
01000000
00001000
,
00010000
00000010
00001000
00000000
,
00000100
00000000
00000010
00000000
,
00000100
00001000
00000001
00000000
,
00000100
00000010
00001000
00000000
,
00000010
00010000
00001000
00000000
,
00011000
00000000
00100000
00000000
,
00010000
10000000
00100000
00000000
,
01000000
00010000
01000000
00001000
,
00010000
00000100
00001000
00000100
,
00000020
00000000
00000000
00000000
00000000
00000000
00000000
00000000
00000030
00000000
00000000
00002002
,
00000000
00000000
00000000
00000000
00000000
00000000
00000000
00000000
00003003
00000000
00000000
00000000
;

//--------------- dance-double - forcednature ----------------
#NOTEDATA:;
#STEPSTYPE:dance-double;
#DESCRIPTION:forcednature;
#DIFFICULTY:Medium;
#METER:13;
#RADARVALUES:0,0,0,0,0;
#CREDIT:forcednature;
#NOTES:
00000000
00000000
00000000
00000000
,
00000000
00000000
00000000
00000000
,
00000000
00000000
00000000
00000000
,
00000000
00000000
00000000
00000000
,
00000000
00000000
00000000
00000000
,
00000000
00000000
00000000
00000000
,
00020200
00000000
00030300
00000000
,
02002000
00000000
03003000
00000000
,
00001000
00001000
00010000
00010000
,
00001000
00010000
00011000
00010100
,
00000100
00000000
00000000
00001000
00000000
00000001
00000000
00000000
00000000
00000100
00000000
00000000
,
00000100
00000000
00000020
00000000
00000000
00000000
00010030
00000000
00000000
00001000
00000000
00000000
,
01000000
00000000
00000000
01000000
00000000
00010000
00000000
00000000
00000000
00100000
00000000
00000000
,
00100000
00000000
02000000
00000000
00000000
00000000
13000000
00000000
00000000
00010000
00000000
00000000
,
01010000
00000000
00000000
01000000
00000000
00001000
00000000
00000000
00000000
00010000
00000000
00000000
,
00000100
00000000
00002000
00000000
00000000
00000000
00003010
00000000
00000000
00000100
00000000
00000000
,
00000001
00000010
00000001
00000100
,
00001000
00000000
00000000
00010000
00000000
00000000
00001000
00000000
00000000
01000000
00000000
00010000
,
00000000
00000000
00000000
00100000
00000000
00000000
00011000
00000000
00000000
00000000
00000000
00000100
,
00000000
00000000
00000000
00001000
00000000
00000000
00001010
00000000
00000000
00000000
00000000
00011000
,
00000000
01000000
00010000
00100000
,
01000000
00010000
00000100
00001000
,
00001001
00000000
00000000
00000001
00000000
00000010
00000000
00000000
00000001
00001000
00000000
00000000
,
00000010
00000100
00001000
01000000
,
10010000
00000000
00000000
10000000
00000000
01000000
00000000
00000000
00100000
01000000
00000000
00000000
,
00100000
00000000
00001000
00000000
00000000
00010000
00000100
00000000
00000000
00001000
00000000
00000010
,
00000000
00000000
00000000
00000110
00000000
00000000
00001001
00000000
00000000
00000000
00000000
00010000
,
00000000
00000000
00000000
00011000
00000000
00000000
00101000
00000000
00000000
00000000
00000000
10010000
,
00000000
10000000
01000000
00010000
,
00001000
00101000
00010000
00010010
,
00011000
00000000
00000000
00001000
00000000
00000010
00000000
00000000
00000100
00000010
00000000
00000000
,
00000001
00000101
00001000
00001100
,
00001001
00000000
00000000
00000001
00000000
00000100
00000000
00000000
00000010
00000100
00000000
00000000
,
00001000
00010000
00002000
00203000
,
01300000
00000000
01000000
00000000
00000000
00100000
01000000
00000000
00000000
00100000
00000000
00100000
,
00000000
00000000
01000000
00100000
00000000
00000000
02200000
00000000
00000000
03300000
00000000
00000000
,
00001000
00000000
00001000
00000000
00000000
00010000
00001000
00000000
00000000
00010000
00000000
00010000
,
00000000
00000000
00001000
00010000
00000000
00000000
00022000
00000000
00000000
00033000
00000000
00000000
,
00000100
00000000
00000100
00000000
00000000
00000010
00000100
00000000
00000000
00000010
00000000
00000010
,
00000000
00000000
00000100
00000010
00000000
00000000
00000220
00000000
00000000
00000330
00000000
00000000
,
00000001
00000000
00000000
00000100
00000000
00000000
00002020
00000000
00000000
00003030
00000000
00010000
,
00000000
00001000
00100000
01000000
,
10000000
00000000
00010000
10000000
00000000
00000000
00010000
00000000
10000000
00010000
00000000
02000000
,
00000000
00000000
00000000
00000000
00000000
00000000
03001000
00000000
00000000
00001000
00000000
00100000
,
00000000
00000000
00001000
00010000
00000000
00000000
00000010
00000000
00010000
00001000
00000000
00000000
,
01000000
00000000
00000000
01000000
00000000
00010000
00000000
00000000
00100000
00000000
00000000
01100000
,
00000000
00000000
01000000
10000000
00000000
00000000
00010000
00000000
00000000
01000000
00000000
00000000
,
01001000
00000000
00000000
00020020
00000000
00000000
00030030
00000000
,
00000010
00000000
00000000
00001000
00000000
00000001
00001000
00000000
00000000
00000100
00000000
00000000
,
00010000
00000000
00001000
00000000
00000000
00200000
00000000
00000000
00000000
00300000
00000000
00000000
,
01000000
00000000
10000000
00000000
00000000
01000000
00010000
00000000
00001000
00000000
00000000
00010000
,
00000100
00000000
00000000
00000000
00000000
00000000
00000000
00000000
00000000
00000220
00000000
00000000
00000000
00000000
00000000
00000330
00000000
00000000
00000000
00000000
00000000
00000000
00001001
00000000
,
00000000
00001000
00001100
00010000
,
00001000
00000000
00000000
00001000
00000000
01000000
00000000
00000000
00010000
00000000
00000000
00100000
,
00000000
00000000
01000000
10000000
00000000
00000000
00100000
00000000
01000000
00010000
00000000
00000000
,
01001000
00000000
00000000
00000000
00000000
00022000
00000000
00000000
00000000
00033000
00000000
00000000
,
00000100
00000000
00000000
00001000
00000000
00000100
00000000
00000000
00010000
00001000
00000000
00000000
,
01000000
00000000
00010000
00000000
00000000
00100000
00000000
00000000
00001000
00010000
00000000
00000000
,
00020020
00030030
00202000
00303000
,
00020200
00000000
00000000
00030300
00000000
00000000
02002000
00000000
00000000
03003000
00000000
00011000
,
00000000
00000000
00010000
00000100
00000000
00000000
00001000
00000000
00000100
00010000
00000000
00000000
,
00001000
00000000
00000000
01000000
00000000
00010000
00000000
00000000
00110000
00000000
00000000
11000000
,
00000000
00000000
10000000
00010000
00000000
00000000
01000000
00000000
00001000
00010000
00000000
00000000
,
00011000
00000000
00000000
00020200
00000000
00000000
00030300
00000000
,
00000100
00000000
00001000
00000100
00000000
00000000
00000110
00000000
00000000
00000010
00000000
00000001
,
00000010
00000000
00000001
00000000
00000000
00000100
00000000
00000000
00000010
00000100
00000000
00000000
,
00001000
00000000
00010000
00000000
00000000
00001000
00100000
00000000
00001000
00000000
00000000
00100000
,
00010000
00000000
00000000
00000000
00000000
00000000
00000000
00000000
00000000
02200000
00000000
00000000
00000000
00000000
00000000
00000000
03300000
00000000
00000000
00000000
00000000
00000000
10010000
00000000
,
00000000
01100000
00010000
01000000
,
00001000
00000000
00010000
00000100
00000000
00001000
00000000
00000000
00001100
00000000
00000000
00000011
,
00000000
00000000
00000001
00000100
00000000
00000000
00000010
00000000
00001000
00000010
00000000
00000000
,
00011000
00000000
00000000
00000000
00000000
02002000
00000000
00000000
00000000
03003000
00000000
00000000
,
01000000
00000000
00000000
01000000
00000000
00010000
10000000
00000000
00000000
01000000
00000000
10000000
,
00010000
00000000
00000000
01000000
00000000
00001000
00010000
00000000
00000000
00000010
00000000
00000000
,
00002020
00003030
00020200
00030300
,
02002000
00000000
00000000
03003000
00000000
00000000
00200000
00000000
00300000
00000000
00000000
20020000
,
00000000
00000000
00000000
00000000
,
30030000
00000000
00000000
00000000
,
00000000
00000000
00000000
00000000
,
00000000
00000000
01010000
01001000
,
00011000
00000000
00000000
00010000
00000000
00000100
00000000
00000000
00000000
00010000
00000000
00000000
,
00001000
00000000
00200000
00000000
00000000
00000000
00301000
00000000
00000000
00010000
00000000
00000000
,
00000010
00000000
00001000
00000010
00000000
00010000
00000000
00000000
00000000
00001000
00000000
01000000
,
00010000
00000000
02000000
00000000
00000000
00000000
03100000
00000000
00000000
10000000
00000000
00000000
,
01100000
00000000
00000000
00010000
00000000
00100000
00000000
00000000
00000000
00001000
00000000
00000000
,
00010000
00000000
00000200
00000000
00000000
00000000
00001300
00000000
00000000
00000001
00000000
00000000
,
00000100
00000000
00000001
00000100
00000000
00000000
00000010
00000000
00000100
00000010
00000000
00000000
,
00001000
00000000
00000010
00001000
00000000
00000000
00000100
00000000
00000000
00000110
00000000
00000000
,
00001001
00000000
00000000
00010000
00000000
00001000
00000000
00000000
00000000
01000000
00000000
00000000
,
01000000
00000000
00020000
00000000
00000000
00000000
00130000
00000000
00000000
01000000
00000000
00000000
,
10000000
00000000
00010000
10000000
00000000
00010000
00000000
00000000
00000000
01000000
00000000
00001000
,
01000000
00000000
00002000
00000000
00000000
00000000
00013000
00000000
00010000
00000100
00000000
00000100
,
00001000
00000000
00000000
00000001
00000000
00000100
00000000
00000000
00000000
00001000
00000000
00000000
,
01000000
00000000
00020000
00000000
00000000
00000000
00130000
00000000
00000000
01000000
00000000
00000000
,
10000000
00000000
01000000
10000000
00000000
01000000
00100000
00000000
01000000
00100000
00000000
01000000
,
00100000
00000000
00010000
00100000
00000000
00010000
00100000
00000000
00001000
00010000
00000000
00000100
,
00002000
00000000
00000000
00000000
00000000
00000000
00000000
00000000
00003000
00000000
00000000
00000022
,
00000000
00000000
00000000
00000000
00000000
00000000
00000000
00000000
00000033
00000000
00000000
00000000
;

//--------------- dance-double - forcednature ----------------
#NOTEDATA:;
#STEPSTYPE:dance-double;
#DESCRIPTION:forcednature;
#DIFFICULTY:Hard;
#METER:16;
#RADARVALUES:0,0,0,0,0;
#CREDIT:forcednature;
#NOTES:
00000000
00000000
00000000
00000000
,
00000000
00000000
00000000
00000000
,
00000000
00000000
00000000
00000000
,
00000000
00000000
00000000
00000000
,
00000000
00000000
00000000
00000000
,
00000000
00000000
00000000
00000000
,
00020200
00000000
00030300
00000000
,
02002000
00000000
03003000
00000000
,
00001000
00001000
00010000
00010000
,
00001000
00000000
00000000
00010000
00000000
00001000
00010000
00000000
00000000
00011000
00000000
00000000
,
00010100
00000000
00000000
00000100
00000000
00001000
00000000
00000000
00000010
00001000
00000000
00000000
,
00000100
00000000
00010000
00000000
00000000
00001000
00010000
00000000
00000010
00001000
00000000
00000000
,
00000001
00000000
00000001
00000010
00000000
00000010
00000000
00000000
00000100
00010000
00000000
00000000
,
00001000
00000000
00001000
01000000
00000000
01000000
00010000
00000000
00010000
00100000
00000000
00000000
,
01100000
00000000
00000000
01000000
00000000
10000000
00000000
00000000
00100000
10000000
00000000
00000000
,
01000000
00000000
00010000
00000000
00000000
00001000
00010000
00000000
00000100
00001000
00000000
00000000
,
00000001
00000000
00000001
00000100
00000000
00000100
00001000
00000000
00001000
00010000
00000000
00010000
,
00100000
00000000
00100000
10000000
00000000
10000000
01000000
00000000
00000000
00100000
00000000
10020000
,
00000000
00000000
00000000
01000000
00000000
00000000
00031000
00000000
00000000
00000000
00000000
00002001
,
00000000
00000000
00000000
00000100
00000000
00000000
00013000
00000000
00000000
00000000
00000000
01020000
,
00000000
10000000
00100000
00031000
,
00012000
00103000
00021000
00030010
,
00011000
00000000
00000000
00001000
00000000
00100000
00000000
00000000
00010000
00100000
00000000
00000000
,
01000000
00000000
00100000
00000000
00000000
00010000
00100000
00000000
00000000
00001000
00000000
00000000
,
00010000
00000000
00010000
00000010
00000000
00000010
00001000
00000000
00001000
00000001
00000000
00000000
,
00000010
00000000
00000100
00000010
00000000
00000000
00000100
00000000
00000000
00010000
00000000
00012000
,
00000000
00000000
00000000
00000100
00000000
00000000
01003000
00000000
00000000
00000000
00000000
00021000
,
00000000
00000000
00000000
01000000
00000000
00000000
00030100
00000000
00000000
00000000
00000000
00002001
,
00000000
00000010
00000100
00013000
,
00001000
00000000
00001000
01000000
00000000
01000000
00010000
00000000
00100000
01000000
00000000
00000000
,
10010000
00000000
00000000
10000000
00000000
01000000
00000000
00000000
00010000
01000000
00000000
00000000
,
00100000
00000000
00001000
00000000
00000000
00010000
00001000
00000000
00000000
00000010
00000000
00000000
,
00000100
00000000
00000100
00010000
00000000
00010000
00001000
00000000
00001000
00000010
00000000
00000000
,
00000001
00000100
00000001
00000100
00000000
00000000
00002000
00000000
00000000
00023000
00000000
00000000
,
00130000
00000000
01000000
00000000
00000000
10000000
01000000
00000000
00000000
00010000
00000000
01000000
,
00000000
00000000
00001000
00010000
00000000
00000000
00022000
00000000
00000000
00033000
00000000
00000000
,
00000010
00000000
00000100
00000000
00000000
00001000
00000100
00000000
00000000
00010000
00000000
00001000
,
00000000
00000000
01000000
00010000
00000000
00000000
00220000
00000000
00000000
00330000
00000000
00000000
,
00100000
00000000
01000000
00000000
00000000
00010000
01000000
00000000
00000000
00010000
00000000
00001000
,
00000000
00000000
00000010
00000100
00000000
00001000
00000100
00000000
00000001
00000000
00000000
00000100
,
00001000
00000000
00000000
00010100
00000000
00000000
00101000
00000000
00000000
00100000
00000000
00010000
,
00000000
00000000
01000000
10000000
00000000
00000000
11000000
00000000
00000000
01000000
00000000
00020000
,
00000000
00000000
00000000
10000000
00000000
00000000
10000000
00000000
00000000
00100000
00000000
00200000
,
00000000
00000000
00000000
00330000
00000000
00000000
00001000
00010000
00001000
00010000
00001000
00100000
,
00000000
00000000
00001000
00010000
00000000
00000000
00001100
00000000
00010000
00001000
00000000
00000000
,
00000010
00000000
00000100
00010000
00000000
00001000
00000000
00000000
00101000
00000000
00000000
00110000
,
00000000
00000000
00010000
10000000
00000000
00000000
10100000
00000000
00100000
01000000
00000000
00000000
,
02010000
00000000
00000000
00000000
00000000
00000000
00010000
00000000
00000000
03002000
00000000
00000000
00000000
00000000
00000000
00000000
00013000
00000000
00001000
00000000
00010000
00000000
00001000
00000000
,
00010000
00000000
00000100
00001000
00000000
00000100
00010000
00000000
00000000
00001000
00000000
00000010
,
00000100
00000000
00000010
00000001
00000000
00000100
00000000
00000000
00001000
00000100
00000000
00000000
,
00000001
00000000
00000001
00001000
00000000
00000010
00010000
00000000
00010000
00001000
00000000
00100000
,
00010000
00000000
00100000
00000000
01000000
00000000
00100000
00000000
00000000
22000000
00000000
00000000
00000000
00000000
00000000
00000000
00000000
00000000
33000000
00000000
00000000
00000000
00110000
00000000
,
00000000
00000000
00001000
00010000
00000000
00000000
00001010
00000000
00010000
00001000
00000000
00000000
,
01000000
00000000
00010000
00100000
00000000
01000000
00000000
00000000
01100000
00000000
00000000
00101000
,
00000000
00000000
00001000
00010000
00000000
00000000
00001010
00000000
00000001
00000100
00000000
00000000
,
00000110
00000000
00000000
00000010
00000000
00002002
00000000
00000000
00000000
00003003
00000000
00000000
,
00001100
00000000
00000000
00010000
00000000
00010000
00001000
00000000
00001000
01000000
00000000
00000000
,
00001000
00000000
00001000
00010000
00000000
00010000
00000100
00000000
00001000
00000100
00000000
00000000
,
00000120
00000031
00000210
00010300
,
00022000
00000000
00000000
00033000
00000000
00000000
00001000
00010000
00001000
01000000
00000000
01010000
,
00000000
00000000
00010000
00100000
00000000
00000000
11000000
00000000
10000000
00100000
00000000
00000000
,
01000000
00000000
00010000
01000000
00000000
00001000
00000000
00000000
00011000
00000000
00000000
00010100
,
00000000
00000000
00000100
00000010
00000000
00000000
00000011
00000000
00000001
00000100
00000000
00000000
,
00000120
00000000
00000000
00000000
00000000
00000000
00001000
00000000
00000000
00020030
00000000
00000000
00000000
00000000
00000000
00000000
00031000
00000000
00010000
00000000
00001000
00000000
00010000
00000000
,
00001000
00000000
01000000
00010000
00000000
00100000
01000000
00000000
00000000
00010000
00000000
01000000
,
10000000
00000000
00010000
00100000
00000000
00001000
00000000
00000000
00010000
00000010
00000000
00000000
,
00000110
00000000
00001001
00000000
00000000
00001000
00000100
00000000
00010000
00001000
00000000
00100000
,
00010000
00000000
00000000
00000000
00000000
00000000
01000000
00000000
00000000
20020000
00000000
00000000
00000000
00000000
00000000
00000000
30030000
00000000
00000000
00000000
00000000
00000000
01100000
00000000
,
00000000
00000000
10000000
01000000
00000000
00000000
01100000
00000000
00010000
01000000
00000000
00001000
,
00010000
00000000
00000010
00001000
00000000
00000100
00000000
00000000
00000110
00000000
00000000
00001001
,
00000000
00000000
00001000
00000010
00000000
00010000
00001000
00000000
01000000
00010000
00000000
00000000
,
00110000
00000000
00000000
01000000
00000000
22000000
00000000
00000000
00000000
33000000
00000000
00000000
,
10000000
00000000
10000000
01000000
00000000
01000000
00010000
00000000
00010000
00001000
00000000
00001000
,
00000100
00000000
00000100
00000001
00000000
00000001
00000010
00000000
00000010
00000100
00000000
00000000
,
00002001
00003100
00021000
00130000
,
10000000
00010000
10000000
00010000
10000000
00010000
00100000
00000000
00000000
01000000
00000000
00022000
,
00000000
00000000
00000000
00000000
,
00033000
00000000
00000000
00000000
,
00000000
00000000
00000000
00000000
,
00011000
00000000
00000000
00010000
00000100
00001000
00000100
00000000
00000000
00000110
00000000
00000000
,
00001001
00000000
00000000
00000001
00000000
00000100
00000000
00000000
00001000
00000100
00000000
00000000
,
00000001
00000000
00000010
00000000
00000000
00001000
00010000
00000000
00001000
00100000
00000000
00000000
,
01100000
00000000
01000000
10000000
00000000
10100000
00000000
00000000
00100000
01000000
00000000
00000000
,
00100000
00000000
00010000
00001000
00000000
00010000
00000100
00000000
00002000
00000000
00000000
00003010
,
00000100
00000000
00000000
00001000
00000000
00000100
00000000
00000000
00000001
00000010
00000000
00000100
,
00010000
00000000
00011000
00000000
00000000
00001000
01000000
00000000
00010000
00100000
00000000
00000000
,
01000000
00000000
01000000
00010000
00000000
00010000
00001000
00000000
00001000
00000010
00000000
00000010
,
00000100
00000000
00000100
00010000
00000000
00010000
00001000
00000000
00000000
00011000
00000000
00000000
,
01001000
00000000
01000000
00010000
00000000
00100000
00000000
00000000
01000000
00100000
00000000
00000000
,
00001000
00000000
00000020
00000000
00000000
00000130
00001000
00000000
00000001
00000100
00000000
00000000
,
00000110
00000000
00000010
00001000
00000010
00010000
00002000
00000000
00000000
00203000
00000000
00000000
,
01300000
10000000
01000000
10000000
01000000
10000000
00010000
01000000
00010000
01000000
00010000
01000000
,
00001000
00000000
00000000
00100000
00000000
01000000
00000000
00000000
00100000
00010000
00000000
00000000
,
00000010
00000000
00000200
00000000
00000000
00001300
00000010
00000000
00000010
00000100
00000000
00000000
,
00000001
00000000
00000001
00000100
00000000
00000100
00001000
00000000
00001000
00010000
00000000
00010000
,
01000000
00000000
01000000
10000000
00000000
10000000
00100000
00000000
00000000
01100000
00000000
00000000
,
00022000
00000000
00000000
00000000
00000000
00000000
00000000
00000000
00033000
00000000
00000000
00000220
,
00000000
00000000
00000000
00000000
00000000
00000000
00000000
00000000
00000330
00000000
00000000
00000000
;
