#VERSION:0.83;
#TITLE:-65℃;
#SUBTITLE:;
#ARTIST:BEMANI Sound Team "D.J.Amuro";
#TITLETRANSLIT:65C;
#SUBTITLETRANSLIT:;
#ARTISTTRANSLIT:D.J.Amuro;
#GENRE:WHITE OUT;
#CREDIT:;
#MUSIC:65C.ogg;
#BANNER:65C.png;
#BACKGROUND:65C-bg.png;
#CDTITLE:./CDTitles/bm IIDX 28 BISTROVER.png;
#SAMPLESTART:21.637;
#SAMPLELENGTH:15.000;
#SELECTABLE:YES;
#OFFSET:0.292;
#BPMS:0.000=186.000;
#STOPS:;
#TIMESIGNATURES:0.000=4=4;
#DISPLAYBPM:186.000;
#BGCHANGES:0.000=65C.mp4=1.000=0=0=0=StretchNoLoop====,
99999.000=-nosongbg-=1.000=0=0=0=StretchNoLoop====
;
#FGCHANGES:;

//--------------- dance-single - forcednature ----------------
#NOTEDATA:;
#STEPSTYPE:dance-single;
#DESCRIPTION:forcednature;
#DIFFICULTY:Beginner;
#METER:9;
#RADARVALUES:0,0,0,0,0;
#CREDIT:forcednature;
#NOTES:
0000
0000
0000
0000
,
0000
0000
0000
0000
,
0000
0000
0000
0000
,
0000
0000
0000
0000
,
0000
0000
0000
0000
,
0000
0000
0000
0000
,
0000
0000
0000
0000
,
0000
0000
0000
0000
,
0000
0000
0000
0000
,
1001
0001
0000
0100
,
0000
0010
0000
1000
,
0100
0010
0000
0001
,
0000
0100
0000
0010
,
0200
0000
0010
0000
,
0010
0000
0010
0000
,
1000
0000
0301
0000
,
2002
0000
0000
3003
,
0001
0010
0000
0100
,
1000
0010
0000
0100
,
0001
1000
0000
0100
,
0010
0100
1000
0010
,
0100
0001
0000
0010
,
0001
0100
0000
0010
,
1000
0001
0010
1000
,
0010
0001
0100
0000
,
1010
0100
0000
0001
,
0010
0100
0000
1000
,
0001
0100
0000
0001
,
1000
0010
0000
1000
,
0110
0001
0000
0100
,
0001
1000
0000
0010
,
1000
0100
0010
0001
,
0100
0010
1000
0001
,
1001
0000
0000
0001
0000
0000
0000
0000
,
0100
0000
0000
0001
0000
0000
0000
0000
,
0010
0000
0000
1000
0000
0000
0000
0100
,
0000
0000
0000
0000
,
1001
0100
0001
0000
,
0010
0100
1000
0000
,
0010
0100
0001
1000
,
0100
0010
0001
0000
,
0101
0100
0001
0100
,
0010
1000
0010
1000
,
0001
0010
0100
1000
,
0010
0100
0001
1000
,
0110
0001
0100
0010
,
1001
0100
0010
1000
,
0110
0001
0010
0100
,
1000
0000
0010
0000
1000
0001
1000
0001
,
0100
0000
0100
0000
,
0100
0000
0100
0000
,
0010
0000
1000
0000
,
0001
0000
0000
0000
0100
0010
0100
0010
,
0100
0000
0100
0000
,
1001
0000
0100
0000
,
1001
0000
0110
0000
,
0110
1001
1001
0000
,
1001
0000
0001
0000
1000
0000
0000
0010
,
0000
0010
0000
0000
0100
0000
0001
0000
,
1000
0000
0000
0100
0000
0000
0000
0000
,
0010
0000
0000
0001
0000
0000
0010
0000
,
0100
0000
0000
1000
0000
0000
0010
0000
,
0000
0000
0100
0001
,
1000
0000
0000
0010
,
1000
0000
0000
0001
0000
0000
0010
0000
,
1001
0001
0200
0000
,
0010
0000
0310
0000
,
0010
1000
0001
0010
,
0200
0010
0010
0310
,
0100
1000
0001
0100
,
0010
1000
0001
0010
,
0100
0010
0100
0000
0010
0100
0010
0000
,
1001
0100
0001
0010
,
1001
0000
0001
0000
1000
0100
1000
0000
,
0010
0000
0100
0000
0001
0010
0001
0000
,
0100
0100
0100
0100
,
0010
1000
0010
0000
0100
0001
0100
0000
,
0010
0000
1000
0000
0100
0010
0100
0000
,
1000
0000
0001
0000
0100
0010
0100
0000
,
0001
0001
1000
1000
,
0001
0010
0001
0000
1000
0010
1000
0000
,
1001
0000
0100
0000
0001
0010
0001
0000
,
0100
0000
0010
0000
1000
0100
1000
0000
,
0110
0000
0001
0000
1000
0100
1000
0000
,
0010
0000
0100
0000
0001
0010
0001
0000
,
0110
0000
0001
0000
1000
0010
1000
0000
,
0110
0000
1000
0000
0001
0100
0001
0000
,
1001
0000
0100
0000
0010
0010
0010
0000
,
1001
0000
0100
0000
1000
0001
1000
0000
,
0110
0101
1100
0110
,
1000
0001
1000
0001
0100
0010
0100
0010
,
0200
0000
0000
0000
,
0000
0000
0000
0000
,
0300
0000
0000
0000
;

//--------------- dance-single - forcednature ----------------
#NOTEDATA:;
#STEPSTYPE:dance-single;
#DESCRIPTION:forcednature;
#DIFFICULTY:Easy;
#METER:13;
#RADARVALUES:0,0,0,0,0;
#CREDIT:forcednature;
#NOTES:
0000
0000
0000
0000
,
0000
0000
0000
0000
,
0000
0000
0000
0000
,
0000
0000
0000
0000
,
0000
0000
0000
0000
,
0000
0000
0000
0000
,
0000
0000
0000
0000
,
0000
0000
0000
0000
,
0000
0000
0000
0000
,
1001
0001
0000
0100
,
0010
1000
0000
0100
,
0010
0001
0000
1000
,
0010
0100
0000
0001
,
0010
0100
1000
0000
0010
0000
0100
0000
,
0001
0010
0001
0000
0100
0000
0010
0000
,
1000
0100
0010
0000
0100
0000
1000
0000
,
1001
0000
0001
0100
0010
1000
0001
0000
,
1000
0000
0100
0010
0000
0100
1000
1000
,
0010
0000
0100
0001
0000
1000
0001
0000
,
1000
0000
0100
0010
0000
0100
1000
1000
,
0010
0000
0100
0001
0000
0010
0001
0010
,
0010
0000
0100
1000
0000
0001
0100
0100
,
0010
0000
1000
0001
0000
0010
0001
0100
,
0100
0000
0010
1000
0010
0100
0001
0100
,
0010
0000
1000
0000
0100
0010
0100
0000
,
1001
1000
0001
0010
0000
0001
0100
0100
,
0010
1000
1000
0100
0000
0010
0100
0000
,
1000
0001
0001
0100
0000
0010
1000
1000
,
0001
0010
0010
0001
0000
0100
0010
1000
,
1001
1000
0100
0010
0000
0100
1000
1000
,
0010
0100
0100
0001
0000
1000
0010
0010
,
1000
0000
0001
0100
0001
1000
0010
1000
,
0001
0000
0010
0000
0100
1000
0100
0000
,
1002
0000
0000
0200
0000
0000
0303
0000
,
0020
0000
0000
2000
0000
0000
3030
0000
,
0200
0000
0000
0020
0000
0000
0300
0002
,
0000
0000
0000
0000
0000
0000
0000
0000
0000
0000
0000
0000
0033
0000
1000
0001
,
1000
0001
0100
0001
0000
1000
0010
0000
,
1000
0000
0100
0010
0000
0001
0100
0010
,
1000
0000
0001
0010
0000
0001
1000
0001
,
0000
0100
0010
0000
1000
0100
0010
0000
,
1001
0000
0000
0000
1000
0000
0100
0000
0010
0000
0001
0000
0100
0000
0010
1000
,
0010
0000
0000
0000
0100
0000
0001
0000
1000
0000
0100
0000
0010
0000
0001
1000
,
0001
0000
0000
0000
0100
0000
0001
0000
0100
0000
1000
0000
0100
0000
0010
1000
,
0010
0000
1000
0000
0010
0000
0100
0000
0001
0000
0001
0000
0001
1000
0001
0000
,
1001
0000
0000
1000
0001
0000
0100
0000
0000
0001
1000
0000
0100
0000
0000
1000
,
0001
0000
0010
0000
0000
0001
1000
0000
0010
0000
1000
0000
0001
0000
0000
0000
,
1001
0000
0000
0001
1000
0000
0010
0000
0000
1000
0001
0000
0010
0000
0000
0001
,
1000
0100
0001
0000
0100
0100
0010
0010
,
1001
0001
0100
0010
,
1000
0000
0001
0000
0100
0000
0010
0010
,
1000
0100
0010
0001
,
0100
0000
0010
0000
1000
1000
0001
0001
,
1001
0000
0010
0000
0100
0000
0001
0001
,
0110
0000
1000
0000
0010
0000
0100
0100
,
1001
0010
1001
0100
,
0011
0000
0110
0000
1100
0000
0010
0100
,
1001
0000
0001
0000
0100
0000
0000
0010
,
0000
0010
0000
0000
1000
0000
0100
0000
,
0010
0000
0000
0100
0000
0000
0000
0000
,
1000
0000
0000
0001
0000
0000
0100
0000
,
0010
0000
0000
1000
0000
0000
0001
0000
,
0000
0000
0010
0001
,
0100
0000
0000
0010
,
1000
0000
0000
0001
0010
0000
0100
0000
,
1001
0100
1000
0000
,
0010
0000
0100
0000
,
0001
0010
0001
0000
0100
0010
1000
0000
,
0200
0010
0010
0010
0010
0010
0310
0000
,
0100
0000
1000
0000
0001
0100
0001
0000
,
1000
0000
0010
0000
1000
0001
1000
0000
,
0100
0010
0100
0000
1000
0001
1000
0000
,
0110
0000
0000
0000
0001
0000
0000
0000
1000
0000
0001
0100
0001
0000
0000
0000
,
1001
0000
0100
0001
0010
0100
1000
0000
,
0010
0100
0010
0000
1000
0001
1000
0000
,
0100
0010
0000
0000
0100
1000
0000
0000
0001
0010
0000
0000
0100
0010
0000
0000
,
0001
1000
0000
0000
0010
1000
0000
0000
0001
0100
0001
0000
1000
0010
1000
0000
,
0002
0000
0000
0000
0010
0000
0003
0000
0001
0000
1000
0000
0010
0100
0010
0000
,
0100
0001
0010
0001
1000
0010
0100
0000
,
0001
0000
0000
0000
1000
0000
0100
0000
0001
0000
0100
0000
1000
0001
1000
0000
,
0010
0000
0100
0000
0001
0000
0000
0000
1000
0100
1000
0000
0001
0010
0001
0000
,
1001
1000
0001
0010
0000
0100
1000
1000
,
0010
0100
1000
0100
0000
0001
1000
0000
,
0110
0001
0001
1000
0000
0010
1000
1000
,
0001
0010
0100
1000
0000
0010
0100
0000
,
1000
0001
1000
0000
0001
0000
0100
0000
0000
0000
0010
0000
1000
0000
1000
0000
,
0100
0010
0100
0000
1000
0000
0001
0000
0000
0000
0100
0000
0010
0000
1000
0000
,
1001
0000
0000
0000
1000
0100
1000
0000
0001
0100
0001
0000
0100
0010
0100
0000
,
0010
0000
0000
0000
1000
0000
0100
0000
0001
0000
0100
0000
0010
0100
0010
0000
,
1001
0100
1001
0010
,
1000
0000
0100
0000
0010
0000
0001
0000
0100
0001
0100
0000
0010
1000
0010
0000
,
2002
0000
0000
0000
,
0000
0000
0000
0000
,
3003
0000
0000
0000
;

//--------------- dance-single - forcednature ----------------
#NOTEDATA:;
#STEPSTYPE:dance-single;
#DESCRIPTION:forcednature;
#DIFFICULTY:Medium;
#METER:15;
#RADARVALUES:0,0,0,0,0;
#CREDIT:forcednature;
#NOTES:
0000
0000
0000
0000
,
0000
0000
0000
0000
,
0000
0000
0000
0000
,
0000
0000
0000
0000
,
0000
0000
0000
0000
,
0000
0000
0000
0000
,
0000
0000
0000
0000
,
0000
0000
0000
0000
,
0000
0000
0000
0000
0001
0100
0010
1000
,
0002
0010
1000
0000
,
0103
0001
0010
0100
1000
0010
0100
0001
,
2000
0000
0000
3200
0000
0000
0000
0000
,
0000
0001
0000
0000
0310
0001
0100
0010
,
2000
0100
0001
0100
,
3010
1000
0001
0010
0100
1000
0010
0100
,
0001
1000
0100
0020
0000
0100
0030
0000
,
0110
0000
1000
0000
0001
0100
0010
0000
,
1000
0001
0010
0001
0000
0100
0110
0000
,
1000
0100
0010
0001
0000
0100
1000
0000
,
0100
0001
0010
0100
0000
1000
1001
0000
,
0001
0100
0010
1000
0000
0001
0010
1000
,
0010
0100
1000
0001
0000
0100
0110
0000
,
0001
0010
0001
1000
0000
0010
0100
0001
,
0010
0000
0000
0000
0100
0000
0000
0100
1000
0000
0000
1000
0001
0000
0000
0001
,
0100
0000
0000
0000
0010
0000
1000
0000
0001
0000
0010
0000
0100
1000
0100
0000
,
0010
0001
1000
0010
0000
0100
0110
0000
,
0010
1000
0001
0010
0000
0100
1000
0001
,
0100
0001
1000
0010
0000
1000
1001
0000
,
0001
0010
0100
1000
0000
0010
0100
0001
,
0010
0100
1000
0010
0000
0100
0101
0000
,
0001
1000
0010
1000
0000
0001
0010
0100
,
1000
0000
0000
0000
0010
0000
0000
0010
0100
0000
0000
0100
0001
0000
0000
0001
,
1000
0000
0000
0000
0100
0000
0010
0000
0001
0000
0100
0000
0001
1000
0001
0000
,
2001
0000
0000
0200
0000
0000
3300
0000
,
0020
0000
0000
0002
0000
0000
0033
0000
,
0200
0000
0000
0020
0000
0000
0300
2000
,
0000
0000
0000
0000
0000
0000
0000
0000
0000
0000
0000
0000
3030
0000
0001
1000
,
0001
0010
0100
1000
0000
0010
0110
0100
,
0001
1000
0100
0010
0000
0100
0110
0010
,
1000
0001
0010
0001
0000
1000
1001
0001
,
0100
0000
0010
0000
1000
0000
0001
0000
0010
0000
0010
0000
0100
1000
0100
0000
,
0010
0000
0000
0010
0001
0000
1000
0000
0010
0100
0010
0000
1000
0000
0001
0000
,
0010
0000
0000
0010
0100
0000
1000
0000
0001
0100
0001
0000
1000
0000
0000
0010
,
1000
0000
0000
1000
0100
0000
0010
0000
0001
1000
0001
0000
0100
0000
0001
0000
,
1000
0010
1000
0000
0001
0010
0001
0000
0100
0010
1000
0000
0100
0010
0001
0000
,
0100
0000
0010
1000
0010
0000
0100
0000
0001
0010
0001
0000
1000
0000
0100
0010
,
0001
0000
0100
0000
0010
1000
0001
0000
0010
0001
0010
0100
1000
0000
0000
0000
,
0010
0000
0100
0001
0010
0000
0001
0000
1000
0010
0100
0000
0001
0010
0100
1000
,
0000
0000
0001
0000
0100
0000
1000
0000
0100
0000
0100
0000
0001
1000
0001
1000
,
0001
0000
0100
0000
1000
0000
0100
0000
0001
0000
0010
0100
1000
0010
0100
0000
,
0001
0010
0001
1000
0010
0100
0001
0000
,
1000
0000
0100
0000
0001
0000
0100
0000
1000
0000
0001
0100
0010
1000
0001
0000
,
0010
0001
0100
0010
0001
0010
1000
1000
,
1001
0000
0001
0010
0001
0100
0010
0000
,
1001
0000
0100
1000
0010
1000
0100
0000
,
0110
0001
0110
1000
,
0101
0000
0000
1000
0100
0000
0000
0010
0001
0000
0001
0000
1000
0000
1000
0000
,
1001
0000
0002
0000
0203
0000
0000
0320
,
0000
0100
0000
0000
2030
0000
3200
0000
,
0320
0000
0000
2030
0000
0000
0000
0000
,
3020
0000
0000
0032
0000
0000
2003
0000
,
3200
0000
0000
0302
0000
0000
0203
0000
,
0000
0000
0320
0032
,
0203
0000
0000
2300
,
3200
0000
0000
0310
1000
0001
1000
0100
,
0010
0001
0100
0010
2000
0000
0000
0000
,
0100
0000
0000
0000
3001
1000
0010
0100
,
0001
0010
0001
0000
1000
0100
1000
0000
0010
0100
0010
0000
1000
0001
1000
0000
,
0100
1000
0010
0100
0001
0010
0100
1000
0001
0100
0000
0000
,
0010
0000
0100
0001
1000
0100
0010
0000
,
0001
0000
1000
0010
1000
0001
0010
0100
,
1000
0100
1000
0100
0010
0001
0010
0000
0001
0100
0001
0100
0010
1000
0010
0000
,
1001
0000
0000
0000
1000
0000
0100
0000
0010
0000
0001
1000
0001
0000
0100
0000
,
0010
1000
0010
0000
0100
0000
0001
0010
0000
0100
1000
0000
0010
0000
0100
0001
,
0000
1000
0010
0000
1000
0000
0001
0010
0000
0001
0100
0010
1000
0010
1000
0000
,
0100
0010
0100
0000
1000
0001
1000
0000
0001
0010
0001
0000
0100
0010
0100
0000
,
0001
1000
0001
0000
1000
0010
1000
0000
0100
0010
0001
0000
0100
0010
1000
0000
,
0001
0000
0000
1000
0001
0100
0001
1000
0010
0000
1000
0001
1000
0000
0100
0000
,
0010
0001
0010
0000
0100
0000
1000
0000
0001
0000
0100
0000
1000
0000
0100
0000
,
0010
0100
0001
0100
0010
0000
1000
0000
0001
0010
0100
1000
0001
0000
1000
0000
,
0010
0000
0100
0000
0001
0000
0000
0000
1000
0100
1000
0100
0010
0001
0010
0001
,
0100
1000
0100
0001
0000
0010
0100
0001
,
0100
1000
0010
1000
0001
0000
1001
0000
,
0110
1000
0001
0100
0000
0010
1000
0001
,
0010
0001
0100
0010
1000
0001
1000
0000
,
0001
0100
0010
1000
0001
1000
0100
0010
0001
0000
0100
0000
0010
0000
1000
0000
,
0001
0010
1000
0010
0100
1000
0010
0000
,
0110
0000
0000
0000
0100
0001
0100
0000
0010
1000
0010
0000
1000
0001
1000
0000
,
1001
0000
0000
0000
0001
0000
0010
0000
0100
1000
0100
0010
0001
1000
0001
0000
,
0110
0001
1000
0000
0110
1000
0001
0000
,
1000
0000
1000
0000
0001
0000
0001
0000
0100
0001
1000
0010
1000
0100
0010
0001
,
0200
0000
0000
0000
,
0000
0000
0000
0000
,
0300
0000
0000
0000
;

//--------------- dance-single - forcednature ----------------
#NOTEDATA:;
#STEPSTYPE:dance-single;
#DESCRIPTION:forcednature;
#DIFFICULTY:Hard;
#METER:18;
#RADARVALUES:0,0,0,0,0;
#CREDIT:forcednature;
#NOTES:
0000
0000
0000
0000
,
0000
0000
0000
0000
,
0000
0000
0000
0000
,
0000
0000
0000
0000
,
0000
0000
0000
0000
,
0000
0000
0000
0000
,
0000
0000
0000
0000
,
0000
0000
0000
0000
,
0000
0000
0000
0000
1000
0100
0001
0100
,
0010
0000
0001
0000
,
1000
0001
0100
1000
0100
0010
1000
0001
,
0020
0000
0000
0200
0000
0000
0330
0000
,
1000
0001
0000
0010
0100
1000
0010
0100
,
2000
0000
0000
0200
0000
0000
3300
0000
,
0100
0001
0010
0100
1000
0001
0100
0010
,
1000
0100
1000
0100
0010
0001
0010
0001
0100
0010
0100
0010
1000
0001
1000
0001
,
0100
0010
1000
0100
0001
0100
0010
0001
,
0100
1000
0100
0010
0000
1000
0001
0001
,
0010
1000
0010
0100
0000
1000
0001
0000
,
0100
0010
0001
0010
0000
1000
0001
0001
,
1000
0100
0001
0100
0000
0010
0001
0100
,
0010
1000
0010
0001
0000
0010
0100
0100
,
0010
1000
0100
1000
0000
0010
0100
0001
,
1000
0000
0000
0000
0100
0010
0001
1000
0010
0100
0001
0100
0010
1000
0001
0010
,
0100
0000
0000
0000
1000
0000
0001
0000
0100
0001
0100
0010
1000
0001
1000
0100
,
0010
0001
0100
1000
0000
0100
0010
0010
,
1000
0001
0010
1000
0000
0010
0100
0000
,
1000
0001
0100
0001
0000
1000
0010
0010
,
0001
0010
0100
0001
0000
0010
0100
1000
,
0100
0001
0100
1000
0000
0001
0100
0100
,
1000
0100
0010
1000
0000
0100
0010
0001
,
1000
0000
0000
0000
0010
0100
0001
0100
0010
1000
0100
0010
0001
0100
0010
1000
,
0100
0000
0000
0000
0010
0001
0010
0001
0100
0010
1000
0001
1000
0100
0010
0001
,
0200
0000
0000
0020
0000
0000
0330
0000
,
2000
0000
0000
0002
0000
0000
3003
0000
,
2000
0000
0000
0200
0000
0000
3000
0020
,
0000
0000
0000
0000
0000
0000
0000
0000
0000
0000
0000
0000
0330
0000
0100
1000
,
0100
0000
0010
0000
0001
0000
0100
0000
0000
0010
0000
0000
0001
0000
0010
0000
,
1000
0000
0100
0000
0010
0000
0001
0000
0000
0100
0000
0000
0010
0000
1000
0000
,
0100
0000
0001
0000
0100
0000
0010
0000
0000
0001
0000
0000
1000
0000
0010
0000
,
0100
0000
1000
0000
0100
0000
0001
0000
0010
0000
0010
0000
0001
1000
0001
1000
,
0001
0000
0100
0001
0100
0010
1000
0001
1000
0100
0010
0001
1000
0000
0010
0100
,
0010
0000
0100
0001
1000
0100
0010
0001
0100
0010
1000
0100
1000
0000
0010
0100
,
0010
1000
0001
0010
0001
0010
0100
1000
0100
1000
0010
0100
0001
0010
0002
0000
,
0000
0103
0001
1000
0100
0010
0001
0100
0010
0000
0010
0000
1000
0001
1000
0001
,
1000
0100
1000
0100
1000
0000
0001
0100
0001
0100
0001
0000
0010
0100
0010
0100
,
0010
0000
0100
1000
0010
0100
0001
0010
0001
0100
0010
1000
0001
0000
0000
0000
,
1000
0010
1000
0010
1000
0000
0001
0010
0001
0010
0100
1000
0010
0100
0001
2000
,
0000
0000
3001
0100
0010
1000
0100
0010
0001
0000
0001
0000
1000
0001
1000
0001
,
1000
0010
1000
0000
0001
0100
0001
0000
1000
0100
1000
0000
0001
0010
0001
0000
,
0100
0010
1000
0001
0100
0010
1000
0000
,
0001
0100
0001
0000
1000
0100
1000
0000
0010
0100
0010
0000
1000
0001
1000
0000
,
0100
0010
0001
0100
0010
0010
0010
0010
,
1000
0010
1000
0000
0001
0010
0001
0000
0100
0010
0100
0000
0001
1000
0001
0000
,
1000
0100
1000
0010
0100
0001
0010
0000
,
0100
0010
0100
0000
1000
0001
1000
0000
0010
1000
0010
0000
0100
0001
0100
0000
,
0011
0000
0010
0001
1000
0000
0001
1000
0100
0000
0100
0000
0010
0000
0010
0000
,
1001
0000
0002
0000
0023
0000
0000
0230
,
0000
0010
0000
0000
2300
0000
3020
0000
,
0032
0000
0000
0023
0000
0000
0000
0000
,
2030
0000
0000
3200
0000
0000
0302
0000
,
0203
0000
0000
0320
0000
0000
0032
0000
,
0000
0000
2003
3020
,
0230
0000
0000
0302
,
0023
0000
0000
0130
1000
0001
0100
0010
,
1001
0001
0100
0010
2000
0000
0000
0000
,
0100
0000
0000
0000
0000
0000
0000
0000
3001
0000
1000
0000
0001
0000
1000
0100
,
1000
0100
0010
0001
0100
0010
1000
0001
1000
0010
0100
0001
0100
0010
1000
0100
,
0010
0001
0010
0100
1000
0010
0100
0001
1000
0100
0000
0000
,
0010
0001
0100
0010
1000
0100
1000
0010
,
0100
0001
1000
0100
0010
0001
0100
0010
,
1000
0001
1000
0100
0010
0001
0100
0010
1000
0001
0100
0001
1000
0100
1000
0010
,
0100
0000
0001
0000
0010
0000
0100
0000
1000
0000
0001
0100
0001
0000
1000
0000
,
0010
0100
0001
0100
0010
0000
1000
0100
0000
1000
0100
0000
0010
0000
0001
0100
,
0000
0001
0100
0000
0010
0000
1000
0001
1000
0100
0010
0001
0100
0010
1000
0001
,
0100
0001
0100
0000
0100
0010
0100
0000
0100
1000
0100
0000
0100
0010
0100
0000
,
0010
0001
0010
0000
0010
0100
0010
0000
0010
1000
0010
0100
0001
0010
0100
1000
,
0001
0000
0000
0100
0001
0100
0001
0100
0010
1000
0010
1000
0001
0010
0100
1000
,
0001
0010
0001
0000
0100
0010
1000
0001
1000
0010
0100
0001
1000
0100
0010
0000
,
0100
1000
0010
0100
0001
0010
0001
1000
0001
0100
0010
1000
0100
0010
0001
0000
,
0100
0001
1000
0010
1000
0001
0010
0100
1000
0001
0100
0001
1000
0010
0100
0000
,
0001
0010
0100
1000
0000
0010
0100
0100
,
0001
1000
0100
0010
0000
0001
1000
0000
,
0110
0001
1000
0100
0000
0010
0001
0001
,
1000
0000
0010
0000
0100
0000
0001
0000
0010
0001
0010
0001
1000
0100
1000
0100
,
0010
0100
1000
0001
0100
0001
1000
0010
1000
0001
0010
0001
0100
0010
1000
0000
,
0001
0010
0100
1000
0001
1000
0010
0100
0001
0010
0001
0100
0010
1000
0100
0000
,
1000
0010
0100
0001
0010
0001
0100
0010
1000
0100
0010
0001
0100
0010
1000
0100
,
0010
0000
0000
0000
0001
0000
0010
0000
0100
1000
0100
1000
0001
0100
0001
0100
,
0010
0110
1000
1001
,
0101
0000
0001
0000
1100
0000
1000
0000
0001
0100
0010
1000
0100
0010
0001
0100
,
0020
0000
0000
0000
,
0000
0000
0000
0000
,
0030
0000
0000
0000
;

//--------------- dance-single - forcednature ----------------
#NOTEDATA:;
#STEPSTYPE:dance-single;
#DESCRIPTION:forcednature;
#DIFFICULTY:Challenge;
#METER:19;
#RADARVALUES:0,0,0,0,0;
#CREDIT:forcednature;
#NOTES:
0000
0000
0000
0000
,
0000
0000
0000
0000
,
0000
0000
0000
0000
,
0000
0000
0000
0000
,
0000
0000
0000
0000
,
0000
0000
0000
0000
,
0000
0000
0000
0000
,
0000
0000
0000
0000
,
0000
0000
0000
0000
0001
0100
0010
1000
,
1001
0000
0001
0010
0100
1000
0010
0000
,
0100
0001
1000
0100
0001
0100
1000
0010
,
0200
0000
1300
0200
0000
0301
1000
0000
,
0100
0010
0000
0001
1000
0010
0100
0001
,
0200
0000
0000
0320
0000
0000
0030
0000
,
0000
1000
0001
0010
0100
1000
0001
0100
,
0010
0100
0001
0010
0001
0100
0010
1000
0100
1000
0010
0100
0001
0010
0001
0100
,
0020
0000
0000
0000
0130
0000
0001
1000
0100
0010
0001
1000
0010
0000
0100
0000
,
0001
0010
1000
0010
0000
0100
0110
0010
,
0001
1000
0010
0100
0000
0001
0010
0100
,
1000
0010
0001
0010
0000
0100
0110
0010
,
1000
0001
0100
1000
0000
0100
0001
0010
,
0100
1000
0001
0100
0000
0001
1001
1000
,
0001
0010
0001
0100
0000
0010
1000
0100
,
0010
0000
0000
0000
0100
1000
0010
0100
0001
0010
0001
1000
0010
1000
0001
0100
,
0002
0000
0000
0000
1003
0000
0010
0000
0100
0001
1000
0100
1000
0001
0010
0001
,
0100
1000
0100
0001
0000
0010
0110
0100
,
1000
0010
0100
0001
0000
0010
0100
0000
,
0001
0100
1000
0010
0000
0100
0110
0010
,
1000
0001
0010
0100
0000
1000
0001
0100
,
0110
0010
1000
0001
0000
1000
1001
0001
,
0010
0001
0100
0010
0000
1000
0001
0010
,
0100
0000
0000
0000
1000
0010
0100
0010
1000
0001
0010
0100
0010
0001
0100
0010
,
2000
0000
0000
0000
3100
0010
0001
0100
0010
0100
0001
1000
0100
1000
0001
0100
,
0020
0000
0030
2020
0000
0000
3030
0000
,
2002
0000
3003
0022
0000
0000
0033
0000
,
2200
0000
3300
0220
0000
0000
0330
2002
,
0000
0000
0000
0000
0000
0000
0000
0000
0000
0000
0000
0000
3003
0000
0001
0100
,
0001
0000
0010
0000
0100
0000
1000
0010
0000
0010
0100
0000
0001
0000
0010
0001
,
0100
0000
0010
0000
1000
0000
0001
0010
0000
0010
0100
0000
1000
0000
0001
0100
,
0010
0000
1000
0000
0100
0000
0010
0001
0000
0001
0100
0000
0010
0000
1000
0001
,
1000
0000
0010
0000
0110
0000
0000
0000
1000
0000
0001
0000
1000
0100
0010
0001
,
1000
0000
0010
0100
0001
0010
0100
1000
0001
0100
0001
1000
0010
0000
1000
0001
,
0010
0000
0001
1000
0010
0100
0010
1000
0001
1000
0100
0010
0001
0000
0100
0001
,
1000
0010
1000
0001
0010
0100
1000
0001
0100
0001
1000
0100
0010
0001
0200
0000
,
0000
0310
1000
0001
0100
0001
0010
0100
0010
0001
0100
0001
1000
0100
1000
0100
,
0010
0001
1000
0100
0010
0000
0001
0100
0010
1000
0001
0000
1000
0100
0010
0001
,
1000
0000
0010
0100
0001
1000
0100
1000
0010
0100
0001
0010
0001
0000
1000
0001
,
1000
0010
0100
0001
0100
0000
0010
1000
0100
1000
0001
0010
0001
1000
0010
0200
,
0000
0000
0301
0100
0001
1000
0100
1000
0010
0100
0001
1000
0100
1000
0001
0100
,
0010
1000
0001
0100
0010
1000
0001
0010
0100
1000
0001
1000
0010
0100
0001
0100
,
0010
1000
0100
0010
0001
0100
0010
1000
0001
1000
0100
1000
0001
0000
0100
0000
,
0010
1000
0100
1000
0001
0010
0100
0010
0001
0100
0010
1000
0001
1000
0010
0100
,
0001
1000
0100
1000
0010
0100
0001
1000
0001
0100
0001
1000
0001
0000
0001
0000
,
0100
0010
0100
0001
1000
0100
0010
0001
1000
0010
0001
0010
0100
0001
0010
0100
,
0010
0001
1000
0001
0100
0010
1000
0100
1000
0010
0001
0010
0100
0000
0001
0000
,
1000
0010
0100
0001
0010
0100
1000
0010
0100
0001
0100
1000
0100
0001
0010
0100
,
0001
0100
1000
0100
0010
0001
1000
0001
0100
0010
0100
0001
0100
0000
0100
0000
,
1001
0000
0002
0000
0203
0000
0000
2300
,
0000
0100
0000
0000
3200
0000
0302
0000
,
0023
0000
0000
2030
0000
0000
0000
0000
,
3020
0000
0000
0230
0000
0000
2300
0000
,
3020
0000
0000
0032
0000
0000
2003
0000
,
0000
0000
3200
0302
,
2003
0000
0000
3200
,
0302
0000
0000
0103
0010
0001
1000
0010
,
1001
1000
0010
0100
0102
0000
1000
0000
,
0010
0000
0000
0000
1000
0000
0000
0000
0103
0000
0001
1000
0001
0000
1000
0100
,
0010
0100
1000
0010
0100
0001
0010
0100
0010
0001
0100
0010
1000
0001
1000
0100
,
1000
0010
1000
0100
0001
0100
1000
0010
0100
0001
0000
0000
,
0010
0001
0010
0001
0100
0010
0100
0010
1000
0100
1000
0100
1000
0001
1000
0001
,
1000
0010
0100
0001
0100
0010
1000
0001
1000
0100
0010
0001
0100
0010
1000
0100
,
0010
0001
0100
0010
0001
0010
1000
0001
0100
0010
1000
0100
0010
1000
0010
0001
,
1000
0000
0000
0100
0000
0000
0010
0000
0000
0001
0000
0000
1000
0000
0000
0001
0100
0010
1000
0000
0000
0001
0000
0000
,
1000
0001
0100
0010
1000
0000
0100
0010
0001
0100
0010
0000
1000
0000
0010
0100
,
0001
0010
0100
0000
1000
0000
0100
0010
0100
1000
0010
0100
0001
0010
0001
0100
,
0001
0010
0100
1000
0001
0100
0010
1000
0001
0010
0100
1000
0001
0100
0010
1000
,
0001
0010
0100
1000
0001
0100
0010
1000
0001
0010
0001
0100
0010
0100
0001
0010
,
0100
0000
1000
0001
0100
1000
0100
0001
1000
0100
1000
0010
0001
0010
0100
0001
,
1000
0010
0100
0010
0100
0001
0010
0100
0010
0001
1000
0010
1000
0001
1000
0100
,
0010
0001
0100
0010
0100
0001
0010
0001
1000
0010
1000
0001
1000
0010
0001
0010
,
0100
0010
1000
0100
0001
0100
1000
0010
0100
0001
0100
0010
1000
0100
0010
0100
,
1000
0010
0100
2000
0100
3100
0001
0010
,
0100
0001
0100
2000
0010
3010
0100
0000
,
1001
0001
0010
0200
0001
0301
0100
1000
,
0001
0000
0100
0000
0010
0000
1000
0000
0001
0010
0100
0010
0001
0100
0010
0100
,
0001
0100
1000
0100
0010
1000
0010
0100
0001
0010
0100
0010
0001
1000
0010
0100
,
0001
0010
1000
0010
0001
1000
0100
0010
0001
0100
0010
1000
0100
1000
0001
0100
,
0010
0001
0010
0100
0001
1000
0001
0100
0010
0100
0001
0010
0001
0100
0010
1000
,
0200
0000
0000
0000
0310
0000
0001
0000
0100
0001
1000
0100
0001
0100
1000
0010
,
1000
0100
0110
0010
0011
0001
1001
1000
,
1100
0000
1001
0000
0101
0000
1001
0000
0001
0010
0100
0001
0100
1000
0010
0100
,
0002
0000
0000
0000
,
0000
0000
0000
0000
,
0003
0000
0000
0000
;

//--------------- dance-double - forcednature ----------------
#NOTEDATA:;
#STEPSTYPE:dance-double;
#DESCRIPTION:forcednature;
#DIFFICULTY:Easy;
#METER:12;
#RADARVALUES:0,0,0,0,0;
#CREDIT:forcednature;
#NOTES:
00000000
00000000
00000000
00000000
,
00000000
00000000
00000000
00000000
,
00000000
00000000
00000000
00000000
,
00000000
00000000
00000000
00000000
,
00000000
00000000
00000000
00000000
,
00000000
00000000
00000000
00000000
,
00000000
00000000
00000000
00000000
,
00000000
00000000
00000000
00000000
,
00000000
00000000
00000000
00000000
,
00011000
01000000
00000000
00010000
,
10000000
00100000
10000000
00000000
00010000
01000000
00010000
00000000
,
00100000
00001000
00000000
00000010
,
00000100
00001000
00000100
00000000
00000010
00000001
00000010
00000100
,
00001000
00000000
00000010
00000000
00001000
00000100
00010000
00000000
,
00001000
00000000
01000000
00000000
00010000
10000000
00100000
00000000
,
00010000
00000000
00001000
00000000
00000010
00000100
00001000
00000000
,
00001001
00000000
00000100
00000000
00000000
00001000
00010000
00000000
,
00100000
00000000
10000000
01000000
00000000
00100000
00010000
00000000
,
01000000
00000000
00001000
00010000
00000000
00000100
00001000
00000000
,
00000010
00000000
00001000
00000001
00000000
00000010
00000100
00000000
,
00010000
00000000
00001000
01000000
00000000
00010000
10000000
00100000
,
10000000
00000000
01000000
00100000
00000000
01000000
10000000
00000000
,
00010000
00000000
01000000
00001000
00000000
00010000
00000010
00001000
,
00000001
00000000
00000010
00000100
00001000
00000100
00000010
00000001
,
00000100
00000000
00000010
00000000
00010000
00001000
00100000
00000000
,
10010000
00000000
00010000
01000000
00000000
00001000
00010000
00000000
,
00000100
00000000
00000010
00000001
00000000
00000100
00000010
00000000
,
00001000
00000000
00000010
00010000
00000000
00001000
00100000
00000000
,
01000000
00000000
10000000
00100000
00000000
10000000
00010000
00000000
,
01010000
00000000
00001000
00100000
00000000
00001000
00010000
00000000
,
00000100
00000000
00000010
00000001
00000000
00000100
00000010
00000100
,
00001000
00000000
00010000
00100000
01000000
00100000
10000000
01000000
,
00100000
00000000
01000000
00000000
10000000
00010000
01000000
00000000
,
00021000
00000000
00000000
00000200
00000000
00000000
00030300
00000000
,
00000020
00000000
00000000
00000002
00000000
00000000
00000033
00000000
,
00000002
00000000
00000000
00000200
00000000
00000000
00000003
00002000
,
00000000
00000000
00000000
00000000
00000000
00000000
00000000
00000000
00000000
00000000
00000000
00000000
00003300
00000000
00001000
00010000
,
00001000
00000000
00100000
00010000
00000000
10000000
00100000
00000000
,
10000000
00010000
01000000
00001000
00000000
00010000
00000100
00000000
,
00000010
00000001
00000100
00000010
00000000
00001000
00000001
00000010
,
00000000
00000100
00010000
00000000
00001000
00100000
00010000
00000000
,
10010000
00000000
00010000
00000000
01000000
00001000
00010000
00000000
,
00000100
00000000
00001000
00000000
00000010
00000100
00000001
00000000
,
00000010
00000000
00000100
00000000
00010000
00001000
00100000
00000000
,
00010000
10000000
00100000
10000000
01000000
00100000
00001000
00010000
,
00100000
00000000
01000000
00001000
00000000
00010000
00000010
00000000
,
00001000
00000100
00000010
00000000
00000001
00000100
00000010
00000000
,
00001001
00000000
00000001
00000100
00000000
00001000
00010000
00000000
,
00000100
00010000
00001000
00100000
00001000
00010000
00100000
00000000
,
10010000
01000000
00001000
00010000
,
00000100
00010000
00001000
00000100
,
00000001
00000010
00000100
00010000
,
00001000
00100000
00010000
10000000
,
01100000
10000000
01000000
00100000
,
00011000
01000000
00001000
00010000
,
00001100
00000010
00001001
00000100
,
00000011
00000110
00001100
00010000
,
00101000
00000000
10000000
00000000
00010000
00000000
00000000
01000000
,
00000000
01000000
00000000
00000000
00001000
00000000
00010000
00000000
,
00000100
00000000
00000000
00000010
00000000
00000000
00000000
00000000
,
00000001
00000000
00000000
00000100
00000000
00000000
00001000
00000000
,
00010000
00000000
00000000
01000000
00000000
00000000
10000000
00000000
,
00000000
00000000
00100000
10000000
,
00010000
00000000
00000000
00100000
,
01000000
00000000
00000000
00010000
00000000
00000000
00001000
00000000
,
00000110
00001000
00000001
00000000
,
00000100
00000000
00001000
00000000
,
00010000
00100000
10000000
00010000
,
00100000
01000000
00100000
01000000
00100000
01000000
00100000
00000000
,
01000000
00000000
10000000
00000000
00100000
01000000
00010000
00000000
,
00100000
00000000
00001000
00000000
00010000
00000100
00001000
00000000
,
00000001
00000100
00000001
00000000
00001000
00000010
00001000
00000000
,
00000110
00000000
00000001
00000000
00000100
00001000
00010000
00000000
,
00000100
00000000
00010000
00001000
00000000
00100000
00010000
10000000
,
00010000
00000000
01000000
00100000
00000000
10000000
01000000
00000000
,
00100000
00000000
00000000
00100000
01000000
00000000
00000000
01000000
00010000
00000000
00000000
00010000
00001000
00000000
00000000
00001000
,
00000010
00000000
00000000
00000010
00000100
00000000
00000000
00000100
00001000
00000000
00000001
00000000
00000100
00000000
00000001
00000000
,
00000100
00000000
00000010
00000000
00001000
00000100
00000010
00000000
,
00000100
00010000
00001000
01000000
00010000
10000000
00100000
00000000
,
10000000
01000000
00100000
00000000
01000000
10000000
00010000
00000000
,
01000000
00001000
00010000
00000010
00010000
00001000
00100000
00000000
,
00011000
00000000
00000100
00001000
00000000
00000001
00000100
00000000
,
00000010
00000000
00001000
00000100
00000000
00010000
00001000
00000000
,
00101000
00000000
00001000
00010000
00000000
00100000
10000000
00000000
,
00010000
00000000
00100000
01000000
00000000
10000000
00010000
00000000
,
01100000
00000000
00010000
00001000
00000000
00000010
00000100
00000000
,
00001001
00000000
00000001
00000100
00000000
00001000
00010000
00000000
,
00010100
00000000
00001000
00000000
01000000
00001000
00100000
00000000
,
10010000
00000000
01000000
00000000
00100000
10000000
01000000
00000000
,
01001000
00010000
00010100
00001000
,
01000000
00001000
00010000
00000010
00010000
00001000
00100000
00001000
,
00022000
00000000
00000000
00000000
,
00000000
00000000
00000000
00000000
,
00033000
00000000
00000000
00000000
;

//--------------- dance-double - forcednature ----------------
#NOTEDATA:;
#STEPSTYPE:dance-double;
#DESCRIPTION:forcednature;
#DIFFICULTY:Medium;
#METER:16;
#RADARVALUES:0,0,0,0,0;
#CREDIT:forcednature;
#NOTES:
00000000
00000000
00000000
00000000
,
00000000
00000000
00000000
00000000
,
00000000
00000000
00000000
00000000
,
00000000
00000000
00000000
00000000
,
00000000
00000000
00000000
00000000
,
00000000
00000000
00000000
00000000
,
00000000
00000000
00000000
00000000
,
00000000
00000000
00000000
00000000
,
00000000
00000000
00000000
00000000
00001000
00010000
00000100
00001000
,
00001001
00000000
00000001
00000000
,
00000100
00001000
00010000
01000000
10000000
00010000
10000000
00100000
,
00010000
00000000
00000000
00001000
00000000
00000000
00000000
00000000
,
00000000
00000010
00000000
00000000
00000100
00001000
00000001
00000100
,
00001000
00000000
00000000
00010000
00000000
00000000
00000000
00000000
,
00000000
01000000
00100000
00010000
00001000
00000100
00000010
00000001
,
00000100
00001000
00010000
00100000
10000000
00010000
10000000
01000000
,
00010000
00001000
00000100
00010000
01000000
00001000
00010000
00000010
,
00001000
00000001
00000010
00000100
00000000
00010000
00001000
01000000
,
00010000
10000000
00100000
10000000
00000000
01000000
00100000
00000000
,
01000000
10000000
00010000
01000000
00000000
00001000
00010000
00000100
,
00001000
00000001
00000100
00000010
00000000
00001000
00000100
00000010
,
00000001
00000100
00001000
00010000
00000000
00100000
00010000
00001000
,
00010000
01000000
10000000
00010000
00000000
10000000
00100000
01000000
,
00010000
00000000
00000000
00000000
00100000
00010000
00100000
00001000
00010000
00000100
00001000
00000100
00000010
00000001
00000100
00000010
,
00002000
00000000
00000000
00000000
00000000
00000000
00003001
00000000
00000100
00000000
00001000
00000000
00010000
00001000
00010000
00001000
,
00000010
00000001
00000100
00000010
00000000
00001000
00000100
00000010
,
00001000
00010000
00100000
00010000
00000000
00001000
00010000
00000000
,
01000000
10000000
00010000
01000000
00000000
00100000
10000000
00010000
,
00100000
00001000
00010000
00000100
00000000
00001000
00000001
00000100
,
00001000
00010000
01000000
10000000
00000000
00010000
01000000
00010000
,
00100000
00001000
00000010
00001000
00000000
00010000
00000100
00001000
,
00000010
00000000
00000000
00000000
00000100
00001000
00010000
00001000
00010000
00100000
00010000
00001000
00100000
00010000
00100000
01000000
,
10000000
00000000
00100000
00000000
10000000
00000000
00010000
00000000
10000000
01000000
00100000
00010000
01000000
00100000
01000000
00001000
,
00020000
00000000
00000000
00030200
00000000
00000000
00000300
00000000
,
00000020
00000000
00000000
00000032
00000000
00000000
00000003
00000000
,
00000200
00000000
00000000
00002300
00000000
00000000
00000000
00020000
,
00000000
00000000
00000000
00000000
00000000
00000000
00000000
00000000
00000000
00000000
00000000
00000000
00033000
00000000
00001000
00010000
,
00001000
00000000
00100000
00000000
00010000
00000000
10000000
00100000
00000000
00100000
10000000
00000000
01000000
00000000
00000000
00000000
,
00100000
00000000
00001000
00000000
00010000
00000000
00000100
00001000
00000000
00001000
00000100
00000000
00000010
00000000
00000000
00000000
,
00000001
00000000
00000100
00000000
00000010
00000000
00010000
00001000
00000000
00001000
00010000
00000000
00100000
00000000
01000000
00000000
,
00010000
00000000
10000000
00000000
01000000
00000000
00000000
00000000
00100000
00000000
00100000
00000000
00001000
00010000
00001000
00010000
,
00001000
00000000
00000000
00000100
00000001
00000000
00000000
00000100
00000010
00001000
00000010
00000000
00010000
00000000
00000000
00010000
,
00001000
00000000
00000000
00100000
00010000
00000000
00000000
10000000
00010000
01000000
00010000
00000000
00100000
00000000
00000000
01000000
,
10000000
00000000
00000000
00010000
01000000
00000000
00001000
00010000
00001000
00010000
00001000
00000000
00000100
00000000
00000001
00000000
,
00000000
00000010
00000100
00000010
00000100
00001000
00000001
00001000
00000001
00000000
00000100
00000000
00001000
00010000
00001000
00010000
,
00001000
00100000
00001000
00100000
00010000
00000000
01000000
00010000
01000000
00010000
10000000
00000000
00100000
10000000
00100000
10000000
,
01000000
00000000
10000000
01000000
10000000
00000000
00010000
00100000
00010000
00000000
01000000
00001000
01000000
00000000
00000000
00000000
,
00001000
00010000
00001000
00010000
00001000
00000000
00000100
00000001
00000100
00000001
00000100
00000010
00001000
00000001
00001000
00000100
,
00000000
00000010
00000001
00000000
00000010
00000000
00000001
00000000
00000100
00000000
00001000
00000000
00010000
00001000
00010000
00001000
,
00010000
00100000
00001000
00000010
,
00010000
00100000
00001000
00000010
,
00010000
01000000
00001000
00000100
,
00010000
00000000
01000000
00000000
00001000
00000100
00001000
00000100
,
00010000
01000000
00001000
00000010
,
00010000
00100000
00001000
00000100
,
00011000
01000000
00011000
00000100
,
00011000
00000000
00000000
00001000
01000000
00000000
00000000
00010000
10000000
00000000
10000000
00000000
00010000
00000000
00010000
00000000
,
01100000
00000000
00002000
00000000
00023000
00000000
00000000
00030200
,
00000000
00010000
00000000
00000000
00000320
00000000
00000032
00000000
,
00000203
00000000
00000000
00002300
00000000
00000000
00000000
00000000
,
00023000
00000000
00000000
00230000
00000000
00000000
20300000
00000000
,
32000000
00000000
00000000
03020000
00000000
00000000
00032000
00000000
,
00000000
00000000
00003200
00002300
,
00023000
00000000
00000000
00030200
,
00002300
00000000
00000000
00003001
00000100
00001000
00010000
00001000
,
00000010
00001000
00010000
01000000
20000000
00000000
00000000
00000000
,
00100000
00000000
00000000
00000000
00000000
00000000
00000000
00000000
00010000
00000000
00000000
00000000
30000000
00000000
10000000
00010000
,
10000000
00000000
00010000
00000000
01000000
00010000
01000000
00000000
00001000
00000000
00010000
00000000
00000100
00001000
00000100
00000000
,
00000010
00000001
00000100
00001000
00010000
00000100
00010000
00100000
10000000
00010000
00000000
00000000
,
00200000
01000000
01000000
01000000
,
00010000
00010000
00001000
00301000
,
00100000
00001000
00100000
00001000
00010000
00001000
00010000
00001000
00010000
00000010
00010000
00000010
00010000
00001000
00010000
00001000
,
00010000
00000000
00000100
00000000
00000010
00000000
00000001
00000000
00000100
00000000
00000001
00001000
00000001
00000000
00000010
00000000
,
00000100
00010000
00000100
00000000
00010000
00000000
00000000
00001000
00000000
00000000
01000000
00000000
00010000
00000000
00000000
10000000
,
00000000
00000000
00100000
00000000
10000000
00000000
00000000
00010000
00000000
00000000
00100000
00000000
01000000
10000000
01000000
00000000
,
00100000
00010000
00100000
00000000
00001000
00010000
00001000
00000000
01000000
00010000
01000000
00000000
00001000
00010000
00001000
00000000
,
00010000
00000100
00010000
00000000
00000010
00001000
00000010
00000000
00000100
00000001
00000010
00000000
00000100
00001000
00000010
00000000
,
00000100
00000000
00000000
00001000
00010000
00000000
00100000
00000000
01000000
00000000
00010000
00000000
10000000
00100000
10000000
00000000
,
00010000
00000000
00100000
00000000
01000000
00000000
10000000
00000000
00010000
00000000
01000000
00000000
00001000
00010000
00001000
00000000
,
00000100
00000000
00000001
00000000
00000010
00000000
00000100
00000000
00001000
00000001
00000010
00000100
00001000
00000010
00010000
00001000
,
00010000
00000000
00100000
00000000
01000000
00000000
00010000
00000000
10000000
00100000
10000000
00100000
01000000
00010000
01000000
00010000
,
10000000
01000000
00010000
00001000
00000010
00000001
00000100
00000010
,
00000100
00000001
00000010
00001000
00010000
00100000
01000000
00000000
,
00010000
10000000
01000000
00001000
00010000
00000010
00000001
00000100
,
00000010
00000000
00001000
00000000
00000001
00000000
00000100
00000000
00001000
00010000
00001000
00010000
00001000
00010000
00001000
00010000
,
00001000
01000000
00001000
00100000
00010000
10000000
00100000
01000000
00010000
00000000
00100000
00000000
01000000
00000000
00010000
00000000
,
00001000
00010000
00000100
00001000
00000100
00000010
00000001
00001000
00000001
00000000
00000100
00000000
00000010
00000000
00010000
00000000
,
00011000
00000000
00000000
00000000
01000000
00010000
10000000
00100000
10000000
00010000
10000000
01000000
00100000
00010000
10000000
00010000
,
01000000
00000000
00001000
00000000
00010000
00000000
00000100
00000000
00001000
00000001
00000100
00000010
00001000
00000001
00000010
00000000
,
00000110
00011000
01100000
00011000
,
00100000
00000000
00001000
00000000
00000100
00000000
00000010
00000000
00001000
00000001
00001000
00000001
00000010
00000100
00000010
00000100
,
00002000
00000000
00000000
00000000
,
00000000
00000000
00000000
00000000
,
00003000
00000000
00000000
00000000
;

//--------------- dance-double - forcednature ----------------
#NOTEDATA:;
#STEPSTYPE:dance-double;
#DESCRIPTION:forcednature;
#DIFFICULTY:Hard;
#METER:18;
#RADARVALUES:0,0,0,0,0;
#CREDIT:forcednature;
#NOTES:
00000000
00000000
00000000
00000000
,
00000000
00000000
00000000
00000000
,
00000000
00000000
00000000
00000000
,
00000000
00000000
00000000
00000000
,
00000000
00000000
00000000
00000000
,
00000000
00000000
00000000
00000000
,
00000000
00000000
00000000
00000000
,
00000000
00000000
00000000
00000000
,
00000000
00000000
00000000
00000000
00001000
00010000
00100000
10000000
,
20010000
00000000
01000000
30000000
,
10000000
00100000
00010000
00100000
01000000
00010000
00000010
00000100
,
00002000
00000000
00000000
00000020
00000000
00000000
00000000
00000000
,
00000000
00000000
00003030
00000000
00000100
00000001
00001000
00000100
,
00020000
00000000
00000000
00002000
00000000
00000000
00000000
00000000
,
00033000
00100000
01000000
10000000
00010000
01000000
00100000
00010000
,
00001000
00000100
00000010
00001000
00000001
00000010
00000100
00010000
,
00002002
00000000
00000000
00003003
,
00000001
00000100
00001000
00010000
00000000
00000100
00010000
00010000
,
00100000
01000000
00010000
10000000
00000000
01000000
00010000
00000000
,
00001000
00000010
00000001
00001000
00000000
00000010
00000100
00000100
,
00001000
00010000
00000100
00001000
00000000
01000000
00010000
00001000
,
01000000
00010000
10000000
00100000
00000000
00010000
00001000
00001000
,
00000010
00000100
00001000
00000001
00000000
00000100
00001000
00010000
,
00000100
00000000
00000000
00000000
00010000
00001000
00100000
00010000
00100000
01000000
10000000
00010000
01000000
00100000
10000000
00010000
,
00100000
00000000
00000000
00000000
00001000
00000000
00000100
00000000
00000001
00000000
00001000
00000000
00000100
00000010
00000100
00000000
,
00001000
00000001
00000100
00010000
00000000
01000000
00001000
00001000
,
00100000
01000000
10000000
00010000
00000000
01000000
00100000
00000000
,
00010000
00001000
00000010
00000100
00000000
00001000
00000001
00000001
,
00000100
00001000
00010000
00000100
00000000
00001000
01000000
10000000
,
00100000
00010000
00001000
00000010
00000000
00000100
00010000
00010000
,
00001000
00000100
00000001
00001000
00000000
00000100
00000010
00001000
,
00010000
00000000
00000000
00000000
00000100
00001000
00000001
00000100
00000010
00001000
00000100
00000010
00000100
00010000
00001000
00100000
,
00010000
00000000
00000000
00000000
10000000
00100000
10000000
00100000
01000000
00001000
01000000
00001000
00000100
00001000
00000100
00001000
,
00020000
00000000
00000000
00000020
00000000
00000000
00030030
00000000
,
02000000
00000000
00000000
00002000
00000000
00000000
03003000
00000000
,
20000000
00000000
00000000
00020000
00000000
30000000
00000000
00000200
,
00000000
00000000
00000000
00000000
00000000
00000000
00000000
00000000
00000000
00000000
00030300
00000000
00000000
00000000
00000001
00001000
,
00000001
00000010
00000100
00001000
00000000
00000001
00000100
00001000
,
00010000
00100000
10000000
00010000
00000000
10000000
01000000
00100000
,
00010000
01000000
00001000
00010000
00000000
00000100
00001000
00000010
,
00000000
00000000
00000100
00000000
00000001
00000000
00000000
00000000
00000010
00000000
00000100
00000000
00001000
00000001
00001000
00000001
,
00001000
00000000
00000010
00001000
00000010
00010000
00001000
01000000
00010000
01000000
00100000
10000000
00010000
00000000
10000000
01000000
,
00100000
00000000
01000000
10000000
00010000
00100000
00001000
00010000
00000100
00001000
00000001
00000100
00000010
00000000
00001000
00000100
,
00000010
00000100
00001000
00000001
00000100
00000010
00001000
00000100
00010000
00001000
01000000
00001000
00100000
00010000
00100000
00000000
,
00000000
00010000
10000000
00010000
10000000
00010000
01000000
00010000
00100000
00001000
00010000
00000100
00000010
00000100
00000010
00000100
,
00001000
00000001
00000100
00000001
00000010
00000000
00000100
00001000
00000010
00000100
00000010
00000000
00010000
00001000
00010000
00000100
,
00001000
00000000
00000010
00010000
00001000
00010000
00001000
01000000
00010000
00100000
01000000
10000000
00010000
00000000
00000000
00000000
,
01000000
00010000
01000000
00001000
00010000
00000000
00000100
00001000
00000001
00000010
00000100
00001000
00000010
00010000
00001000
00010000
,
00000000
00000000
00100000
01000000
00010000
10000000
01000000
00100000
00010000
00000000
00010000
00000000
01000000
00001000
01000000
00001000
,
01000000
00010000
00000100
00001000
00010000
00000100
00000010
00000001
,
00000100
00001000
00010000
01000000
00100000
00010000
10000000
00000000
,
00100000
00010000
00001000
00010000
10000000
00010000
00001000
00000100
,
00000001
00000010
00000100
00001000
00000001
00000001
00000001
00000001
,
00000110
00001000
00010000
01000000
,
10010000
00100000
00010000
00001000
,
00000110
00010000
01100000
00001000
,
00010000
00000000
00000100
00001000
00000100
00000000
00010000
00001000
00010000
00000000
00100000
00000000
00100000
00000000
00100000
00000000
,
10010000
00000000
20000000
00000000
32000000
00000000
00000000
03020000
,
00000000
01000000
00000000
00000000
00032000
00000000
00003020
00000000
,
00000032
00000000
00000000
00000203
00000000
00000000
00000000
00000000
,
00000320
00000000
00000000
00000230
00000000
00000000
00002300
00000000
,
00023000
00000000
00000000
00230000
00000000
00000000
02300000
00000000
,
00000000
00000000
03020000
20030000
,
32000000
00000000
00000000
03020000
,
00032000
00000000
00000000
00003010
00000001
00000100
00000001
00001000
,
00001001
00010000
00000010
00010000
00002000
00000000
00000000
00000000
,
00100000
00000000
00000000
00000000
00000000
00000000
00000000
00000000
01000000
00000000
00000000
00000000
00003000
00000000
00001000
00010000
,
00001000
00100000
00010000
00100000
01000000
10000000
00010000
01000000
00100000
00010000
00001000
00100000
00001000
00010000
00000010
00001000
,
00000100
00010000
00001000
01000000
00001000
00010000
00000010
00010000
00001000
00100000
00000000
00000000
,
00022000
00000000
00000000
00000000
,
00000000
00000000
00000000
00033000
,
00001000
00100000
00001000
00010000
00000100
00010000
00001000
00010000
00000010
00010000
00001000
01000000
00001000
00010000
01000000
10000000
,
00100000
00000000
00000000
10000000
00000000
00000000
00010000
00000000
00000000
01000000
00000000
00000000
00001000
00000000
00000000
00010000
00000100
00010000
00000100
00000000
00000000
00000010
00000000
00000000
,
00000001
00000100
00000001
00000010
00000100
00000000
00010000
00001000
00000000
00000100
00001000
00000000
00010000
00000000
01000000
00100000
,
00000000
01000000
10000000
00000000
00100000
00000000
01000000
00010000
00000000
00100000
00010000
01000000
00001000
00010000
00000100
00001000
,
00000100
00000010
00000001
00001000
00000100
00000010
00000001
00001000
00000100
00000010
00000001
00000100
00001000
00010000
00100000
10000000
,
01000000
00100000
00010000
10000000
01000000
00100000
00010000
10000000
00100000
10000000
01000000
00010000
00001000
00000010
00000001
00001000
,
00000001
00000000
00000000
00000100
00001000
00010000
01000000
00100000
00010000
10000000
00100000
00010000
00001000
01000000
00001000
00010000
,
00000100
00001000
00000001
00000100
00000010
00001000
00000100
00000010
00000001
00000100
00000010
00010000
00001000
00000000
00000000
00000000
,
00100000
00010000
10000000
00100000
10000000
01000000
00010000
00001000
00000100
00000001
00000010
00000100
00001000
00000001
00000100
00000000
,
00000010
00001000
00000001
00000010
00001000
00010000
00001000
00000100
00001000
00000000
00010000
00000000
00100000
10000000
00100000
10000000
,
00100000
00010000
00001000
00000010
00000000
00000001
00001000
00001000
,
00000100
00010000
01000000
00010000
00000000
00001000
00100000
00000000
,
10010000
00010000
01000000
00001000
00000000
00010000
00000100
00000100
,
00000010
00000000
00000001
00000000
00000100
00000000
00001000
00000000
00010000
00001000
00010000
00001000
00010000
00001000
00010000
00001000
,
00100000
00010000
10000000
00010000
01000000
00010000
10000000
01000000
00100000
00010000
01000000
00001000
00010000
00000100
00001000
00000000
,
00000001
00000100
00000010
00001000
00000100
00000010
00000100
00010000
00001000
01000000
00010000
10000000
00100000
10000000
00010000
00000000
,
01001000
00000000
00000000
00000000
00001000
00010000
00000100
00001000
00000010
00000100
00001000
00000100
00000001
00000010
00000100
00001000
,
00000001
00000000
00000000
00000000
00000010
00000000
00001000
00000000
00100000
00010000
01000000
00100000
00010000
00001000
00010000
00000000
,
00001100
00000100
00010000
00000000
01010000
01000000
00001000
00000000
,
00010100
00000000
00010100
00000000
01001000
00000000
01001000
00000000
00001000
00010000
00001000
00000100
00000001
00000010
00000100
00001000
,
00000002
00000000
00000000
00000000
,
00000000
00000000
00000000
00000000
,
00000003
00000000
00000000
00000000
;

//--------------- dance-double - forcednature ----------------
#NOTEDATA:;
#STEPSTYPE:dance-double;
#DESCRIPTION:forcednature;
#DIFFICULTY:Challenge;
#METER:19;
#RADARVALUES:0,0,0,0,0;
#CREDIT:forcednature;
#NOTES:
00000000
00000000
00000000
00000000
,
00000000
00000000
00000000
00000000
,
00000000
00000000
00000000
00000000
,
00000000
00000000
00000000
00000000
,
00000000
00000000
00000000
00000000
,
00000000
00000000
00000000
00000000
,
00000000
00000000
00000000
00000000
,
00000000
00000000
00000000
00000000
,
00000000
00000000
00000000
00000000
00010000
00001000
01000000
00100000
,
20020000
00000000
00000000
30030000
,
10000000
01000000
00010000
00000010
00001000
00000001
00000100
00000010
,
00020000
00000000
00000000
02000000
00000000
00000000
03030000
00000000
,
01000000
10000000
00000000
00100000
01000000
00001000
00000010
00000001
,
00002000
00000000
00000000
00000020
00000000
00000000
00003030
00000000
,
00000000
00010000
00001000
01000000
00100000
00010000
00001000
00000010
,
00000001
00000100
00000010
00001000
00000100
00000010
00000001
00000100
00000010
00010000
00001000
00100000
01000000
10000000
00010000
00100000
,
00002000
00000000
00000000
00000000
00013000
00000000
00000010
00001000
00000100
00000010
00000001
00001000
00000100
00000000
00000010
00000000
,
00001000
00010000
01000000
10000000
00000000
00010000
01000000
00001000
,
00000100
00000010
00001000
00000001
00000000
00000010
00001000
00000000
,
00010000
00100000
10000000
00010000
00000000
00100000
00001000
00000100
,
00000010
00001000
00000001
00000010
00000000
00000100
00010000
01000000
,
00100000
00010000
01000000
00100000
00000000
10000000
00010000
01000000
,
00001000
00010000
00000100
00000010
00000000
00001000
00010000
00100000
,
10000000
00000000
00000000
00000000
01000000
00100000
01000000
00010000
00001000
00010000
00000010
00001000
00000001
00000010
00000100
00001000
,
00000010
00000000
00000000
00000000
00000100
00000000
00000001
00000000
00001000
00000100
00010000
00001000
01000000
00010000
00100000
01000000
,
10000000
00100000
00010000
00100000
00000000
01000000
00001000
00000010
,
00000001
00001000
00000100
00010000
00000000
01000000
10000000
00000000
,
01000000
00100000
00001000
00000100
00000000
00000010
00001000
00000001
,
00000010
00001000
00010000
01000000
00000000
10000000
00010000
01000000
,
00001000
00000100
00000010
00010000
00000000
00001000
00000010
00000001
,
00000100
00000010
00001000
00010000
00000000
01000000
00100000
10000000
,
00010000
00000000
00000000
00000000
00100000
00001000
00010000
00000100
00001000
00000001
00000100
00000010
00010000
00001000
01000000
00010000
,
10000000
00000000
00000000
00000000
01000000
00010000
00001000
00010000
00000010
00001000
00000001
00000100
00000001
00000010
00000100
00010000
,
00002000
00000000
00003000
02020000
00000000
00000000
03030000
00000000
,
00200000
00000000
00300000
00022000
00000000
00000000
00033000
00000000
,
00000202
00000000
00000303
00022000
00000000
00000000
00033000
22000000
,
00000000
00000000
00000000
00000000
00000000
00000000
00000000
00000000
00000000
00000000
00000000
00000000
33000000
00000000
00010000
10000000
,
00010000
00000000
00100000
00000000
00001000
00000000
00010000
00000010
00000000
00000010
00000100
00000000
00000001
00000000
00000010
00000100
,
00001000
00000000
00000010
00000000
00010000
00000000
00001000
01000000
00000000
01000000
00100000
00000000
10000000
00000000
01000000
00100000
,
00010000
00000000
00001000
00000000
00000100
00000000
00000010
00000001
00000000
00000001
00000100
00000000
00000010
00000000
00010000
00001000
,
00010000
00000000
01000000
00000000
10000000
00000000
00000000
00000000
00010000
00000000
00010000
00000000
01000000
00001000
00010000
00000010
,
00001000
00000000
00000100
00000010
00000001
00000100
00000010
00001000
00000010
00010000
00001000
00010000
00000100
00000000
00010000
00001000
,
00010000
00000000
01000000
10000000
00010000
01000000
00100000
10000000
01000000
00100000
00001000
00010000
00001000
00000000
00000010
00000001
,
00000100
00000001
00001000
00000100
00010000
00001000
01000000
00010000
01000000
00100000
10000000
01000000
00100000
00001000
00020000
00000000
,
00000000
00030010
00001000
00000100
00000010
00000001
00000100
00000010
00001000
00010000
01000000
00100000
10000000
00010000
10000000
00010000
,
10000000
01000000
00100000
00010000
00100000
00000000
00001000
00010000
00000010
00001000
00000010
00000000
00000100
00000001
00000010
00000100
,
00000010
00000000
00000100
00010000
00001000
01000000
00010000
10000000
01000000
00100000
00010000
01000000
00010000
00000000
00100000
00001000
,
00010000
00000010
00001000
00000010
00000100
00000000
00000001
00000010
00000100
00001000
00000100
00010000
00001000
01000000
00010000
02000000
,
00000000
00000000
03100000
10000000
01000000
00100000
00010000
10000000
01000000
00000000
00010000
00000000
00000100
00001000
00000100
00001000
,
00000010
00000100
00000001
00001000
00000100
00001000
00000010
00010000
00001000
01000000
00010000
01000000
00100000
10000000
01000000
00100000
,
00010000
10000000
01000000
00010000
00001000
01000000
00001000
00010000
00000100
00001000
00000001
00000100
00000010
00000000
00001000
00000000
,
00000010
00010000
00001000
00010000
00100000
01000000
00010000
10000000
01000000
00100000
00010000
01000000
00001000
00010000
00001000
00000100
,
00000001
00000010
00000100
00001000
00000010
00010000
00001000
01000000
00010000
00100000
00010000
01000000
00010000
00000000
00010000
00000000
,
10000000
01000000
00010000
00001000
00010000
00000010
00001000
00000001
00000010
00000100
00001000
00000100
00010000
00000010
00010000
00001000
,
01000000
00010000
10000000
01000000
00100000
00010000
00001000
00000100
00001000
00000010
00000100
00000001
00000010
00000000
00001000
00000000
,
01000000
00010000
01000000
00001000
00010000
00001000
00000100
00000010
00001000
00000100
00000010
00000001
00000100
00001000
00000100
00000001
,
00000010
00000100
00010000
00001000
00000100
00000000
00001000
00010000
00100000
01000000
00010000
00100000
01000000
10000000
00100000
01000000
,
10010000
00000000
20000000
00000000
32000000
00000000
00000000
03002000
,
00000000
01000000
00000000
00000000
00023000
00000000
00030020
00000000
,
00000032
00000000
00000000
00002003
00000000
00000000
00000000
00000000
,
00003002
00000000
00000000
00000203
00000000
00000000
00002300
00000000
,
00023000
00000000
00000000
00230000
00000000
00000000
20300000
00000000
,
00000000
00000000
32000000
03200000
,
02300000
00000000
00000000
03020000
,
00032000
00000000
00000000
00003010
00000001
00001000
00000010
00010000
,
00011000
01000000
00010000
00100000
00002000
00000000
00000000
00000000
,
00000100
00000000
00000000
00000000
00000000
00000000
00000000
00000000
01003000
00000000
00001000
00010000
00001000
00000000
00000010
00000001
,
00000100
00000010
00001000
00000100
00010000
00001000
01000000
00010000
01000000
00100000
10000000
01000000
00100000
00001000
00010000
00000010
,
00001000
00000001
00000100
00001000
00010000
01000000
10000000
00100000
00010000
00001000
00000000
00000000
,
00000010
00000001
00000010
00000001
00001000
00000100
00001000
00000100
00010000
00001000
00010000
00001000
01000000
00010000
01000000
00010000
,
00100000
01000000
10000000
00100000
01000000
00001000
00010000
00000100
00001000
00000100
00000010
00000001
00000100
00001000
00010000
01000000
,
00010000
00001000
01000000
00010000
10000000
01000000
00100000
00001000
00010000
00000010
00001000
00010000
01000000
00001000
00010000
00000100
,
00000010
00000000
00000000
00000001
00000000
00000000
00000100
00000000
00000000
00001000
00000000
00000000
00010000
00000000
00000000
01000000
10000000
00010000
10000000
00000000
00000000
01000000
00000000
00000000
,
00010000
00001000
00010000
00000010
00001000
00000000
00000100
00000010
00000001
00000100
00000010
00000000
00010000
00000000
00001000
01000000
,
00010000
10000000
01000000
00000000
00010000
00000000
00001000
00010000
00001000
00000010
00000001
00000100
00000010
00001000
00000010
00010000
,
00001000
00010000
01000000
00010000
00001000
00010000
00100000
00010000
00001000
00000010
00001000
00010000
00001000
00000100
00001000
00010000
,
00001000
00010000
01000000
00010000
00001000
00000100
00001000
00010000
00100000
01000000
00010000
10000000
01000000
00010000
00001000
00000100
,
00000001
00000000
00000010
00001000
00010000
01000000
10000000
00010000
01000000
00100000
10000000
01000000
00100000
00001000
00010000
00000010
,
00001000
00000001
00000010
00000100
00001000
00000100
00010000
00001000
01000000
00010000
10000000
01000000
00010000
00001000
00000100
00000001
,
00000010
00000100
00001000
00000001
00000100
00001000
00010000
00100000
10000000
00010000
00100000
01000000
10000000
00010000
01000000
00001000
,
00010000
00000100
00000010
00001000
00000010
00000001
00000100
00000010
00010000
00001000
00010000
01000000
10000000
00010000
00100000
01000000
,
10000000
00100000
00010000
00001000
00000000
00000010
00000001
00001000
,
00000001
00000100
00001000
00010000
00000000
01000000
00100000
00000000
,
00010000
01000000
00001000
00000100
00000000
00000001
00001000
00000100
,
00000010
00000000
00001000
00000000
00010000
00000000
00100000
00000000
01000000
00010000
00100000
01000000
00010000
00001000
00000100
00000001
,
00001000
00000001
00000010
00000100
00001000
00000010
00010000
00001000
01000000
00001000
00010000
00000100
00001000
00000100
00010000
00001000
,
01000000
00100000
10000000
01000000
00100000
00010000
01000000
00001000
00010000
00001000
00000100
00000001
00001000
00000100
00001000
00000010
,
00010000
00001000
00010000
01000000
10000000
00010000
01000000
00100000
10000000
01000000
00010000
00001000
00000100
00001000
00010000
00001000
,
00000020
00000000
00000000
00000000
00000031
00000100
00001000
00010000
01000000
10000000
00100000
01000000
10000000
01000000
00010000
00100000
,
01100000
01000000
01001000
00001000
00001100
00000100
00000110
00000010
,
00000011
00000000
00000101
00000000
00001100
00000000
00011000
00000000
00010000
00001000
00000100
00001000
01000000
00100000
10000000
01000000
,
00020000
00000000
00000000
00000000
,
00000000
00000000
00000000
00000000
,
00030000
00000000
00000000
00000000
;
