#VERSION:0.83;
#TITLE:532nm;
#SUBTITLE:;
#ARTIST:Ryu☆;
#TITLETRANSLIT:;
#SUBTITLETRANSLIT:;
#ARTISTTRANSLIT:;
#GENRE:HARDCORE;
#CREDIT:;
#MUSIC:532nm.ogg;
#BANNER:532nm.png;
#BACKGROUND:532nm-bg.png;
#CDTITLE:./CDTitles/bm IIDX 19 Lincle.png;
#SAMPLESTART:13.079;
#SAMPLELENGTH:15.000;
#SELECTABLE:YES;
#OFFSET:0.473;
#BPMS:0.000=177.000;
#STOPS:;
#TIMESIGNATURES:0.000=4=4;
#BGCHANGES:0.000=../BGAs/19po.mp4=1.000=0=0=0=StretchNoLoop====,
99999.000=-nosongbg-=1.000=0=0=0=StretchNoLoop====
;
#FGCHANGES:;

//--------------- dance-single - forcednature ----------------
#NOTEDATA:;
#STEPSTYPE:dance-single;
#DESCRIPTION:forcednature;
#DIFFICULTY:Beginner;
#METER:2;
#RADARVALUES:0,0,0,0,0;
#CREDIT:forcednature;
#NOTES:
0000
0000
0000
0000
,
0000
0000
0000
0000
,
0000
0000
0000
0000
,
0000
0000
0000
0000
,
0000
0000
0000
0000
,
0000
0000
0000
0000
,
1000
0000
0000
0000
,
0001
0000
0000
0000
,
0100
0000
0000
0000
,
0010
0000
0000
0000
,
1000
0000
0000
0000
,
0001
0000
0000
0000
,
0010
0000
0000
0000
,
0100
0000
0000
0000
,
0010
0000
0000
0000
,
0001
0000
0000
0000
,
0100
0000
0000
0000
,
0010
0010
0010
0000
,
1000
0000
0000
0000
,
0100
0000
0000
0000
,
1000
0000
0000
0000
,
0010
0000
0000
0000
,
0100
0000
0100
0000
,
0001
0000
0001
0000
,
0010
0000
0100
0000
,
1000
1000
1000
0000
,
0010
0000
0000
0000
,
0100
0000
0001
0000
,
0100
0000
0000
0000
,
0001
0000
0010
0000
,
0001
0000
0000
0000
,
1000
0000
0000
0000
,
0010
0000
0100
0000
,
0001
0000
0000
0000
,
2000
0000
0000
0000
,
0000
0000
3000
0000
,
0100
0000
0000
0000
,
0000
0000
0000
0000
,
0010
0000
0000
0000
,
0000
0000
0000
0000
,
0001
0000
0000
0000
,
0000
0000
0000
0000
,
1000
0000
0000
0000
,
0000
0000
0000
0000
,
0010
0000
0000
0000
,
0100
0000
0000
0000
,
0001
0000
0000
0000
,
1000
0000
0000
0000
,
0100
0000
0100
0000
,
0010
0000
0010
0000
,
0001
0000
1000
0000
,
0010
0010
0010
0000
,
0000
0000
0000
0000
,
0200
0000
0000
0300
,
0001
0000
0000
0000
,
1000
0000
0000
0000
,
0100
0000
0000
0000
,
0010
0000
0010
0000
,
0001
0000
0000
0000
,
1000
0000
0000
0000
,
0010
0000
0000
0000
,
0100
0000
0000
0000
,
0001
0000
1000
0000
,
0001
0000
0000
0000
,
1000
0000
0100
0000
,
1000
0000
0000
0000
,
0001
0000
0000
0000
,
0100
0000
0000
0000
,
0010
0000
0010
0000
,
1000
0000
0001
0000
,
2002
0000
0000
0000
,
3003
0000
0000
0000
;

//--------------- dance-single - forcednature ----------------
#NOTEDATA:;
#STEPSTYPE:dance-single;
#DESCRIPTION:forcednature;
#DIFFICULTY:Easy;
#METER:6;
#RADARVALUES:0,0,0,0,0;
#CREDIT:forcednature;
#NOTES:
0000
0000
0000
0000
,
0000
0000
0000
0000
,
0000
0000
0000
0000
,
0000
0000
0000
0000
,
0000
0000
0000
0000
,
0000
0000
0000
0000
,
1000
1000
1000
0000
,
0001
0001
0001
0000
,
0100
0010
0100
0010
,
1000
0001
1000
0000
,
1001
0000
0001
0010
,
0100
1000
0010
0100
,
0001
0000
0010
0100
,
0010
0001
1000
0010
,
0100
0000
0010
1000
,
0001
0010
0100
1000
,
0001
0000
0100
0010
,
1000
1000
1000
0000
,
1001
0000
0001
0010
,
0001
0100
0010
1000
,
0001
0000
0010
0100
,
1000
0010
0100
0001
,
0010
0000
0000
0010
0000
0000
0010
0000
,
0100
0000
0000
0100
0000
0000
0100
0000
,
1000
0001
0100
0010
,
1000
1000
1000
0000
,
1001
0000
0001
0010
,
0001
0100
0010
0000
,
0110
0000
0100
0001
,
2000
3000
0002
0003
,
0100
0000
0000
0100
0000
0000
0100
0000
,
0010
0000
0000
0010
0000
0000
0010
0000
,
1000
0001
0010
0001
,
0000
0100
0000
0100
0000
0100
0000
0000
,
2002
0000
0000
0000
,
0000
0000
0000
3003
,
0001
0000
0100
0000
,
0010
1000
0010
0000
,
1000
0000
0100
0010
,
0001
0000
0100
0000
,
0010
0000
1000
0000
,
0001
0010
0100
1000
,
0001
0000
0100
0000
,
0020
0000
0000
0030
,
1000
0000
0000
0001
0000
0000
1000
0000
,
0001
0000
0000
0100
0000
0000
0001
0000
,
1000
0000
0000
0100
0000
0000
1000
0000
,
0001
0000
0000
1000
0000
0000
0001
0000
,
0010
0100
0010
0001
,
1000
0010
0100
0010
,
1000
0001
1000
0001
,
0100
0010
0100
0010
,
0000
0000
0000
0000
,
2000
0000
0000
3001
,
1000
0100
0010
0001
,
0100
0010
1000
0001
,
0010
0100
1000
0010
,
0100
0001
0010
0001
,
1000
0010
1000
0100
,
0010
0100
1000
0001
,
0100
0010
1000
0010
,
0100
0001
0010
0001
,
0100
0010
1000
0001
,
0010
0100
1000
0001
,
0100
0010
1000
0001
,
0010
0001
0100
0010
,
1000
0000
0000
1000
0000
0000
1000
0000
,
0001
0000
0000
0001
0000
0000
0001
0000
,
0100
0010
1000
0001
,
0010
0010
0100
0100
,
2002
0000
0000
0000
,
3003
0000
0000
0000
;

//--------------- dance-single - forcednature ----------------
#NOTEDATA:;
#STEPSTYPE:dance-single;
#DESCRIPTION:forcednature;
#DIFFICULTY:Medium;
#METER:12;
#RADARVALUES:0,0,0,0,0;
#CREDIT:forcednature;
#NOTES:
0000
0000
0000
0000
,
0000
0000
0000
0000
,
0000
0000
0000
0000
,
0000
0000
0000
0000
,
0000
0000
0000
0000
,
0000
0000
0000
0000
,
1000
0000
0000
0100
0000
0000
1000
0000
0000
0100
0000
0000
1000
0000
0000
0000
,
0001
0000
0000
0100
0000
0000
0001
0000
0000
0100
0000
0000
0001
0000
0000
0000
,
1000
0010
1000
0000
0001
0010
0001
0000
,
0100
0010
0100
0010
0100
0010
1000
0000
,
0001
0000
0000
0010
0000
0000
0100
0000
0000
0010
0000
0000
0001
0000
0000
0000
,
1000
0000
0000
0010
0000
0000
0100
0000
0000
0001
0000
0000
1000
0000
0000
0000
,
0100
0000
0000
0010
0000
0000
0001
0000
0000
0100
0000
0000
0010
0000
0000
0000
,
1000
0000
0000
0100
0000
0000
1000
0000
0000
0001
0000
0000
0100
0000
0000
0000
,
0010
0000
0000
1000
0000
0000
0001
0000
0000
0010
0000
0000
0100
0000
0000
0000
,
0010
0000
0000
0001
0000
0000
0100
0000
0000
0010
0000
0000
0100
0000
0000
0000
,
0001
1000
0100
0000
1000
0001
0100
0000
,
0010
0100
0010
0100
0010
0100
0001
0000
,
0010
0000
0000
0100
0000
0000
1000
0000
0000
0100
0000
0000
0010
0000
0001
0000
,
1000
0000
0000
0010
0000
0000
0100
0000
0000
0001
0000
0000
0100
0000
0010
0000
,
1000
0000
0000
0100
0000
0000
1000
0000
0000
0010
0000
0000
0100
0000
0001
0000
,
0010
0000
0000
0100
0000
0000
0010
0000
0000
0001
0000
0000
0100
0000
0000
0000
,
0001
0000
0000
1001
0000
0000
1000
0000
0000
1001
0000
0000
0010
0000
0100
0000
,
1000
0000
0000
1001
0000
0000
0001
0000
0000
1001
0000
0000
0010
0000
0100
0000
,
0001
0000
0000
0010
0000
0000
0100
0000
0010
0000
0010
0000
0001
0000
1000
0000
,
0010
0100
0010
0100
0010
0100
0001
0000
,
0011
0000
0010
0100
0000
1000
0000
0001
,
0200
1000
0001
0310
,
0110
0000
0100
0001
0000
1000
0000
0100
,
0020
1030
0020
0031
,
0110
0000
0000
1000
0000
0000
0001
0000
0000
0100
0000
0000
0010
0000
1000
0000
,
0001
0000
0000
0010
0000
0000
0100
0000
0000
0010
0000
0000
0001
0000
0000
0000
,
1000
0100
1000
0000
0001
0100
0001
0000
,
0000
0110
0000
1001
0000
0110
0000
1000
,
0002
0000
0000
0000
,
0000
0000
0000
0003
,
0200
0000
0320
0000
,
2030
3002
2003
3200
,
0320
0000
0032
2003
,
3002
0203
0320
0000
,
2030
0000
3200
0000
,
0320
0032
2003
3020
,
0230
0000
0302
0000
,
2000
0000
0000
3003
,
0001
0000
0000
0010
0000
0000
0001
0000
0000
0100
0000
0000
0001
0000
0001
0000
,
1000
0000
0000
0010
0000
0000
1000
0000
0000
0100
0000
0000
1000
0000
1000
0000
,
0010
0000
0000
0100
0000
0000
0010
0000
0000
1000
0000
0000
0100
0000
0100
0000
,
0010
0000
0000
0100
0000
0000
0010
0000
0000
0001
0000
0000
0100
0000
0100
0000
,
0010
0000
0000
1000
0000
0000
0001
0000
0010
0000
0000
0001
0000
0000
1000
0000
,
0100
0000
0000
1000
0000
0000
0001
0000
0100
0000
0000
0001
0000
0000
1000
0000
,
0100
1000
0001
0000
0100
0001
1000
0000
,
0010
1000
0001
1000
0100
0010
0001
0010
,
0200
0000
0000
0000
,
0310
0010
0010
0010
0010
0010
1001
0000
,
1000
0010
0100
0002
0000
0013
0200
0000
,
0310
0001
0100
0002
0000
1003
0010
1000
,
0200
0000
0310
0002
0000
0103
2000
0000
,
3200
0000
0310
1000
0001
0010
0002
0000
,
0103
0010
1000
0002
0000
0013
0200
0000
,
1300
0010
0100
0020
0000
1030
0002
0000
,
0023
0000
0130
2000
0000
3001
0200
0000
,
0320
0000
0130
0002
0000
1003
0100
0010
,
0002
0000
0103
0010
1000
0010
0100
0001
,
0010
0001
0100
0010
1000
0001
0010
0000
,
0110
0000
0100
1000
0001
1000
0010
0100
,
0001
0100
0010
1000
0001
0000
0001
0010
,
0100
0000
0000
1001
0000
0000
1000
0000
0000
1001
0000
0000
0010
0000
0000
0000
,
0100
0000
0000
1001
0000
0000
0001
0000
0000
1001
0000
0000
0010
0000
0000
0000
,
1100
0000
0101
0000
1001
0000
0010
0100
,
0000
1010
0000
0011
0000
0110
0000
0001
,
2000
0000
0000
0000
,
3000
0000
0000
0000
;

//--------------- dance-single - forcednature ----------------
#NOTEDATA:;
#STEPSTYPE:dance-single;
#DESCRIPTION:forcednature;
#DIFFICULTY:Hard;
#METER:16;
#RADARVALUES:0,0,0,0,0;
#CREDIT:forcednature;
#NOTES:
0000
0000
0000
0000
,
0000
0000
0000
0000
,
0000
0000
0000
0000
,
0000
0000
0000
0000
,
0000
0000
0000
0000
,
0000
0000
0000
0000
,
1000
0000
0000
0100
0000
0000
1000
0000
0000
0010
0000
0000
1000
0000
1000
0000
,
0001
0000
0000
0100
0000
0000
0001
0000
0000
0010
0000
0000
0001
0000
0001
0000
,
0100
0100
0001
0001
1000
1000
0100
0100
,
0010
0100
0010
0100
0010
0100
0010
0100
0010
0100
0010
0100
1000
0000
0000
0000
,
0001
0000
0100
0001
0000
0100
0010
0000
1000
0001
0000
1000
0100
0000
0010
0000
,
0001
0000
0100
0010
0000
0100
0001
0000
1000
0010
0000
1000
0100
0000
0010
0000
,
0001
0000
0100
0010
0000
0100
0001
0000
1000
0100
0000
1000
0010
0000
0100
0000
,
1000
0000
0100
0001
0000
0010
0001
0000
1000
0010
0000
1000
0100
0000
0010
0000
,
0110
0000
0100
1000
0000
0001
1000
0000
0010
0100
0000
0001
0100
0000
0010
0000
,
1000
0000
0001
0010
0000
0100
0010
0000
0001
1000
0000
0010
1000
0000
0001
0000
,
0010
0010
0001
0001
1000
1000
0010
0010
,
0010
0100
0010
0100
0010
0100
0010
0100
0010
0100
0010
0100
0001
0000
0000
0000
,
1000
0000
1000
0100
0000
0100
0010
0000
0010
0001
0000
0001
0100
0000
0010
0000
,
1000
0000
0001
0010
0000
0010
0100
0000
0100
1000
0000
1000
0010
0000
0100
0000
,
1000
0000
1000
0100
0000
0100
0001
0000
0001
0010
0000
0010
0100
0000
1000
0000
,
0010
0000
0010
0100
0000
0100
0001
0000
0001
0010
0000
0100
0010
0000
0001
0000
,
0101
0000
0000
0011
0000
0000
1100
0000
0000
1010
0000
0000
1000
0000
0001
0000
,
1100
0000
0000
0101
0000
0000
1010
0000
0000
0011
0000
0000
0100
0010
0100
0000
,
1010
0000
0000
0001
0000
0000
0100
0000
0001
0010
0001
0010
0100
0000
1000
0000
,
0010
0100
0010
0100
0010
0100
0010
0100
0010
0100
0010
0100
0001
0000
0000
0000
,
0011
0000
0010
0100
1000
0001
0100
0001
,
0020
1000
0031
0110
,
1100
0000
1000
0001
0100
0010
1000
0100
,
0020
1030
0120
0031
,
0101
0000
0000
1001
0000
0000
0011
0000
0000
1001
0000
0000
0100
0000
0010
0000
,
1100
0000
0000
1001
0000
0000
1010
0000
0000
1001
0000
0000
0100
0000
0010
0000
,
1001
0000
1000
0100
0000
0010
0001
0000
0100
0001
0100
0001
0010
0000
0100
0000
,
0000
1100
0000
0101
0000
1001
0000
0010
,
0200
0000
0000
0000
,
0000
0000
0000
0300
,
0002
0000
0023
0000
,
0230
2300
3002
2003
,
3020
0000
0230
0302
,
2003
3200
0320
0000
,
0032
0000
0203
0000
,
2300
3200
0320
2030
,
3002
0000
0023
0000
,
0200
0000
0000
0330
,
1000
0000
0000
1010
0000
0000
1001
0000
0000
1100
0000
0000
0010
1000
0010
1000
,
0001
0000
0000
0011
0000
0000
1001
0000
0000
0101
0000
0000
0010
0001
0010
0001
,
1000
0000
0000
1010
0000
0000
0110
0000
0000
0101
0000
0000
0001
1000
0001
1000
,
0001
0000
0000
0011
0000
0000
0110
0000
0000
1100
0000
0000
1000
0001
1000
0001
,
0100
0000
0000
0011
0000
0000
1010
0000
0100
0000
0000
1010
0000
0000
0011
0000
,
1000
0000
0000
0101
0000
0000
1010
0000
0001
0000
0000
1100
0000
0000
0011
0000
,
1000
0100
1000
0000
0100
0010
0100
0000
0010
0001
0010
0000
0001
1000
0001
0000
,
0100
0001
0100
0000
0010
0100
0010
0000
1000
0010
1000
0000
0001
1000
0001
0000
,
0000
0000
0000
0000
,
0010
0100
0010
0100
0010
0100
0010
0100
0010
0100
0010
0100
1000
0000
0000
0000
,
0001
0000
0100
0001
0100
0000
0010
1000
0010
0000
0100
0000
0002
0000
0000
0000
,
0013
0000
0100
1000
0100
0000
0010
0100
0010
0000
0001
0010
0001
0000
0100
0000
,
0210
0000
0000
0000
0310
0000
1000
0000
0001
0000
0010
0100
0010
0000
0000
0000
,
0210
0000
0000
0000
0310
0000
0001
0000
0100
0010
0100
0010
1000
0000
0001
0000
,
0100
0000
0001
0010
0001
0000
1000
0100
1000
0000
0010
0000
0200
0000
0000
0000
,
0301
0000
0010
0001
0010
0000
0100
1000
0100
0000
1000
0000
0020
0000
0000
0000
,
0230
0000
0301
0020
0000
0031
2000
0000
,
3010
0100
0010
0100
0010
0100
0010
0100
0010
0100
0010
0100
0001
0000
0000
0000
,
1000
0000
0100
0010
0001
0000
0010
0001
0010
0000
0001
0100
0001
0000
1000
0010
,
1000
0000
0100
1000
0100
0000
0010
0001
1000
0000
0010
0000
0200
0000
0000
0000
,
0301
0000
0010
0100
0010
0000
0001
0100
0001
0000
1000
0010
1000
0000
0001
0010
,
0100
0000
1000
0001
0100
0000
0010
0000
1000
0100
0000
0100
0010
0000
0001
0000
,
0101
0000
0000
0011
0000
0000
0101
0000
0000
0011
0000
0000
1000
0000
0001
0000
,
1100
0000
0000
1010
0000
0000
1100
0000
0000
1010
0000
0000
0001
1000
0001
0000
,
1010
0000
1100
0000
0101
0000
0001
0010
,
0001
0100
0001
0000
1000
0100
1000
0000
0010
0100
0010
0100
0010
0100
0010
0100
,
0002
0000
0000
0000
,
0003
0000
0000
0000
;

//--------------- dance-double - forcednature ----------------
#NOTEDATA:;
#STEPSTYPE:dance-double;
#DESCRIPTION:forcednature;
#DIFFICULTY:Easy;
#METER:6;
#RADARVALUES:0,0,0,0,0;
#CREDIT:forcednature;
#NOTES:
00000000
00000000
00000000
00000000
,
00000000
00000000
00000000
00000000
,
00000000
00000000
00000000
00000000
,
00000000
00000000
00000000
00000000
,
00000000
00000000
00000000
00000000
,
00000000
00000000
00000000
00000000
,
00001000
00001000
00001000
00000000
,
00010000
00010000
00010000
00000000
,
00000100
00001000
00000100
00001000
,
00000001
00000001
00000001
00000000
,
00000110
00000000
00001000
00000100
,
00010000
00001000
01000000
00010000
,
01000000
00000000
00100000
10000000
,
00010000
10000000
01000000
00100000
,
00010000
00000000
00100000
00001000
,
00010000
00000010
00001000
00000010
,
00000100
00000000
00000001
00001000
,
00000100
00000100
00000100
00000000
,
00011000
00000000
01000000
00010000
,
01000000
00100000
10000000
00100000
,
01000000
00000000
00010000
00100000
,
00001000
00010000
00000010
00001000
,
00000100
00000000
00000000
00000100
00000000
00000000
00010000
00000000
,
00001000
00000000
00000000
00001000
00000000
00000000
01000000
00000000
,
00010000
10000000
00010000
00100000
,
01000000
01000000
01000000
00000000
,
01100000
00000000
00100000
00010000
,
00100000
00001000
00010000
00000000
,
00011000
00000000
00010000
00000010
,
00002000
00003000
00000002
00000003
,
00000010
00000000
00000000
00000010
00000000
00000000
00000010
00000000
,
00000100
00000000
00000000
00000100
00000000
00000000
00000100
00000000
,
00010000
00001000
00010000
00001000
,
00000000
01000000
00000000
01000000
00000000
01000000
00000000
00000000
,
20020000
00000000
00000000
00000000
,
00000000
00000000
00000000
30030000
,
10000000
00000000
01000000
00000000
,
00100000
00010000
00100000
00000000
,
00001000
00000000
00010000
00000010
,
00010000
00000000
00001000
00000000
,
00000010
00000000
00000100
00000000
,
00001000
00000001
00001000
00000001
,
00000100
00000000
00000010
00000000
,
00002000
00000000
00000000
00003000
,
00000100
00000000
00000000
00010000
00000000
00000000
00001000
00000000
,
01000000
00000000
00000000
00001000
00000000
00000000
00010000
00000000
,
00000010
00000000
00000000
00010000
00000000
00000000
00001000
00000000
,
00100000
00000000
00000000
00001000
00000000
00000000
00010000
00000000
,
00100000
01000000
00100000
10000000
,
00010000
00100000
01000000
00100000
,
00001000
00001000
00010000
00010000
,
00000010
00000100
00000010
00000100
,
00000000
00000000
00000000
00000000
,
00000002
00000000
00000000
00001003
,
00000001
00000010
00000100
00000010
,
00000001
00001000
00000010
00010000
,
00001000
00100000
00010000
10000000
,
00010000
01000000
00001000
00010000
,
00000100
00001000
00000100
00000010
,
00000001
00001000
00000001
00000100
,
00000010
00001000
00000010
00010000
,
00001000
00100000
00010000
00100000
,
01000000
10000000
00010000
10000000
,
00100000
01000000
00010000
01000000
,
00001000
00010000
00000100
00001000
,
00000100
00000010
00000001
00001000
,
00000010
00000000
00000000
00000010
00000000
00000000
00010000
00000000
,
00001000
00000000
00000000
00001000
00000000
00000000
00100000
00000000
,
00010000
01000000
00010000
10000000
,
01000000
01000000
00100000
00100000
,
00020000
00000000
00000000
00000000
,
00030000
00000000
00000000
00000000
;

//--------------- dance-double - forcednature ----------------
#NOTEDATA:;
#STEPSTYPE:dance-double;
#DESCRIPTION:forcednature;
#DIFFICULTY:Medium;
#METER:12;
#RADARVALUES:0,0,0,0,0;
#CREDIT:forcednature;
#NOTES:
00000000
00000000
00000000
00000000
,
00000000
00000000
00000000
00000000
,
00000000
00000000
00000000
00000000
,
00000000
00000000
00000000
00000000
,
00000000
00000000
00000000
00000000
,
00000000
00000000
00000000
00000000
,
00001000
00000000
00000000
00010000
00000000
00000000
00000100
00000000
00000000
00010000
00000000
00000000
00000010
00000000
00000000
00000000
,
00010000
00000000
00000000
00001000
00000000
00000000
01000000
00000000
00000000
00001000
00000000
00000000
00100000
00000000
00000000
00000000
,
00010000
01000000
00001000
00000000
00010000
00000100
00001000
00000000
,
00000010
00000100
00000010
00000100
00000010
00000100
00000001
00000000
,
00000010
00000000
00000000
00000100
00000000
00000000
00001000
00000000
00000000
00000100
00000000
00000000
00010000
00000000
00000000
00000000
,
00001000
00000000
00000000
01000000
00000000
00000000
00010000
00000000
00000000
01000000
00000000
00000000
00100000
00000000
00000000
00000000
,
10000000
00000000
00000000
01000000
00000000
00000000
00100000
00000000
00000000
00010000
00000000
00000000
01000000
00000000
00000000
00000000
,
00001000
00000000
00000000
00010000
00000000
00000000
00000100
00000000
00000000
00001000
00000000
00000000
00000010
00000000
00000000
00000000
,
00000100
00000000
00000000
00000001
00000000
00000000
00001000
00000000
00000000
00000001
00000000
00000000
00000010
00000000
00000000
00000000
,
00000100
00000000
00000000
00010000
00000000
00000000
00001000
00000000
00000000
00010000
00000000
00000000
00100000
00000000
00000000
00000000
,
01000000
00001000
00010000
00000000
00000100
00010000
00001000
00000000
,
00100000
01000000
00100000
01000000
00100000
01000000
10000000
00000000
,
00010000
00000000
00000000
01000000
00000000
00000000
00001000
00000000
00000000
00010000
00000000
00000000
00000100
00000000
00001000
00000000
,
00000100
00000000
00000000
00000010
00000000
00000000
00000001
00000000
00000000
00001000
00000000
00000000
00000001
00000000
00000100
00000000
,
00000010
00000000
00000000
00001000
00000000
00000000
00000010
00000000
00000000
00010000
00000000
00000000
00001000
00000000
00100000
00000000
,
00010000
00000000
00000000
00100000
00000000
00000000
01000000
00000000
00000000
10000000
00000000
00000000
00010000
00000000
00000000
00000000
,
01000000
00000000
00000000
00001000
00000000
00000000
00010000
00000000
00000000
00001000
00000000
00000000
00000100
00000000
00000100
00000000
,
00000010
00000000
00000000
00010000
00000000
00000000
00001000
00000000
00000000
00010000
00000000
00000000
00100000
00000000
00100000
00000000
,
10000000
00000000
00000000
01000000
00000000
00000000
00010000
00000000
00001000
00000000
00001000
00000000
00000100
00000000
00000001
00000000
,
00000010
00000100
00000010
00000100
00000010
00000100
00010000
00000000
,
00011000
00000000
00001000
01000000
00000000
00010000
00000000
10000000
,
02000000
00010000
10000000
03100000
,
01100000
00000000
01000000
00010000
00000000
00001000
00000000
00000100
,
00000020
00001030
00000200
00000301
,
00000010
00000000
00000000
00001000
00000000
00000000
00000001
00000000
00000000
00000010
00000000
00000000
00000100
00000000
00010000
00000000
,
00001000
00000000
00000000
00100000
00000000
00000000
01000000
00000000
00000000
00100000
00000000
00000000
00010000
00000000
00000000
00000000
,
10000000
00100000
01000000
00000000
00001000
00010000
00000100
00000000
,
00000000
00000110
00000000
00001001
00000000
00000110
00000000
00000001
,
00002000
00000000
00000000
00000000
,
00000000
00000000
00000000
00003000
,
00000020
00000000
00020030
00000000
,
00032000
00203000
00320000
00230000
,
02300000
00000000
23000000
30020000
,
02030000
03002000
00023000
00000000
,
00030200
00000000
00002300
00000000
,
00003002
00000203
00000320
00020030
,
00032000
00000000
00203000
00000000
,
02000000
00000000
00000000
03300000
,
01000000
00000000
00000000
10000000
00000000
00000000
00010000
00000000
00000000
10000000
00000000
00000000
00100000
00000000
00100000
00000000
,
01000000
00000000
00000000
00010000
00000000
00000000
01000000
00000000
00000000
00001000
00000000
00000000
00010000
00000000
00010000
00000000
,
00000100
00000000
00000000
00001000
00000000
00000000
00000100
00000000
00000000
00000010
00000000
00000000
00000001
00000000
00000001
00000000
,
00000100
00000000
00000000
00000010
00000000
00000000
00001000
00000000
00000000
00000010
00000000
00000000
00010000
00000000
00010000
00000000
,
00001000
00000000
00000000
00100000
00000000
00000000
00001000
00000000
00010000
00000000
00000000
00000010
00000000
00000000
00010000
00000000
,
00001000
00000000
00000000
01000000
00000000
00000000
00001000
00000000
00010000
00000000
00000000
00000100
00000000
00000000
00010000
00000000
,
00001000
00100000
00010000
00000000
01000000
00001000
00010000
00000000
,
00000100
00001000
00000010
00001000
00000100
00000010
00000001
00000100
,
00000000
00000000
00000000
00000000
,
00001000
00001000
00001000
00001000
00001000
00001000
00010000
00000000
,
00100000
01000000
00100000
20000000
00000000
31000000
00200000
00000000
,
00310000
01000000
00001000
00020000
00000000
00030100
00001000
00000100
,
00000020
00000000
00000031
00000200
00000000
00000310
00020000
00000000
,
00032000
00000000
00103000
00010000
10000000
00010000
02000000
00000000
,
03001000
00010000
00000100
00002000
00000000
00003010
00020000
00000000
,
00031000
00000010
00000100
00000020
00000000
00000031
00002000
00000000
,
00003020
00000000
00010030
00002000
00000000
00103000
02000000
00000000
,
03200000
00000000
00310000
20000000
00000000
30100000
01000000
00100000
,
00020000
00000000
00031000
00000010
00000100
00000010
00000001
00000100
,
00000010
00000100
00000001
00000010
00000100
00010000
00001000
00000000
,
00011000
00000000
00010000
00100000
01000000
00010000
10000000
01000000
,
00010000
00001000
00000100
00000001
00000010
00000000
00000010
00000100
,
00010000
00000000
00000000
00000010
00000000
00000000
00000100
00000000
00000000
00001000
00000000
00000000
00010000
00000000
00000000
00000000
,
01000000
00000000
00000000
00100000
00000000
00000000
00001000
00000000
00000000
00010000
00000000
00000000
00100000
00000000
00000000
00000000
,
01100000
00000000
01001000
00000000
00010100
00000000
00000100
00000010
,
00000000
00000011
00000000
00010100
00000000
01001000
00000000
00100000
,
20000000
00000000
00000000
00000000
,
30000000
00000000
00000000
00000000
;

//--------------- dance-double - forcednature ----------------
#NOTEDATA:;
#STEPSTYPE:dance-double;
#DESCRIPTION:forcednature;
#DIFFICULTY:Hard;
#METER:16;
#RADARVALUES:0,0,0,0,0;
#CREDIT:forcednature;
#NOTES:
00000000
00000000
00000000
00000000
,
00000000
00000000
00000000
00000000
,
00000000
00000000
00000000
00000000
,
00000000
00000000
00000000
00000000
,
00000000
00000000
00000000
00000000
,
00000000
00000000
00000000
00000000
,
00001000
00000000
00000000
00010000
00000000
00000000
00000100
00000000
00000000
00010000
00000000
00000000
00000010
00000000
00000010
00000000
,
00010000
00000000
00000000
00001000
00000000
00000000
01000000
00000000
00000000
00001000
00000000
00000000
00100000
00000000
00100000
00000000
,
00010000
00010000
01000000
01000000
00100000
00100000
10000000
00010000
,
00100000
01000000
00100000
01000000
00100000
01000000
00100000
01000000
00100000
01000000
00100000
01000000
10000000
00000000
00000000
00000000
,
00010000
00000000
01000000
00010000
00000000
01000000
00001000
00000000
00010000
00001000
00000000
00010000
00000100
00000000
00001000
00000000
,
00000100
00000000
00000010
00000001
00000000
00001000
00000001
00000000
00001000
00000010
00000000
00010000
00000010
00000000
00001000
00000000
,
00000100
00000000
00010000
00000100
00000000
00010000
00001000
00000000
01000000
00001000
00000000
01000000
00010000
00000000
00100000
00000000
,
01000000
00000000
00100000
00010000
00000000
10000000
00010000
00000000
01000000
00100000
00000000
10000000
00100000
00000000
01000000
00000000
,
01100000
00000000
00100000
01000000
00000000
00010000
01000000
00000000
00001000
00010000
00000000
00000100
00001000
00000000
00000100
00000000
,
00000010
00000000
00000001
00001000
00000000
00000001
00000100
00000000
00000010
00001000
00000000
00000100
00001000
00000000
00000010
00000000
,
00010000
00010000
00000100
00000100
00001000
00001000
00000001
00000001
,
00000010
00000100
00000010
00000100
00000010
00000100
00000010
00000100
00000010
00000100
00000010
00000100
00001000
00000000
00000000
00000000
,
00000010
00000000
00000010
00010000
00000000
00010000
00001000
00000000
00001000
00100000
00000000
00100000
00010000
00000000
01000000
00000000
,
00100000
00000000
10000000
01000000
00000000
01000000
00100000
00000000
00100000
00001000
00000000
00001000
00010000
00000000
00000010
00000000
,
00001000
00000000
00001000
00000100
00000000
00000100
00000001
00000000
00000001
00000100
00000000
00000100
00000010
00000000
00000001
00000000
,
00001000
00000000
00001000
00000010
00000000
00000010
00010000
00000000
00010000
00001000
00000000
00100000
00001000
00000000
00010000
00000000
,
00010100
00000000
00000000
00011000
00000000
00000000
00010010
00000000
00000000
00011000
00000000
00000000
00001000
00000000
00010000
00000000
,
01001000
00000000
00000000
00011000
00000000
00000000
00101000
00000000
00000000
00011000
00000000
00000000
01000000
00010000
01000000
00000000
,
01100000
00000000
00000000
00100000
00000000
00000000
10000000
00000000
00010000
00100000
00010000
00100000
00001000
00000000
00010000
00000000
,
00000010
00000100
00000010
00000100
00000010
00000100
00000010
00000100
00000010
00000100
00000010
00000100
00000001
00000000
00000000
00000000
,
00000011
00000000
00000010
00000100
00010000
00001000
00100000
01000000
,
00200000
10000000
00301000
00011000
,
00010010
00000000
00000010
00000100
00001000
00010000
01000000
00100000
,
00002000
01003000
00021000
00030100
,
00010010
00000000
00000000
00011000
00000000
00000000
01001000
00000000
00000000
00011000
00000000
00000000
00001000
00000000
00010000
00000000
,
00101000
00000000
00000000
00011000
00000000
00000000
00010100
00000000
00000000
00011000
00000000
00000000
00010000
00000000
00001000
00000000
,
01000000
00000000
01000000
00010000
00000000
00100000
00010000
00000000
10000000
01000000
10000000
01000000
00100000
00000000
00001000
00000000
,
00000000
00010010
00000000
00011000
00000000
00010100
00000000
00000100
,
00000020
00000000
00000000
00000000
,
00000000
00000000
00000000
00000030
,
00000002
00000000
00000203
00000000
,
00002300
00023000
00230000
02300000
,
03200000
00000000
20300000
30020000
,
20030000
32000000
03020000
00000000
,
00032000
00000000
00003020
00000000
,
00000230
00000320
00000032
00002003
,
00003020
00000000
00020030
00000000
,
00002000
00000000
00000000
00033000
,
01000000
00000000
00000000
01010000
00000000
00000000
00011000
00000000
00000000
00001100
00000000
00000000
00000001
00001000
00000001
00001000
,
00000100
00000000
00000000
00001100
00000000
00000000
00011000
00000000
00000000
01010000
00000000
00000000
10000000
00010000
10000000
00010000
,
00100000
00000000
00000000
00110000
00000000
00000000
00011000
00000000
00000000
00001010
00000000
00000000
00000001
00001000
00000001
00001000
,
00000010
00000000
00000000
00001010
00000000
00000000
00011000
00000000
00000000
00110000
00000000
00000000
10000000
00010000
10000000
00010000
,
00100000
00000000
00000000
01000000
00000000
00000000
00010000
00000000
00001000
00000000
00000000
00000100
00000000
00000000
00000010
00000000
,
00001000
00000000
00000000
00000100
00000000
00000000
00000010
00000000
00001000
00000000
00000000
00010000
00000000
00000000
00100000
00000000
,
10000000
01000000
00100000
00010000
00001000
00000100
00000010
00000001
,
00000100
00001000
00010000
01000000
00100000
00001000
00010000
00001000
,
00000000
00000000
00000000
00000000
,
00000010
00000100
00000010
00000100
00000010
00000100
00000010
00000100
00000010
00000100
00000010
00000100
00001000
00000000
00000000
00000000
,
00000001
00000000
00000100
00000001
00000100
00000000
00000010
00001000
00000010
00000000
00010000
00000000
00002000
00000000
00000000
00000000
,
00103000
00000000
00010000
00100000
00010000
00000000
10000000
00010000
10000000
00000000
00100000
10000000
00100000
00000000
01000000
00000000
,
02100000
00000000
00000000
00000000
03100000
00000000
10000000
00000000
01000000
00000000
00100000
00010000
00100000
00000000
00000000
00000000
,
00012000
00000000
00000000
00000000
00003010
00000000
00000100
00000000
00001000
00000001
00001000
00000001
00000100
00000000
00000010
00000000
,
00001000
00000000
00000010
00010000
00000010
00000000
00010000
00001000
00010000
00000000
00100000
00000000
02000000
00000000
00000000
00000000
,
03010000
00000000
10000000
01000000
10000000
00000000
01000000
00100000
01000000
00000000
00100000
00000000
00002000
00000000
00000000
00000000
,
00023000
00000000
00030010
00002000
00000000
00003100
00020000
00000000
,
00130000
01000000
00100000
01000000
00100000
01000000
00100000
01000000
00100000
01000000
00100000
01000000
00010000
00000000
00000000
00000000
,
10000000
00000000
01000000
00100000
00010000
00000000
00100000
00001000
00010000
00000000
00000010
00001000
00000010
00000000
00000100
00000001
,
00001000
00000000
00000100
00001000
00000001
00000000
00000100
00000010
00000100
00000000
00000010
00000000
00020000
00000000
00000000
00000000
,
00031000
00000000
00100000
00010000
00100000
00000000
00010000
01000000
00010000
00000000
10000000
00100000
01000000
00000000
00100000
01000000
,
00010000
00000000
00100000
00001000
00010000
00000000
00000010
00000000
00001000
00000100
00000000
00000100
00000010
00000000
00000001
00000000
,
00000101
00000000
00000000
00010010
00000000
00000000
01001000
00000000
00000000
10100000
00000000
00000000
10000000
00000000
00010000
00000000
,
11000000
00000000
00000000
00101000
00000000
00000000
00010100
00000000
00000000
00000011
00000000
00000000
00001000
00000001
00001000
00000000
,
00001010
00000000
00011000
00000000
00110000
00000000
10000000
00100000
,
01000000
00010000
01000000
00000000
00001000
00010000
00001000
00000000
00000010
00000100
00000010
00000100
00000010
00000100
00000010
00000100
,
00002000
00000000
00000000
00000000
,
00003000
00000000
00000000
00000000
;
