#VERSION:0.83;
#TITLE:405nm (Ryu☆mix);
#SUBTITLE:;
#ARTIST:Another Infinity;
#TITLETRANSLIT:405nm (Ryu mix);
#SUBTITLETRANSLIT:;
#ARTISTTRANSLIT:;
#GENRE:HARDCORE;
#CREDIT:;
#MUSIC:405nm (Ryu mix).ogg;
#BANNER:405nm (Ryu mix).png;
#BACKGROUND:405nm (Ryu mix)-bg.png;
#CDTITLE:./CDTitles/bm IIDX 20 tricoro.png;
#SAMPLESTART:40.842;
#SAMPLELENGTH:15.000;
#SELECTABLE:YES;
#OFFSET:1.178;
#BPMS:0.000=177.000;
#STOPS:18.000=0.339
,121.000=0.339
,224.000=0.339
;
#TIMESIGNATURES:0.000=4=4,
16.000=3=4,
19.000=4=4,
119.000=3=4,
122.000=4=4,
222.000=3=4,
225.000=4=4
;
#BGCHANGES:0.000=405nm (Ryu mix).mp4=1.000=0=0=0=StretchNoLoop====,
99999.000=-nosongbg-=1.000=0=0=0=StretchNoLoop====
;
#FGCHANGES:;

//--------------- dance-single - forcednature ----------------
#NOTEDATA:;
#STEPSTYPE:dance-single;
#DESCRIPTION:forcednature;
#DIFFICULTY:Beginner;
#METER:4;
#RADARVALUES:0,0,0,0,0;
#CREDIT:forcednature;
#NOTES:
0000
0000
0000
0000
,
0000
0000
0000
0000
,
0000
0000
0000
0000
,
2002
0000
0000
3003
,
0010
0010
0010
0000
,
1000
0000
1000
0000
,
0001
0000
1000
0000
,
0001
0000
0000
0000
,
0001
0000
0001
0000
,
0100
0000
0000
0000
,
0010
0000
0010
0000
,
0100
0100
0100
0000
,
0001
0001
0000
1001
,
0000
0000
0000
0000
,
0000
0000
0000
1000
,
0000
0000
0000
0100
,
0000
0000
0000
0010
,
0000
0000
0000
0001
,
0000
0000
0000
0100
,
0000
0000
0000
0010
,
0000
0000
0000
1000
,
0000
0000
0000
0001
,
0000
0000
0000
1001
,
0000
0000
0000
1000
,
0000
0000
0000
0100
,
0000
0000
0000
0010
,
0000
0000
0000
0110
,
0000
0000
0000
0100
,
0000
0000
0000
0010
,
0000
0000
0000
0001
,
0000
0000
1001
0000
,
0000
0000
1000
0000
,
0000
0000
0010
0000
,
0000
0000
0100
0000
,
0000
0000
0010
0000
,
0000
0000
1000
0000
,
0000
0000
0001
0000
,
0001
0000
0001
0001
,
0001
0000
1001
0000
,
0000
0000
1000
0000
,
0000
0000
0100
0000
,
0000
0000
1000
0000
,
0000
0000
0010
0000
,
0000
0000
0100
0000
,
0000
0000
0001
0000
,
0001
0000
0001
0000
,
0000
0000
1001
0000
,
0000
0000
1000
0000
,
0000
0000
0100
0000
,
1000
0000
0100
0000
,
0010
0000
0001
0000
,
0001
0001
0001
0000
,
0000
0000
0100
0100
,
0100
0000
0010
0010
,
0010
0000
0110
0000
,
0000
0000
1000
1000
,
1000
1001
0000
0001
,
0000
0010
0100
0010
,
0000
0100
0000
1000
,
0000
0010
0100
0010
,
0000
0100
0100
0100
,
0000
0001
1000
0001
,
0000
1001
0000
1000
,
0000
0100
0000
0000
,
0000
1000
0000
0001
,
0000
0010
0000
0001
,
0000
1001
0000
1000
,
0000
0010
0000
0000
,
0000
0100
0000
0001
,
0000
0010
0000
0100
,
0000
0110
0000
0010
,
0000
0100
0100
0100
,
0000
1000
0000
0001
,
0000
0100
0100
0100
,
0000
0110
0000
0010
,
0000
1000
1000
1000
,
0000
0001
0001
0001
,
0000
0010
0010
0010
,
0000
1001
0000
0000
;

//--------------- dance-single - forcednature ----------------
#NOTEDATA:;
#STEPSTYPE:dance-single;
#DESCRIPTION:forcednature;
#DIFFICULTY:Easy;
#METER:9;
#RADARVALUES:0,0,0,0,0;
#CREDIT:forcednature;
#NOTES:
0000
0000
0000
0000
,
0000
0000
0000
0000
,
0000
0000
0000
0000
,
2002
0000
0000
3003
,
0001
1000
0001
1000
0001
0000
0100
0000
,
0010
0110
0000
0100
,
0001
1000
0001
0010
,
0100
0110
0000
0010
,
0001
1000
0001
0100
,
0010
0110
0000
0010
,
1000
0000
0001
0000
1000
0000
0100
0010
,
0100
0000
0010
0000
0001
0000
1000
0001
,
1000
0001
1000
0000
0000
0000
2002
0000
,
0000
0000
0000
0000
,
0000
0000
3003
0002
,
0000
0203
0000
0000
0000
0000
0320
0000
,
0000
2030
0000
3002
,
0000
0023
0000
0000
0000
0000
0230
0000
,
0000
2300
3002
2003
,
0000
3020
0000
0000
0000
0000
0230
0000
,
0000
0302
0000
2003
,
0000
3200
0000
0000
0000
0000
0320
0000
,
0000
0032
0000
0103
,
0001
0100
0100
0001
,
0100
0001
0000
1000
,
0100
1000
1000
0100
,
1000
0000
0100
0000
0000
0000
1000
0001
,
1000
0000
0001
0000
0000
0000
0001
1000
,
0001
0000
1000
0000
0000
0000
0010
0100
,
0010
0000
0100
0000
0100
0000
0001
1000
,
0001
1000
0001
0000
1000
0000
0100
0000
,
0010
0100
0010
0000
0001
0000
1000
0000
,
0010
0100
0001
0010
,
0100
0010
0100
0000
1000
0000
0001
0000
,
0100
0001
1000
0100
,
0010
0100
0010
0000
0001
0000
1000
0000
,
0010
0100
0001
0010
,
0100
0010
0100
0000
1000
0000
1001
0000
,
1001
0000
0001
0100
,
0010
0000
0100
0000
0010
0000
1000
0010
,
1000
0000
0001
1000
,
0100
0000
1000
0001
1000
0000
0010
0000
,
0100
0000
0001
0010
,
0100
0000
0010
0001
0010
0000
0100
0000
,
1000
0000
0001
0100
,
0001
1000
0001
0000
0010
0000
0100
0000
,
0110
0000
1000
0100
,
0000
1000
0100
0000
1000
0000
0100
0000
,
0000
1000
0001
0000
0001
0000
0100
0000
,
0000
0001
0100
0000
0001
0000
0100
0000
,
0000
0001
1000
0000
2002
0000
3003
0000
,
0010
0100
0010
0100
0020
0000
0000
0000
,
0000
0030
2002
0000
,
0000
0000
0000
0000
,
0000
3003
0220
0000
,
0000
0000
0330
0000
0001
1000
0001
1000
,
0001
0000
1000
0000
0100
0000
0010
0100
,
0010
0001
1000
0001
,
0100
0000
0010
0000
1000
0000
0001
1000
,
0001
0010
0100
1000
,
0001
0000
0100
0010
0100
0000
0010
0100
,
0010
1000
0001
1001
,
0000
1000
0100
1000
,
0001
1000
0001
0000
0100
0000
0001
0000
,
0010
0000
0100
0000
1000
0000
0001
1000
,
0001
0100
0010
1000
,
0000
0100
1000
0001
,
0100
0001
0100
0000
0010
0000
1000
0000
,
0001
0000
0010
0000
0100
0000
0010
0100
,
0010
0100
1000
1001
,
0000
0000
0001
0000
0100
0000
0010
0100
,
0010
1000
1100
0001
,
0101
0000
1000
0000
0100
0000
0010
0100
,
0010
0001
0110
1001
,
0000
0000
1000
0000
0010
0000
0100
0010
,
0100
0000
0001
0000
0010
0000
0100
0010
,
0100
0000
1000
0000
0001
0000
1000
0001
,
1000
0010
0110
1001
,
0000
0110
0000
0000
;

//--------------- dance-single - forcednature ----------------
#NOTEDATA:;
#STEPSTYPE:dance-single;
#DESCRIPTION:forcednature;
#DIFFICULTY:Medium;
#METER:13;
#RADARVALUES:0,0,0,0,0;
#CREDIT:forcednature;
#NOTES:
0000
0000
0000
0000
,
0000
0000
0000
0000
,
0000
0000
0000
0000
,
2002
0000
0000
3003
,
1000
0000
0100
0000
0010
0000
0001
0000
0200
0300
0000
0000
0010
0000
1000
0000
,
0100
0001
0000
0101
0000
0001
0100
1000
,
0010
0000
1000
0100
0010
0000
0001
0100
,
1000
0100
0000
1000
0000
0100
0001
0010
,
0100
0000
0100
1000
0001
0000
0010
0001
,
0100
1000
0000
1100
0000
1000
0100
0001
,
0010
0000
0001
0100
0010
0000
1000
0100
,
0010
0100
1000
0010
0100
0010
1000
0100
,
0001
0100
0010
0000
0110
0000
2002
0000
,
0000
0000
0000
0000
,
0000
0000
3003
1000
,
1000
0100
0000
0100
0010
0000
0001
0100
,
0001
0000
1000
0100
1000
0000
0001
0000
,
0001
0100
0000
0100
0010
0000
1000
0100
,
1000
0000
0001
0100
0001
0000
0010
0000
,
0010
0100
0000
0100
1000
0000
0001
0010
,
0001
0000
1000
0010
1000
0000
0100
0000
,
0100
0010
0000
0010
0001
0000
0100
0010
,
0100
0000
0000
0000
0110
0000
0000
0000
1001
0000
0000
0000
1000
0000
0000
0100
,
0000
0000
0010
0000
0000
0100
0000
0000
1000
0000
0000
0000
0001
0000
0000
0100
,
0000
0000
0010
0000
0000
0100
0000
0000
0001
0000
0000
0000
1000
0000
0000
0100
,
0000
0000
0010
0000
0000
0001
0000
0000
0100
0000
0000
0000
0001
0000
0000
0100
,
0000
0000
0010
0000
0000
1000
0000
0000
0100
0000
0000
0000
0010
0000
0010
0000
,
0001
0100
0001
1000
0100
1000
0010
0010
,
1000
0100
1000
0001
0100
0001
0010
0010
,
0100
0100
1000
1000
0001
0001
0100
1000
,
0100
0000
0001
0000
0020
0030
0000
0000
0100
1000
0100
0000
1000
0000
0010
0000
,
0100
0000
0001
0000
0010
0000
0100
0000
0010
0001
0010
0000
0001
0000
0100
0000
,
0010
0000
1000
0000
0100
0000
1000
0000
0001
0100
0001
0000
1000
0000
0100
0000
,
0010
0000
0001
0000
0100
0000
0010
0000
1000
0100
1000
0000
0001
0000
0100
0000
,
0010
0000
1000
0000
0100
0000
0010
0000
0001
0100
0001
0000
0100
0000
0010
0000
,
1000
0000
0100
0000
1000
0000
0001
0000
0100
0010
0100
0000
0010
0000
1000
0000
,
0001
0000
0010
0000
0100
0000
1000
0000
0010
0100
0010
0000
1000
0000
0001
0000
,
0010
0100
0010
0000
0001
0000
1000
0000
0010
0000
0000
0000
0110
0000
0000
0000
,
1001
0000
0000
0000
1000
0000
0100
0000
0001
0000
0000
0001
0100
0000
0000
0100
,
1000
0000
0000
1000
0010
0000
0100
0000
1000
0000
0100
0000
0001
0000
0010
0000
,
0001
0000
1000
0000
0010
0000
1000
0100
1000
0000
0000
1000
0010
0000
0000
0010
,
0200
0000
0302
0000
2003
0000
3200
0000
0310
0000
0100
0000
0010
0001
0010
0000
,
0100
0000
1000
0000
0001
0000
0000
0000
1000
0000
0000
1000
0010
0000
0000
0010
,
0001
0000
0000
0001
0010
0000
0100
0000
0001
0000
1000
0000
0100
0000
1000
0010
,
1000
0000
0001
0000
0100
0000
0001
0010
0001
0000
0001
0000
0100
0000
0100
0000
,
0010
0010
1000
1000
0100
0001
0100
1000
,
0200
0000
0300
0000
0110
0000
0010
0001
,
0000
0100
0001
0000
1000
0100
1000
0000
,
0001
0100
0001
0000
1000
0000
0010
0100
,
0000
0010
1000
0000
0100
1000
0001
0000
,
0100
0001
1000
0000
2002
0000
3003
0000
,
0001
0010
0100
1000
0020
0000
0000
0000
,
0000
0000
0000
0000
0030
0000
0000
0000
1000
0100
1000
0000
0100
0000
1000
0000
,
0001
0100
0001
0000
0100
0000
0001
0000
0010
0000
0100
0000
0100
0000
0010
0000
,
0001
1000
0010
0000
0220
0000
0000
0000
,
0000
0000
0330
0000
0100
1000
0100
0001
,
0020
0030
0000
0000
0100
0010
0100
0000
1000
0000
0001
0000
0100
0000
0010
0000
,
1000
0000
0001
0000
0100
0010
0100
0000
0001
0000
1000
0000
0100
0000
0010
0000
,
0001
0000
1000
0000
0001
0100
0001
0000
0100
0000
0010
0000
1000
0000
0100
0000
,
1000
0000
0001
0000
0010
0100
0010
0000
0100
0000
1000
0000
0010
0000
0100
0000
,
0001
0010
0001
0001
0100
0100
0010
0010
,
1000
1000
0100
0001
0100
1000
0200
0000
,
0310
0000
0001
0000
1000
0000
0000
1000
0010
0000
0000
0010
0100
0000
0000
0100
,
1000
0100
0001
0010
0001
1000
0010
1000
,
0100
0000
0010
0100
0010
0000
0000
0010
0001
0000
0000
0001
0200
0000
0320
0000
,
2030
0000
3002
0000
0013
0000
0100
0000
1000
0001
1000
0000
0010
0000
0100
0000
,
0001
0000
0000
0000
1000
0000
0000
1000
0100
0000
0000
0100
0001
0000
0000
0001
,
0100
0000
0010
0000
0001
0000
1000
0000
0010
0000
0100
0010
0100
0000
0001
0000
,
0010
0000
0100
0010
0100
0000
0000
0100
1000
0000
0000
1000
0020
0000
0230
0000
,
2300
3200
0301
0000
0011
0000
2020
0000
,
3030
0000
0000
0000
0001
0000
0000
0001
0100
0000
0000
0100
0020
0000
2030
0000
,
3200
0000
0302
0000
0103
0000
1000
0000
0010
1000
0010
0000
0100
0000
0001
0000
,
0010
0001
0010
0000
0100
0000
0000
0100
1000
0000
0000
1000
0002
0000
0203
0000
,
2300
3200
0301
0000
1001
0000
0220
0000
,
0330
0000
0000
0000
1100
0000
0000
0000
0101
0000
0000
0000
0001
1000
0001
0000
,
1000
0100
0110
0000
0010
0001
0200
0000
,
0310
0000
1000
0000
0001
0010
0001
0000
1000
0000
0010
0000
1000
0100
1000
0000
,
0001
0100
0010
1000
0010
0001
0020
0000
,
0030
1001
0000
0000
;

//--------------- dance-single - forcednature ----------------
#NOTEDATA:;
#STEPSTYPE:dance-single;
#DESCRIPTION:forcednature;
#DIFFICULTY:Hard;
#METER:16;
#RADARVALUES:0,0,0,0,0;
#CREDIT:forcednature;
#NOTES:
0000
0000
0000
0000
,
0000
0000
0000
0000
,
0000
0000
0000
0000
,
1000
0001
1000
0001
1000
0001
1000
0001
1000
0001
1000
0001
1000
0001
1000
0001
,
0100
0000
0100
0000
0010
0000
0010
0000
2002
3003
0000
0000
1000
0000
0100
0000
,
1000
0100
0010
0000
0100
0000
0020
0000
0032
0000
0000
0000
1003
0000
0010
0000
,
0100
0010
1000
0000
0001
0000
0010
0000
0100
0010
0001
0000
1000
0000
0001
0000
,
0100
0010
1000
0000
0001
0000
0010
0000
0000
0000
0010
0000
0100
0000
1000
0000
,
0001
0100
0010
0000
0100
0000
0001
0000
1000
0100
0010
0000
0100
0000
1000
0000
,
0100
0010
0001
0000
1000
0000
0020
0000
0230
0000
0000
0000
0301
0000
0010
0000
,
0100
0010
0001
0000
1000
0000
0010
0000
0100
0000
0000
0000
0001
1000
0001
1000
,
0001
1000
0001
1000
0001
1000
0001
1000
0001
1000
0001
1000
0010
0000
0100
0000
,
0010
0100
0110
0000
0010
0000
2002
0000
,
0000
0000
0000
0000
,
0000
0000
0000
0000
3003
0000
0001
0100
,
0001
0100
0010
0100
0010
0100
0010
1000
,
0010
1000
0001
0010
0100
1000
0010
0100
,
0010
1000
0001
1000
0001
1000
0100
0010
,
0100
0010
0001
0100
0010
1000
0100
1000
,
0100
0010
0001
0010
0001
0010
0001
0100
,
0001
0100
0010
1000
0001
0010
0100
1000
,
0100
1000
0010
1000
0010
1000
0001
0010
,
0001
0000
0010
0000
0100
0000
1000
0000
0010
0000
1000
0000
0002
0000
0000
0010
,
0000
0000
1000
0000
0000
0100
0000
0000
1003
0000
0001
0000
2000
0000
0000
0010
,
0000
0000
0001
0000
0000
0100
0000
0000
3001
0000
1000
0000
0020
0000
0000
1000
,
0000
0000
0100
0000
0000
1000
0000
0000
0130
0000
0001
0000
0020
0000
0000
0001
,
0000
0000
0100
0000
0000
0001
0000
0000
0130
0000
0001
0000
1000
0000
1000
0000
,
0010
1000
0010
0000
1000
0000
1000
0000
0010
1000
0010
0000
0100
0000
0100
0000
,
0001
0100
0001
0000
0100
0000
0100
0000
0001
0100
0001
0000
0010
0100
0010
0100
,
0010
0100
0010
0100
0010
0100
0010
0100
0010
0100
0010
0100
1000
0000
0001
0000
,
1000
0000
0001
0000
2002
3003
0000
0000
1000
0100
0000
0010
0100
0000
1000
0001
,
0000
0010
0001
0000
1000
0000
0010
0000
0100
0001
0000
0010
0001
0000
1000
0010
,
0000
1000
0100
0000
1000
0000
0001
0000
0100
0010
0000
1000
0010
0000
0100
0001
,
0000
0010
0100
0000
1000
0010
1000
0000
0001
0010
0000
0001
0100
0000
0010
1000
,
0000
0001
0010
0000
0001
0100
0001
0000
1000
0100
0000
1000
0010
0000
0100
0001
,
0000
0010
0100
0000
1000
0000
0010
0000
1000
0001
0000
0010
0001
0000
0100
0010
,
0000
1000
0100
0000
1000
0000
0001
0000
0100
0010
0100
0010
0100
0010
0100
0010
,
0100
0010
0100
0010
0100
0010
0100
0010
0100
0000
0000
0000
0110
0000
0000
0000
,
1001
0000
0000
0000
1000
0000
0100
0000
1000
0100
0010
0000
0100
0010
0001
0000
,
0010
0001
1000
0000
0010
0000
0100
0000
0102
0000
0000
0000
0013
0000
0100
0000
,
2100
0000
0000
0000
3001
0100
0010
1000
0001
0000
0010
0001
0010
0000
0100
0010
,
0002
0203
0320
2030
3100
0000
0010
0110
,
1002
0000
0000
0000
0013
0000
0000
0000
0001
0100
0010
0000
0100
0010
1000
0000
,
0010
1000
0001
0000
0010
0000
0100
0000
2100
0000
0000
0000
3010
0000
0100
0000
,
0102
0000
0000
0000
1003
0000
0100
0000
0010
0100
0010
0100
0010
0100
0010
0100
,
0010
0100
0010
0100
0010
0100
0010
0100
1000
0000
0001
0000
1000
0000
0001
0000
,
2002
0000
3003
0000
0001
0100
1000
0100
,
0000
0001
0000
0010
0000
1000
0000
0010
,
0001
0100
1000
0100
0010
1000
0100
0001
,
0000
0100
0000
1000
0000
0010
0000
1000
,
0100
0001
0100
1000
2020
0000
3030
0000
,
2000
3200
0320
0032
0203
0000
0000
0000
,
0000
0000
0000
0000
0300
0000
0000
0000
0010
0100
0010
0100
0010
0100
0010
0100
,
0010
0100
0010
0100
0010
0100
0010
0100
0001
0000
0010
0000
0100
0000
1000
0000
,
0010
0000
1000
0000
0001
0000
0010
0000
0210
0000
0000
0001
0000
0000
0010
0000
,
0000
1000
0000
0000
0310
0000
0100
0000
1000
0010
1000
0000
0001
0010
0001
0000
,
0200
0300
0000
0000
0010
1000
0000
0100
1000
0000
0001
0010
0000
0001
0100
0000
,
0010
0100
0010
0000
1000
0100
0000
0010
0001
0000
0100
0010
0000
1000
0001
0000
,
0010
0100
1000
0000
0001
0100
0000
0010
1000
0000
0100
1000
0000
0001
0100
0000
,
0010
1000
0001
0000
0010
0100
0000
0010
0001
0000
0100
0010
0000
1000
0100
0000
,
0010
0001
1000
0000
0010
0100
0010
0100
0010
0100
0010
0100
0010
0100
0010
0100
,
0010
0100
0010
0100
0002
0000
1000
0000
1000
0000
1000
0000
2003
0000
0000
0000
,
3100
0000
0010
0000
0001
0100
0010
0000
0100
0010
1000
0000
0010
1000
0001
0000
,
0010
0100
2100
0000
3010
0100
0102
0000
,
1003
0100
0010
0001
1000
0000
0010
1000
0010
0000
0100
0010
2000
0000
3200
0000
,
0320
0032
0103
0000
0010
0110
1002
0000
,
0013
0000
0000
0000
0001
1000
0100
0000
1000
0001
0010
0000
0001
1000
0010
0000
,
0100
0001
0021
0000
0130
1000
1020
0000
,
0130
0000
0001
0000
0010
0100
1000
0000
0010
0100
0001
0000
2000
0000
3200
0000
,
0302
0000
0203
0000
0310
0100
1000
0000
0010
0100
0001
0000
2002
0000
0000
0000
,
3003
0000
0000
0000
1000
0100
0010
0000
0001
0100
0010
0000
2000
0000
3200
0000
,
0302
0000
0203
0000
0310
0001
1000
0000
0010
0100
0001
0000
1000
0001
0010
0100
,
0010
0001
1000
0000
0001
0100
0010
0000
1000
0100
0010
0000
0002
0000
0203
0000
,
2300
0000
3200
0000
0310
1000
0001
0000
1000
0100
0010
0001
0100
0000
0000
0000
,
1001
0000
0000
0000
0001
0100
0001
0000
0100
0010
0100
0000
0010
1000
0010
0100
,
0001
0000
0010
0000
0100
1000
0001
0000
0100
0001
1000
0001
0020
0000
0000
0000
,
0031
0000
1000
0000
0010
0100
0010
0100
0010
0100
0010
0100
0010
0100
0010
0100
,
0010
0100
0010
0100
0001
0000
1000
0000
0001
0000
0010
0000
0220
0000
0000
0000
,
0330
1001
0000
0000
;

//--------------- dance-double - forcednature ----------------
#NOTEDATA:;
#STEPSTYPE:dance-double;
#DESCRIPTION:forcednature;
#DIFFICULTY:Easy;
#METER:9;
#RADARVALUES:0,0,0,0,0;
#CREDIT:forcednature;
#NOTES:
00000000
00000000
00000000
00000000
,
00000000
00000000
00000000
00000000
,
00000000
00000000
00000000
00000000
,
00022000
00000000
00000000
00033000
,
00010000
00001000
00010000
00001000
00010000
00000000
01000000
00000000
,
10000000
00100000
00000000
10000000
,
01000000
00010000
00001000
00000100
,
00000001
00000010
00000000
00000001
,
00000100
00001000
00010000
01000000
,
10000000
00100000
00000000
10000000
,
01000000
00000000
00010000
00000000
00001000
00000000
00010000
00001000
,
00010000
00000000
00001000
00000000
00000010
00000000
00000001
00001000
,
00000001
00001000
00000001
00000000
00000000
00000000
00002002
00000000
,
00000000
00000000
00000000
00000000
,
00000000
00000000
00003003
00002000
,
00000000
00003200
00000000
00000000
00000000
00000000
00020300
00000000
,
00000000
00032000
00000000
02003000
,
00000000
03020000
00000000
00000000
00000000
00000000
20030000
00000000
,
00000000
32000000
03200000
02300000
,
00000000
03200000
00000000
00000000
00000000
00000000
00302000
00000000
,
00000000
00023000
00000000
00030020
,
00000000
00000230
00000000
00000000
00000000
00000000
00000302
00000000
,
00000000
00002003
00000000
00003100
,
00010000
00001000
00000010
00001000
,
00010000
00000100
00000000
01000000
,
00001000
00010000
00100000
00010000
,
00001000
00000000
01000000
00000000
00000000
00000000
00010000
10000000
,
00010000
00000000
10000000
00000000
00000000
00000000
01000000
00100000
,
01000000
00000000
00100000
00000000
00000000
00000000
00001000
00010000
,
00001000
00000000
00010000
00000000
00000000
00000000
00000010
00000100
,
00000010
00000100
00000010
00000000
00001001
00000000
00000000
00000000
,
00001000
00000100
00001000
00000000
00000100
00000000
00010000
00000000
,
00001000
01000000
00010000
00000000
,
00100000
01000000
00100000
00000000
01000000
00000000
10000000
00000000
,
00010000
01000000
00001000
00000000
,
00010000
00001000
00010000
00000000
00000100
00000000
00001000
00000000
,
00000100
00000010
00000001
00000000
,
00000100
00000001
00000100
00000000
00001000
00000000
00010000
00000000
,
00011000
00000000
00010000
01000000
,
00100000
00000000
01000000
00000000
10000000
00000000
01000000
00100000
,
01000000
00000000
00010000
00001000
,
00010000
00000100
00010000
00000000
00001000
00000000
00000010
00000000
,
00000001
00000000
00000100
00000001
,
00000100
00000000
00001000
00010000
00001000
00000000
01000000
00000000
,
00010000
00000000
00100000
01000000
,
00100000
00010000
00100000
00000000
00001000
00000000
00010000
00000000
,
00011000
00000000
00001000
00000010
,
00000000
00000001
00000010
00001000
,
00000000
00001000
00010000
01000000
,
00000000
01000000
10000000
00100000
,
00000000
00100000
20020000
30030000
,
00010000
10000000
00010000
10000000
00020000
00000000
00000000
00000000
,
00000000
00030000
00022000
00000000
,
00000000
00000000
00000000
00000000
,
00000000
00033000
00000220
00000000
,
00000000
00000000
00000330
00000000
00001000
00000001
00001000
00000001
,
00001000
00000000
00000001
00000000
00000100
00000000
00000010
00000100
,
00000010
00000100
00000010
00001000
,
00000100
00000000
00010000
00000000
00001000
00000000
00010000
00001000
,
00010000
00001000
01000000
00010000
,
01000000
00000000
00010000
10000000
00010000
00000000
10000000
00010000
,
10000000
01000000
00100000
01100000
,
00000000
01000000
00010000
00001000
,
00010000
00001000
00010000
00000000
00000100
00000000
00001000
00000000
,
00000001
00000000
00000100
00000000
00001000
00000000
00010000
00001000
,
00010000
00001000
01000000
00010000
,
00000000
00100000
01000000
10000000
,
00100000
10000000
00100000
00000000
01000000
00000000
00001000
00000000
,
00010000
00000000
00000100
00000000
00001000
00000000
00000001
00000010
,
00000001
00000100
00000010
00000110
,
00000000
00000000
00000100
00000000
00000001
00000000
00000010
00000001
,
00000010
00000100
00010000
00001000
,
00100000
00000000
01000000
00000000
10000000
00000000
00100000
10000000
,
00100000
01000000
00010000
00011000
,
00000000
00000000
00001000
00000000
00000010
00000000
00000100
00000010
,
00000100
00001000
00000001
00000100
,
00001000
00000000
00010000
00000000
00100000
00000000
01000000
00100000
,
01000000
00010000
10000000
10010000
,
00000000
01100000
00000000
00000000
;

//--------------- dance-double - forcednature ----------------
#NOTEDATA:;
#STEPSTYPE:dance-double;
#DESCRIPTION:forcednature;
#DIFFICULTY:Medium;
#METER:14;
#RADARVALUES:0,0,0,0,0;
#CREDIT:forcednature;
#NOTES:
00000000
00000000
00000000
00000000
,
00000000
00000000
00000000
00000000
,
00000000
00000000
00000000
00000000
,
00022000
00000000
00000000
00033000
,
00001000
00000000
00000010
00000000
00000100
00000000
00000010
00000000
00000002
00000003
00000000
00000000
00000100
00000000
00000001
00000000
,
00000100
00001000
00000000
00011000
00000000
00010000
00001000
00010000
,
00100000
00000000
00010000
00100000
10000000
00000000
01000000
10000000
,
01000000
00010000
00000000
00010000
00000000
00010000
00001000
00000010
,
00001000
00000000
00001000
00010000
00000100
00000000
00000010
00000100
,
00001000
00000010
00000000
00000110
00000000
00000100
00000001
00000010
,
00000100
00000000
00010000
00001000
00100000
00000000
01000000
10000000
,
00100000
10000000
01000000
00010000
00001000
00000010
00000100
00001000
,
00000100
00000001
00000100
00000000
00000110
00000000
00002002
00000000
,
00000000
00000000
00000000
00000000
,
00000000
00000000
00003003
00000001
,
00000001
00000100
00000000
00000100
00001000
00000000
00010000
00001000
,
00010000
00000000
00100000
00010000
00100000
00000000
10000000
00000000
,
10000000
01000000
00000000
01000000
00010000
00000000
00001000
00010000
,
00001000
00000000
00000010
00001000
00000010
00000000
00000001
00000000
,
00000001
00000100
00000000
00000100
00001000
00000000
00010000
00001000
,
00010000
00000000
00100000
00010000
00100000
00000000
10000000
00000000
,
10000000
01000000
00000000
01000000
00010000
00000000
00001000
00010000
,
00001000
00000000
00000000
00000000
00000010
00000000
00000000
00000000
00000110
00000000
00000000
00000000
00000100
00000000
00000000
00010000
,
00000000
00000000
00001000
00000000
00000000
00000010
00000000
00000000
00000001
00000000
00000000
00000000
00000100
00000000
00000000
00001000
,
00000000
00000000
00010000
00000000
00000000
00001000
00000000
00000000
00100000
00000000
00000000
00000000
01000000
00000000
00000000
10000000
,
00000000
00000000
01000000
00000000
00000000
00010000
00000000
00000000
00001000
00000000
00000000
00000000
00100000
00000000
00000000
00010000
,
00000000
00000000
01000000
00000000
00000000
00100000
00000000
00000000
10000000
00000000
00000000
00000000
01000000
00000000
01000000
00000000
,
00010000
00001000
00010000
00000010
00001000
00000001
00000100
00000100
,
00001000
00010000
00001000
00100000
00010000
10000000
01000000
01000000
,
00010000
00010000
00001000
00001000
00000010
00000010
00000100
00001000
,
00000100
00000000
00000001
00000000
00000200
00000300
00000000
00000000
00000010
00000000
00000001
00000000
00000100
00000000
00001000
00000000
,
00010000
00100000
01000000
00100000
10000000
00010000
10000000
01000000
,
00010000
00000000
00001000
00000000
00100000
00000000
00010000
00000000
01000000
00010000
01000000
00000000
00010000
00000000
00100000
00000000
,
01000000
00000000
00010000
00000000
00001000
00000000
00010000
00000000
00000100
00001000
00000100
00000000
00001000
00000000
00000001
00000000
,
00000100
00000010
00000100
00001000
00010000
00000100
00001000
00000010
,
00010000
00001000
00100000
01000000
10000000
00100000
00010000
00100000
,
01000000
00000000
00001000
00000000
00010000
00000000
00000010
00000000
00000100
00000010
00000100
00000000
00000010
00000000
00001000
00000000
,
00000001
00000010
00001000
00010000
01000000
00000000
01100000
00000000
,
10010000
00000000
00000000
00000000
10000000
00000000
01000000
00000000
00010000
00000000
00000000
00010000
00001000
00000000
00000000
00001000
,
00100000
00000000
00000000
00100000
00010000
00000000
01000000
00000000
00001000
00000000
00100000
00000000
01000000
00000000
00010000
00000000
,
00001000
00000000
00000010
00000000
00000100
00000000
00001000
00000100
00001000
00000000
00000000
00001000
00000010
00000000
00000000
00000010
,
00000200
00000000
00002300
00000000
00023000
00000000
00230000
00000000
01300000
00000000
00100000
00000000
10000000
00100000
10000000
00000000
,
01000000
00000000
00010000
00000000
00001000
00000000
00000000
00000000
00100000
00000000
00000000
00100000
00001000
00000000
00000000
00001000
,
00010000
00000000
00000000
00010000
00000010
00000000
00001000
00000000
00000001
00000000
00000010
00000000
00000100
00000000
00000010
00000100
,
00000010
00000000
00000100
00000000
00010000
00000000
00001000
00010000
00001000
00000000
01000000
00000000
00010000
00000000
01000000
00000000
,
10000000
01000000
00010000
01000000
00001000
00100000
00010000
00100000
,
02000000
00000000
03000000
00000000
01100000
00000000
00100000
00001000
,
00000000
00010000
00000100
00000000
00001000
00000010
00010000
00000000
,
00001000
01000000
00010000
00000000
10000000
00000000
01000000
00010000
,
00000000
01000000
00100000
00000000
00001000
00000010
00000100
00000000
,
00001000
00000001
00000100
00000000
00000220
00000000
00000330
00000000
,
00000010
00000100
00001000
00010000
00200000
00000000
00000000
00000000
,
00000000
00000000
00300000
00000000
10000000
01000000
00010000
01000000
,
00100000
00001000
00000010
00001000
00010000
00100000
00010000
00000010
,
00001000
00000100
00000001
00000000
00000220
00000000
00000000
00000000
,
00000000
00000000
00000330
00000000
00000010
00000100
00001000
00010000
,
00200000
00300000
00000000
00000000
01000000
10000000
01000000
00000000
10000000
00000000
01000000
00000000
00010000
00000000
00001000
00000000
,
00000010
00000000
00000100
00000000
00001000
00000001
00001000
00000000
00000001
00000000
00000100
00000000
00001000
00000000
00010000
00000000
,
00001000
00000000
01000000
00000000
00010000
10000000
00010000
00000000
10000000
00000000
01000000
00000000
00010000
00000000
01000000
00000000
,
00100000
00000000
00001000
00000000
00010000
00001000
00010000
00000000
00000100
00000000
00001000
00000000
00000001
00000000
00000100
00000000
,
00001000
00000100
00000010
00000010
00001000
00001000
00010000
00010000
,
01000000
01000000
00100000
00010000
00100000
10000000
00200000
00000000
,
01300000
00000000
00010000
00000000
10000000
00000000
00000000
10000000
01000000
00000000
00000000
01000000
00010000
00000000
00000000
00010000
,
00001000
00100000
01000000
00010000
00001000
00000010
00000100
00010000
,
00000010
00000000
00000100
00000010
00000100
00000000
00000000
00000100
00000001
00000000
00000000
00000001
00000020
00000000
00000230
00000000
,
00020300
00000000
00030020
00000000
00001030
00000000
00000100
00000000
00010000
00001000
00010000
00000000
00001000
00000000
01000000
00000000
,
00010000
00000000
00000000
00000000
10000000
00000000
00000000
10000000
01000000
00000000
00000000
01000000
00010000
00000000
00000000
00010000
,
00001000
00000000
00100000
00000000
00010000
00000000
01000000
00000000
00001000
00000000
00010000
00001000
00010000
00000000
00001000
00000000
,
00000010
00000000
00000100
00000000
00001000
00000000
00000000
00001000
00000010
00000000
00000000
00000010
00000200
00000000
00002300
00000000
,
00003200
00000302
00000013
00000000
00000110
00000000
00022000
00000000
,
00033000
00000000
00000000
00000000
00010000
00000000
00000000
00010000
00100000
00000000
00000000
00100000
20000000
00000000
32000000
00000000
,
03020000
00000000
00032000
00000000
00103000
00000000
00000000
00100000
00010000
00000000
00000000
00010000
00001000
00000000
00000000
00000000
,
00000110
00000000
00000000
00000000
00000001
00000000
00000000
00000001
00000100
00000000
00000000
00000100
00002000
00000000
00023000
00000000
,
00230000
02300000
03010000
00000000
10010000
00000000
02200000
00000000
,
03300000
00000000
10000000
01000000
00010000
01000000
00100000
00001000
,
00000010
00001000
00010000
00100000
01000000
00010000
00200000
00000000
,
01300000
00000000
00010000
00000000
00001000
00010000
00001000
00000000
00010000
00001000
00010000
00000000
00000100
00000000
00001000
00000000
,
00000001
00000100
00000010
00000001
00000010
00001000
00000020
00000000
,
00000030
00011000
00000000
00000000
;

//--------------- dance-double - forcednature ----------------
#NOTEDATA:;
#STEPSTYPE:dance-double;
#DESCRIPTION:forcednature;
#DIFFICULTY:Hard;
#METER:16;
#RADARVALUES:0,0,0,0,0;
#CREDIT:forcednature;
#NOTES:
00000000
00000000
00000000
00000000
,
00000000
00000000
00000000
00000000
,
00000000
00000000
00000000
00000000
,
00001000
00010000
00001000
00010000
00001000
00010000
00001000
00010000
00001000
00010000
00001000
00010000
00001000
00010000
00001000
00010000
,
00000100
00000000
00000010
00000000
00000100
00000000
00000010
00000000
00002002
00003003
00000000
00000000
00000001
00000000
00000100
00000000
,
00001000
00010000
00100000
02000000
03020000
00000000
10030000
01000000
,
10000000
01000000
00100000
00000000
00010000
00000000
00100000
00000000
00001000
00010000
00001000
00000000
00010000
00000000
00000010
00000000
,
00001000
00000010
00000100
00000000
00000001
00000000
00000010
00000000
00000000
00000000
00000010
00000000
00000001
00000000
00000100
00000000
,
00000001
00000100
00000010
00000000
00001000
00000000
00000010
00000000
00010000
00001000
00010000
00000000
00001000
00000000
00100000
00000000
,
00010000
01000000
00010000
00002000
00003020
00000000
00000031
00000100
,
00000001
00000100
00000010
00000000
00001000
00000000
00000100
00000000
00010000
00000000
00000000
00000000
00001000
00010000
00001000
00010000
,
00001000
00010000
00001000
00010000
00001000
00010000
00001000
00010000
00001000
00010000
00001000
00010000
00001000
00000000
00100000
00000000
,
00010000
00100000
01000000
00000000
01100000
00000000
20020000
00000000
,
00000000
00000000
00000000
00000000
,
00000000
00000000
00000000
00000000
30030000
00000000
10000000
01000000
,
10000000
01000000
00010000
01000000
00010000
01000000
00010000
00001000
,
00010000
00001000
00000010
00000100
00001000
00000001
00000100
00000010
,
00000100
00000010
00001000
00000010
00001000
00000010
00010000
00001000
,
00010000
00001000
00100000
00010000
01000000
00100000
10000000
01000000
,
10000000
01000000
00010000
01000000
00010000
01000000
00010000
00001000
,
00010000
00001000
00000010
00000100
00001000
00000001
00000100
00000010
,
00000100
00000010
00010000
00000010
00010000
00000010
00010000
00001000
,
00010000
00000000
00001000
00000000
00100000
00000000
01000000
00000000
10000000
00000000
00100000
00000000
01100000
00000000
00000000
01000000
,
00000000
00000000
00001000
00000000
00000000
00010000
00000000
00000000
00000100
00000000
00000010
00000000
00000100
00000000
00000000
00001000
,
00000000
00000000
00000001
00000000
00000000
00000100
00000000
00000000
00001000
00000000
00010000
00000000
00001000
00000000
00000000
00000010
,
00000000
00000000
00000100
00000000
00000000
00010000
00000000
00000000
00001000
00000000
00100000
00000000
01000000
00000000
00000000
00010000
,
00000000
00000000
01000000
00000000
00000000
10000000
00000000
00000000
00100000
00000000
10000000
00000000
01000000
00000000
00010000
00000000
,
01000000
00010000
00001000
00000010
00001000
00000010
00000001
00000100
,
00000001
00000000
00000100
00000000
00001000
00000000
00010000
00000000
00001000
00000000
00010000
00000000
00100000
01000000
00100000
01000000
,
00100000
01000000
00100000
01000000
00100000
01000000
00100000
01000000
00100000
01000000
00100000
01000000
00100000
00000000
10000000
00000000
,
00010000
00000000
10000000
00000000
02000000
03000000
00000000
00000000
00100000
01000000
00000000
00100000
00001000
00000000
00010000
00000100
,
00000000
00001000
00000100
00000000
00000010
00000000
00000001
00000000
00000100
00000010
00000000
00001000
00000010
00000000
00010000
00001000
,
00000000
01000000
00010000
00000000
00100000
00000000
01000000
00000000
00100000
00001000
00000000
00100000
00010000
00000000
10000000
00100000
,
00000000
10000000
01000000
00000000
00010000
00000000
00001000
00000000
00000010
00000100
00000000
00001000
00000100
00000000
00010000
00000010
,
00000000
00001000
00000010
00000000
00000100
00000000
00000001
00000000
00000010
00000100
00000000
00001000
00000100
00000000
00010000
00001000
,
00000000
01000000
00001000
00000000
00010000
00000000
00100000
00000000
01000000
00010000
00000000
00100000
00010000
00000000
10000000
00100000
,
00000000
10000000
01000000
00000000
00010000
00000000
00001000
00000000
00000010
00000100
00000010
00000100
00000010
00000100
00000010
00000100
,
00000010
00000100
00000010
00000100
00000010
00000100
00000010
00000100
00000010
00000000
00000000
00000000
00000110
00000000
00000000
00000000
,
00001001
00000000
00000000
00000000
00001000
00000000
00000001
00000000
00000100
00000010
00001000
00000000
00000010
00010000
00001000
00000000
,
00010000
00001000
01000000
00000000
00010000
00000000
00100000
00000000
02000000
00000000
00000000
00000000
03010000
00000000
01000000
00000000
,
20000000
00000000
00000000
00000000
30100000
00000000
01000000
00010000
10000000
00000000
01000000
10000000
00010000
00000000
00100000
00001000
,
00020000
00030020
00002030
00003200
00000310
00000000
00000001
00000100
,
00002000
00000000
00000000
00000000
00013000
00000000
00000000
00000000
00001000
01000000
00010000
00000000
01000000
00010000
10000000
00000000
,
00010000
10000000
01000000
00000000
00100000
00000000
00001000
00000000
00020000
00000000
00000000
00000000
00130000
00000000
10000000
00000000
,
02000000
00000000
00000000
00000000
03010000
00000000
00001000
00000000
00000010
00000100
00000010
00000100
00000010
00000100
00000010
00000100
,
00000010
00000100
00000010
00000100
00000010
00000100
00000010
00000100
00000010
00000000
00000001
00000000
00001000
00000000
00000001
00000000
,
00000200
00000000
00000300
00000000
00001000
00010000
00100000
10000000
,
00000000
01000000
00000000
00010000
00000000
01000000
00000000
10000000
,
00100000
00010000
00001000
00000100
00000001
00000010
00001000
00010000
,
00000000
00001000
00000000
00000010
00000000
00000001
00000000
00000100
,
00001000
00010000
01000000
00100000
00020000
00000000
00030000
00000000
,
20000000
32000000
03020000
00032000
00003020
00000000
00000000
00000000
,
00000000
00000000
00000000
00000000
00000030
00000000
00000000
00000000
00000001
00001000
00000001
00001000
00000001
00001000
00000001
00001000
,
00000001
00001000
00000001
00001000
00000001
00001000
00000001
00001000
00000001
00000000
00000100
00000000
00001000
00000000
00010000
00000000
,
01000000
00000000
10000000
00000000
00100000
00000000
00000000
00000000
02100000
00000000
00000000
10000000
00000000
00000000
00100000
00000000
,
00000000
00010000
00000000
00000000
03001000
00000000
00010000
00000000
00000200
00000000
00000320
00000000
00002030
00000000
00023000
00000000
,
02030000
03000000
00000000
00000000
00100000
00001000
00000000
00010000
00001000
00000000
00010000
00000100
00000000
00001000
00000100
00000000
,
00000010
00000001
00000010
00000000
00000100
00010000
00000000
00001000
00010000
00000000
00001000
01000000
00000000
00010000
01000000
00000000
,
00100000
10000000
00100000
00000000
10000000
01000000
00000000
00100000
01000000
00000000
00100000
00001000
00000000
00010000
00001000
00000000
,
00010000
00000100
00001000
00000000
00000001
00000100
00000000
00000010
00000100
00000000
00000010
00010000
00000000
00001000
00010000
00000000
,
00001000
01000000
00010000
00000000
00100000
01000000
00100000
01000000
00100000
01000000
00100000
01000000
00100000
01000000
00100000
01000000
,
00100000
01000000
00100000
01000000
20000000
00000000
00000000
00000000
00010000
00000000
00010000
00000000
30020000
00000000
00000000
00000000
,
00130000
00000000
01000000
00000000
10000000
01000000
00100000
00000000
01000000
00100000
00010000
00000000
00100000
00001000
00010000
00000000
,
00000100
00001000
00000020
00000000
00000130
00001000
00020000
00000000
,
00130000
00000000
01000000
00010000
10000000
00000000
01000000
10000000
00010000
00000000
00100000
00001000
00020000
00000000
00030020
00000000
,
00002030
00003200
00000310
00000000
00000001
00000100
00002000
00000000
,
00013000
00000000
00000000
00000000
00001000
00010000
00000100
00000000
00001000
00000001
00000010
00000000
00000001
00001000
00000010
00000000
,
00000100
00001000
00020000
00000000
01030000
00010000
00002000
00000000
,
01003000
00000000
00010000
00000000
00100000
01000000
10000000
00000000
00100000
01000000
00010000
00000000
20000000
00000000
32000000
00000000
,
03020000
00000000
00032000
00000000
00013000
00000100
00001000
00000000
00000100
00001000
00000001
00000000
00002002
00000000
00000000
00000000
,
00003003
00000000
00000000
00000000
00000001
00000100
00000010
00000000
00000100
00000010
00001000
00000000
00000200
00000000
00000320
00000000
,
00002030
00000000
00023000
00000000
00031000
00010000
00001000
00000000
00010000
00001000
01000000
00000000
00010000
10000000
00100000
00000000
,
10000000
00010000
00100000
00000000
01000000
00100000
00010000
00000000
00100000
00001000
00010000
00000000
00000020
00000000
00000230
00000000
,
00002300
00000000
00023000
00000000
00031000
00010000
00001000
00000000
01000000
00000000
00010000
00100000
01000000
00000000
00000000
00000000
,
01100000
00000000
00000000
00000000
00100000
00010000
00100000
00000000
00010000
00100000
00001000
00000000
00010000
00000000
00000010
00001000
,
00000100
00000000
00000010
00000000
00000001
00001000
00000010
00000000
00001000
00000000
00000100
00010000
00002000
00000000
00000000
00000000
,
01003000
00000000
00010000
00000000
00100000
01000000
00100000
01000000
00100000
01000000
00100000
01000000
00100000
01000000
00100000
01000000
,
00100000
01000000
00100000
01000000
00100000
00000000
00001000
00000000
00010000
00000000
00001000
00000000
02000000
00000000
00000000
00000000
,
03000000
10010000
00000000
00000000
;
