#VERSION:0.83;
#TITLE:24/7 Popperz;
#SUBTITLE:;
#ARTIST:Power Of Nature;
#TITLETRANSLIT:;
#SUBTITLETRANSLIT:;
#ARTISTTRANSLIT:;
#GENRE:;
#CREDIT:;
#MUSIC:24-7 Popperz.ogg;
#BANNER:24-7 Popperz.png;
#BACKGROUND:24-7 Popperz-bg.png;
#CDTITLE:./CDTitles/pnm 24 Usagi to neko to shounen no yume.png;
#SAMPLESTART:86.034;
#SAMPLELENGTH:15.000;
#SELECTABLE:YES;
#OFFSET:0.680;
#BPMS:0.000=202.000
,204.000=101.000
,220.000=202.000
,351.000=101.000
,355.000=202.000
;
#STOPS:274.000=0.297;
#TIMESIGNATURES:272.000=3=4,
275.000=4=4
;
#BGCHANGES:0.000=../BGAs/10di.mp4=1.000=0=0=0=StretchNoLoop====,
99999.000=-nosongbg-=1.000=0=0=0=StretchNoLoop====
;
#FGCHANGES:;

//--------------- dance-single - forcednature ----------------
#NOTEDATA:;
#STEPSTYPE:dance-single;
#DESCRIPTION:forcednature;
#DIFFICULTY:Beginner;
#METER:5;
#RADARVALUES:0,0,0,0,0;
#CREDIT:forcednature;
#NOTES:
0000
0000
0000
0000
,
0000
0000
0000
0000
,
0000
0000
0000
0000
,
0000
0000
0000
0000
,
0000
0000
0000
0000
,
1001
0000
0000
0000
,
0110
0000
0000
0000
,
1001
0000
0000
0000
,
0010
0000
0010
0000
,
0100
0000
0000
0000
,
0001
0000
0000
0000
,
1000
0000
0000
0000
,
0000
0000
0000
0000
,
0100
0000
0000
0000
,
1000
0000
0000
0000
,
0001
0000
0000
0000
,
0000
0000
0000
0000
,
0010
0000
0010
0000
,
0010
0000
0000
0000
,
0001
0000
0001
0000
,
0001
0000
0000
0000
,
1000
0000
1000
0000
,
1000
0000
0000
0000
,
0100
0000
0100
0000
,
0100
0000
0000
0000
,
1000
0000
0000
0000
,
0010
0000
0010
0000
,
0010
0000
0000
0000
,
0100
0000
0000
0000
,
0001
0000
0000
0000
,
0010
0000
0010
0000
,
0010
0000
0000
0000
,
0100
0000
0000
0000
,
1000
0000
0000
0000
,
0001
0000
0000
0000
,
0100
0000
0000
0000
,
0010
0000
0000
0000
,
1000
0000
0000
0000
,
0001
0000
0000
0000
,
0010
0000
0010
0000
,
0010
0000
0000
0000
,
0000
0000
0100
0000
,
0000
1000
0000
0000
,
0001
0000
0000
0100
,
0000
0000
0010
0000
,
0000
0000
1000
0000
,
0000
0001
0000
0000
,
0010
0000
0000
0100
,
0000
0000
1000
0000
,
1001
0000
0000
0000
,
0001
0000
0001
0000
,
0200
0000
0000
0000
,
0000
0000
0000
0000
,
0000
0000
0000
0000
,
0000
0000
0300
0000
,
0010
0000
0010
0000
,
1000
0000
0000
0000
,
0001
0000
0000
0000
,
0100
0000
0000
0000
,
0001
0000
0001
0000
,
0010
0000
0000
0000
,
0100
0000
0000
0000
0000
0100
0000
0000
,
1000
0000
0000
0000
0000
1000
0000
0000
,
0001
0000
0000
0000
0000
0001
0000
0000
,
0010
0000
0000
0000
0000
0010
0000
0000
,
2002
0000
0000
0000
,
0000
0000
0000
0000
,
0000
0000
0000
0000
,
0000
0000
3003
1000
,
0000
1000
0000
1000
,
0000
0000
0000
0010
,
0000
0000
0000
0100
,
0000
0000
0000
0001
,
0000
0001
0000
0001
,
0000
0000
0000
0010
,
0000
0000
0000
0100
,
0000
0000
0000
1000
,
0000
1000
0000
1000
,
0000
0000
0000
0001
,
0000
0000
0000
0100
,
0000
0000
0000
0001
,
0000
0001
0000
0001
,
0000
0000
0000
1000
,
0000
0000
0000
0020
,
0000
0030
0200
0000
,
0300
0010
0000
2000
,
0000
3000
0002
0000
,
0003
1000
0000
0200
,
0000
0000
0300
0010
,
0000
0010
0000
0001
,
0000
1000
0000
0010
,
0000
0110
0000
0100
,
0000
0110
0000
1000
,
1000
0001
0001
1000
,
0001
1000
0001
1001
;

//--------------- dance-single - forcednature ----------------
#NOTEDATA:;
#STEPSTYPE:dance-single;
#DESCRIPTION:forcednature;
#DIFFICULTY:Easy;
#METER:9;
#RADARVALUES:0,0,0,0,0;
#CREDIT:forcednature;
#NOTES:
0000
0000
0000
0000
,
0000
0000
0000
0000
,
0000
0000
0000
0000
,
0000
0000
0000
0000
,
0000
0000
0000
0000
,
1001
0000
0000
0000
0000
0000
0000
0000
0000
0000
0020
0000
0000
0030
0000
0000
,
1001
0000
0000
0000
0000
0000
0000
0000
0000
0000
0020
0000
0000
0030
0000
0000
,
1001
0000
0000
0000
0000
0000
0000
0000
0000
0000
0200
0000
0000
0300
0000
0000
,
0001
0001
1000
0010
,
0100
0001
0100
0010
,
1000
1000
0000
0001
,
0010
0100
0010
0001
,
0100
0100
0000
0010
,
1000
0001
1000
0010
,
0100
0100
0000
0001
,
1000
0100
1000
0001
,
0010
0010
0000
0000
,
1002
1000
0100
1000
,
0013
0000
0000
0000
,
2001
0001
0100
0001
,
3010
0000
0000
0000
,
1002
1000
0010
1000
,
0103
0000
0000
0000
,
2001
0001
0010
0001
,
3100
0000
0010
0000
0100
0010
0100
0000
,
1000
0001
0010
0100
,
0010
0010
0001
1000
,
0001
1000
0010
0100
,
0010
0010
1000
0001
,
0010
0100
1000
0001
,
0100
0100
0001
1000
,
0100
0010
0001
1000
,
0010
0010
1000
0000
,
0002
0000
0013
0100
,
2000
0000
3010
0100
,
0002
0000
1003
0010
,
0200
0000
0301
1000
,
0200
0000
0310
0001
,
2000
0000
3010
0100
,
0002
0000
0000
0023
0000
0000
0000
0230
,
0000
0000
1300
0001
,
0100
0010
0110
1000
,
0001
1001
0010
0100
,
0110
0001
1000
1001
,
0010
0100
0110
1001
,
2000
3200
0302
0203
,
2300
3020
2030
3002
,
0203
2300
3200
0302
,
0023
2030
3020
0032
,
1003
0010
1000
0010
,
1000
0100
1000
0100
,
0020
0000
0030
0000
,
0002
0000
0003
0000
,
2000
0000
3000
0000
,
0020
0030
0200
0300
,
0001
0010
0001
0010
,
0001
1000
0100
0000
,
1000
0010
1000
0010
,
1000
0001
0100
0000
,
0010
1000
0010
1000
,
0001
0010
0100
1000
,
1001
0000
0000
0000
0010
0000
0000
0000
0000
0000
0200
0000
0000
0300
0000
0000
,
1001
0000
0000
0000
0010
0000
0000
0000
0000
0000
0200
0000
0000
0300
0000
0000
,
1001
0000
0000
0000
0100
0000
0000
0000
0000
0000
0020
0000
0000
0030
0000
0000
,
1001
0000
0000
0000
0100
0000
0000
0000
0000
0000
0020
0000
0000
0030
0000
0000
,
2002
0000
0000
0000
,
0000
0000
0000
0000
,
0000
0000
0000
0000
,
0000
0000
0000
0000
3003
0000
1000
0100
,
1000
0000
0100
0010
0100
0000
1000
0000
,
0001
0010
0000
0001
,
0100
0010
1000
0002
,
0023
0000
0230
0000
2300
0000
3001
0100
,
0001
0000
0100
0010
0100
0000
0010
0000
,
1000
0001
0000
0010
,
0100
1000
0001
0200
,
0000
0300
0110
1001
,
0000
0110
0000
1001
,
0110
1001
0000
1000
,
0100
0010
0001
2000
,
3020
0000
0230
0000
0302
0000
1003
0100
,
1000
0000
0100
0010
0100
0000
1000
0000
,
0001
0010
0000
0001
,
1000
0010
0100
0220
,
0000
0330
2002
0000
,
3003
0100
0010
2002
,
0000
3003
0220
0000
,
0330
1000
0001
2002
,
0000
0000
3003
1100
,
1100
0011
0011
0101
,
0101
1010
1010
1001
,
0100
1001
0010
1001
,
0100
1001
0010
1001
,
0110
1001
0110
1001
,
0110
1001
0110
1001
;

//--------------- dance-single - forcednature ----------------
#NOTEDATA:;
#STEPSTYPE:dance-single;
#DESCRIPTION:forcednature;
#DIFFICULTY:Medium;
#METER:13;
#RADARVALUES:0,0,0,0,0;
#CREDIT:forcednature;
#NOTES:
0000
0000
0000
0000
,
0000
0000
0000
0000
,
0000
0000
0000
0000
,
0000
0000
0000
0000
,
0000
0000
0000
0000
,
1001
0000
0000
0000
0000
0000
0000
0000
0100
0000
0020
0000
0000
0030
0000
0000
,
1001
0000
0000
0000
0000
0000
0000
0000
0100
0000
0020
0000
0000
0030
0000
0000
,
1001
0000
0000
0000
0000
0000
0000
0000
0010
0000
0200
0000
0000
0300
0000
0000
,
1001
1100
0110
0011
,
0001
0100
0010
1000
,
0100
0010
0100
0010
0000
0100
1000
0000
,
0001
0100
0010
1000
,
0001
0010
0001
0010
0000
0100
0010
0000
,
0001
1000
0010
0100
,
0001
1000
0001
1000
0000
0100
0010
0000
,
0001
1000
0010
0100
,
0001
1000
0001
1000
0000
0000
0000
0000
,
0002
0000
0100
0000
1000
0000
0013
0001
,
1000
0000
0000
0000
,
2000
0000
0100
0000
0001
0000
3010
1000
,
0001
0000
0000
0000
,
0002
0000
0010
0000
1000
0000
0103
0001
,
1000
0000
0000
0000
,
2000
0000
0010
0000
0001
0000
3100
1000
,
0001
0000
0100
0001
0100
0010
1000
0000
,
0001
0010
0100
0010
0001
1000
0100
0000
,
2000
3020
0032
0023
,
1030
0010
0100
0010
1000
0001
0100
0000
,
0002
0023
2030
3020
,
0031
0100
0010
0100
0001
1000
0010
0000
,
2000
3200
0302
0203
,
1300
0100
0010
0100
1000
0001
0010
0000
,
0002
0000
0203
0000
1300
0100
0001
0000
,
2000
0000
0010
0000
3010
1000
0001
0020
,
0000
0000
0100
0000
0130
0010
0001
2000
,
0000
0000
0010
0000
3010
1000
0001
0200
,
0000
0000
0010
0000
0310
1000
0001
0020
,
0000
0000
0100
0000
0130
1000
0001
0200
,
0000
0000
0010
0000
0310
1000
0001
2000
,
0000
0000
3100
0020
0000
0031
1000
0020
,
0000
0000
0100
0000
1030
0001
1000
0001
,
0010
1001
0101
0010
,
1001
1100
1000
0101
,
0110
0001
1100
0110
,
0010
1001
0220
0330
,
1000
0000
0100
0010
0000
0100
1000
0000
0001
0010
0000
0001
,
1000
0000
0010
0100
0000
0010
1000
0000
0001
0100
0000
0001
,
1000
0000
0100
0010
0000
0001
0100
0000
0010
1000
0000
0001
,
0010
0000
0100
1000
0000
0001
0100
0000
0010
1000
0000
0000
,
1002
0100
1000
0010
,
1000
0100
1000
0013
,
1001
0000
0000
0000
2000
3200
0320
0032
,
0203
0000
0000
0300
0002
2003
3020
0230
,
0302
0000
0000
0003
0020
0230
2300
3002
,
0103
0000
0200
0000
0302
0000
0000
0003
2000
0000
3020
0000
0230
0000
0302
0000
,
1003
0000
0100
0010
0100
1000
0010
0000
,
0100
0001
1000
0100
1000
0001
0010
0000
,
0001
0000
0100
0010
0100
0001
0010
0000
,
0100
1000
0001
0100
0001
1000
0010
0000
,
1000
0001
0010
0001
1000
0010
0100
0000
,
0001
0010
0100
0010
0100
1000
0001
0000
,
0110
0000
0000
0000
1000
0000
1000
0000
0001
0000
0020
0000
0000
0030
0000
0000
,
0110
0000
0000
0000
0001
0000
0001
0000
1000
0000
0020
0000
0000
0030
0000
0000
,
0110
0000
0000
0000
1000
0000
1000
0000
0001
0000
0200
0000
0000
0300
0000
0000
,
0110
0000
0000
0000
0001
0000
0001
0000
1000
0000
0200
0000
0000
0300
0000
0000
,
2002
0000
0000
0000
,
0000
0000
0000
0000
,
0000
0000
0000
0000
,
0000
0000
0000
0000
3003
0000
1000
0100
,
0001
0100
1000
0001
0010
0001
1000
0010
,
0100
0001
1000
0000
0001
0010
0001
0100
,
1000
0100
0001
1000
0010
1000
0002
0000
,
0023
0000
0230
0000
2300
0000
3001
0100
,
1000
0100
0001
1000
0010
1000
0001
0010
,
0100
1000
0010
0000
0100
0100
0001
1000
,
0100
0001
0100
0000
1001
0000
0010
0010
,
0010
0010
0010
0000
0100
0000
2002
0000
,
3003
0220
0330
1001
,
0110
0000
1001
0000
1000
0100
0010
0100
,
1000
0001
0010
1000
0010
0001
2000
0000
,
3020
0000
0230
0000
0302
0000
1003
0010
,
0100
0010
0001
0010
1000
0001
0100
0010
,
1000
0001
0010
0100
1000
0001
0100
0000
,
0010
1000
0100
0001
0100
1000
0010
0010
,
0010
0010
0010
0000
0100
0100
0100
0100
,
0100
0000
0110
0000
1001
0000
1000
1000
,
1000
1000
1000
0000
0001
0001
0001
0001
,
0001
1001
0110
2002
,
0000
0000
0000
0000
0000
0000
3003
0000
0000
1000
0000
0100
,
0010
0000
0100
1000
0000
0100
0010
0000
0100
1000
0000
0001
,
0100
0000
0001
1000
0000
0010
0100
0000
0010
2000
0000
0000
,
3100
0012
0103
2010
,
3100
0012
0103
1010
,
1100
0000
0000
0011
0000
0000
0101
0000
0000
1000
0000
0100
,
1000
0000
0100
0010
0000
0001
0010
0000
0000
1001
0000
0000
;

//--------------- dance-single - forcednature ----------------
#NOTEDATA:;
#STEPSTYPE:dance-single;
#DESCRIPTION:forcednature;
#DIFFICULTY:Hard;
#METER:17;
#RADARVALUES:0,0,0,0,0;
#CREDIT:forcednature;
#NOTES:
0000
0000
0000
0000
,
0000
0000
0000
0000
,
0000
0000
0000
0000
,
0000
0000
0000
0000
,
0000
0000
0000
0000
,
1001
0000
0000
0000
0000
0000
0000
0000
0100
0000
0220
0000
0000
0330
0000
0000
,
1001
0000
0000
0000
0000
0000
0000
0000
0100
0000
0220
0000
0000
0330
0000
0000
,
1001
0000
0000
0000
0000
0000
0000
0000
0010
0000
0220
0000
0000
0330
0000
0000
,
1001
1100
0011
1001
,
0001
0100
0001
0010
0001
1000
0001
0010
,
0100
1000
0001
0010
0000
0001
0100
0010
,
1000
0100
1000
0010
1000
0001
1000
0010
,
0100
0001
0010
0100
0000
0010
0001
0100
,
0010
1000
0010
0001
0010
1000
0010
0100
,
0001
1000
0100
0010
0000
0100
1000
0001
,
0010
0100
0010
0001
0010
1000
0010
0001
,
1000
1000
0001
0100
0000
0000
0000
0000
,
0110
0000
0000
0010
1000
0000
0010
0100
0010
0000
0100
0000
0001
0000
1000
0000
,
1100
0000
0000
0000
,
0110
0000
0000
0010
0001
0000
0010
0100
0010
0000
0100
0000
1000
0000
0001
0000
,
0101
0000
0000
0000
,
0110
0000
0000
0010
0100
0000
0010
1000
0010
0000
0100
0000
0001
0000
1000
0000
,
1100
0000
0000
0000
,
0110
0000
0000
0010
0100
0000
0010
0001
0010
0000
0100
0000
1000
0000
0001
0000
,
0100
0000
0100
0000
0010
0000
0100
0000
0001
1000
0001
0000
1000
0000
0001
0000
,
0010
0000
0000
0100
0010
0000
0100
1000
0100
0000
0010
0000
0001
0000
1000
0000
,
0010
0100
0001
0100
1000
0100
0001
0100
,
0010
0000
0000
0100
0010
0000
0100
0001
0100
0000
0010
0000
1000
0000
0001
0000
,
0010
0100
1000
0100
0001
0100
1000
0100
,
0010
0000
0000
0001
1000
0000
0010
1000
0010
0000
0100
0000
0001
0000
1000
0000
,
0100
0010
0001
0010
1000
0010
0001
0010
,
0100
0000
0000
1000
0001
0000
0100
0001
0100
0000
0010
0000
1000
0000
0001
0000
,
0010
0000
0100
0000
1000
0000
0001
0000
0010
0000
0000
0100
0010
0000
0100
0000
,
2000
0000
0010
0010
3010
1000
0001
0200
,
0000
0010
0010
0310
1000
0001
0010
0200
,
0000
0001
0001
0301
0100
1000
0001
0020
,
0000
0100
0100
0130
1000
0001
0100
2000
,
0000
0100
0100
3100
0001
1000
0010
0200
,
0000
1000
1000
1300
0100
0001
1000
0020
,
0000
0001
0031
0002
0000
0013
0010
2000
,
0000
0000
0001
0000
0001
0000
3001
0000
0010
0000
0100
0010
0100
0000
1000
0001
,
0010
0101
1010
1001
,
1100
0011
0110
1100
,
1010
0110
0101
0011
,
0110
0000
0000
1001
0000
0000
1000
0100
1000
0001
0010
0001
,
1000
0010
0100
0001
0010
0100
1000
0010
0100
0001
1000
0100
,
1000
0001
0010
0001
1000
0100
0010
0001
0100
0010
1000
0100
,
0010
0001
0100
0010
1000
0001
0100
0001
1000
0010
1000
0001
,
0010
0001
1000
0100
1000
0001
0100
0001
1000
0010
0100
0001
,
0010
0000
0100
0010
0000
0001
0010
0000
0100
0010
0000
0001
,
1000
0000
0100
1000
0000
0001
1000
0000
0100
1000
0000
0010
,
0200
0000
0000
0302
0000
0000
2003
0000
0000
0000
0000
0000
0000
0000
3000
0000
,
0020
0000
0000
0230
0000
0000
0302
0000
0000
0000
0000
0000
0000
0000
0003
0000
,
0020
0000
0000
0230
0000
0000
2300
0000
0000
0001
0001
0000
3200
0000
0320
0000
,
0032
0000
0000
0000
0000
0000
0103
0000
0000
0000
0000
0000
0210
0000
0000
0000
0000
0000
0000
0000
0000
0301
0000
0000
1000
0000
0100
0000
1000
0000
0100
0000
0010
0000
0100
0000
0010
0000
0001
0000
1000
0000
0100
0000
1000
0000
0001
0000
,
0010
0100
0100
0001
0100
0100
1000
0100
,
0100
0000
0010
0001
0010
0000
0100
0000
1000
0000
0001
0000
0100
0000
0000
0000
,
0010
0100
0100
1000
0100
0100
0001
0100
,
0100
0000
0010
1000
0010
0000
0100
0000
0001
0000
1000
0000
0100
0000
0000
0000
,
0010
0000
0001
0000
0100
0000
1000
0000
0100
0000
0001
0000
0010
0000
0000
0100
,
2000
0000
3010
0001
0010
1000
0001
0000
,
1000
0000
0001
1000
0001
1000
0001
1000
0001
0000
0200
0000
0000
0000
0000
0000
,
0301
0000
1000
0001
1000
0001
1000
0001
1000
0000
0200
0000
0000
0000
0000
0000
,
0310
0000
0100
0010
0100
0010
0100
0010
0100
0000
2000
0000
0000
0000
0000
0000
,
3010
0000
0100
0010
0100
0010
0100
0010
0100
0000
0002
0000
0000
0000
0000
0000
,
0023
0000
0130
0100
0100
1000
0001
0100
,
0020
0000
0130
0100
0100
0001
1000
0100
,
0010
1000
0001
0100
1000
0010
0001
1000
,
0100
0000
0001
0000
0010
0000
0100
0000
2000
3000
0000
0000
0010
0000
0100
0001
,
1000
0001
0100
0000
0010
0000
1000
0001
0100
0001
1000
0000
0100
0000
0010
0001
,
1000
0001
0010
0000
0100
0000
0000
0000
1000
0000
0001
0000
0100
0000
0010
1000
,
0001
1000
0010
0000
0100
0000
0001
0100
0001
0000
1000
0010
0200
0000
0302
0000
,
0023
0000
0230
0000
2300
0000
3020
0000
0230
0000
0302
0000
0013
0000
0100
1000
,
0001
1000
0100
0000
0010
0000
0001
1000
0100
1000
0001
0000
0100
0000
0010
1000
,
0001
1000
0010
0100
0001
0000
0000
0010
0001
0000
0001
0000
1000
0000
0100
0010
,
0100
0010
0001
0000
0100
0000
0000
0000
0110
0000
0000
0000
0001
1000
0010
1000
,
0001
1000
0010
1000
0001
0000
0000
0000
0100
0000
0000
0000
0012
0000
0000
0000
,
0103
0000
0000
0000
2010
0000
0000
0000
3100
0000
0000
0000
0001
0000
1000
0001
,
1000
0001
1000
0000
0200
0000
0000
0000
0310
0000
0001
0000
1000
0000
0010
1000
,
0001
1000
0010
0000
0100
0000
0001
0100
0001
0000
1000
0000
0200
0000
0320
0000
,
0032
0000
0203
0000
0320
0000
2030
0000
3200
0000
0320
0000
0031
0000
0100
0001
,
1000
0000
0010
1000
0001
0000
0010
0100
0010
0000
0100
0000
1000
0000
0001
0100
,
0010
0000
1000
0010
0100
0000
0001
1000
0100
0000
0100
0000
0010
0001
0010
0001
,
1000
0000
0010
0000
0100
0001
0100
0000
0001
1000
0001
0000
1000
0100
1000
0100
,
1000
0100
1000
0100
1000
0000
0000
0000
0001
0010
0001
0010
0001
0010
0001
0010
,
0001
0000
0000
0000
0100
0010
0100
0000
0001
1000
0001
0000
0100
0001
0100
0001
,
0100
0001
0100
0001
0100
0000
0000
0000
0010
1000
0010
1000
0010
1000
0010
1000
,
0010
0000
0000
0000
0100
0010
0100
0000
0001
1000
0001
0000
0020
0000
0000
0030
,
0200
0000
0000
0000
0000
0000
0000
0000
0000
0300
0000
0000
2000
0000
0000
0000
0000
0000
0000
0000
0000
3000
0000
0000
0002
0000
0000
0000
0000
0000
0000
0000
0000
0003
0000
0000
0100
0000
0000
0000
0001
0000
0000
0000
0010
0000
0000
0000
,
0100
1000
0010
0100
0001
0010
0100
1000
0010
1000
0100
0001
,
1000
0010
0001
1000
0010
0001
1000
0100
0001
0010
0000
0001
,
0100
0001
1000
1010
0000
1000
0100
1000
0001
0011
0000
0001
,
1000
0010
0100
0110
0000
1000
0001
0010
0100
0110
0000
1000
,
1010
0000
0001
0011
0000
1000
1100
0000
0001
0010
0100
1000
,
0010
0100
0001
0010
1000
0001
0100
1000
0001
0010
0000
0000
;

//--------------- dance-double - forcednature ----------------
#NOTEDATA:;
#STEPSTYPE:dance-double;
#DESCRIPTION:forcednature;
#DIFFICULTY:Easy;
#METER:9;
#RADARVALUES:0,0,0,0,0;
#CREDIT:forcednature;
#NOTES:
00000000
00000000
00000000
00000000
,
00000000
00000000
00000000
00000000
,
00000000
00000000
00000000
00000000
,
00000000
00000000
00000000
00000000
,
00000000
00000000
00000000
00000000
,
00011000
00000000
00000000
00000000
00000000
00000000
00000000
00000000
00000000
00000000
00200000
00000000
00000000
00300000
00000000
00000000
,
00011000
00000000
00000000
00000000
00000000
00000000
00000000
00000000
00000000
00000000
00200000
00000000
00000000
00300000
00000000
00000000
,
00011000
00000000
00000000
00000000
00000000
00000000
00000000
00000000
00000000
00000000
00000020
00000000
00000000
00000030
00000000
00000000
,
00001000
00001000
00000001
00000010
,
00000001
00000100
00000010
00000100
,
00000001
00000001
00000000
00001000
,
00000100
00010000
00001000
00010000
,
00000010
00000010
00000000
00010000
,
00001000
01000000
00010000
01000000
,
00100000
00100000
00000000
10000000
,
00010000
00100000
00001000
00010000
,
00000100
00000100
00000000
00000000
,
00002000
00000000
00000100
00000100
,
00003001
00000000
00000000
00000000
,
00020000
00000000
00001000
00001000
,
00030100
00000000
00000000
00000000
,
02000000
00000000
00010000
00010000
,
03100000
00000000
00000000
00000000
,
20000000
00000000
00010000
00010000
,
30100000
00000000
10000000
00000000
00010000
10000000
00010000
00000000
,
00100000
00001000
00010000
00000100
,
00001000
00001000
00000001
00001000
,
00000010
00010000
00001000
01000000
,
00010000
00010000
10000000
00010000
,
00100000
00001000
00010000
00000100
,
00001000
00001000
00000001
00001000
,
00000010
00010000
00001000
01000000
,
00010000
00010000
10000000
00000000
,
02000000
00000000
03100000
00010000
,
00200000
00000000
00301000
00010000
,
00002000
00000000
00013000
00000100
,
00002000
00000000
00003001
00000010
,
00000200
00000000
00001300
00000100
,
00020000
00000000
00031000
01000000
,
00020000
00000000
00000000
20030000
00000000
00000000
00000000
30200000
,
00000000
00000000
10300000
00010000
,
00100000
00100000
00100000
00001000
,
00001000
00001000
00010000
00010000
,
00010000
00000100
00000100
00000100
,
00001000
00000001
00001001
00000110
,
00000002
00000203
00000320
00002030
,
00003200
00020300
00032000
00203000
,
00320000
02030000
03200000
20300000
,
32000000
03200000
00320000
20030000
,
30100000
01000000
00010000
01000000
,
00100000
01000000
00010000
01000000
,
00002000
00000000
00003000
00000000
,
00020000
00000000
00030000
00000000
,
00000200
00000000
00000300
00000000
,
00002000
00003000
00000002
00000003
,
00000100
00000010
00000100
00000010
,
00001000
00000100
00010000
00000000
,
00001000
00010000
00001000
00010000
,
00001000
01000000
00010000
00000000
,
10000000
00100000
10000000
00100000
,
10000000
00010000
00100000
00000000
,
10010000
00000000
00000000
00000000
00000000
00000000
00000000
00000000
00000000
00000000
02000000
00000000
00000000
03000000
00000000
00000000
,
10010000
00000000
00000000
00000000
00000000
00000000
00000000
00000000
00000000
00000000
02000000
00000000
00000000
03000000
00000000
00000000
,
10010000
00000000
00000000
00000000
00000000
00000000
00000000
00000000
00000000
00000000
00002000
00000000
00000000
00003000
00000000
00000000
,
10010000
00000000
00000000
00000000
00000000
00000000
00000000
00000000
00000000
00000000
00002000
00000000
00000000
00003000
00000000
00000000
,
00022000
00000000
00000000
00000000
,
00000000
00000000
00000000
00000000
,
00000000
00000000
00000000
00000000
,
00000000
00000000
00000000
00000000
00033000
00000000
00001000
00010000
,
00001000
00010000
00000100
00001000
,
00000001
00000010
00000000
00000001
,
00000100
00000010
00001000
00000002
,
00000023
00000000
00000230
00000000
00002300
00000000
00003100
00001000
,
00000100
00010000
00001000
00100000
,
00010000
00100000
00000000
01000000
,
10000000
00010000
10000000
00200000
,
00000000
00300000
01100000
10010000
,
00000000
01100000
00000000
20000000
,
32000000
03020000
00030000
00001000
,
00100000
00010000
00100000
00002000
,
00023000
00000000
00030020
00000000
00002030
00000000
00003001
00000100
,
00000001
00001000
00000010
00010000
,
00001000
00010000
00000000
00001000
,
00100000
00010000
01000000
02200000
,
00000000
03300000
20020000
00000000
,
30030000
00001000
00010000
00022000
,
00000000
00033000
00000220
00000000
,
00000330
00001000
00000001
00002002
,
00000000
00000000
00003003
00001100
,
00000100
00010100
00010000
00011000
,
00001000
00101000
00100000
10010000
,
00000000
01100000
00000000
10010000
,
00000000
01100000
00000000
00011000
,
00010000
00011000
00001000
00011000
,
00011000
00011000
00011000
00010100
;

//--------------- dance-double - forcednature ----------------
#NOTEDATA:;
#STEPSTYPE:dance-double;
#DESCRIPTION:forcednature;
#DIFFICULTY:Medium;
#METER:14;
#RADARVALUES:0,0,0,0,0;
#CREDIT:forcednature;
#NOTES:
00000000
00000000
00000000
00000000
,
00000000
00000000
00000000
00000000
,
00000000
00000000
00000000
00000000
,
00000000
00000000
00000000
00000000
,
00000000
00000000
00000000
00000000
,
00011000
00000000
00000000
00000000
00000000
00000000
00000000
00000000
01000000
00000000
00200000
00000000
00000000
00300000
00000000
00000000
,
00011000
00000000
00000000
00000000
00000000
00000000
00000000
00000000
01000000
00000000
00200000
00000000
00000000
00300000
00000000
00000000
,
00011000
00000000
00000000
00000000
00000000
00000000
00000000
00000000
00000100
00000000
00000020
00000000
00000000
00000030
00000000
00000000
,
00000110
00001001
00001100
00010100
,
00010000
00001000
00100000
00010000
,
01000000
00100000
01000000
00100000
00000000
10000000
00010000
00000000
,
00100000
00001000
00010000
00000100
,
00001000
00000001
00001000
00000001
00000000
00000100
00000010
00000000
,
00001000
00000100
00010000
00001000
,
01000000
00010000
01000000
00010000
00000000
10000000
00100000
00000000
,
10000000
01000000
00010000
00001000
,
00100000
00010000
00100000
00010000
00000000
00000000
00000000
00000000
,
00020000
00000000
01000000
00000000
10000000
00000000
00130000
00010000
,
00001000
00000000
00000000
00000000
,
00002000
00000000
00000100
00000000
00000001
00000000
00003010
00001000
,
00010000
00000000
00000000
00000000
,
00020000
00000000
01000000
00000000
10000000
00000000
00130000
00010000
,
00001000
00000000
00000000
00000000
,
00002000
00000000
00000100
00000000
00000001
00000000
00003010
00001000
,
00010000
00000000
01000000
00010000
01000000
00000000
10010000
00000000
,
10000000
01000000
00100000
01000000
10000000
00010000
00100000
00000000
,
00002000
00003020
00000230
00020300
,
00031000
00000010
00000001
00000010
00000100
00010000
00001000
00000000
,
00020000
00230000
20300000
30200000
,
00310000
00001000
01000000
00010000
01000000
00001000
00010000
00000000
,
00000020
00000230
00002300
00023000
,
00130000
01000000
00010000
10000000
00100000
01000000
00010000
00000000
,
20000000
00000000
32000000
00000000
13000000
00010000
00100000
00000000
,
00002000
00000000
00010000
00000000
00013000
00001000
00010000
00000200
,
00000000
00000000
00001000
00000000
00001300
00000001
00000010
00000002
,
00000000
00000000
00000100
00000000
00000103
00000001
00001000
00000020
,
00000000
00000000
00000100
00000000
00000130
00000001
00001000
00000200
,
00000000
00000000
00010000
00000000
00010300
00001000
00100000
00020000
,
00000000
00000000
01000000
00000000
01030000
00010000
10000000
00200000
,
00000000
00000000
10300000
02000000
00000000
00000000
03100000
00020000
,
00000000
00000000
01000000
00000000
10030000
00010000
10000000
00010000
,
00100000
00110000
00101000
00001000
,
00011000
00010010
00000010
00001001
,
00000110
00001000
00001100
00010100
,
00001000
00101000
00022000
00033000
,
01000000
00000000
00010000
01000000
00000000
00100000
01000000
00000000
00100000
10000000
00000000
00010000
,
10000000
00000000
01000000
00100000
00000000
00010000
00100000
00000000
00001000
00010000
00000000
00000100
,
00001000
00000000
00000100
00000010
00000000
00000001
00000100
00000000
00000010
00000100
00000000
00000010
,
00001000
00000000
00000001
00000010
00000000
00000100
00000010
00000000
00000100
00010000
00000000
00000000
,
00012000
01000000
00010000
00100000
,
00010000
01000000
00010000
00103000
,
10010000
00000000
00000000
00000000
20000000
32000000
03020000
00032000
,
00003020
00000000
00000000
00000030
00000002
00000203
00002300
00023000
,
00230000
00000000
00000000
00300000
20000000
32000000
03020000
00032000
,
00003010
00000000
00000020
00000000
00000230
00000000
00000000
00000300
00002000
00000000
00003002
00000000
00000203
00000000
00002300
00000000
,
00013000
00000000
00100000
01000000
00100000
10000000
00010000
00000000
,
00100000
01000000
10000000
01000000
00010000
00001000
00100000
00000000
,
00001000
00000000
00010000
00000010
00001000
00000010
00010000
00000000
,
00001000
00000010
00000001
00000100
00000001
00000010
00001000
00000000
,
00011000
00000000
00010000
00001000
01000000
00010000
00100000
00000000
,
01000000
10000000
01000000
00010000
00001000
00100000
00010000
00000000
,
10010000
00000000
00000000
00000000
10000000
00000000
10000000
00000000
01000000
00000000
00020000
00000000
00000000
00030000
00000000
00000000
,
00011000
00000000
00000000
00000000
00001000
00000000
00001000
00000000
00000010
00000000
00000002
00000000
00000000
00000003
00000000
00000000
,
00001001
00000000
00000000
00000000
00000001
00000000
00000001
00000000
00000100
00000000
00002000
00000000
00000000
00003000
00000000
00000000
,
00011000
00000000
00000000
00000000
00010000
00000000
00010000
00000000
00100000
00000000
20000000
00000000
00000000
30000000
00000000
00000000
,
20020000
00000000
00000000
00000000
,
00000000
00000000
00000000
00000000
,
00000000
00000000
00000000
00000000
,
00000000
00000000
00000000
00000000
30030000
00000000
10000000
01000000
,
00010000
01000000
10000000
00010000
00100000
00001000
00010000
00000100
,
00001000
00000001
00000010
00000000
00000001
00000100
00001000
00000100
,
00000001
00001000
00000010
00010000
00001000
01000000
00020000
00000000
,
00230000
00000000
02300000
00000000
03020000
00000000
00031000
00100000
,
00010000
00100000
00001000
00000010
00000100
00001000
00000001
00000100
,
00001000
00010000
00001000
00000000
01000000
01000000
00010000
10000000
,
00100000
00010000
00100000
00000000
10010000
00000000
01000000
01000000
,
01000000
01000000
01000000
00000000
00010000
00000000
02200000
00000000
,
03300000
00022000
00033000
00000110
,
00011000
00000000
00010100
00000000
00000100
00001000
00000001
00000010
,
00000001
00000100
00001000
00010000
00001000
00010000
00200000
00000000
,
20300000
00000000
30020000
00000000
02030000
00000000
03100000
10000000
,
01000000
10000000
00100000
10000000
01000000
00010000
00001000
00100000
,
00010000
00100000
00001000
00010000
00000100
00010000
00001000
00000000
,
00000010
00000001
00000100
00000001
00000010
00001000
00010000
00010000
,
00010000
00010000
00010000
00000000
00001000
00001000
00001000
00001000
,
00001000
00000000
00011000
00000000
01001000
00000000
01000000
01000000
,
01000000
01000000
01000000
00000000
00100000
00100000
00100000
00100000
,
00100000
10010000
01100000
20020000
,
00000000
00000000
00000000
00000000
00000000
00000000
30030000
00000000
00000000
10000000
00000000
01000000
,
00100000
00000000
00010000
00100000
00000000
00001000
00010000
00000000
00000100
00001000
00000000
00000010
,
00000100
00000000
00000001
00000010
00000000
00000001
00000100
00000000
00000010
00002000
00000000
00000000
,
00003100
00020000
00031000
00200000
,
00310000
20000000
30100000
11000000
,
01100000
00000000
00000000
00110000
00000000
00000000
00101000
00000000
00000000
00001000
00000000
00010000
,
00001000
00000000
00010000
00000100
00000000
00001000
00000010
00000000
00000000
00001001
00000000
00000000
;

//--------------- dance-double - forcednature ----------------
#NOTEDATA:;
#STEPSTYPE:dance-double;
#DESCRIPTION:forcednature;
#DIFFICULTY:Hard;
#METER:17;
#RADARVALUES:0,0,0,0,0;
#CREDIT:forcednature;
#NOTES:
00000000
00000000
00000000
00000000
,
00000000
00000000
00000000
00000000
,
00000000
00000000
00000000
00000000
,
00000000
00000000
00000000
00000000
,
00000000
00000000
00000000
00000000
,
00011000
00000000
00000000
00000000
00000000
00000000
00000000
00000000
00000100
00000000
00000020
00000000
00000000
00000030
00000000
00000000
,
00011000
00000000
00000000
00000000
00000000
00000000
00000000
00000000
00000100
00000000
00000020
00000000
00000000
00000030
00000000
00000000
,
00011000
00000000
00000000
00000000
00000000
00000000
00000000
00000000
01000000
00000000
00200000
00000000
00000000
00300000
00000000
00000000
,
10010000
11000000
00110000
00101000
,
00001000
00010000
00000100
00010000
00001000
00010000
00000010
00010000
,
00001000
00000010
00000001
00000010
00000000
00001000
00010000
00000100
,
00010000
00001000
01000000
00001000
00010000
00001000
00100000
00001000
,
00010000
01000000
10000000
01000000
00000000
00100000
00001000
00010000
,
00000010
00001000
00000001
00001000
00000100
00001000
00000001
00001000
,
00000010
00000100
00001000
00010000
00000000
00100000
01000000
00010000
,
00100000
00010000
10000000
00010000
01000000
00010000
10000000
00010000
,
00100000
01000000
00010000
00001000
00000000
00000000
00000000
00000000
,
00011000
00000000
00000000
00010000
00000100
00000000
00001000
00000100
00001000
00000000
00000100
00000000
00000010
00000000
00000001
00000000
,
00000101
00000000
00000000
00000000
,
00011000
00000000
00000000
00001000
01000000
00000000
00010000
01000000
00010000
00000000
01000000
00000000
00100000
00000000
10000000
00000000
,
11000000
00000000
00000000
00000000
,
00011000
00000000
00000000
00010000
00000010
00000000
00001000
00000010
00001000
00000000
00000010
00000000
00000100
00000000
00000001
00000000
,
00000011
00000000
00000000
00000000
,
00011000
00000000
00000000
00001000
00100000
00000000
00010000
00100000
00010000
00000000
00100000
00000000
01000000
00000000
10000000
00000000
,
00100000
00000000
01000000
00000000
00100000
00000000
01000000
00000000
00010000
10000000
00010000
00000000
10000000
00000000
00010000
00000000
,
00100000
00000000
00000000
00010000
00100000
00000000
00001000
00010000
00001000
00000000
00010000
00000000
00000100
00000000
00001000
00000000
,
00000010
00000100
00001000
00000100
00000010
00000100
00000001
00001000
,
00000010
00000000
00000000
00001000
00000010
00000000
00010000
00001000
00010000
00000000
00001000
00000000
01000000
00000000
00010000
00000000
,
00100000
01000000
00010000
01000000
00100000
01000000
10000000
00010000
,
01000000
00000000
00000000
00010000
01000000
00000000
00001000
00010000
00001000
00000000
00010000
00000000
00000010
00000000
00001000
00000000
,
00000100
00000010
00001000
00000010
00000001
00000100
00001000
00010000
,
00000100
00000000
00000000
00001000
00000100
00000000
00010000
00001000
00010000
00000000
00001000
00000000
00100000
00000000
00010000
00000000
,
01000000
00100000
00010000
00100000
10000000
01000000
00010000
00000000
,
00002000
00000000
00003010
00000100
00000010
00000001
00001000
00000020
,
00000000
00000130
00000001
00000100
00001000
00010000
00001000
00200000
,
00000000
00310000
01000000
10000000
01000000
00010000
10000000
00200000
,
00000000
10300000
01000000
00010000
00001000
00100000
00010000
00200000
,
00000000
00301000
00000010
00000100
00010000
00001000
00000010
00000002
,
00000000
00000103
00001000
00000100
00000001
00001000
00000010
00020000
,
00000000
00031000
01000000
00020000
00000000
00130000
01000000
20000000
,
00000000
00000000
00010000
00000000
00010000
00000000
30010000
00000000
10000000
00000000
01000000
10000000
01000000
00000000
10000000
00010000
,
00100000
00110000
00101000
00011000
,
00010100
00001100
00001010
00011000
,
01010000
00110000
00011000
00001100
,
00001001
00000000
00000000
00000110
00000000
00000000
00000001
00001000
00000001
00001000
00000001
00001000
,
00000010
00010000
00001000
00010000
00000100
00001000
00000100
00010000
00001000
00100000
00010000
00100000
,
00001000
00010000
00001000
01000000
00010000
01000000
00002000
00023000
00030020
00002030
00003200
00000320
,
00002030
00003020
00000230
00020300
00032000
00203000
02300000
03020000
02030000
03200000
00302000
00023000
,
00030020
00000230
00002300
00023000
00032000
00003200
00000320
00020030
00032000
02003000
03200000
00320000
,
00031000
00000000
00001000
00010000
00000000
00010000
00001000
00000000
00001000
00010000
00000000
00001000
,
00010000
00000000
00001000
00010000
00000000
00010000
00001000
00000000
00001000
00010000
00000000
00010000
,
00002000
00000000
00000000
00003020
00000000
00000000
00000032
00000000
00000000
00000000
00000000
00000000
00000000
00000000
00000003
00000000
,
00000200
00000000
00000000
00002300
00000000
00000000
00023000
00000000
00000000
00000000
00000000
00000000
00000000
00000000
00030000
00000000
,
00200000
00000000
00000000
20300000
00000000
00000000
32000000
00000000
00000000
00000000
00000000
00000000
03020000
00000000
00032000
00000000
,
00003020
00000000
00000000
00000000
00000000
00000000
00000230
00000000
00000000
00000000
00000000
00000000
00002300
00000000
00000000
00000000
00000000
00000000
00000000
00000000
00000000
00003001
00000000
00000000
00000100
00000000
00000010
00000000
00000100
00000000
00000010
00000000
00001000
00000000
00000010
00000000
00001000
00000000
00000100
00000000
00010000
00000000
00001000
00000000
00100000
00000000
00010000
00000000
,
00100000
01000000
01000000
00010000
01000000
01000000
10000000
01000000
,
01000000
00000000
00100000
00010000
00100000
00000000
00001000
00000000
00010000
00000000
00000100
00000000
00001000
00000000
00000000
00000000
,
00000010
00000100
00000100
00001000
00000100
00000100
00000001
00000100
,
00000100
00000000
00000010
00001000
00000010
00000000
00010000
00000000
00001000
00000000
01000000
00000000
00010000
00000000
00000000
00000000
,
00100000
00000000
00010000
00000000
01000000
00000000
10000000
00000000
01000000
00000000
00010000
00000000
00100000
00000000
00000000
00001000
,
00020000
00000000
00030010
00001000
00000001
00000100
00000010
00000000
,
00001000
00000000
00000001
00001000
00000001
00001000
00000001
00001000
00000001
00000000
00000020
00000000
00000000
00000000
00000000
00000000
,
00001030
00000000
00010000
00001000
00010000
00001000
00010000
00001000
00010000
00000000
00200000
00000000
00000000
00000000
00000000
00000000
,
10300000
00000000
00010000
10000000
00010000
10000000
00010000
10000000
00010000
00000000
00200000
00000000
00000000
00000000
00000000
00000000
,
00301000
00000000
00010000
00001000
00010000
00001000
00010000
00001000
00010000
00000000
00000020
00000000
00000000
00000000
00000000
00000000
,
00002030
00000000
00003100
00000100
00000100
00010000
00001000
00100000
,
00020000
00000000
01030000
01000000
01000000
10000000
00010000
00100000
,
10000000
00010000
00100000
01000000
00010000
00001000
00000010
00000100
,
00010000
00000000
00001000
00000000
00000010
00000000
00000001
00000000
00000200
00000300
00000000
00000000
00001000
00000000
00010000
00001000
,
00010000
00001000
01000000
00000000
00010000
00000000
00100000
00010000
00100000
00010000
10000000
00000000
01000000
00000000
00100000
01000000
,
00100000
01000000
00010000
00000000
00001000
00000000
00000000
00000000
00100000
00000000
00010000
00000000
00100000
00000000
00001000
00010000
,
00001000
00010000
00000010
00000000
00001000
00000000
00000100
00001000
00000100
00000000
00000010
00000000
00000002
00000000
00000203
00000000
,
00000320
00000000
00002030
00000000
00003200
00000000
00000320
00000000
00002030
00000000
00023000
00000000
01030000
00000000
00100000
01000000
,
00100000
01000000
10000000
00000000
00010000
00000000
00100000
00010000
00100000
00010000
10000000
00000000
00100000
00000000
01000000
00010000
,
01000000
00010000
00100000
00000000
00001000
00000000
00010000
00001000
00010000
00000000
00010000
00000000
00000100
00000000
00001000
00000001
,
00001000
00000001
00000010
00000000
00000100
00000000
00000000
00000000
00000110
00000000
00000000
00000000
00010000
00001000
00010000
00001000
,
00010000
00001000
00010000
00001000
00010000
00000000
00000000
00000000
00000010
00000000
00000000
00000000
00021000
00000000
00000000
00000000
,
00030100
00000000
00000000
00000000
00012000
00000000
00000000
00000000
01003000
00000000
00000000
00000000
00010000
00000000
10000000
00010000
,
10000000
00010000
10000000
00000000
00200000
00000000
00000000
00000000
10300000
00000000
01000000
00000000
00100000
00000000
00010000
00100000
,
00010000
00100000
00001000
00000000
00010000
00000000
00001000
00010000
00001000
00000000
01000000
00010000
20000000
00000000
32000000
00000000
,
03200000
00000000
00320000
00000000
02030000
00000000
03200000
00000000
00320000
00000000
00032000
00000000
00013000
00000000
00001000
00010000
,
00000100
00000000
00001000
00000100
00001000
00000000
00000100
00000010
00000001
00000000
00001000
00000001
00000100
00000000
00000010
00000100
,
00000010
00000000
00001000
00000010
00010000
00000000
00001000
00010000
00001000
00000000
00010000
00000000
00001000
00010000
00001000
00100000
,
00010000
00000000
01000000
00000000
00100000
10000000
00100000
00000000
10000000
00010000
10000000
00000000
01000000
00100000
01000000
00100000
,
01000000
00100000
01000000
00100000
01000000
00000000
00000000
00000000
00010000
00001000
00010000
00001000
00010000
00001000
00010000
00001000
,
00010000
00000000
00000000
00000000
00000100
00001000
00000100
00000000
00000010
00000001
00000010
00000000
00000100
00000010
00000100
00000010
,
00000100
00000010
00000100
00000010
00000100
00000000
00000000
00000000
00010000
00001000
00010000
00001000
00010000
00001000
00010000
00001000
,
00010000
00000000
00000000
00000000
00100000
01000000
00100000
00000000
10000000
00010000
10000000
00000000
02000000
00000000
00000000
03000000
,
00020000
00000000
00000000
00000000
00000000
00000000
00000000
00000000
00000000
00030000
00000000
00000000
00002000
00000000
00000000
00000000
00000000
00000000
00000000
00000000
00000000
00003000
00000000
00000000
00000020
00000000
00000000
00000000
00000000
00000000
00000000
00000000
00000000
00000030
00000000
00000000
00000001
00000000
00000000
00000000
00000100
00000000
00000000
00000000
00001000
00000000
00000000
00000000
,
00010000
00001000
00000100
00000001
00000100
00001000
00010000
00001000
00000100
00001000
00010000
00100000
,
10000000
00100000
00010000
00001000
01000000
00010000
00100000
00010000
01000000
00002000
00000000
00000000
,
00013000
00000000
00000100
00020000
00000000
00000000
00031000
00000000
01000000
00002000
00000000
00000000
,
00013000
00000000
00000010
00020000
00000000
00000000
00031000
00000000
00100000
00001000
00000000
00010000
,
00011000
00000000
00000100
00001000
00000000
00000010
00000110
00000000
00001000
00000001
00000010
00000100
,
00001000
00000100
00000010
00000100
00010000
00001000
00100000
00001000
00010000
01000000
00000000
00000000
;
