#VERSION:0.83;
#TITLE:1116;
#SUBTITLE:;
#ARTIST:BEMANI Sound Team "Dustup";
#TITLETRANSLIT:;
#SUBTITLETRANSLIT:;
#ARTISTTRANSLIT:Dustup;
#GENRE:BREAKBEATS;
#CREDIT:;
#MUSIC:1116.ogg;
#BANNER:1116.png;
#BACKGROUND:1116-bg.png;
#CDTITLE:./CDTitles/jubeat festo.png;
#SAMPLESTART:66.123;
#SAMPLELENGTH:15.000;
#SELECTABLE:YES;
#OFFSET:0.153;
#BPMS:0.000=190.000
,68.000=23.750
,69.000=190.000
;
#STOPS:68.000=2.526;
#TIMESIGNATURES:68.000=1=4,
69.000=4=4
;
#DISPLAYBPM:190.000;
#BGCHANGES:0.000=1116.mp4=1.000=0=0=0=StretchNoLoop====,
99999.000=-nosongbg-=1.000=0=0=0=StretchNoLoop====
;
#FGCHANGES:;

//--------------- dance-single - forcednature ----------------
#NOTEDATA:;
#STEPSTYPE:dance-single;
#DESCRIPTION:forcednature;
#DIFFICULTY:Beginner;
#METER:6;
#RADARVALUES:0,0,0,0,0;
#CREDIT:forcednature;
#NOTES:
0000
0000
0000
0000
,
0000
0000
0000
0000
,
0000
0000
0000
0000
,
0000
0000
0000
0000
,
0000
0000
0000
0000
,
1000
0000
0000
0000
,
0001
0000
0000
0000
,
1000
0000
0000
0000
,
1001
0000
0000
0000
,
0001
0000
0100
0000
,
0001
0000
0000
0000
,
0010
0000
0001
0000
,
0010
0000
0000
0000
,
0100
0000
1000
0000
,
0100
0000
1000
0000
,
0010
0010
0010
0000
,
0220
0000
0330
0000
,
1001
1000
0000
0100
,
0000
1000
0000
0000
,
0000
0001
0000
0100
,
0000
0001
0000
0000
,
0000
1000
0000
0010
,
0000
1000
0000
0000
,
0000
0001
0000
0010
,
0000
0001
0000
0000
,
0000
0100
0000
0001
,
0000
0100
0000
0100
,
0000
0001
0000
0010
,
0000
0001
0000
0001
,
0000
1000
0000
0010
,
0000
1000
0000
1000
,
0000
0100
0000
1000
,
0000
0100
0000
0100
,
0000
2002
0000
0000
,
0000
0000
0000
0000
,
0000
0000
0000
0000
,
0000
0000
0000
3003
,
0000
0001
0000
0000
,
0000
0100
0000
0000
,
0000
0010
0000
0000
,
0000
1000
0000
0000
,
0000
1001
0000
0001
,
0000
0001
0000
0000
,
0000
1000
0000
1000
,
0000
1000
0000
0000
,
0000
0010
0000
0010
,
0000
0100
0000
0100
,
0000
0001
0001
1000
,
1000
0001
1000
0000
,
0000
0010
0010
0010
,
0000
0100
0000
0010
,
0000
1000
0001
1000
,
0000
0001
1000
0001
,
0000
0010
0010
0010
,
0000
0100
0010
0100
,
0000
1000
0001
1000
,
0000
0001
1000
0001
,
1000
0000
0001
0100
,
0001
0000
0100
0010
,
0100
0010
0000
1000
,
0010
1000
0100
1000
,
0000
0001
0010
0001
,
0000
0100
0001
0100
,
0000
0010
1000
0001
,
0100
0010
0010
0010
,
0000
1001
0000
1000
,
0001
1000
0001
1000
,
0000
0110
0000
0010
,
0100
0010
0100
0010
,
0000
1001
0000
0001
,
1000
0001
1000
0001
,
0000
0010
0010
0100
,
0100
0010
0100
0010
,
0000
1001
0000
0100
,
0000
1001
0000
0010
,
0000
1001
0000
0100
,
0000
0110
0000
0010
,
0000
1001
0000
0100
,
0000
1001
0000
0010
,
0000
1001
0000
0100
,
0000
0110
0000
0000
,
0000
2002
3003
0000
;

//--------------- dance-single - forcednature ----------------
#NOTEDATA:;
#STEPSTYPE:dance-single;
#DESCRIPTION:forcednature;
#DIFFICULTY:Easy;
#METER:10;
#RADARVALUES:0,0,0,0,0;
#CREDIT:forcednature;
#NOTES:
0000
0000
0000
0000
,
0000
0000
0000
0000
,
0000
0000
0000
0000
,
0000
0000
0000
0000
,
0000
0000
0000
0000
,
1000
0100
1000
1000
,
0001
0100
0001
0001
,
0010
0100
0010
0010
,
0001
1000
0001
0001
,
0101
1000
0010
1000
,
0001
0010
0001
1000
,
1100
0001
0010
0001
,
1000
0010
1000
0001
,
0100
0001
0100
0000
0001
0000
0010
0000
,
0100
1000
0100
0000
1000
0000
0010
0000
,
0100
0010
0100
0000
0010
0100
0010
0000
,
0220
0000
0330
0000
,
1001
1001
0000
1000
,
0100
0000
1000
0000
0001
0000
0010
0001
,
0010
0001
0000
0100
,
0001
0000
1000
0000
0010
0000
1000
0010
,
1000
1001
0000
0001
,
0100
0000
0001
0000
0010
0000
0100
0010
,
0100
1000
0000
0010
,
1000
0000
0001
0010
0001
0000
0010
0100
,
0010
0100
1000
0010
,
0100
0000
0001
0010
0001
0000
1000
0010
,
1000
0100
0010
0001
,
1000
0000
0010
0100
0010
0000
0100
0001
,
0100
0010
1000
0001
,
0010
0000
0100
1000
0100
0000
1000
0010
,
1000
0001
0010
0001
,
1000
0000
0010
0100
0010
0000
0100
0001
,
0100
2010
0000
0000
,
0000
3200
0000
0000
,
0000
0320
0000
0000
,
0000
0032
0000
0000
,
0000
0203
0001
0000
,
0301
2000
0010
0000
,
3010
2000
0100
0000
,
3100
0020
0001
0000
,
0031
1001
1000
0100
,
1000
0010
1000
0100
,
1000
0001
0010
0001
,
0100
0001
0010
0001
,
0100
0010
0010
1000
,
1000
0001
0001
0100
,
0100
0000
0001
1000
0001
0000
1000
0001
,
1000
0100
0220
0330
,
0000
0000
1000
0001
1000
0001
1000
0000
,
0001
0100
0001
0000
1000
0100
1000
0000
,
0010
0000
0100
0001
0100
0000
0010
0000
,
1000
0100
1000
0000
0010
0000
0100
0010
,
0100
0000
0001
0010
0001
0010
0001
0000
,
1000
0010
1000
0000
0001
0100
0001
0000
,
1000
1100
0001
0101
,
0010
0000
0220
0000
0330
0000
0001
1000
,
2002
0000
3003
0000
0001
0100
0010
0000
,
1000
0100
0010
0000
0001
0100
0001
0000
,
2000
3100
0011
0100
,
0011
0000
0001
0000
1010
0000
0001
1000
,
0001
1000
0000
0000
0010
0100
0010
0000
,
1000
0001
1000
0000
1100
0000
0011
0000
,
0002
0000
0103
0010
0000
1000
0010
1000
,
0000
0000
0000
0001
0000
0000
0010
0000
0000
0000
0010
0000
0000
0000
0010
0000
0000
0000
0100
0000
0000
0000
0100
0000
,
0000
0100
0000
2002
0000
0000
3003
0000
0000
1000
0000
0000
,
1000
0100
0100
1000
,
1000
2002
3003
0001
,
0001
0100
0100
0001
,
0001
0000
0000
1000
0000
0100
0000
1000
0000
0001
0000
0100
,
0000
0000
0001
0000
0000
0000
0010
0000
0000
0000
0010
0000
0000
0000
0010
0000
0000
0000
0100
0000
0000
0010
0000
0000
,
0100
0000
1001
0000
1000
0100
1000
0001
,
0010
0000
0001
0100
0001
1000
0010
0000
,
0100
0000
1001
0000
1000
0100
1000
0000
,
0010
0000
1001
0000
0001
0100
0001
0000
,
0010
0000
1001
0000
1000
0010
1000
0000
,
0100
0000
0110
0000
0001
0010
0001
0000
,
0100
0000
1001
0000
1000
0100
1000
0000
,
0010
0000
1001
0000
0001
0100
0001
0000
,
0010
0000
1001
0000
0010
0100
0010
0000
,
0100
0110
2002
0000
,
3003
0220
0330
0000
;

//--------------- dance-single - forcednature ----------------
#NOTEDATA:;
#STEPSTYPE:dance-single;
#DESCRIPTION:forcednature;
#DIFFICULTY:Medium;
#METER:14;
#RADARVALUES:0,0,0,0,0;
#CREDIT:forcednature;
#NOTES:
0000
0000
0000
0000
,
0000
0000
0000
0000
,
0000
0000
0000
0000
,
0000
0000
0000
0000
,
0000
0000
0000
0000
,
1100
0001
0010
0001
,
0101
1000
0010
1000
,
1100
0001
0010
0001
,
0101
1000
0010
1000
,
0011
0000
0010
0100
1000
0000
0100
0010
,
0011
0000
0000
0001
0000
0000
1000
0000
0000
0001
0000
0000
0100
0000
0000
0000
,
1010
0000
0010
0100
0001
0000
0100
0010
,
1010
0000
0000
1000
0000
0000
0001
0000
0000
1000
0000
0000
0100
0000
0000
0000
,
0010
0001
0010
0001
1000
0100
1000
0000
,
0010
1000
0010
1000
0001
0100
0001
0000
,
0010
0100
1000
0001
1000
0100
0010
0001
,
0200
0000
0020
0330
,
1001
0000
1000
0100
1000
0000
0011
0000
,
0001
0000
1000
0010
0100
0001
0100
0010
,
1000
0000
0001
0010
0001
0000
1100
0000
,
1000
0000
0010
0100
0001
1000
0100
0010
,
0001
0000
1000
0010
1000
0000
0101
0000
,
0001
0000
0010
0100
1000
0010
0100
0001
,
0010
0000
0001
0100
0001
0000
1010
0000
,
0001
0000
1000
0100
1000
0010
0100
0010
,
1000
0000
0001
0010
0100
0010
0001
1000
,
0100
1000
0001
0100
1000
0100
0001
1000
,
0010
0000
1000
0100
1000
0001
0010
0001
,
1000
0010
1000
0100
0001
0100
1000
0001
,
0010
0000
0001
0100
0001
1000
0010
1000
,
0001
0100
1000
0100
0001
1000
0010
1000
,
0001
0000
0010
0100
1000
0010
0100
0001
,
0010
0100
1000
0010
0001
0010
0100
0001
,
1000
2002
0000
0003
,
0000
0200
0000
3000
,
0000
0020
0000
0300
,
0000
0002
0000
0030
,
0000
2003
0100
0001
,
0100
3002
0010
1000
,
0010
2003
0010
0001
,
0010
3002
0100
1000
,
0103
0000
0011
0000
0010
0100
1000
0000
,
1000
0010
0100
0000
0100
0001
0010
0000
,
0100
0000
0010
0000
0010
0001
0100
0000
,
0100
0010
1000
0000
1000
0001
0010
0000
,
0100
0000
1000
0010
1000
0001
0100
0001
,
1000
0000
0001
0010
0001
1000
0100
1000
,
0001
0000
0100
0010
1000
0001
0010
0100
,
1000
0001
0100
0000
0220
0000
0330
0000
,
0000
0000
0001
1000
0010
1000
0001
0000
,
0010
0000
0001
0010
0001
0000
0000
0000
1000
0000
0100
0000
0001
0000
0000
0000
,
0100
1000
0100
1000
0001
0010
0001
0000
0000
0011
0000
0000
,
0001
0000
0100
0000
0001
0000
1000
0000
0000
0000
0000
0000
1010
0000
0000
0000
0000
0000
0010
0000
0000
0010
0000
0000
,
0010
0000
0000
0000
0000
0000
0000
0000
0000
0010
0000
0000
0100
0000
0000
0000
0001
0000
0000
0000
0100
0000
0000
0000
0010
0000
0000
0000
0000
0000
1000
0000
0000
0000
0000
0000
1010
0000
0000
0000
0000
0000
0000
0000
0000
0000
0000
0000
,
0001
0000
0010
0001
0010
0000
0000
0000
0100
0000
1000
0000
1100
0000
0000
0000
,
0001
0100
0001
1000
0000
0000
1010
0000
0000
0011
0000
0000
,
0101
0000
1000
0100
0001
0100
1000
0001
,
0022
0033
0101
0011
,
0010
0100
1000
0100
0000
0000
1100
0000
0000
1010
0000
0000
,
0001
1000
0001
1000
0001
0000
0100
0000
0010
0000
0100
0000
0001
0000
0010
0000
,
0001
0000
1000
0100
1000
0010
0100
0100
,
0100
0000
0010
0000
0000
0000
0000
0000
1001
0000
0000
1000
0100
0000
0000
0000
,
0010
0001
0010
0000
0011
0000
1001
0000
,
0100
0000
0110
0000
0001
1000
0010
1000
,
0001
0000
0000
0010
0000
0000
0100
0000
0000
0000
0010
0000
0000
0000
0110
0000
0000
0000
0001
0000
0000
0000
1000
0000
,
0000
0000
0000
0000
1001
0000
0000
0000
0000
0000
0000
0000
0110
0000
0000
0000
0000
0000
0000
0000
0000
0000
0000
0000
1000
0000
0000
0000
0000
0000
0000
0000
0100
0000
0000
0000
0000
0000
0000
1000
0000
0000
0000
0000
0000
0000
0000
0000
,
0100
0000
1000
0100
1000
0000
0100
0000
1000
0000
0100
0000
0000
1000
0000
0000
,
0100
0000
0000
0000
0000
0000
1000
0000
0000
0000
0000
0000
1001
0000
0000
0000
0000
0000
0000
0000
0000
0000
0000
0000
0001
0000
0000
0000
0000
0000
0000
0000
0100
0000
0000
0000
0000
0000
0000
0001
0000
0000
0000
0000
0000
0000
0000
0000
,
0100
0000
0001
0100
0001
0000
0100
0000
0001
0000
0100
0000
0000
0001
0000
0000
,
0100
0000
0000
0001
0000
0000
1001
0000
0000
0000
0010
0000
0000
0000
0110
0000
0000
0000
0100
0000
0000
0000
0110
0000
,
0000
0000
0010
0000
0000
0000
1001
0000
0000
0000
1000
0000
0000
0000
0110
0000
0000
0000
0001
0000
0000
0100
0000
0000
,
0001
1000
0010
0100
0100
0001
0100
0100
,
0010
0000
1000
0000
0001
0000
0000
0001
0010
0000
0000
0010
0100
0000
1000
0000
,
0100
1000
0100
0000
0110
0000
0000
0000
0010
0000
0001
0000
1000
0000
0001
0000
,
0100
0000
0110
0000
0010
1000
0001
1000
,
0100
0000
0110
0000
0010
0001
1000
0001
,
0100
0000
1001
0000
1000
0010
0100
0001
,
1000
0000
1100
0000
0001
0010
0001
1000
,
0010
0000
0101
0000
1000
0010
1000
0001
,
0010
0000
0000
0000
1100
0000
0000
1000
0001
0000
0001
0000
0100
0000
0100
0000
,
0010
1000
0010
0000
1000
0000
0000
0000
0220
0000
0000
0000
0000
0000
0000
0000
,
0330
2002
3003
0000
;

//--------------- dance-single - forcednature ----------------
#NOTEDATA:;
#STEPSTYPE:dance-single;
#DESCRIPTION:forcednature;
#DIFFICULTY:Hard;
#METER:17;
#RADARVALUES:0,0,0,0,0;
#CREDIT:forcednature;
#NOTES:
0000
0000
0000
0000
,
0000
0000
0000
0000
,
0000
0000
0000
0000
,
0000
0000
0000
0000
,
0000
0000
0000
0000
,
1200
1300
0010
1000
,
0201
0301
0010
0001
,
1020
1030
0100
1000
,
0021
0031
0100
0001
,
1100
0000
0000
1000
0010
0000
1000
0000
0100
1000
0000
0010
1000
0000
1000
0000
,
0001
0000
0000
0001
0100
0000
0001
0000
0010
0001
0000
0000
0100
0000
0001
1000
,
0001
0000
0000
0001
0010
0000
0001
0000
0100
0001
0000
0010
0001
0000
0001
0000
,
1000
0000
0000
1000
0100
0000
1000
0000
0010
1000
0000
0000
0100
0000
1000
0001
,
1000
0010
0110
0100
0001
0010
0110
0100
,
1000
0001
0011
0010
0001
1000
1010
0010
,
1000
0001
0100
0001
1000
0010
0100
0010
1000
0001
0010
0100
1000
0100
0010
0001
,
2000
0010
0002
3003
,
0110
0000
0000
0000
1000
0000
0100
0010
0100
0000
0010
0001
0000
0100
0001
0000
,
1000
0000
0000
0000
0001
0100
0000
0010
0100
0000
0001
0010
0000
0100
1000
0000
,
0001
0000
0000
0000
0010
0000
0100
1000
0100
0000
0010
0001
0000
1000
0001
0000
,
0100
0000
0000
0000
0010
1000
0000
0010
0100
0000
0001
0010
0001
0000
1000
0010
,
2000
0000
0000
0000
3001
0000
0100
0010
0100
0000
0010
1000
0000
0100
1000
0000
,
0001
0000
0000
0000
1000
0100
0000
0010
0100
0000
1000
0010
0000
0100
0001
0000
,
1000
0000
0000
0000
0010
0000
0100
0001
0100
0000
0010
1000
0000
0001
1000
0000
,
0100
0000
0000
0000
0010
0001
0000
0010
0100
0000
1000
0010
1000
0000
0001
0010
,
0001
0000
0001
0000
1000
0000
0010
0100
0001
0000
0010
0000
0001
0000
0010
0100
,
1000
0010
2000
3200
0302
2003
3002
0203
,
2300
0000
3002
0000
0013
0000
0100
1000
0001
0000
0100
0000
0010
0000
0100
0001
,
1000
0000
0100
0000
0010
0001
0010
0001
1000
0100
1000
0100
0020
0000
0032
0000
,
0203
0000
2300
0000
3100
0000
0001
1000
0010
0000
1000
0000
0100
0000
1000
0001
,
0010
0001
2000
3020
0032
2003
3002
0023
,
2030
0000
3002
0000
0013
0000
0100
1000
0001
0000
0100
0000
0010
0000
0100
0001
,
1000
0000
0100
0000
1000
0010
1000
0010
0100
0001
0100
0001
1000
0000
0100
0010
,
0100
0000
0010
0001
2000
0000
0000
0000
0000
0000
0000
0000
0000
0000
0000
0000
,
0000
3020
0000
0000
,
0000
0230
0000
0000
,
0000
0302
0000
2003
,
0000
0000
3002
0000
0100
0100
0100
0000
,
1003
0001
0020
0000
0100
0100
0100
0000
,
0031
1000
0020
0000
0100
0100
0100
0000
,
1030
0000
0001
0000
0100
0010
0100
0010
1000
0001
1000
0001
0010
0000
0100
0000
,
1000
0102
1000
0010
,
1003
2100
0001
0010
,
3001
0012
1000
0100
,
1003
2010
0001
0100
,
3001
0000
1000
0100
1000
1000
0001
0100
,
0001
0001
0010
0100
0010
0010
0001
1000
,
0010
0000
0100
0000
0001
1000
0100
1000
0001
0010
0100
0010
0001
1000
0010
0100
,
0001
0100
0010
1000
0001
0000
0000
0000
2002
0000
0000
0000
3003
0000
0000
0000
,
0000
0000
0000
0000
0001
0000
0010
0100
1000
0000
0010
0100
0002
0000
0000
0000
,
1003
0100
0010
0001
2000
0000
0000
0000
3010
0000
0100
0001
0200
0000
0000
0000
,
0310
1000
0001
0010
0001
1000
1010
0000
0000
0110
0000
0000
,
0100
0000
0000
0000
0001
0000
0000
0000
0010
0000
0000
0000
0100
0000
0000
0000
0000
0000
1000
0000
0000
0100
0000
0000
1000
0000
0000
0000
0000
0000
0010
0000
0000
1000
0000
0000
0010
0000
0000
0000
0000
0000
0100
0000
0000
0000
0000
0000
,
0201
0000
0000
0000
0000
0000
0000
0000
0000
0301
0000
0000
0010
0000
0000
0000
0001
0000
0000
0000
0100
0000
0000
0000
0010
0000
0000
0000
0000
0000
1010
0000
0000
0000
0000
0000
2001
0000
0000
0000
0000
0000
0000
0000
0000
0000
0000
0000
,
3010
1000
0001
1000
0100
0000
0010
0000
0100
0010
0001
0000
0021
0000
0000
0000
,
0130
0000
0000
0000
1000
0000
0000
0000
0010
0000
0000
0000
1010
0000
0000
0000
0000
0000
0000
0000
0000
1000
0000
0000
0100
0000
0000
0000
0000
0000
0010
0000
0000
0100
0000
0000
0010
0000
0000
0000
0000
0000
0001
0000
0000
0010
0000
0000
,
0001
0000
1000
0000
0001
0100
0010
0100
0001
1000
0010
1000
0001
0010
0100
1000
,
0020
0000
0000
0000
1030
0000
0001
0100
1000
0000
0100
0000
0101
0000
0000
0001
,
0010
0000
0000
0000
0100
0000
0000
0000
1000
0000
0000
0000
1100
0000
0000
0000
0000
0000
0100
0000
0000
0010
0000
0000
0001
0000
0000
0000
0000
0000
0010
0000
0000
0001
0000
0000
2000
0000
0000
0000
0000
0000
0000
0000
0000
0000
0000
0000
,
3010
0100
0010
0100
0001
0000
0010
0000
0110
0000
0100
1000
0010
0000
1000
0100
,
0010
0000
0100
1000
0010
0000
0100
0000
0001
0000
0010
0001
0100
0000
0100
0001
,
1000
0000
0000
0000
0000
0000
1000
0000
0000
0100
0000
0000
0002
0000
0000
0000
0000
0000
0000
0000
0000
0000
0000
0000
0103
0000
0000
0000
1000
0000
0000
0000
0010
0000
0000
0000
2010
0000
0000
0000
0000
0000
0000
0000
0000
0000
0000
0000
,
3001
0000
0010
0100
1000
0000
0100
1000
0001
0000
0100
0001
0020
0000
0000
0000
,
2030
0000
0000
0000
3010
0001
0010
0000
0100
0000
1000
0000
0010
1000
0010
0100
,
0001
0000
0000
1000
0000
0000
1100
0000
0000
0000
0101
0000
0000
0000
0011
0000
0000
0000
0101
0000
0000
0000
1100
0000
,
0000
0000
0000
0000
1010
0000
0000
0000
0000
0000
0000
0000
0022
0000
0000
0000
0000
0000
0033
0000
0000
0000
0000
0000
0101
0000
0000
0000
0000
0000
0000
0000
0011
0000
0000
0000
0000
0000
0000
0101
0000
0000
0000
0000
0000
0000
0000
0000
,
0011
0000
0010
0100
1000
0000
0010
0000
1010
0000
1000
0000
0000
1100
0000
0000
,
0100
0000
0000
0000
0000
0000
0110
0000
0000
0000
0000
0000
2002
0000
0000
0000
0000
0000
3003
0000
0000
0000
0000
0000
1100
0000
0000
0000
0000
0000
0000
0000
1010
0000
0000
0000
0000
0000
0000
1100
0000
0000
0000
0000
0000
0000
0000
0000
,
1010
0000
0010
0100
0001
0000
0010
0000
0011
0000
0001
0000
0000
0101
0000
0000
,
0100
0000
0000
0110
0000
0000
0002
0000
0003
0000
1010
0000
0000
0000
1100
0000
0000
0000
0101
0000
0000
0000
0011
0000
,
0000
0000
0110
0000
0000
0000
1100
0000
0000
0000
1010
0000
0000
0000
0110
0000
0000
0000
0101
0000
0000
0101
0000
0000
,
0001
0000
0011
0000
0100
0000
1001
0000
1000
0010
0100
0000
0100
0000
0001
0010
,
0100
0000
0010
0001
0100
0000
0010
1000
0100
0000
1000
0010
0100
0001
1000
0001
,
0100
0001
1000
0001
0020
0000
0030
0001
0100
0000
0010
0000
0100
0001
0000
0100
,
0010
0000
1000
0000
0200
0000
0300
0010
0100
0000
1000
0000
0100
0010
0000
0100
,
1000
0000
0100
0010
0002
0000
0003
0100
0001
0000
0010
0000
0001
0100
0000
0001
,
0010
0000
0100
0000
2000
0000
3000
0010
0100
0000
0001
0000
0010
0100
0000
0000
,
1000
0000
0001
1000
0002
0000
0003
0100
1000
0000
0100
0000
0001
1000
0000
0010
,
1000
0000
0001
0000
2000
0000
3000
0100
0001
0000
0100
0000
1000
0001
0000
0010
,
0001
0000
1000
0100
0020
0000
0031
0100
0010
0100
0001
1000
0010
1000
0001
0010
,
0100
1000
0100
0010
0002
0000
0000
0000
0203
0000
0000
0000
0000
0000
0000
0000
,
0300
2002
3003
0000
;

//--------------- dance-double - forcednature ----------------
#NOTEDATA:;
#STEPSTYPE:dance-double;
#DESCRIPTION:forcednature;
#DIFFICULTY:Easy;
#METER:10;
#RADARVALUES:0,0,0,0,0;
#CREDIT:forcednature;
#NOTES:
00000000
00000000
00000000
00000000
,
00000000
00000000
00000000
00000000
,
00000000
00000000
00000000
00000000
,
00000000
00000000
00000000
00000000
,
00000000
00000000
00000000
00000000
,
00010000
00001000
01000000
00010000
,
00100000
00010000
01000000
01000000
,
00001000
00010000
00000100
00001000
,
00000010
00001000
00000100
00000100
,
00010000
00001000
00100000
00001000
,
00010000
00100000
01000000
00100000
,
10000000
01000000
00010000
00001000
,
00000100
00000001
00000010
00000001
,
00000100
00000001
00000100
00000000
00001000
00000000
00010000
00000000
,
01000000
10000000
01000000
00000000
00010000
00000000
00001000
00000000
,
00000010
00000001
00000010
00000000
00001000
00000000
00010000
00000000
,
00022000
00000000
00033000
00000000
,
01100000
10010000
00000000
10000000
,
01000000
00000000
00010000
00000000
00001000
00000000
00100000
00010000
,
00100000
00001000
00000000
00010000
,
00000010
00000000
00001000
00000000
00000010
00000000
00000100
00000001
,
00000100
00001001
00000000
00000001
,
00000010
00000000
00000100
00000000
00000010
00000000
00000100
00001000
,
00000100
00010000
00000000
00001000
,
01000000
00000000
00010000
10000000
00010000
00000000
00100000
00010000
,
00100000
01000000
10000000
01000000
,
00010000
00000000
00001000
00010000
00001000
00000000
00100000
00010000
,
00100000
00001000
00010000
00000010
,
00001000
00000000
00000001
00000010
00000001
00000000
00000010
00000100
,
00000010
00000100
00010000
00001000
,
01000000
00000000
00010000
10000000
00010000
00000000
10000000
00100000
,
10000000
01000000
00100000
00010000
,
00100000
00000000
00001000
00010000
00001000
00000000
00010000
00000100
,
00010000
00002000
00000000
00000000
,
00000000
00003020
00000000
00000000
,
00000000
00000032
00000000
00000000
,
00000000
00000203
00000000
00000000
,
00000000
00002300
00010000
00000000
,
00013000
02000000
00010000
00000000
,
03010000
00002000
00010000
00000000
,
00013000
00200000
00010000
00000000
,
00310000
10010000
10000000
01000000
,
00010000
00001000
00000100
00000001
,
00000010
00000001
00000100
00001000
,
00010000
01000000
10000000
00100000
,
10000000
01000000
01000000
00010000
,
00010000
00001000
00001000
00000010
,
00000010
00000000
00000001
00001000
00000001
00000000
00001000
00000001
,
00001000
00000100
00022000
00033000
,
00000000
00000000
01000000
00010000
01000000
00010000
10000000
00000000
,
00100000
10000000
00010000
00000000
00100000
00001000
00010000
00000000
,
00000010
00000000
00001000
00000100
00001000
00000000
00000001
00000000
,
00000100
00000010
00001000
00000000
00000100
00000000
00010000
00001000
,
00010000
00000000
00001000
00100000
00001000
00100000
00010000
00000000
,
10000000
00100000
10000000
00000000
00010000
01000000
00010000
00000000
,
00100000
00011000
00000010
00011000
,
01000000
00000000
02200000
00000000
03300000
00000000
10000000
01000000
,
00020000
00000000
00030000
00000000
00001000
00010000
00000100
00000000
,
00001000
00000010
00010000
00000000
00001000
00010000
00000100
00000000
,
00000020
00000031
00000110
00001000
,
00011000
00000000
00010000
00000000
01100000
00000000
00010000
10000000
,
00010000
10000000
00000000
00000000
01000000
00010000
00001000
00000000
,
00100000
00010000
00100000
00000000
00011000
00000000
00011000
00000000
,
00000200
00000000
00001300
00000001
00000000
00000100
00000001
00001000
,
00000000
00000000
00000000
00000100
00000000
00000000
00010000
00000000
00000000
00000000
00010000
00000000
00000000
00000000
00010000
00000000
00000000
00000000
00001000
00000000
00000000
00000000
00001000
00000000
,
00000000
00001000
00000000
00200000
00000000
00000000
00300000
00000000
00000000
00010000
00000000
00000000
,
00010000
01000000
01000000
00001000
,
00010000
00000020
00000030
00001000
,
00001000
00000100
00000100
00010000
,
00001000
00000000
00000000
00100000
00000000
00010000
00000000
00100000
00000000
00001000
00000000
00010000
,
00000000
00000000
00000010
00000000
00000000
00000000
00001000
00000000
00000000
00000000
00001000
00000000
00000000
00000000
00001000
00000000
00000000
00000000
00000001
00000000
00000000
00000100
00000000
00000000
,
00000001
00000000
00001000
00000000
00000100
00010000
00001000
00000000
,
00100000
00000000
00010000
01000000
00010000
00000000
10000000
00000000
,
00100000
10010000
10000000
01000000
,
00010000
00011000
00001000
00000100
,
00000001
00001001
00000001
00000100
,
00001000
00011000
00010000
01000000
,
10000000
10010000
10000000
00100000
,
00010000
00011000
00001000
00000010
,
00000001
00001001
00000001
00000010
,
00001000
00011000
00022000
00000000
,
00033000
02000000
03000000
00000000
;

//--------------- dance-double - forcednature ----------------
#NOTEDATA:;
#STEPSTYPE:dance-double;
#DESCRIPTION:forcednature;
#DIFFICULTY:Medium;
#METER:14;
#RADARVALUES:0,0,0,0,0;
#CREDIT:forcednature;
#NOTES:
00000000
00000000
00000000
00000000
,
00000000
00000000
00000000
00000000
,
00000000
00000000
00000000
00000000
,
00000000
00000000
00000000
00000000
,
00000000
00000000
00000000
00000000
,
00011000
01000000
00010000
00100000
,
00011000
00000100
00001000
00000010
,
00011000
00100000
00010000
01000000
,
00011000
00000010
00001000
00000100
,
00011000
00000000
00010000
00100000
10000000
00000000
00100000
10000000
,
01000000
00000000
00000000
00010000
00000000
00000000
00001000
00000000
00000000
00100000
00000000
00000000
00001000
00000000
00000000
00000000
,
00011000
00000000
00001000
00000010
00000001
00000000
00000010
00000001
,
00000100
00000000
00000000
00001000
00000000
00000000
00010000
00000000
00000000
00000100
00000000
00000000
00010000
00000000
00000000
00000000
,
00001000
00000010
00000001
00000010
00000100
00010000
00001000
00000000
,
00010000
00100000
10000000
00100000
01000000
00001000
00010000
00000000
,
00000100
00001000
00000010
00010000
00001000
00100000
00010000
01000000
,
00002000
00000000
00020000
00033000
,
00011000
00000000
10000000
01000000
00010000
00000000
00011000
00000000
,
00001000
00000000
00000010
00000100
00010000
00001000
00000010
00000100
,
00001000
00000000
00000001
00000100
00001000
00000000
00011000
00000000
,
00010000
00000000
00100000
01000000
00001000
00010000
00100000
01000000
,
00001000
00000000
00010000
00100000
10000000
00000000
10010000
00000000
,
00010000
00000000
00100000
01000000
00010000
00001000
00000010
00000100
,
00010000
00000000
00001000
00000010
00000001
00000000
00001001
00000000
,
00001000
00000000
00000010
00000100
00001000
00010000
00100000
10000000
,
00010000
00000000
00100000
01000000
00010000
00001000
00100000
00001000
,
00010000
00000010
00000100
00001000
00000100
00000001
00001000
00000010
,
00010000
00000000
00001000
00100000
01000000
00010000
01000000
00100000
,
00001000
00010000
00000010
00000100
00001000
00000100
00000001
00001000
,
00000010
00000000
00010000
00001000
00100000
01000000
00100000
00001000
,
00010000
00100000
10000000
01000000
00010000
01000000
10000000
00100000
,
00010000
00000000
00001000
00000010
00000001
00000100
00001000
00000100
,
00000001
00000010
00001000
00010000
01000000
00100000
00001000
00010000
,
00100000
20020000
00000000
00030000
,
00000000
02000000
00000000
30000000
,
00000000
00020000
00000000
03000000
,
00000000
00000200
00000000
00030000
,
00000000
00002300
00000100
00000001
,
00000010
00023000
01000000
10000000
,
00100000
00032000
00000100
00000001
,
00000010
00023000
01000000
10000000
,
00130000
00000000
00011000
00000000
01000000
00010000
00100000
00000000
,
00001000
00010000
00000100
00000000
00001000
00000010
00010000
00000000
,
00001000
00000000
00000010
00000000
00000001
00000100
00001000
00000000
,
00010000
00001000
00000100
00000000
00001000
00010000
00100000
00000000
,
10000000
00000000
01000000
00010000
00001000
00100000
00001000
00010000
,
00000100
00000000
00001000
00000010
00010000
00001000
00000010
00000100
,
00001000
00000000
00000001
00000100
00000010
00001000
00010000
01000000
,
00100000
10000000
01000000
00000000
02200000
00000000
03300000
00000000
,
00000000
00000000
10000000
01000000
00010000
01000000
00010000
00000000
,
00001000
00000000
00010000
00001000
00010000
00000000
00000000
00000000
00001000
00000000
00000010
00000000
00000001
00000000
00000000
00000000
,
00000100
00000001
00001000
00000010
00001000
00000001
00000100
00000000
00000000
00011000
00000000
00000000
,
00010000
00000000
00001000
00000000
01000000
00000000
00010000
00000000
00000000
00000000
00000000
00000000
10010000
00000000
00000000
00000000
00000000
00000000
00100000
00000000
00000000
00100000
00000000
00000000
,
00100000
00000000
00000000
00000000
00000000
00000000
00000000
00000000
00000000
10000000
00000000
00000000
00010000
00000000
00000000
00000000
00100000
00000000
00000000
00000000
00010000
00000000
00000000
00000000
10000000
00000000
00000000
00000000
00000000
00000000
01000000
00000000
00000000
00000000
00000000
00000000
00010000
00000000
00000000
00000000
00000000
00000000
00000000
00000000
00000000
00000000
00000000
00000000
,
00001000
00000000
00010000
00001000
00010000
00000000
00000000
00000000
00001000
00000000
00000010
00000000
00000001
00000000
00000000
00000000
,
00001000
00000100
00010000
00001000
00000000
00000000
00100000
00000000
00000000
00011000
00000000
00000000
,
00000010
00000000
00000100
00001000
00010000
00001000
00010000
00100000
,
20000000
30000000
10010000
00100000
,
00001000
00010000
00000100
00010000
00000000
00000000
00011000
00000000
00000000
00000010
00000000
00000000
,
00001000
00000001
00001000
00000001
00001000
00000000
00000010
00000000
00000100
00000000
00001000
00000000
00000100
00000000
00000010
00000000
,
00001000
00000000
00000001
00000100
00001000
00010000
00100000
00100000
,
00100000
00000000
01000000
00000000
00000000
00000000
00000000
00000000
10010000
00000000
00000000
10000000
01000000
00000000
00000000
00000000
,
00010000
00001000
00100000
00000000
00101000
00000000
00010100
00000000
,
00000010
00000000
00002001
00000000
00003001
00000100
00001000
00010000
,
01000000
00000000
00000000
10000000
00000000
00000000
00100000
00000000
00000000
00000000
01000000
00000000
00000000
00000000
00100000
00000000
00000000
00000000
00010000
00000000
00000000
00000000
00001000
00000000
,
00000000
00000000
00000000
00000000
00011000
00000000
00000000
00000000
00000000
00000000
00000000
00000000
00000200
00000000
00000000
00000000
00000000
00000000
00000000
00000000
00000000
00000000
00000000
00000000
00001300
00000000
00000000
00000000
00000000
00000000
00000000
00000000
00000001
00000000
00000000
00000000
00000000
00000000
00000000
00000100
00000000
00000000
00000000
00000000
00000000
00000000
00000000
00000000
,
00001000
00000000
00010000
00001000
00010000
00000000
00001000
00000000
00010000
00000000
00010000
00000000
00000000
00100000
00000000
00000000
,
10000000
00000000
00000000
00000000
00000000
00000000
00010000
00000000
00000000
00000000
00000000
00000000
02000000
00000000
00000000
00000000
00000000
00000000
00000000
00000000
00000000
00000000
00000000
00000000
03010000
00000000
00000000
00000000
00000000
00000000
00000000
00000000
10000000
00000000
00000000
00000000
00000000
00000000
00000000
01000000
00000000
00000000
00000000
00000000
00000000
00000000
00000000
00000000
,
00010000
00000000
00001000
00010000
00001000
00000000
00010000
00000000
00001000
00000000
00001000
00000000
00000000
00000010
00000000
00000000
,
00000001
00000000
00000000
00001000
00000000
00000000
00000200
00000000
00000000
00000000
00010300
00000000
00000000
00000000
00011000
00000000
00000000
00000000
00001000
00000000
00000000
00000000
00011000
00000000
,
00000000
00000000
00100000
00000000
00000000
00000000
10010000
00000000
00000000
00000000
01000000
00000000
00000000
00000000
10010000
00000000
00000000
00000000
10000000
00000000
00000000
01000000
00000000
00000000
,
00010000
00001000
00100000
00001000
00010000
00000010
00010000
00001000
,
00000010
00000000
00000100
00000000
00001000
00000000
00000000
00001000
00000001
00000000
00000000
00000001
00000100
00000000
00001000
00000000
,
00010000
00001000
00011000
00000000
00100000
01000000
00010000
00001000
,
00100000
00000000
00011000
00000000
00000010
00000100
00001000
00010000
,
00000010
00000000
00011000
00000000
01000000
00001000
00010000
00100000
,
01000000
00000000
00011000
00000000
00000100
00010000
00001000
00000010
,
00000100
00000000
00001001
00000000
00000001
00000100
00001000
00010000
,
00100000
00000000
10010000
00000000
10000000
01000000
00010000
00001000
,
00000010
00000000
00000000
00000000
00001001
00000000
00000000
00000001
00000100
00000000
00001000
00000000
00000100
00000000
00000001
00000000
,
00001000
00000010
00001000
00000000
00000100
00000000
00000000
00000000
00022000
00000000
00000000
00000000
00000000
00000000
00000000
00000000
,
00033000
02200000
03300000
00000000
;

//--------------- dance-double - forcednature ----------------
#NOTEDATA:;
#STEPSTYPE:dance-double;
#DESCRIPTION:forcednature;
#DIFFICULTY:Hard;
#METER:17;
#RADARVALUES:0,0,0,0,0;
#CREDIT:forcednature;
#NOTES:
00000000
00000000
00000000
00000000
,
00000000
00000000
00000000
00000000
,
00000000
00000000
00000000
00000000
,
00000000
00000000
00000000
00000000
,
00000000
00000000
00000000
00000000
,
00012000
01003000
00010000
00100000
,
00021000
00030100
00001000
00000010
,
00012000
00103000
00010000
01000000
,
00021000
00030010
00001000
00000010
,
00011000
00000000
00000000
00001000
01000000
00000000
00010000
00000000
01000000
00001000
00000000
00010000
00001000
00000000
00100000
00000000
,
00001000
00000000
00000000
00010000
00000010
00000000
00001000
00000000
00000010
00010000
00000000
00000000
00000010
00000000
00001000
00000010
,
00010000
00000000
00000000
00010000
00000100
00000000
00001000
00000000
00000100
00010000
00000000
00001000
00010000
00000000
00000010
00000000
,
00010000
00000000
00000000
00001000
00100000
00000000
00010000
00000000
00100000
00001000
00000000
00000000
00100000
00000000
00010000
00100000
,
00001000
00010000
00000100
00000010
00001000
00010000
00000010
00000100
,
00000001
00000010
00001000
00010000
01000000
10000000
00100000
10000000
,
00010000
00100000
00001000
00010000
00001000
00100000
00010000
00100000
01000000
10000000
00010000
10000000
00100000
01000000
00010000
01000000
,
00002000
00010000
00200000
00303000
,
00011000
00000000
00000000
00000000
00001000
00000000
00010000
00001000
00010000
00000000
00000100
00001000
00000000
00000100
00000010
00000000
,
00000001
00000000
00000000
00000000
00000100
00000001
00000000
00000100
00000010
00000000
00001000
00000010
00000000
00010000
00001000
00000000
,
00100000
00000000
00000000
00000000
00010000
00000000
01000000
00010000
01000000
00000000
00100000
10000000
00000000
00010000
10000000
00000000
,
01000000
00000000
00000000
00000000
00100000
00010000
00000000
00100000
00001000
00000000
00010000
00001000
00010000
00000000
00000100
00001000
,
00000200
00000000
00000000
00000000
00000310
00000000
00000001
00001000
00000001
00000000
00000100
00000010
00000000
00001000
00000010
00000000
,
00010000
00000000
00000000
00000000
00001000
00100000
00000000
00010000
00100000
00000000
01000000
10000000
00000000
00100000
10000000
00000000
,
01000000
00000000
00000000
00000000
00010000
00000000
00001000
00010000
00001000
00000000
00010000
00000100
00000000
00001000
00000100
00000000
,
00000010
00000000
00000000
00000000
00000001
00000100
00000000
00000010
00000100
00000000
00000001
00001000
00000010
00000000
00001000
00000010
,
00010000
00000000
00010000
00000000
00001000
00000000
00100000
00010000
10000000
00000000
01000000
00000000
10000000
00000000
00100000
01000000
,
00010000
00100000
02000000
03020000
00032000
00003020
00000032
00000023
,
00002030
00000000
00023000
00000000
01030000
00000000
10000000
00010000
00100000
00000000
00001000
00000000
00010000
00000000
00000010
00001000
,
00000001
00000000
00000100
00000000
00001000
00010000
00001000
00010000
00000100
00001000
00000100
00000010
00000002
00000000
00000203
00000000
,
00002300
00000000
00023000
00000000
00031000
00000000
01000000
00010000
10000000
00000000
00100000
00000000
10000000
00000000
01000000
00100000
,
00010000
00100000
00002000
00023000
02030000
23000000
30200000
20300000
,
32000000
00000000
03020000
00000000
00031000
00000000
00100000
00001000
00010000
00000000
00000010
00000000
00001000
00000000
00000001
00000010
,
00000100
00000000
00001000
00000000
00000100
00010000
00001000
00010000
00001000
00100000
00010000
00100000
00001000
00000000
00010000
00001000
,
01000000
00000000
00010000
01000000
00002000
00000000
00000000
00000000
00000000
00000000
00000000
00000000
00000000
00000000
00000000
00000000
,
00000000
00023000
00000000
00000000
,
00000000
00030020
00000000
00000000
,
00000000
00002030
00000000
00003002
,
00000000
00000000
00000203
00000000
00001000
00001000
00001000
00000000
,
00001300
00000100
00000002
00000000
00000010
00000010
00000010
00000000
,
00000013
00000001
00002000
00000000
00000100
00000100
00000100
00000000
,
00003100
00000000
00010000
00000000
00001000
00010000
00001000
00100000
00010000
00100000
00001000
00010000
00001000
00000000
01000000
00000000
,
00010000
10020000
01000000
10000000
,
00100000
00032000
00000100
00000001
,
00000010
00023000
01000000
10000000
,
00100000
00032000
00000100
00000001
,
00000010
00000000
00013000
01000000
00010000
00100000
00001000
00010000
,
00000010
00001000
00000100
00010000
00001000
00000010
00000001
00000010
,
00000100
00000000
00001000
00000000
00000100
00010000
00001000
00100000
00010000
00100000
00001000
00010000
00001000
01000000
00010000
10000000
,
00100000
01000000
00100000
10000000
00010000
00000000
00000000
00000000
00022000
00000000
00000000
00000000
00033000
00000000
00000000
00000000
,
00000000
00000000
00000000
00000000
00000100
00000000
00001000
00000100
00010000
00000000
00010000
00000010
00002000
00000000
00000000
00000000
,
00003001
00000010
00000100
00001000
00000020
00000000
00000000
00000000
00010030
00000000
00001000
00010000
00002000
00000000
00000000
00000000
,
01003000
00010000
00100000
01000000
00010000
01000000
10000000
00000000
00000000
10100000
00000000
00000000
,
00100000
00000000
00000000
00000000
01000000
00000000
00000000
00000000
00010000
00000000
00000000
00000000
01000000
00000000
00000000
00000000
00000000
00000000
00001000
00000000
00000000
00010000
00000000
00000000
00001000
00000000
00000000
00000000
00000000
00000000
00010000
00000000
00000000
00000100
00000000
00000000
00001000
00000000
00000000
00000000
00000000
00000000
00000100
00000000
00000000
00000000
00000000
00000000
,
00000120
00000000
00000000
00000000
00000000
00000000
00000000
00000000
00000000
00000031
00000000
00000000
00001000
00000000
00000000
00000000
00000010
00000000
00000000
00000000
00010000
00000000
00000000
00000000
00001000
00000000
00000000
00000000
00000000
00000000
00011000
00000000
00000000
00000000
00000000
00000000
00020000
00000000
00000000
00000000
00000000
00000000
00000000
00000000
00000000
00000000
00000000
00000000
,
00031000
01000000
00010000
01000000
00100000
00000000
10000000
00000000
01000000
00010000
00001000
00000000
00200000
00000000
00000000
00000000
,
00301000
00000000
00000000
00000000
00100000
00000000
00000000
00000000
00001000
00000000
00000000
00000000
00011000
00000000
00000000
00000000
00000000
00000000
00000000
00000000
00000000
00010000
00000000
00000000
00000010
00000000
00000000
00000000
00000000
00000000
00001000
00000000
00000000
00000010
00000000
00000000
00010000
00000000
00000000
00000000
00000000
00000000
00001000
00000000
00000000
00010000
00000000
00000000
,
00000100
00000000
00001000
00000000
00000001
00000100
00000010
00000100
00000001
00001000
00000010
00001000
00000100
00010000
00001000
00100000
,
00020000
00000000
00000000
00000000
10030000
00000000
01000000
00010000
00001000
00000000
00100000
00000000
00110000
00000000
00000000
00010000
,
00100000
00000000
00000000
00000000
00001000
00000000
00000000
00000000
00010000
00000000
00000000
00000000
00000010
00000000
00000000
00000000
00000000
00000000
00001000
00000000
00000000
00000001
00000000
00000000
00000100
00000000
00000000
00000000
00000000
00000000
00000001
00000000
00000000
00001000
00000000
00000000
00000020
00000000
00000000
00000000
00000000
00000000
00000000
00000000
00000000
00000000
00000000
00000000
,
00010030
00001000
00010000
00001000
00100000
00000000
01000000
00000000
01100000
00000000
00100000
00010000
01000000
00000000
00100000
10000000
,
01000000
00000000
00100000
00001000
00010000
00000000
00000010
00000000
00010000
00000000
00001000
00000010
00000001
00000000
00000001
00000010
,
00001000
00000000
00000000
00010000
00000000
00000000
00001000
00000000
00000000
01000000
00000000
00000000
00020000
00000000
00000000
00000000
00000000
00000000
00000000
00000000
00000000
00000000
00000000
00000000
00130000
00000000
00000000
00000000
01000000
00000000
00000000
00000000
00010000
00000000
00000000
00000000
00002000
00000000
00000000
00000000
00000000
00000000
00000000
00000000
00000000
00000000
00000000
00000000
,
00003010
00000000
00000100
00001000
00000001
00000000
00000100
00000001
00001000
00000000
00000010
00010000
00002000
00000000
00000000
00000000
,
10003000
00000000
00000000
00000000
00001000
00010000
00000100
00010000
00001000
00000000
00000010
00000000
00000100
00001000
00000001
00000010
,
00000001
00000000
00000000
00000100
00000000
00000000
00001000
00000000
00000000
00000000
01000000
00000000
00000000
00000000
00010000
00000000
00000000
00000000
00100000
00000000
00000000
00000000
00001000
00000000
,
00000000
00000000
00000000
00000000
00000010
00000000
00000000
00000000
00000000
00000000
00000000
00000000
00000220
00000000
00000000
00000000
00000000
00000000
00000330
00000000
00000000
00000000
00000000
00000000
00001001
00000000
00000000
00000000
00000000
00000000
00000000
00000000
00000001
00000000
00000000
00000000
00000000
00000000
00000000
00000100
00000000
00000000
00000000
00000000
00000000
00000000
00000000
00000000
,
00001000
00000000
00010000
00100000
10000000
00000000
00010000
00000000
01010000
00000000
00001000
00000000
00000000
00011000
00000000
00000000
,
00010000
00000000
00000000
00000000
00000000
00000000
00100000
00000000
00000000
00000000
00000000
00000000
02200000
00000000
00000000
00000000
00000000
00000000
03300000
00000000
00000000
00000000
00000000
00000000
10010000
00000000
00000000
00000000
00000000
00000000
00000000
00000000
10000000
00000000
00000000
00000000
00000000
00000000
00000000
01000000
00000000
00000000
00000000
00000000
00000000
00000000
00000000
00000000
,
00010000
00000000
00001000
00000010
00000001
00000000
00001000
00000000
00001100
00000000
00010000
00000000
00000000
00011000
00000000
00000000
,
00001000
00000000
00000000
00000010
00000000
00000000
00000220
00000000
00000330
00000000
00000001
00000000
00000000
00000000
00001001
00000000
00000000
00000000
00001000
00000000
00000000
00000000
00011000
00000000
,
00000000
00000000
00010000
00000000
00000000
00000000
10010000
00000000
00000000
00000000
10000000
00000000
00000000
00000000
01100000
00000000
00000000
00000000
10000000
00000000
00000000
00010000
00000000
00000000
,
00100000
00000000
00001000
00000000
00000010
00000000
00000100
00000000
00001000
00000001
00000100
00000000
00001000
00000000
00000100
00000001
,
00001000
00000000
00000010
00010000
00001000
00000000
01000000
00010000
01000000
00000000
00001000
00010000
00000100
00001000
00000100
00010000
,
00001000
00010000
00000010
00001000
00000200
00000000
00000300
00000010
00001000
00000000
00010000
00000000
00001000
00100000
00000000
00010000
,
00100000
00000000
00001000
00000000
02000000
00000000
03000000
00100000
00010000
00000000
00001000
00000000
00010000
00000010
00000000
00001000
,
00000010
00000000
00000010
00001000
00000200
00000000
00000300
00000010
00001000
00000000
00010000
00000000
00001000
00100000
00000000
00010000
,
00100000
00000000
00001000
00000000
02000000
00000000
03000000
00100000
10000000
00000000
01000000
00000000
00010000
01000000
00000000
00000000
,
00100000
00000000
00010000
00100000
00002000
00000000
00003000
00010000
00100000
00000000
10000000
00000000
01000000
10000000
00000000
00100000
,
10000000
00000000
01000000
00000000
00020000
00000000
00030000
00001000
00000010
00000000
00000001
00000000
00000100
00000001
00000000
00000010
,
00000001
00000000
00000100
00001000
00020000
00000000
00030010
00001000
00000010
00010000
00001000
01000000
00010000
01000000
00001000
00010000
,
00000100
00001000
00000100
00000010
00000002
00000000
00000000
00000000
00002003
00000000
00000000
00000000
00010000
00000000
00010000
00000000
,
00013000
02200000
03300000
00000000
;
