#VERSION:0.83;
#TITLE:1001 -ESCAPE-;
#SUBTITLE:;
#ARTIST:SOUND HOLIC feat. Nana Takahashi;
#TITLETRANSLIT:;
#SUBTITLETRANSLIT:;
#ARTISTTRANSLIT:;
#GENRE:JAZZ ROCK;
#CREDIT:;
#MUSIC:1001 -ESCAPE-.ogg;
#BANNER:1001 -ESCAPE-.png;
#BACKGROUND:1001 -ESCAPE--bg.png;
#CDTITLE:./CDTitles/bm IIDX 25 CANNON BALLERS.png;
#SAMPLESTART:52.753;
#SAMPLELENGTH:15.000;
#SELECTABLE:YES;
#OFFSET:0.614;
#BPMS:0.000=147.000;
#STOPS:;
#TIMESIGNATURES:0.000=4=4,
180.000=7=4,
194.000=4=4
;
#DISPLAYBPM:147.000;
#BGCHANGES:0.000=../BGAs/22bk.mp4=1.000=0=0=0=StretchNoLoop====,
99999.000=-nosongbg-=1.000=0=0=0=StretchNoLoop====
;
#FGCHANGES:;

//--------------- dance-single - forcednature ----------------
#NOTEDATA:;
#STEPSTYPE:dance-single;
#DESCRIPTION:forcednature;
#DIFFICULTY:Beginner;
#METER:3;
#RADARVALUES:0,0,0,0,0;
#CREDIT:forcednature;
#NOTES:
0000
0000
0000
0000
,
0000
0000
0000
0000
,
0000
0000
0000
0000
,
0010
0000
0000
0000
,
0100
0000
0000
0000
,
1000
0000
0001
0000
,
0100
0000
0000
0000
,
0001
0000
1000
0000
,
0010
0000
0000
0000
,
1000
0000
0100
0000
,
0010
0000
0000
0000
,
0001
0000
0010
0000
,
0100
0000
0000
0000
,
1000
0000
0000
0000
,
0100
0000
0000
0000
,
0010
0000
0000
0000
,
0001
0000
0000
0000
,
0100
0000
0001
0000
,
0100
0000
0000
0000
,
0010
0000
1000
0000
,
0010
0000
0000
0000
,
1000
0000
0000
0000
,
0001
0000
0000
0000
,
0100
0000
0000
0000
,
0010
0000
0000
0000
,
0100
0000
0100
0000
,
0100
0000
0100
0000
,
0010
0000
0000
0000
,
1000
0000
0000
0000
,
0100
0000
0100
0000
,
0100
0000
0100
0000
,
0020
0000
0000
0030
,
1001
0000
0000
0000
,
1000
0000
0010
0000
,
0100
0000
0000
0000
,
0001
0000
0010
0000
,
0100
0000
0000
0000
,
1000
0000
0001
0000
,
0010
0000
0000
0000
,
0001
0000
1000
0000
,
0010
0000
0000
0000
,
0100
0000
0000
0000
,
0010
0000
0000
0000
,
1000
0000
0000
0000
,
0001
0000
0000
0000
,
0010
0000
0000
0000
0000
0000
0000
0100
,
0000
0000
0000
1000
,
0000
0000
0000
0000
0000
0001
0000
0000
,
0000
0000
0000
0000
0000
2002
0000
0000
,
0000
0000
3003
0000
0000
0001
0000
0000
,
0000
0100
0000
0000
0000
0010
0000
0000
,
0000
1000
0000
0000
0000
1001
0000
0000
,
0000
0000
0000
0000
0000
0110
0000
0000
,
0000
0000
0000
0000
0000
1000
0000
0000
,
0000
1000
0000
0000
0000
1000
0000
0000
,
0000
0000
0000
0000
0000
0001
0000
0000
,
0000
0001
0000
0000
0000
0001
0000
0000
,
0000
0000
0000
0000
0000
0010
0000
0000
,
0000
0010
0000
0000
0000
0010
0000
0000
,
0000
0000
0000
0000
0000
0100
0000
0000
,
0000
0100
0000
0000
0000
0100
0000
0000
,
0000
0000
0000
0000
0000
1000
0000
0000
,
0000
0010
0000
0000
0000
1000
0000
0000
,
0000
0000
0000
0000
0000
0001
0000
0000
,
0000
0100
0000
0000
0000
0001
0000
0000
,
0000
0000
0000
0000
0000
0010
0000
0000
,
0000
0001
0000
0000
0000
0010
0000
0000
,
0000
0000
0000
0000
0000
0100
0000
0000
,
0000
1000
0000
0000
0000
0100
0000
0000
,
0000
0000
0000
0000
0000
1000
0000
0000
,
0000
0001
0000
0000
0000
1000
0000
0000
,
0000
0000
0000
0000
0000
0100
0000
0000
,
0000
0001
0000
0000
0000
0010
0000
0000
,
0000
0000
0000
0000
0000
0200
0000
0000
,
0000
0000
0000
0000
0000
0000
0300
0000
0000
0000
1000
0000
0000
0001
0000
0000
,
1000
0000
0000
0000
0001
0000
0000
1000
0000
0000
0000
0000
0000
0000
0000
0000
;

//--------------- dance-single - forcednature ----------------
#NOTEDATA:;
#STEPSTYPE:dance-single;
#DESCRIPTION:forcednature;
#DIFFICULTY:Easy;
#METER:7;
#RADARVALUES:0,0,0,0,0;
#CREDIT:forcednature;
#NOTES:
0000
0000
0000
0000
,
0000
0000
0000
0000
,
0000
0000
0000
0000
,
1000
0001
0100
0010
,
0100
0000
0000
0100
0000
0000
0100
0000
0000
0000
0000
0000
0000
0000
0000
0000
,
0001
0010
0100
1000
,
0001
0100
0010
1000
,
0100
0010
0001
0100
,
0010
0010
0010
0000
,
1000
0001
0100
0010
,
1000
0100
0010
0001
,
1000
0001
0100
0010
,
0100
0100
0100
0000
,
0010
0000
0000
1000
0000
0000
0000
0000
,
0001
0000
0000
0100
0000
0000
0000
0000
,
0001
0000
0000
0010
0000
0000
0000
0000
,
0100
0000
0000
0100
0000
0000
0100
0000
0000
0000
0000
0000
0000
0000
0000
0000
,
1000
0001
1000
0010
,
0100
0001
0010
1000
,
0001
0100
1000
0010
,
0100
0010
0100
0010
,
1000
0001
1000
0001
,
1000
0100
0001
1000
,
0100
0001
1000
0100
,
0001
1000
0100
0001
,
0010
0000
0000
0000
0100
0000
0000
0000
0010
0000
0000
0000
,
0100
0000
0000
0000
0010
0000
0100
0000
0000
0001
0000
0000
,
1000
0100
0010
0001
,
1000
0010
0100
0001
,
0010
0000
0000
0000
0100
0000
0000
0000
0010
0000
0000
0000
,
0100
0000
0000
0010
0000
0000
0000
0000
,
0100
0100
0100
0100
,
2002
0000
3003
0000
,
1000
0001
1000
0010
,
1000
0100
1001
0000
,
0001
0010
0100
1000
,
0010
0100
0110
0000
,
0001
1000
0100
0010
,
0001
0100
1001
0000
,
1001
0000
0010
0000
,
1001
0000
0100
0000
,
0010
0010
1000
0001
,
0010
0010
0001
1000
,
0010
0010
1000
0001
,
0220
0000
0330
0000
,
0001
0000
1000
0000
0100
0000
0000
0010
,
0000
0001
0000
0100
0000
0000
0010
0000
,
1000
0000
0001
0000
0000
1000
0000
0100
,
0000
0010
0000
0000
0000
2002
0000
0000
,
0000
0000
0000
3003
0000
0001
0000
0000
,
0000
1000
0000
0000
0000
0100
0010
0100
,
0000
0010
0100
0010
0000
1001
0000
0000
,
0000
0000
0000
0000
0000
0110
0000
0000
,
0000
0000
0000
0000
0000
2000
0000
0000
,
0000
0020
3000
0000
0000
0200
0030
0000
,
0000
0000
0300
0000
0000
0002
0000
0000
,
0000
0020
0003
0000
0000
0200
0030
0000
,
0000
0000
0300
0000
0000
2000
0000
0000
,
0000
0002
3000
0000
0000
0200
0003
0000
,
0000
0000
0300
0000
0000
1001
0000
0000
,
0000
0110
0000
0000
0000
1001
0000
0000
,
0000
0010
0000
0000
0000
1000
0000
0001
,
0000
0100
0000
0010
0000
1000
0000
0100
,
0000
0010
0000
0001
0000
0100
0000
0001
,
0000
1000
0000
0010
0000
0100
0000
0010
,
0000
1001
0000
0000
0000
1000
0000
0100
,
0000
0010
0000
0001
0000
0100
0000
0010
,
0000
0100
0000
0100
0000
1001
0000
0000
,
0000
0110
0000
0000
0000
1000
0000
0100
,
0000
0010
0000
0001
0000
0100
0000
0100
,
0000
0100
0000
0100
0000
0010
0000
0010
,
0000
0010
0000
0010
0000
0001
0000
1000
,
0000
0001
0000
1000
0000
0020
0000
0000
,
0000
0000
0000
0000
0000
0200
0000
0000
,
0000
0000
0000
0000
0000
0000
0000
0000
0330
0000
0001
0000
0000
1000
0000
0000
,
0001
0000
0000
0000
1000
0000
0000
0001
0000
0000
0000
0000
0000
0000
0000
0000
;

//--------------- dance-single - forcednature ----------------
#NOTEDATA:;
#STEPSTYPE:dance-single;
#DESCRIPTION:forcednature;
#DIFFICULTY:Medium;
#METER:11;
#RADARVALUES:0,0,0,0,0;
#CREDIT:forcednature;
#NOTES:
0000
0000
0000
0000
,
0000
0000
0000
0000
,
0000
0000
0000
0000
,
0001
0000
0000
1000
0000
0000
0100
0000
0000
1000
0000
0000
0001
0000
0000
0000
,
1000
0000
0000
1000
0000
0000
1000
0000
0000
0000
0000
0000
1001
0000
0000
0000
,
0000
0000
0001
0000
0000
0100
0000
0000
0001
0000
0000
0010
0000
0000
0100
0000
,
1000
0000
0000
0010
0000
0000
1000
0000
0000
0001
0000
0000
0100
0000
0010
0000
,
0000
0000
1000
0000
0000
0001
0000
0000
0010
0000
0000
0001
0000
0000
1000
0000
,
0010
0000
0000
0100
0000
0000
0001
0000
0000
1000
0000
0000
0100
0000
0010
0000
,
0000
0000
0100
0000
0000
1000
0000
0000
0001
0000
0000
0010
0000
0000
0001
0000
,
1000
0000
0000
0010
0000
0000
0100
0000
0000
0010
0000
0000
1000
0000
0001
0000
,
0000
0000
1000
0000
0000
0100
0000
0000
0010
0000
0000
0001
0000
0000
1000
0000
,
0001
0000
0000
0100
0000
0000
0001
0000
0000
0010
0000
0000
0100
0000
1000
0000
,
0010
0000
0000
0010
0000
0000
0020
0000
0000
0000
0000
0000
0130
0000
0000
0000
,
0001
0000
0000
0001
0000
0000
0002
0000
0000
0000
0000
0000
1003
0000
0000
0000
,
1000
0000
0000
1000
0000
0000
2000
0000
0000
0000
0000
0000
3001
0000
0000
0000
,
1001
0000
0000
1001
0000
0000
1001
0000
0000
0000
0000
0000
0000
0000
0000
0000
,
1000
0100
0010
1000
0010
0001
1000
0000
,
0001
0100
0010
0100
0001
0010
0100
0000
,
1000
0001
1000
0010
0100
0001
0010
0000
,
1100
0101
0011
1010
,
1000
0000
0000
0001
0000
0000
0100
0000
0000
0010
0000
0000
0100
0000
0001
0000
,
1000
0000
0000
0010
0000
0000
1000
0000
0000
0100
0000
0000
0010
0000
0100
0000
,
1000
0000
0000
0001
0000
0000
0010
0000
0000
0001
0000
0000
1000
0000
0001
0000
,
0100
0000
0000
0001
0000
0000
1000
0000
0000
0010
0000
0000
0100
0000
0010
0000
,
1000
0000
0100
0000
0010
0000
0001
0000
0100
0000
0010
0000
,
1000
0000
0000
0000
0100
0000
0000
0000
0010
0000
0000
0000
0001
0000
0000
0000
0000
0000
0100
0000
0000
0010
0000
0000
,
1000
0000
0000
0001
0000
0000
1000
0000
0000
0010
0000
0000
0100
0000
0001
0000
,
1000
0000
0000
0001
0000
0000
0010
0000
0000
0100
0000
0000
1000
0000
0001
0000
,
0100
0000
0001
0000
1000
0000
0100
0000
1000
0000
0001
0000
,
0100
0000
0000
0001
0000
0000
1000
0000
0000
0000
0100
0000
0010
0000
0001
0000
,
0200
0010
0010
0310
,
1000
0001
1000
0001
1000
0001
1000
0000
0000
0000
0000
0000
,
0001
0000
0100
0000
0010
0000
0000
0000
1000
0000
0000
0100
0000
0000
0010
0000
,
0001
0000
0000
1000
0000
0000
0010
0000
1001
0000
0000
0000
0000
0000
0000
0000
,
1000
0000
0001
0000
0100
0000
0000
0000
0010
0000
0000
1000
0000
0000
0100
0000
,
0010
0000
0000
0001
0000
0000
1000
0000
0001
0000
0000
0100
0000
0000
0010
0000
,
1000
0000
0100
0000
0010
0000
0000
0000
0001
0000
0000
1000
0000
0000
0010
0000
,
1000
0000
0000
0100
0000
0000
0010
0000
0100
0000
1000
0000
0001
0000
0100
0000
,
0001
0100
0000
0010
1000
0010
0000
1000
,
0100
1000
0000
0001
0010
0001
1000
0000
,
0010
0000
0000
0010
0000
0000
0010
0000
0000
0100
0000
0000
0001
0000
0010
0000
,
0100
0000
0000
0100
0000
0000
0100
0000
0000
1000
0000
0000
0010
0000
0100
0000
,
0001
0000
0000
1000
0000
0000
0001
0000
0000
1000
0000
0000
0100
0000
0010
0000
,
0020
0000
0100
0030
0010
0001
1000
0100
,
1000
0000
0000
0010
0000
0000
1000
0000
0000
0001
0000
0000
0100
0000
0001
0000
,
0000
0010
0000
0000
0100
0000
0000
1000
0000
0000
0010
0000
0100
0000
0000
0001
,
0000
0000
1000
0000
0000
0100
0000
0000
0010
0000
0001
0000
0000
1000
0000
0000
,
0010
0000
0000
0100
0000
0000
0001
0000
1000
0000
0200
0000
0000
0000
1000
0000
,
0000
0001
0000
1000
0300
0100
0010
0001
,
1000
0010
0100
0001
0000
1000
0100
0001
,
0100
0000
0010
0000
0100
0000
1000
0000
0000
0000
0001
0000
0000
0010
0000
0000
,
0100
0000
0000
1000
0000
0000
0001
0000
0010
0000
0100
0000
0000
0010
0000
0000
,
0001
0000
0000
1000
0000
0000
0010
0000
0200
0000
1000
0000
0000
0000
1000
0000
,
0000
0001
0000
0001
0000
1000
0000
1000
,
0000
0002
0000
0300
0000
0100
0000
0100
,
0000
0010
0000
0010
0000
0100
0000
0100
,
0000
0020
0000
0003
0000
1000
0000
0001
,
0000
1000
0000
0001
0000
1000
0000
0001
,
0030
0000
0010
0000
0001
0000
1000
0000
0010
0000
0100
0000
0000
0100
0000
0000
,
0001
0000
0010
0000
0000
0010
0000
0000
0100
0000
1000
0000
0000
1000
0000
0000
,
0010
1000
0001
0100
0000
0001
0010
0100
,
0000
0000
1000
0000
0000
0010
0000
0000
0100
0000
0001
0000
0000
1000
0000
0000
,
0010
1001
0000
0000
0000
1000
0100
0010
,
0000
0000
0001
0000
0000
1000
0000
0000
0010
0000
0100
0000
0000
0001
0000
0000
,
1000
0000
0100
0000
0000
1000
0000
0000
0001
0000
0100
0000
0001
0000
1000
0000
,
0000
0000
0010
0000
0000
1000
0000
0000
0001
0000
0010
0000
0000
0100
0000
0000
,
1000
0100
0010
0001
0100
0010
1000
0000
,
0100
0010
0001
0000
0010
0100
1000
0000
,
0001
0000
0100
0000
0010
0000
1000
0000
0000
0000
0001
0000
0000
1000
0000
0000
,
0010
0000
0000
0100
0000
0000
0001
0000
0010
0000
0100
0000
0000
1000
0000
0000
,
0001
0000
0000
0010
0000
0000
0001
0000
1000
0000
0010
0000
0000
0100
0000
0000
,
0001
0000
0000
1000
0000
0000
0100
0000
0010
0000
0002
0000
0000
0000
1000
0000
,
0003
0001
0100
0010
2000
0100
0000
0100
,
0000
0000
0100
0000
0000
0000
0100
0000
3000
0000
1000
0000
0000
0001
0000
0000
,
0100
0000
0000
0000
0010
0000
0000
0010
0000
0000
0000
0000
0000
0000
0000
0000
;

//--------------- dance-single - forcednature ----------------
#NOTEDATA:;
#STEPSTYPE:dance-single;
#DESCRIPTION:forcednature;
#DIFFICULTY:Hard;
#METER:14;
#RADARVALUES:0,0,0,0,0;
#CREDIT:forcednature;
#NOTES:
0000
0000
0000
0000
,
0000
0000
0000
0000
,
0000
0000
0000
0000
,
0001
0000
0000
0010
0000
0000
0100
0000
0000
1000
0000
0000
0010
0000
0001
0000
,
0010
0000
0000
1000
0000
0000
0001
0000
0000
0000
0000
0000
1001
0000
0000
0000
,
1000
0000
0100
0000
0010
0100
0000
1000
0001
0000
0100
0010
0000
0100
0001
0000
,
1000
0000
0000
0001
0000
0000
0100
0000
0000
0010
0000
0000
1000
0000
0100
0000
,
0010
0000
0100
0000
1000
0001
0000
0100
0001
0000
1000
0010
0000
1000
0100
0000
,
0010
0000
0000
0100
0000
0000
1000
0000
0000
0010
0000
0000
0001
0000
0010
0000
,
1000
0000
0001
0000
1000
0010
0000
1000
0100
0000
0010
0001
0000
0100
0001
0000
,
1000
0000
0000
0001
0000
0000
0100
0000
0000
1000
0000
0000
0100
0000
0010
0000
,
1000
0000
0100
0000
0010
0001
0000
1000
0001
0000
0100
0010
0000
1000
0100
0000
,
1000
0000
0000
0010
0000
0000
0100
0000
0000
1000
0000
0000
0100
0000
0010
0000
,
0100
0000
0000
0001
0000
0000
0202
0000
0000
0303
0000
0000
1010
0000
0000
0000
,
1000
0000
0000
0100
0000
0000
0022
0000
0000
0033
0000
0000
1000
0000
0100
0000
,
1000
0000
0000
0010
0000
0000
0202
0000
0000
0303
0001
0000
0100
0000
0010
0000
,
1000
0000
0000
0001
0000
0000
1000
0000
0000
0001
0010
0100
1000
0100
0010
0000
,
0001
0000
0000
1000
0000
0000
0020
0000
0000
0030
0100
0000
1000
0000
0100
0000
,
0001
0000
0000
1000
0000
0000
0200
0000
0000
0300
0010
0000
1000
0000
0010
0000
,
0001
0000
0000
1000
0000
0000
0020
0000
0000
0030
0100
0000
1000
0000
0100
0000
,
0101
0110
1010
1001
,
1000
0000
0000
0010
0000
0000
0100
0000
0000
0001
0000
0000
0010
0000
1000
0000
,
0010
0000
0000
0001
0000
0000
1000
0000
0000
0100
0000
0000
0010
0000
1000
0000
,
0001
0000
0000
0100
0000
0000
0010
0000
0000
0001
0000
0000
0100
0000
0010
0000
,
1000
0000
0001
0100
0000
0010
0100
0000
0001
0010
0000
0100
1000
0000
0001
0000
,
1000
0000
0010
0000
0100
0000
1000
0000
0001
0000
0010
0000
,
0100
0000
0000
0000
0000
0000
0000
0000
0001
0000
0000
0000
0000
0000
0000
0000
1000
0000
0000
0000
0000
0000
0000
0000
0100
0000
0000
0010
0000
0000
0100
0000
0000
0000
0000
0000
1000
0000
0000
0000
0000
0000
0001
0000
0000
0000
0000
0000
,
1000
0000
0000
0010
0000
0000
0100
0000
0000
0001
0000
0000
0010
0000
1000
0000
,
0010
0000
0000
0001
0000
0000
1000
0000
0000
0100
0000
0000
0010
0000
0001
0000
,
0100
0000
1000
0000
0100
0000
0010
0000
1000
0000
0100
0000
,
0010
0000
0000
0001
0000
0000
1000
0000
0010
0000
1000
0000
0100
0000
0001
0000
,
0100
0000
0000
1000
0000
0000
0010
0000
0100
0000
0000
0001
0000
0000
0010
0000
,
0001
1000
0001
1000
0001
1000
0001
0000
0000
1001
0000
0000
,
1000
0000
0100
0010
0000
0000
1000
0000
0010
0000
0000
0001
0000
0000
1000
0000
,
0010
0000
0000
0100
0000
0000
0001
0000
2002
0000
0000
0000
3003
0000
0001
0000
,
0010
0000
0100
1000
0000
0000
0001
0000
0100
0000
0000
1000
0000
0000
0100
0000
,
0010
0000
0000
1000
0000
0000
0100
0000
0010
0000
0001
0100
0000
0000
0010
0000
,
0100
0000
1000
0100
0000
0000
0001
0000
1000
0000
0000
0100
0000
0000
0010
0000
,
1000
0000
0000
0010
0000
0000
0001
0000
1000
0000
0010
0000
0100
0000
0001
0000
,
0010
0000
1000
0010
0000
0000
0001
0000
1000
0000
0010
0001
0000
0000
0010
0000
,
1000
0000
0100
0010
0000
0000
0100
0000
1000
0000
0001
0000
0100
0000
0000
0000
,
0101
0000
0000
1001
0000
0000
1010
0000
0000
1000
0000
0000
0100
0000
0010
0000
,
0011
0000
0000
0110
0000
0000
1100
0000
0000
1000
0000
0000
0001
0000
0100
0000
,
0110
0000
0000
1010
0000
0000
1001
0000
0000
0101
0000
0000
0001
0000
0010
0000
,
0200
0000
0000
0000
0001
0000
0000
0300
0100
0000
1000
0000
0001
0000
0100
0000
,
1100
0000
0000
0100
0000
0000
0010
0000
0000
1000
0000
0000
0100
0000
0101
0000
,
0000
0001
0000
0000
0100
0000
0000
1000
0000
0000
0010
0000
1010
0000
0000
1000
,
0000
0000
0100
0000
0000
0010
0000
0000
0001
0000
0011
0000
0000
0010
0000
0000
,
0001
0000
0000
1000
0000
0000
0010
0000
1000
0000
2001
0000
0000
0000
0100
0000
,
0000
0000
0010
0000
0000
0000
0001
0000
0000
0000
3000
0000
0010
1000
0010
1000
,
0001
1000
0001
1000
0001
0100
0001
0100
0010
0000
0100
0001
0100
0000
0010
1000
,
0010
0000
1000
0100
1000
0000
0001
0010
0001
0000
0010
0000
0000
0100
0000
0000
,
0001
0000
0000
1000
0000
0000
0010
0000
0100
0000
1000
0000
0000
0010
0000
0000
,
0001
0000
0000
1000
0000
0000
0100
0000
0001
0000
1000
0000
0001
0010
0000
0000
,
0100
0000
0001
0000
0000
0100
0000
0000
1000
0000
0001
0000
0000
0100
0000
0000
,
0010
0000
2002
0000
0000
3003
0000
0000
0001
0000
0100
0000
0010
0001
0000
0000
,
0010
0000
1000
0000
0000
0100
0000
0000
0010
0000
1000
0000
0000
0010
0000
0000
,
0001
0000
1000
0000
0010
0100
0000
0000
0001
0000
1000
0000
0100
0001
0000
0000
,
0100
0000
0010
0000
0000
0001
0000
0000
0100
0000
0010
0000
0000
1000
0000
0000
,
0100
0000
0010
0000
0100
0000
1000
0000
0001
0000
1001
0000
1000
0010
0000
0000
,
0100
0000
1001
0000
0001
0010
0000
0000
0100
0000
1001
0000
1000
0001
0000
0000
,
0100
0000
0010
0000
0001
0000
0010
0000
0100
0000
0010
0000
1000
0100
0000
0000
,
0001
0000
0100
0000
0000
0010
0000
0000
0001
0000
1000
0000
0000
0010
0000
0000
,
0100
0000
2002
0000
0000
3003
0000
0000
1000
0000
0100
0000
0010
1000
0000
0000
,
0010
0000
0001
0000
0000
1000
0000
0000
0010
0000
0100
0000
0000
1000
0000
0000
,
0100
0000
0001
0000
1000
0100
0000
0000
0010
0000
1000
0000
0010
0001
0000
0000
,
1000
0000
0010
0000
0000
0100
0000
0000
0001
0000
0010
0000
0000
0100
0000
0000
,
1000
0000
0001
0000
0100
0000
1000
0000
0100
0000
0010
0000
1000
0100
0000
0000
,
0010
0000
0001
0000
0100
0010
0000
0000
0001
0000
0010
0000
1000
0100
0000
0000
,
0010
0000
0001
0000
1000
0000
0001
0000
0000
0000
0101
0000
0000
1001
0000
0000
,
1100
0000
0000
1000
0000
0000
0100
0000
0010
0000
0011
0000
0000
1001
0000
0000
,
1010
0000
0000
1000
0000
0000
0010
0000
0100
0000
0101
0000
0000
0110
0000
0000
,
1010
0000
0000
1001
0000
0000
1000
0000
0100
0000
0020
0000
0000
0000
1000
0000
,
0000
0030
0010
0000
0100
0000
1000
0000
0001
0000
0100
0000
1000
0100
0000
0001
,
0000
1000
0100
0000
0001
0000
0100
0000
1000
0000
1010
0000
0000
1001
0000
0000
,
0101
0000
0000
0000
0011
0000
0000
1100
0000
0000
0000
0000
0000
0000
0000
0000
;

//--------------- dance-single - forcednature ----------------
#NOTEDATA:;
#STEPSTYPE:dance-single;
#DESCRIPTION:forcednature;
#DIFFICULTY:Challenge;
#METER:16;
#RADARVALUES:0,0,0,0,0;
#CREDIT:forcednature;
#NOTES:
0000
0000
0000
0000
,
0000
0000
0000
0000
,
0000
0000
0000
0000
0000
0000
0000
0000
0000
0000
0000
0000
0000
0000
0001
1000
,
0001
0000
0000
0101
0000
0000
0001
0000
0000
0011
0000
0000
1000
0000
0001
0000
,
1001
0000
0000
0110
0000
0000
2002
0000
0000
0000
0000
0000
3003
0000
0000
0000
,
1000
0100
1000
0000
0001
0100
0000
0001
1000
0000
0001
0010
0000
0001
1000
0000
,
0010
0000
0100
0001
0000
0001
0010
0000
0100
1000
0000
1000
0010
0000
0100
0000
,
0001
0010
0001
0000
1000
0100
0000
1000
0001
0000
1000
0010
0000
1000
0001
0000
,
1001
0000
0000
1100
0000
0000
0101
0000
0000
1001
0000
0000
0110
0000
1001
0000
,
0001
0010
0001
0000
1000
0010
0000
1000
0001
0000
1000
0100
0000
1000
0001
0000
,
0100
0000
0001
0010
0000
0010
0100
0000
1000
0010
0000
0010
0100
0000
0001
0000
,
1000
0010
1000
0000
0001
0010
0000
0001
1000
0000
0001
0100
0000
0001
1000
0000
,
1001
0000
0000
0110
0000
0000
1100
0000
0000
0101
0000
0000
0110
0000
1001
0000
,
1100
0000
0000
1100
0000
0000
2001
0000
0000
0000
0010
0000
3010
0000
0000
0000
,
0101
0000
0000
0101
0000
0000
1002
0000
0000
0000
0010
0000
0013
0000
0000
0000
,
1100
0000
0000
1001
0000
0000
1020
0000
0000
0000
0130
0000
0100
0000
0010
0000
,
0101
0000
0000
1001
0000
0000
0011
0000
0000
1000
0100
0010
0001
0100
0010
0000
,
1000
0000
0100
1000
0000
0001
0100
0000
0010
0000
1000
0000
0100
0000
1000
0000
,
0001
0000
0100
0001
0000
1000
0100
0000
0010
0000
0001
0000
0100
0000
0001
0010
,
0001
0000
1000
0010
0000
0100
0001
0000
1000
0000
0100
0000
1000
0000
0010
0000
,
0101
1010
1100
0011
,
0001
0000
1000
0001
0000
0001
0100
0000
0100
0010
0000
0010
1000
0000
0001
0000
,
1000
0000
0100
0010
0000
0010
0001
0000
0001
0100
0000
0100
0010
0000
1000
0001
,
1000
0000
0001
0010
0100
1000
0010
0000
1000
0010
0100
0001
0010
0100
1000
0100
,
0010
0000
0001
0100
0000
0010
1000
0000
0001
0010
0000
0100
1000
0001
1000
0010
,
0100
0000
0101
0000
0011
0000
1100
0000
1010
0000
0101
0000
,
1010
0000
0000
0000
0000
0000
0000
0000
1100
0000
0000
0000
0000
0000
0000
0000
0011
0000
0000
0000
0000
0000
0000
0000
1000
0000
0000
0100
0000
0000
0010
0000
0000
0001
0000
0000
0100
0000
0000
0010
0000
0000
1000
0000
0000
0000
0000
0000
,
0001
0000
0010
0001
0000
0100
0001
0000
0010
0100
0000
1000
0010
0000
0100
0001
,
0100
0000
0001
0010
0000
0100
1000
0000
0001
0100
0000
0010
1000
0000
0001
0010
,
0100
0000
1100
0000
1010
0000
0101
0000
0011
0000
0110
0000
,
1001
0000
0000
0110
0000
0000
1001
0000
0001
0100
0010
1000
0001
1000
0100
0000
,
0020
0000
0000
1000
0000
0000
0001
0000
0230
0000
0000
0001
0000
0000
1000
0000
,
0310
0100
0010
0100
0010
0100
0010
0000
0000
1001
0000
0000
,
0110
0000
0001
0100
0000
0100
0010
0000
1000
0000
0100
0010
0100
0000
1000
0000
,
0001
0000
0100
0010
0100
0000
0001
0000
1000
0000
1010
0000
0000
0011
0000
0000
,
1000
0000
0001
0010
0000
0010
0100
0000
1000
0000
0001
0010
0001
0000
0100
0000
,
0001
0000
1000
0010
1000
0000
0100
0000
0110
0000
1000
0001
0000
0000
0110
0000
,
0001
0000
0100
0010
0000
0010
1000
0000
0001
0000
0010
0100
0010
0000
0001
0000
,
1000
0000
0010
0100
0010
0000
1000
0000
0001
0000
0101
0000
1000
0000
1100
0000
,
0001
0000
1000
0010
0100
0000
0001
0000
1000
0000
0001
0010
0100
0000
1000
0000
,
0001
0000
1000
0100
0010
0000
0001
0000
0100
0001
1000
0010
1000
0001
0010
0000
,
1100
0000
0000
0011
0000
0000
1100
0000
0001
0010
0100
1000
0100
0010
0001
0000
,
0101
0000
0000
1010
0000
0000
0101
0000
1000
0010
0100
0001
0100
0010
1000
0000
,
0001
0010
0100
1000
0010
0100
0001
1000
0010
1000
0001
0010
0100
1000
0001
0100
,
0020
0000
0000
0030
,
1000
0100
0000
0010
0100
0000
1000
0100
0000
0010
0001
0000
1000
0001
0100
0001
,
0000
1000
0001
0000
0010
0001
1000
0010
0100
0001
1000
0100
0010
0001
0000
0010
,
0100
0000
1000
0010
0000
0100
0010
0000
1000
0001
0010
0001
1000
0010
1000
0100
,
0010
0100
1000
0001
0100
0001
0010
0100
1000
0000
0001
0100
0010
0100
0001
0100
,
0010
0100
0001
0100
0010
0100
0001
0100
0010
0100
0000
0000
0001
0010
0100
1000
,
0100
0000
0000
0010
0000
0000
0001
0000
0000
1000
0000
0000
0001
0000
0000
0100
0000
0000
0010
0000
0000
1000
0000
0000
0001
0000
0000
0010
0000
0000
0100
0000
1000
0000
0100
0000
1000
0000
0000
0001
0000
0000
0100
0000
0001
0000
0100
0000
,
0001
0000
0000
1000
0000
0000
0010
0000
1000
0000
0010
0000
1000
0000
0000
0001
0000
0000
0010
0000
0001
0000
0010
0000
0001
0000
0000
1000
0000
0000
0010
0000
0000
0100
0000
0000
0001
0000
0000
1000
0000
0000
0100
0000
0000
0010
0000
0000
,
0001
0100
0010
1000
0001
0010
0100
0000
0110
0000
1100
0000
0000
0101
0000
0000
,
1010
0000
0000
0011
0000
0000
0110
0000
1001
0000
0002
0000
0000
0000
0000
0000
,
0000
0203
0000
0000
0000
0320
0000
0000
,
0000
2030
0000
3002
0000
2003
0000
0000
,
0000
3200
0000
0000
0000
0320
0000
0000
,
0000
0000
0032
0000
0000
0203
0000
0000
0320
0000
2030
0000
0000
0000
0100
0000
,
0000
3002
0000
0100
0000
2003
0000
0010
,
0000
0000
3002
0000
0023
0000
0230
0000
2300
0000
3001
0000
0000
0101
0000
0000
,
0000
0000
1000
0000
0000
1100
0000
0000
0000
0000
0010
0000
0000
1001
0000
0000
,
0000
0000
1000
0000
1000
0000
0020
0000
0000
0000
0130
0001
1000
0100
0010
0100
,
1000
0001
0010
0000
0100
1000
0010
0000
0100
0000
0010
0000
1000
0100
0010
0000
,
0001
0000
0100
0000
1010
0000
0000
0101
0000
0000
0001
0010
0100
1000
0001
0100
,
0010
1000
0001
0000
0100
0001
0010
0000
0100
0000
0010
0000
0001
0100
0010
0000
,
1000
0000
1001
0000
0100
0010
0000
0000
1001
0000
0001
0100
0010
1000
0001
1000
,
0100
0010
0001
0000
1000
0100
0001
0000
0100
0000
1000
0000
0001
0100
1000
0000
,
0100
0000
0001
0000
0011
0000
1000
0000
1010
0000
0001
1000
0100
0010
0001
0100
,
0010
0000
1000
0001
1000
0010
0100
0001
0010
0000
0100
1000
0001
1000
0100
0010
,
0001
0000
0100
0000
0010
0000
1001
0000
0000
0000
1000
0010
1000
0001
1000
0100
,
1000
0001
1000
0100
0010
0001
0100
0010
1000
0000
0001
0100
0001
1000
0001
0010
,
0001
1000
0001
0100
0010
1000
0100
0010
0001
0000
1000
0010
0100
0001
0010
0100
,
1000
0001
0100
0001
1000
0100
0010
0000
0110
0000
2002
0000
0000
0000
0000
0000
,
0000
0000
0000
0000
0000
0000
3003
0000
0000
0000
1000
0000
0000
0100
0000
0010
,
0000
0001
0000
0000
0100
0000
0010
0000
1000
0000
1001
0000
0000
1100
0000
0000
,
0101
0000
0000
0000
0110
0000
0000
1001
0000
0000
0000
0000
0000
0000
0000
0000
;

//--------------- dance-double - forcednature ----------------
#NOTEDATA:;
#STEPSTYPE:dance-double;
#DESCRIPTION:forcednature;
#DIFFICULTY:Easy;
#METER:7;
#RADARVALUES:0,0,0,0,0;
#CREDIT:forcednature;
#NOTES:
00000000
00000000
00000000
00000000
,
00000000
00000000
00000000
00000000
,
00000000
00000000
00000000
00000000
,
00010000
00001000
01000000
00010000
,
00100000
00000000
00000000
00100000
00000000
00000000
00100000
00000000
00000000
00000000
00000000
00000000
00000000
00000000
00000000
00000000
,
01000000
10000000
00010000
01000000
,
00001000
00010000
00000010
00000100
,
00000001
00000010
00000100
00001000
,
00000010
00000010
00000010
00000000
,
00000100
00000001
00000010
00000100
,
00010000
00001000
00100000
01000000
,
10000000
00010000
01000000
00100000
,
01000000
01000000
01000000
00000000
,
00010000
01000000
00010000
00000000
,
00001000
00000100
00001000
00000000
,
00010000
00100000
00010000
00000000
,
00001000
00000010
00001000
00000000
,
00010000
01000000
10000000
01000000
,
00010000
00100000
00001000
00010000
,
00000010
00000100
00000001
00001000
,
00000100
00000100
00000100
00000000
,
00010000
00001000
01000000
00010000
,
10000000
00100000
01000000
00000000
,
00001000
00010000
00000100
00001000
,
00000001
00000010
00000100
00000000
,
00010000
00000000
00000000
00000000
00001000
00000000
00000000
00000000
00010000
00000000
00000000
00000000
,
00001000
00000000
00000000
00000000
00010000
00000000
00000000
00000000
00000000
00000000
00000000
00000000
,
00001000
01000000
00010000
10000000
,
01000000
00100000
00001000
00010000
,
00001000
00000000
00000000
00000000
00010000
00000000
00000000
00000000
00001000
00000000
00000000
00000000
,
00010000
00000000
00000000
00001000
00000000
00000000
00000000
00000000
,
00010000
00000010
00000100
00000001
,
00002002
00000000
00003003
00000000
,
00000001
00000010
00000100
00010000
,
00001000
01000000
00010000
00000000
,
10000000
00100000
01000000
00010000
,
00100000
01000000
10000000
00000000
,
00010000
01000000
00001000
00010000
,
00000010
00001000
00000100
00000000
,
00001100
00000000
00011000
00000000
,
01010000
00000000
00100000
00100000
,
00010000
01000000
00001000
00000000
,
00010000
00000100
00001000
00000000
,
00000010
00001000
00000100
00000000
,
00022000
00000000
00000000
00033000
,
00001000
00000000
01000000
00000000
00010000
00000000
00000000
00100000
,
00000000
01000000
00000000
10000000
00000000
00000000
00100000
00000000
,
01000000
00000000
00010000
00000000
00000000
00100000
00000000
00001000
,
00000000
00010000
00000000
00000100
00000000
00000010
00000000
00000000
,
00000000
00000100
00000000
00000000
00000000
00000001
00000000
00001000
,
00000000
00000100
00000000
00010000
00000000
00001000
00000000
00001000
,
00000000
00010000
00000000
00010000
00000000
00100000
00000000
10000000
,
00000000
00010000
00000000
01000000
00000000
00010000
00000000
00010000
,
00000000
00001000
00000000
00000010
00000000
00000002
00000000
00000000
,
00000000
00000020
00000000
00000003
00000000
00000200
00000000
00000030
,
00000000
00002000
00000000
00003300
00000000
00020000
00000000
00000000
,
00000000
02000000
00000000
00030000
00000000
00200000
00000000
03000000
,
00000000
20000000
00000000
30300000
00000000
20000000
00000000
00000000
,
00000000
00010000
00000000
00000000
00000000
00010000
00000000
00000000
,
00000000
00010000
00000000
30000000
00000000
00011000
00000000
00000000
,
00000000
00011000
00000000
00000000
00000000
00011000
00000000
00000000
,
00000000
00000000
00000000
00000000
00000000
01000000
00000000
00010000
,
00000000
10000000
00000000
00100000
00000000
01000000
00000000
00010000
,
00000000
00100000
00000000
00000000
00000000
00001000
00000000
00010000
,
00000000
00000010
00000000
00000100
00000000
00000001
00000000
00000010
,
00000000
00000100
00000000
00000000
00000000
00010000
00000000
00001000
,
00000000
00100000
00000000
01000000
00000000
10000000
00000000
00010000
,
00000000
01000000
00000000
00000000
00000000
00011000
00000000
00000000
,
00000000
00001100
00000000
00000000
00000000
00011000
00000000
00000000
,
00000000
00000000
00000000
00000000
00000000
01000000
00000000
01000000
,
00000000
01000000
00000000
00100000
00000000
10000000
00000000
00010000
,
00000000
01000000
00000000
00001000
00000000
00010000
00000000
00010000
,
00000000
00010000
00000000
00000100
00000000
00000010
00000000
00000001
,
00000000
00000100
00000000
00000000
00000000
00020000
00000000
00000000
,
00000000
00000000
00000000
00000000
00000000
00000000
00000000
00000000
00000000
00000000
00031000
00000000
00000000
00010000
00000000
00000000
,
00001000
00000000
00000000
00000000
00010000
00000000
00000000
00001000
00000000
00000000
00000000
00000000
00000000
00000000
00000000
00000000
;

//--------------- dance-double - forcednature ----------------
#NOTEDATA:;
#STEPSTYPE:dance-double;
#DESCRIPTION:forcednature;
#DIFFICULTY:Medium;
#METER:11;
#RADARVALUES:0,0,0,0,0;
#CREDIT:forcednature;
#NOTES:
00000000
00000000
00000000
00000000
,
00000000
00000000
00000000
00000000
,
00000000
00000000
00000000
00000000
,
00010000
00000000
00000000
00001000
00000000
00000000
01000000
00000000
00000000
00010000
00000000
00000000
10000000
00000000
00100000
00000000
,
01000000
00000000
00000000
00010000
00000000
00000000
00100000
00000000
00000000
00000000
00000000
00000000
10010000
00000000
00000000
00000000
,
00000000
00000000
10000000
00000000
00000000
00010000
00000000
00000000
01000000
00000000
00000000
00001000
00000000
00000000
00010000
00000000
,
00000100
00000000
00000000
00000010
00000000
00000000
00000001
00000000
00000000
00000100
00000000
00000000
00000010
00000000
00001000
00000000
,
00000000
00000000
00000100
00000000
00000000
00010000
00000000
00000000
00001000
00000000
00000000
01000000
00000000
00000000
00010000
00000000
,
00100000
00000000
00000000
01000000
00000000
00000000
10000000
00000000
00000000
00100000
00000000
00000000
01000000
00000000
00010000
00000000
,
00000000
00000000
00100000
00000000
00000000
00001000
00000000
00000000
00010000
00000000
00000000
00000100
00000000
00000000
00001000
00000000
,
00000001
00000000
00000000
00000100
00000000
00000000
00000010
00000000
00000000
00001000
00000000
00000000
00000100
00000000
00010000
00000000
,
00000000
00000000
00001000
00000000
00000000
00100000
00000000
00000000
00010000
00000000
00000000
00100000
00000000
00000000
01000000
00000000
,
10000000
00000000
00000000
00010000
00000000
00000000
10000000
00000000
00000000
00100000
00000000
00000000
01000000
00000000
00010000
00000000
,
00100000
00000000
00000000
00001000
00000000
00000000
00020000
00000000
00000000
00000000
00000000
00000000
00030010
00000000
00000000
00000000
,
00001000
00000000
00000000
01000000
00000000
00000000
00200000
00000000
00000000
00000000
00000000
00000000
10300000
00000000
01000000
00000000
,
00100000
00000000
00000000
00010000
00000000
00000000
02000000
00000000
00000000
00000000
03001000
00000000
00010000
00000000
00000100
00000000
,
00001000
00000000
00000000
00000001
00000000
00000000
00001000
00000000
00000000
00000220
00000000
00000000
00000000
00000000
00000330
00000000
,
00000001
00000000
00000000
00000010
00000000
00000000
00000200
00000000
00000000
00000000
00010300
00000000
00001000
00000000
01000000
00000000
,
00010000
00000000
00000000
10000000
00000000
00000000
00200000
00000000
00000000
00000000
01300000
00000000
00001000
00000000
00010000
00000000
,
00000010
00000000
00000000
00001000
00000000
00000000
00000200
00000000
00000000
00000000
00000310
00000000
00000001
00000000
00001000
00000000
,
00001001
00010100
01001000
10010000
,
10000000
00000000
00000000
00010000
00000000
00000000
01000000
00000000
00000000
00100000
00000000
00000000
01000000
00000000
00001000
00000000
,
00010000
00000000
00000000
00000100
00000000
00000000
00000010
00000000
00000000
00000100
00000000
00000000
00001000
00000000
00000001
00000000
,
00000100
00000000
00000000
00000010
00000000
00000000
00001000
00000000
00000000
00000100
00000000
00000000
00010000
00000000
00001000
00000000
,
01000000
00000000
00000000
00010000
00000000
00000000
10000000
00000000
00000000
00100000
00000000
00000000
01000000
00000000
00010000
00000000
,
00100000
00000000
00001000
00000000
00010000
00000000
00000100
00000000
00010000
00000000
00001000
00000000
,
01000000
00000000
00000000
00000000
00001000
00000000
00000000
00000000
00010000
00000000
00000000
00000000
00000010
00000000
00000000
00000000
00000000
00000000
00010000
00000000
00000000
00001000
00000000
00000000
,
01000000
00000000
00000000
00010000
00000000
00000000
10000000
00000000
00000000
01000000
00000000
00000000
00100000
00000000
00010000
00000000
,
01000000
00000000
00000000
00001000
00000000
00000000
00010000
00000000
00000000
00000010
00000000
00000000
00001000
00000000
00000001
00000000
,
00000010
00000000
00000100
00000000
00001000
00000000
00000010
00000000
00010000
00000000
00001000
00000000
,
01000000
00000000
00000000
00100000
00000000
00000000
10000000
00000000
00000000
00000000
01000000
00000000
00100000
00000000
00000000
00000000
,
00001000
01000000
00010000
00100000
,
00001000
00010000
00001000
00010000
00001000
00010000
00001000
00000000
00000000
00011000
00000000
00000000
,
01000000
00000000
00000000
00010000
00000000
00000000
10000000
00000000
00100000
00000000
00000000
01000000
00000000
00000000
00001000
00000000
,
00010000
00000000
00000000
00000010
00000000
00000000
00001000
00000000
00001001
00000000
00000000
00000000
00000000
00000000
00000000
00000000
,
00000001
00000000
00000000
00000010
00000000
00000000
00000100
00000000
00010000
00000000
00000000
00001000
00000000
00000000
01000000
00000000
,
00010000
00000000
00000000
10000000
00000000
00000000
00100000
00000000
01000000
00000000
00000000
00010000
00000000
00000000
00100000
00000000
,
00001000
00000000
00000000
00010000
00000000
00000000
00000100
00000000
00001000
00000000
00000000
00000001
00000000
00000000
00001000
00000000
,
00000010
00000000
00000000
00010000
00000000
00000000
00001000
00000000
01000000
00000000
00010000
00000000
01000000
00000000
00000000
00000000
,
00100000
10000000
00000000
01000000
00100000
01000000
00000000
10000000
,
00010000
10000000
00000000
00010000
01000000
00000000
00001000
00000000
,
00020000
00000000
00000000
00000100
00000000
00000000
00002000
00000000
00033000
00000000
00000000
00000000
00000010
00000000
00000000
00000000
,
00000200
00000000
00000000
00000001
00000000
00000000
00000020
00000000
00000330
00000000
00000000
00000000
00000100
00000000
00000000
00000000
,
00010000
00000000
00000000
00001000
00000000
00000000
01000000
00000000
00000000
00100000
00000000
00000000
10000000
00000000
00010000
00000000
,
10000000
00100000
01000000
00010000
,
00100000
00000000
00000000
00001000
00000000
00000000
00010000
00000000
00000000
00000100
00000000
00000000
00001000
00000000
00000001
00000000
,
00000000
00001000
00000000
00000000
00000010
00000000
00000000
00010000
00000000
00000000
00001000
00000000
01000000
00000000
00000000
00010000
,
00000000
00000000
10000000
00000000
00000000
01000000
00000000
00000000
00100000
00000000
00010000
00000000
00000000
01000000
00000000
00000000
,
00001000
00000000
00000000
00010000
00000000
00000000
00000100
00000000
00001000
00000000
00000002
00000000
00000000
00000000
00000100
00000000
,
00000000
00000010
00000000
00000100
00000003
00000001
00000010
00000100
,
00000000
00000000
00001000
00000000
00000010
00000000
00000100
00000000
00000000
00000000
00000010
00010000
00000000
00000000
00010000
00001000
,
00000000
00000000
00001000
01000000
00000000
00000000
01000000
00010000
00000000
00000000
00010000
00000000
00000000
10000000
00000000
00000000
,
01000000
00000000
00000000
00100000
00000000
00000000
00010000
00000000
01000000
00000000
00001000
00000000
00000000
00010000
00000000
00000000
,
00000100
00000000
00000000
00001000
00000000
00000000
00000001
00000000
00001000
00000000
00000010
00000000
00000000
00000000
00010000
00000000
,
00000000
00001000
00000000
01000000
00000000
00010000
00000000
00100000
,
00000000
20020000
00000000
00000000
30030000
10000000
00000000
00100000
,
00000000
01000000
00000000
00001000
00000000
00010000
00000000
00000100
,
00000000
00002002
00000000
00000000
00003003
00000001
00000000
00000100
,
00000000
00000010
00000000
00010000
00000000
00001000
00000000
00100000
,
00000000
00000000
00010000
00000000
10000000
00000000
00010000
00000000
00000000
00000000
10010000
00000000
00000000
10010000
00000000
00000000
,
00000000
00000000
01010000
00000000
00000000
01010000
00000000
00000000
00000000
00000000
01001000
00000000
00000000
01001000
00000000
00000000
,
00000000
00000000
00010000
00000000
00000000
00000000
00001000
00000000
00000000
00000000
00010000
00000000
00000000
00000100
00000000
00000000
,
00001000
00000000
00000001
00000000
00000000
00000100
00000000
00000000
00000010
00000000
00001000
00000000
00000000
00000100
00000000
00000000
,
00010000
00000000
00011000
00000000
00000000
00000000
00000000
00000000
00000000
00000000
00001000
00000000
00000000
00100000
00000000
00000000
,
01000000
00000000
10000000
00000000
00000000
00010000
00000000
00000000
01000000
00000000
00100000
00000000
00000000
10000000
00000000
00000000
,
00010000
00000000
01000000
00000000
00000000
00010000
00000000
00000000
00100000
00000000
00001000
00000000
00000000
00010000
00000000
00000000
,
00000100
00000000
00000010
00000000
00000000
00000100
00000000
00000000
00001000
00000000
00000010
00000000
00000000
00000100
00000000
00000000
,
00000001
00000010
00000100
00000010
00000000
00000001
00000100
00000000
,
00000010
00001000
00000010
00000000
00010000
00001000
00010000
00000000
,
00001000
00000000
01000000
00000000
00010000
00000000
00100000
00000000
00000000
00000000
02000000
00000000
00000000
10000000
00000000
00000000
,
00020000
00000000
03030000
00000000
00000000
00000000
01000000
00000000
00000000
00000000
00002000
00000000
00000000
00010000
00000000
00000000
,
00000200
00000000
00003300
00000000
00000000
00000000
00001000
00000000
00000000
00000000
00000001
00000000
00000000
00000100
00000000
00000000
,
00000010
00000000
00000000
00001000
00000000
00000000
00000100
00000000
00010000
00000000
00001000
00000000
00000000
00000000
01000000
00000000
,
00000000
00010000
00100000
01000000
20000000
00100000
00000000
00000000
,
00000000
00000000
00000000
00000000
00000000
00000000
30000000
00000000
00000000
00000000
10000000
00000000
00000000
01000000
00000000
00000000
,
00100000
00000000
00000000
00000000
00001000
00000000
00000000
00001000
00000000
00000000
00000000
00000000
00000000
00000000
00000000
00000000
;

//--------------- dance-double - forcednature ----------------
#NOTEDATA:;
#STEPSTYPE:dance-double;
#DESCRIPTION:forcednature;
#DIFFICULTY:Hard;
#METER:14;
#RADARVALUES:0,0,0,0,0;
#CREDIT:forcednature;
#NOTES:
00000000
00000000
00000000
00000000
,
00000000
00000000
00000000
00000000
,
00000000
00000000
00000000
00000000
,
00001000
00000000
00000000
00010000
00000000
00000000
00000100
00000000
00000000
00000010
00000000
00000000
00000001
00000000
00000100
00000000
,
00000010
00000000
00000000
00010000
00000000
00000000
00001000
00000000
00000000
00000000
00000000
00000000
10010000
00000000
00000000
00000000
,
10000000
00000000
00100000
00000000
00000000
01000000
00000000
00000000
00010000
00000000
00000000
01000000
00000000
00000000
10000000
00000000
,
01000000
00000000
00000000
00100000
00000000
00000000
10000000
00000000
00000000
01000000
00000000
00000000
00010000
00000000
00001000
00000000
,
00000010
00000000
00000001
00000000
00000000
00001000
00000000
00000000
00000010
00000000
00000000
00000100
00000000
00000000
00000001
00000000
,
00001000
00000000
00000000
00000100
00000000
00000000
00000001
00000000
00000000
00000100
00000000
00000000
00001000
00000000
00000010
00000000
,
00010000
00000000
00001000
00000000
00000000
01000000
00000000
00000000
10000000
00000000
00000000
01000000
00000000
00000000
00010000
00000000
,
10000000
00000000
00000000
01000000
00000000
00000000
00100000
00000000
00000000
10000000
00000000
00000000
00100000
00000000
00010000
00000000
,
00001000
00000000
00000100
00000000
00000000
00000001
00000000
00000000
00000100
00000000
00000000
00001000
00000000
00000000
00000010
00000000
,
00000100
00000000
00000000
00000001
00000000
00000000
00000010
00000000
00000000
00001000
00000000
00000000
00010000
00000000
01000000
00000000
,
10000000
00000000
00000000
00100000
00000000
00000000
01000000
00000000
00000000
00000000
00010000
00000000
00100000
00000000
00001000
00000000
,
00010000
00000000
00000000
00000010
00000000
00000000
00001000
00000000
00000000
00000000
00000001
00000000
00000010
00000000
00000100
00000000
,
00001000
00000000
00000000
00000010
00000000
00000000
00010000
00000000
00000000
00000000
00001000
00000000
00100000
00000000
00010000
00000000
,
10000000
00000000
00000000
01000000
00000000
00000000
00100000
00000000
00000000
00010000
10000000
00010000
10000000
00010000
10000000
00000000
,
00010000
00000000
00000000
01000000
00000000
00000000
00001000
00000000
00000000
00000000
00010000
00000000
00000100
00000000
00000010
00000000
,
00000001
00000000
00000000
00000100
00000000
00000000
00000010
00000000
00000000
00000000
00010000
00000000
00001000
00000000
01000000
00000000
,
00100000
00000000
00000000
10000000
00000000
00000000
00010000
00000000
00000000
00000000
00100000
00000000
10000000
00000000
00100000
00000000
,
00110000
01010000
00001010
00001100
,
00000001
00000000
00000000
00000100
00000000
00000000
00001000
00000000
00000000
00000100
00000000
00000000
00000010
00000000
00010000
00000000
,
00001000
00000000
00000000
01000000
00000000
00000000
00100000
00000000
00000000
00010000
00000000
00000000
00100000
00000000
10000000
00000000
,
01000000
00000000
00000000
00010000
00000000
00000000
00001000
00000000
00000000
00000010
00000000
00000000
00000001
00000000
00001000
00000000
,
00000010
00000000
00000000
00000100
00000000
00000000
00000001
00000000
00000000
00000100
00000000
00000000
00000010
00000000
00010000
00000000
,
00001000
00000000
00100000
00000000
01000000
00000000
10000000
00000000
00010000
00000000
01000000
00000000
,
00100000
00000000
00000000
00000000
00010000
00000000
00000000
00000000
00001000
00000000
00000000
00000000
00000010
00000000
00000000
00000000
00000000
00000000
00000001
00000000
00000000
00001000
00000000
00000000
,
00000001
00000000
00000000
00000010
00000000
00000000
00000100
00000000
00000000
00010000
00000000
00000000
01000000
00000000
10000000
00000000
,
00100000
00000000
00000000
00010000
00000000
00000000
00001000
00000000
00000000
00000100
00000000
00000000
00000001
00000000
00001000
00000000
,
00000100
00000000
00000010
00000000
00001000
00000000
00010000
00000000
00100000
00000000
01000000
00000000
,
10000000
00000000
00000000
01000000
00000000
00000000
00010000
00000000
00000000
00000000
00100000
00000000
00001000
00000000
00010000
00000000
,
00000010
00000000
00000000
00010000
00000000
00000000
00001000
00000000
01000000
00000000
00000000
00001000
00000000
00000000
00010000
00000000
,
00000100
00010000
00001000
01000000
00001000
00010000
00000010
00000000
00000000
00011000
00000000
00000000
,
00001000
00000000
01000000
00010000
00000000
00000000
00100000
00000000
00001000
00000000
00000000
01000000
00000000
00000000
00001000
00000000
,
00010000
00000000
00000000
00000010
00000000
00000000
00001000
00000000
00000100
00000000
00000000
00000000
00000010
00000000
00000001
00000000
,
00000100
00000000
00000010
00001000
00000000
00000000
00000100
00000000
00010000
00000000
00000000
00001000
00000000
00000000
00100000
00000000
,
00010000
00000000
00000000
01000000
00000000
00000000
10000000
00000000
01000000
00000000
00010000
00100000
00000000
00000000
01000000
00000000
,
10000000
00000000
00010000
01000000
00000000
00000000
00001000
00000000
00010000
00000000
00000000
00000100
00000000
00000000
00000001
00000000
,
00000100
00000000
00000000
00001000
00000000
00000000
00000010
00000000
00000100
00000000
00001000
00000000
00010000
00000000
01000000
00000000
,
10000000
00000000
00100000
01000000
00000000
00000000
00010000
00000000
00100000
00000000
01000000
10000000
00000000
00000000
00010000
00000000
,
01000000
00000000
00001000
00010000
00000000
00000000
00000100
00000000
00000001
00000000
00000100
00000000
00001000
00000000
00000010
00000000
,
00001010
00000000
00000000
00000110
00000000
00000000
00000101
00000000
00000000
00001000
00000000
00000000
00000100
00000000
00010000
00000000
,
00011000
00000000
00000000
01001000
00000000
00000000
10010000
00000000
00000000
10000000
00000000
00000000
00100000
00000000
01000000
00000000
,
00110000
00000000
00000000
00101000
00000000
00000000
00010010
00000000
00000000
00001010
00000000
00000000
00000001
00000000
00000010
00000000
,
00000200
00000000
00010000
00000000
00010300
00001000
00010000
01000000
,
10000000
00000000
00000000
00010000
00000000
00000000
01000000
00000000
00000000
00001000
00000000
00000000
00010000
00000000
00000100
00000000
,
00000000
00000010
00000000
00000000
00000001
00000000
00000000
00000100
00000000
00000000
00000010
00000000
00010000
00000000
00000000
00001000
,
00000000
00000000
00100000
00000000
00000000
01000000
00000000
00000000
10000000
00000000
00100000
00000000
00000000
01000000
00000000
00000000
,
10000000
00000000
00000000
01000000
00000000
00000000
00010000
00000000
00100000
00000000
00002000
00000000
00000000
00000000
00010000
00000000
,
00000000
00000100
00000000
00013000
00000000
00000010
00001000
00000001
,
00000010
00000000
00000100
00000000
00001000
00000000
00000001
00000000
00000100
00000000
00000010
00001000
00000010
00000000
00010000
00001000
,
00010000
00000000
00001000
00100000
00001000
00000000
00100000
00010000
00100000
00000000
01000000
00000000
00000000
10000000
00000000
00000000
,
00010000
00000000
00000000
01000000
00000000
00000000
00001000
00000000
00010000
00000000
00001100
00000000
00000000
00001001
00000000
00000000
,
00000101
00000000
00000000
00000110
00000000
00000000
00001001
00000000
00001001
00000000
00000001
00000000
00001000
00000100
00000000
00000000
,
00010000
00000000
00001000
00000000
00000000
01000000
00000000
00000000
00100000
00000000
00010000
00000000
00000000
00001000
00000000
00000000
,
00000010
00000000
00000002
00000000
00000000
00000000
00000003
00000000
00000100
00000000
00001000
00000000
00010000
00100000
00000000
00000000
,
10000000
00000000
01000000
00000000
00000000
00010000
00000000
00000000
01000000
00000000
10000000
00000000
00000000
00100000
00000000
00000000
,
01000000
00000000
00001000
00000000
00010000
00000010
00000000
00000000
00000100
00000000
00000001
00000000
00000010
00000100
00000000
00000000
,
00001000
00000000
00000100
00000000
00000000
00010000
00000000
00000000
00001000
00000000
01000000
00000000
00000000
00010000
00000000
00000000
,
00100000
00000000
01000000
00000000
10000000
00000000
00010000
00000000
01000000
00000000
00001000
00000000
00010000
00000100
00000000
00000000
,
00000100
00000000
00010000
00000000
00001000
01000000
00000000
00000000
01000000
00000000
00001000
00000000
00010000
00000100
00000000
00000000
,
00010000
00000000
00001000
00000000
00000010
00000000
00000001
00000000
00001000
00000000
00000010
00000000
00010000
00001000
00000000
00000000
,
01000000
00000000
00010000
00000000
00000000
10000000
00000000
00000000
01000000
00000000
00010000
00000000
00000000
01000000
00000000
00000000
,
10000000
00000000
00100000
00000000
00000000
00000000
01000000
00000000
00001000
00000000
00010000
00000000
00000010
00000100
00000000
00000000
,
00000001
00000000
00000010
00000000
00000000
00000100
00000000
00000000
00010000
00000000
00001000
00000000
00000000
01000000
00000000
00000000
,
00010000
00000000
00100000
00000000
00001000
00010000
00000000
00000000
00000001
00000000
00000010
00000000
00000100
00010000
00000000
00000000
,
00001000
00000000
00100000
00000000
00000000
01000000
00000000
00000000
10000000
00000000
00100000
00000000
00000000
01000000
00000000
00000000
,
00001000
00000000
00010000
00000000
00000100
00000000
00000010
00000000
00000001
00000000
00001000
00000000
00000001
00000100
00000000
00000000
,
00000010
00000000
00010000
00000000
00001000
00100000
00000000
00000000
00010000
00000000
01000000
00000000
00100000
10000000
00000000
00000000
,
01000000
00000000
00100000
00000000
00010000
00000000
01000000
00000000
00001000
00000000
00010000
00000000
00000000
00000100
00000000
00000000
,
00001000
00000000
00000000
00000010
00000000
00000000
00001000
00000000
00000100
00000000
00010000
00000000
00000000
00001000
00000000
00000000
,
01000000
00000000
00000000
00100000
00000000
00000000
00010000
00000000
00100000
00000000
10100000
00000000
00000000
00110000
00000000
00000000
,
01100000
00000000
00000000
00011000
00000000
00000000
00010000
00000000
00000100
00000000
00001000
00000000
00000000
00000000
00000001
00000000
,
00000000
00000000
00000100
00000000
00000010
00000000
00010000
00000000
00001000
00000000
00200000
00000000
01000000
00000000
00000000
01000000
,
00000000
01000000
00000000
00000000
01000000
00000000
01000000
00000000
01300000
00000000
01100000
00000000
00000000
11000000
00000000
00000000
,
10010000
00000000
00000000
00000000
01001000
00000000
00000000
00010100
00000000
00000000
00000000
00000000
00000000
00000000
00000000
00000000
;

//--------------- dance-double - forcednature ----------------
#NOTEDATA:;
#STEPSTYPE:dance-double;
#DESCRIPTION:forcednature;
#DIFFICULTY:Challenge;
#METER:16;
#RADARVALUES:0,0,0,0,0;
#CREDIT:forcednature;
#NOTES:
00000000
00000000
00000000
00000000
,
00000000
00000000
00000000
00000000
,
00000000
00000000
00000000
00000000
00000000
00000000
00000000
00000000
00000000
00000000
00000000
00000000
00000000
00000000
00010000
00001000
,
00010000
00000000
00000000
00011000
00000000
00000000
00010100
00000000
00000000
00011000
00000000
00000000
00001000
00000000
01000000
00000000
,
01010000
00000000
00000000
01100000
00000000
00000000
20100000
00000000
00000000
00000000
00000000
00000000
31000000
00000000
00000000
00000000
,
10000000
01000000
00100000
00000000
01000000
00100000
00000000
00010000
00100000
00000000
00001000
00010000
00000000
00000010
00001000
00000000
,
00000001
00000000
00000100
00000010
00000000
00000100
00000001
00000000
00001000
00000100
00000000
00000010
00000100
00000000
00001000
00000000
,
00000001
00000010
00000100
00000000
00001000
00000100
00000000
00010000
00001000
00000000
01000000
00010000
00000000
00100000
00010000
00000000
,
00110000
00000000
00000000
11000000
00000000
00000000
10100000
00000000
00000000
01010000
00000000
00000000
10000000
00000000
01000000
00000000
,
00010000
00001000
00010000
00000000
00000100
00001000
00000000
00000001
00000100
00000000
00000010
00001000
00000000
00000001
00000010
00000000
,
00000100
00000000
00001000
00000100
00000000
00010000
00001000
00000000
00100000
00010000
00000000
00010000
00100000
00000000
00001000
00000000
,
00010000
00001000
00010000
00000000
00001000
01000000
00000000
00010000
01000000
00000000
00100000
10000000
00000000
00010000
10000000
00000000
,
11000000
00000000
00000000
01100000
00000000
00000000
00110000
00000000
00000000
00011000
00000000
00000000
00001100
00000000
00000001
00000000
,
00000100
00000000
00000000
00001000
00000000
00000000
00020000
00000000
00000000
00000000
00100000
00000000
00130000
00000000
00010000
00000000
,
00001000
00000000
00000000
00000010
00000000
00000000
00000200
00000000
00000000
00000000
00001000
00000000
00001300
00000000
00000001
00000000
,
00000010
00000000
00000000
00000001
00000000
00000000
00000200
00000000
00000000
00000000
00001000
00000000
00001300
00000000
00000100
00000000
,
00000001
00000000
00000000
00000011
00000000
00000000
00001100
00000000
00000000
00010000
00001000
00100000
00010000
10000000
01000000
00000000
,
00010000
00000000
00001000
00100000
00000000
00001000
00010000
00000000
00000010
00000000
00001000
00000010
00001000
00000000
00000001
00000000
,
00000100
00000000
00000001
00000010
00000000
00000100
00000010
00000000
00000100
00000000
00001000
00000100
00010000
00000000
00001000
00000000
,
00100000
00000000
00010000
10000000
00000000
00010000
01000000
00000000
00100000
00000000
10000000
01000000
00100000
00000000
01000000
00000000
,
01100000
00101000
00010010
00000110
,
00000100
00000000
00000001
00000100
00000000
00000001
00001000
00000000
00000001
00000010
00000000
00000100
00000010
00000000
00000100
00000000
,
00001000
00000000
00000100
00010000
00000000
00001000
00010000
00000000
00001000
01000000
00000000
00010000
01000000
00100000
01000000
00100000
,
10000000
00000000
00010000
00100000
00000000
01000000
00100000
00000000
00010000
00100000
00000000
00001000
00010000
00000000
00000010
00000000
,
00001010
00000000
00000000
00001100
00000000
00000000
00000101
00000000
00000000
00000011
00000000
00000000
00001000
00000000
00000001
00000000
,
00000101
00000000
00001100
00000000
00011000
00000000
00110000
00000000
10100000
00000000
11000000
00000000
,
01010000
00000000
00000000
00000000
00000000
00000000
00000000
00000000
00011000
00000000
00000000
00000000
00000000
00000000
00000000
00000000
00101000
00000000
00000000
00000000
00000000
00000000
00000000
00000000
00100000
00000000
00000000
00010000
00000000
00000000
10000000
00000000
00000000
01000000
00000000
00000000
00100000
00000000
00000000
00000000
00000000
00000000
00001000
00000000
00000000
00000000
00000000
00000000
,
00010000
00000000
00000010
00001000
00000000
00000010
00000100
00000000
00000001
00000010
00000000
00000100
00000010
00000000
00000100
00000000
,
00010000
00000000
00001000
01000000
00000000
00010000
01000000
00000000
00001000
00010000
00000000
00001000
00100000
00000000
00010000
00000000
,
00110000
00000000
01100000
00000000
11000000
00000000
10100000
00000000
00110000
00000000
00011000
00000000
,
00001100
00000000
00000000
00000101
00000000
00000000
00000011
00000000
00000010
00000100
00001000
00000001
00000010
00000000
00000001
00000000
,
00000200
00000000
00000000
00002300
00000000
00000000
00023000
00000000
00230000
00000000
00000000
20300000
00000000
00000000
32000000
00000000
,
03100000
00001000
00010000
00000010
00010000
00001000
00100000
00000000
00000000
00011000
00000000
00000000
,
00001000
00010000
00000100
00001000
00000100
00010000
00001000
00000000
00000010
00000000
00000100
00001000
00000000
00000100
00000010
00000000
,
00000001
00000000
00001000
00000001
00000000
00000100
00000010
00000000
00001000
00000000
00001010
00000000
00000000
00011000
00000000
00000000
,
00010000
00001000
01000000
00010000
01000000
00001000
00010000
00000000
00001000
00000000
00100000
00010000
00000000
00100000
01000000
00000000
,
10000000
00000000
00010000
01000000
00000000
00100000
10000000
00000000
11000000
00000000
01000000
00100000
00000000
00000000
00110000
00000000
,
00010000
00100000
00001000
00010000
00001000
01000000
00010000
00000000
00100000
00000000
00001000
00010000
00000000
00000010
00001000
00000000
,
00000100
00000000
00010000
00001000
00000000
00100000
00010000
00000000
02000000
00000000
03200000
00000000
00320000
00000000
00032000
00000000
,
00103000
00010000
00100000
00001000
00010000
00000000
00000010
00000000
00001000
00000100
00001000
00000001
00000010
00000000
00000001
00000000
,
00000100
00000001
00001000
00000010
00001000
00000000
00000001
00000000
00000010
00000000
00001000
00000000
00010000
00000000
00000000
00000000
,
00001000
00100000
00000000
00010000
00100000
00000000
00001000
00010000
00000000
00001000
01000000
00000000
00010000
00000000
10000000
00000000
,
01000000
00100000
00000000
00010000
00100000
00000000
00001000
00010000
00000000
00000010
00001000
00000000
00000001
00000000
00000010
00000000
,
00000100
00000010
00000100
00001000
00000100
00001000
00000100
00010000
00001000
00100000
00010000
00100000
00001000
00000000
00011000
00000000
,
00020020
00000000
00000000
00030030
,
00000001
00000100
00000000
00000001
00000010
00000000
00000100
00000010
00000000
00000100
00001000
00000100
00010000
00000000
00001000
00100000
,
00000000
00010000
00100000
00000000
00001000
00010000
00000000
00001000
01000000
00010000
01000000
00000000
00100000
10000000
00010000
01000000
,
00000000
00100000
10000000
00010000
00100000
01000000
00100000
00010000
00100000
00000000
00001000
00010000
00000010
00001000
00000000
00000001
,
00000010
00000100
00000010
00000001
00001000
00000100
00000010
00000000
00000110
00000000
00002002
00000000
00000000
00000000
00000000
00000000
,
00000000
00000000
00000000
00000000
00000000
00000000
00000000
00000000
00003003
00000000
00000000
00000000
00000001
00000100
00000010
00000100
,
00000010
00000000
00000000
00001000
00000000
00000000
00000010
00000000
00000000
00010000
00000000
00000000
00001000
00000000
00000000
01000000
00000000
00000000
00010000
00000000
00000000
01000000
00000000
00000000
00100000
00000000
00000000
10000000
00000000
00000000
00010000
00000000
00100000
00000000
00010000
00000000
00100000
00000000
00000000
00000000
00000000
00000000
01000000
00000000
00100000
00000000
01000000
00000000
,
00100000
00000000
00000000
00000000
00000000
00000000
01000000
00000000
10000000
00000000
01000000
00000000
10000000
00000000
00000000
00000000
00000000
00000000
00010000
00000000
10000000
00000000
00010000
00000000
10000000
00000000
00000000
00000000
00000000
00000000
01000000
00000000
00000000
00100000
00000000
00000000
00010000
00000000
00000000
00100000
00000000
00000000
00001000
00000000
00000000
00010000
00000000
00000000
,
00000010
00001000
00000010
00000100
00000001
00000100
00000010
00000000
00000110
00000000
00000100
00000001
00001000
00000001
00000010
00000100
,
00001000
00000100
00010000
00001000
00100000
00010000
01000000
00000000
01100000
00000000
00200000
00000000
00000000
00000000
00000000
00000000
,
00000000
00302000
00000000
00000000
00000000
00003020
00000000
00000000
,
00000000
00000032
00000000
00002003
00000000
00003020
00000000
00000000
,
00000000
00020030
00000000
00000000
00000000
00230000
00000000
00000000
,
00000000
20300000
00000000
30020000
00000000
00130000
01000000
10000000
,
00000000
01000000
00010000
00001000
00000000
00000010
00000100
00001000
,
00000000
00000000
00000001
00000000
00000100
00000000
00001000
00000000
00000000
00000000
00011000
00000000
00000000
00011000
00000000
00000000
,
00000000
00000000
01010000
00000000
00000000
01010000
00000000
00000000
00000000
00000000
00101000
00000000
00000000
00202000
00000000
00000000
,
00000000
00000000
00000000
00000000
00000000
00000000
00303000
00000000
00000000
00000000
00001000
00010000
00000100
00001000
00000100
00010000
,
00001000
00010000
00000010
00001000
00000001
00000100
00000010
00000000
00001000
00000000
00000001
00000010
00000100
00000010
00000001
00000000
,
00001000
00000000
00000100
00000000
00010100
00000000
00000000
00011000
00000000
00000000
00100000
00010000
00100000
00001000
00010000
00001000
,
01000000
00010000
01000000
00100000
10000000
00010000
01000000
00000000
00100000
00000000
10000000
00000000
01000000
00010000
00001000
00000000
,
00100000
00000000
00101000
00000000
00000000
00011000
00000000
00000000
00010100
00000000
00000100
00001000
00000001
00000100
00000001
00001000
,
00000100
00001000
00000010
00000000
00010000
00001000
00100000
00000000
00001000
00000000
00010000
00000000
00100000
01000000
00010000
00000000
,
10000000
00000000
01000000
00000000
00010000
00000000
00001000
00000000
00000010
00000000
00000100
00001000
00000001
00000010
00000001
00001000
,
00000100
00000000
00010000
00001000
01000000
00010000
01000000
00001000
00010000
00000000
00100000
10000000
00010000
01000000
00010000
10000000
,
00100000
00000000
10000000
00000000
01000000
00000000
00010000
00000000
00000000
00000000
00011000
00000000
00010000
00000100
00000000
00001000
,
00000100
00000000
00010000
00001000
00000000
01000000
00010000
00000000
01010000
00000000
10100000
00000000
10000000
01000000
00000000
00100000
,
01000000
00000000
00100000
00001000
00000000
00010000
00000100
00001000
00000100
00000000
00010000
00001000
00010000
00000010
00001000
00000010
,
00010000
00001000
00010000
00000100
00001000
00000100
00000010
00000000
00000110
00000000
00002002
00000000
00000000
00000000
00000000
00000000
,
00000000
00000000
00000000
00000000
00000000
00000000
00003003
00000000
00000000
00000000
00000001
00000000
00000100
00000000
00000000
00001000
,
00000000
00010000
00000000
00000000
01000000
00000000
10000000
00000000
00100000
00000000
10100000
00000000
00000000
01100000
00000000
00000000
,
01010000
00000000
10000000
01000000
00010000
00000000
00000000
00011000
00000000
00000000
00000000
00000000
00000000
00000000
00000000
00000000
;
