#TITLE:gentle stress;
#SUBTITLE:;
#ARTIST:DJ Swan;
#TITLETRANSLIT:;
#SUBTITLETRANSLIT:;
#ARTISTTRANSLIT:;
#GENRE:;
#CREDIT:;
#MUSIC:gentle stress.ogg;
#BANNER:gentle stress.png;
#BACKGROUND:gentle stress-bg.png;
#CDTITLE:./CDTITLES/TECHNO LABEL.PNG;
#SAMPLESTART:75.404;
#SAMPLELENGTH:19.155;
#SELECTABLE:YES;
#OFFSET:0.000;
#BPMS:0.000=175.036;
#STOPS:;
#DISPLAYBPM:175.000;
#BGCHANGES:;
#FGCHANGES:;

//--------------- dance-single - ----------------
#NOTES:
     dance-single:
     :
     Beginner:
     4:
     0,0,0,0,0:
0000
0000
0000
0000
,
0000
0000
0000
0000
,
0000
0000
0000
0000
,
1001
0000
0000
0000
,
0000
0000
0000
0000
,
0110
0000
0000
0000
,
0000
0000
0000
0000
,
1100
0000
0000
0000
,
0000
0000
0000
0000
,
0011
0000
0000
0000
,
0101
0000
0000
0000
,
1010
0000
0000
0000
,
0000
0000
0000
0000
,
1001
0000
0000
0000
,
0000
0000
0000
0000
,
0110
0000
0000
0000
,
0000
0000
0000
0000
,
1100
0000
0000
0000
,
0011
0000
0000
0000
,
0100
0000
0000
0000
,
0001
0000
1000
0000
,
0100
0000
0000
0000
,
0010
0000
0100
0000
,
1000
0000
0000
0000
,
0010
0000
0100
0000
,
0001
0000
0010
0000
,
0100
0000
1000
0000
,
0001
0000
0000
0000
,
0100
0000
0001
0000
,
0010
0000
0000
0000
,
0100
0000
1000
0000
,
0001
0000
0000
0000
,
1000
0000
0010
0000
,
0100
0000
0000
0000
,
0001
0000
0000
0000
,
1001
0000
0000
0000
,
0000
0000
0000
0000
,
0100
0100
0100
0100
,
0100
0100
0100
0000
,
0010
0000
1000
0000
,
0010
0000
0100
0000
,
0001
0000
1000
0000
,
0100
0000
0010
0000
,
0100
0000
1000
0000
,
0001
0000
0010
0000
,
0100
0000
1000
0000
,
1001
0000
0000
0000
,
1000
0000
0100
0000
,
0100
0000
0100
0000
,
0001
0000
0100
0000
,
0101
0000
1100
0000
,
1001
0000
0010
0000
,
1000
0000
0001
0000
,
0010
0000
0100
0000
,
1001
0000
0000
0000
,
1000
0001
1000
0001
,
1000
0001
0000
0000
,
1000
0001
1000
0001
,
1000
0001
0000
0000
,
0100
0000
0000
0000
,
0000
0000
0000
0000
,
1000
0001
1000
0001
,
0010
0000
0000
0000
,
1000
0001
1000
0001
,
1000
0001
0000
0000
,
1000
0001
1000
0001
,
1000
0001
0000
0000
,
0100
0000
0000
0000
,
0000
0000
0000
0000
,
0010
0010
0010
0010
,
0010
0010
0010
0000
,
1001
0000
0000
0000
;

//--------------- dance-single - ----------------
#NOTES:
     dance-single:
     :
     Easy:
     7:
     0,0,0,0,0:
0000
0000
0000
0000
,
0000
0000
0000
0000
,
0000
0000
0000
0000
,
1001
1000
1000
1000
,
0000
0000
0000
0000
,
0101
0001
0001
0001
,
0000
0000
0000
0000
,
0011
0010
0010
0010
,
0000
0000
0000
0000
,
1100
0100
0100
0000
,
0101
0100
0100
0000
,
1010
1000
1000
1000
,
0000
0000
0000
0000
,
0011
0001
0001
0001
,
0000
0000
0000
0000
,
1100
1000
1000
1000
,
0000
0000
0000
0000
,
0101
0001
0001
0000
,
1100
1000
1000
0000
,
0010
0100
0000
0001
,
1000
0100
0010
0100
,
1000
0001
0000
0010
,
0001
1000
0010
0100
,
0001
1000
0000
0100
,
0010
0100
1000
0001
,
1010
0100
0001
0000
,
0011
0100
1000
0000
,
1001
0100
0001
0010
,
0100
1000
0010
0100
,
1001
0100
0001
0010
,
0100
1000
0010
0010
,
1001
0100
1000
0010
,
0100
1000
0010
0100
,
1001
0100
0001
0010
,
1001
0001
0010
0100
,
2002
0000
0000
0000
,
0000
0000
0000
3003
,
1000
0100
0001
0100
,
1000
0100
0000
1001
,
0010
0000
0100
0000
0000
1000
0000
0000
,
0001
0000
0000
0100
0000
0000
0010
0000
,
1000
0000
0001
0000
0000
0010
0000
0000
,
0100
0000
0000
1000
0000
0000
0010
0000
,
1000
0000
0001
0000
0000
1000
0000
0000
,
0100
0000
0000
0010
0000
0000
0001
0000
,
0100
0000
0001
0000
0000
1000
0000
0000
,
2002
0000
0000
3003
,
1000
0100
0001
0100
,
1000
0000
0010
0000
0000
0100
0000
0000
,
0001
0010
0100
1000
,
0010
0000
1010
0000
0000
0011
0000
0000
,
1001
0001
0100
1000
,
0100
0000
0000
0001
0000
0000
0010
0000
,
0100
1000
0010
1000
,
2002
0000
0000
3003
,
1000
0001
0100
0001
,
1000
0000
0100
0010
0000
0000
0000
0000
,
0001
1000
0010
1000
,
0001
0000
0010
0100
0000
0000
0000
0000
,
1000
0000
0202
0000
0303
2200
0000
3300
,
2002
0000
3003
0220
0000
0330
2020
3030
,
0001
1000
0100
0010
,
1001
0000
0000
0000
,
1000
0010
0100
0001
,
0010
0000
0100
1000
0000
0000
0000
0000
,
0010
1000
0001
0010
,
0100
0000
1000
0001
0000
0000
0000
0000
,
0100
0000
0202
0000
0303
2200
0000
3300
,
2002
0000
3003
0220
0000
0330
2020
3030
,
1000
0001
0010
0100
,
1000
0001
0100
0110
,
1001
0000
0000
0000
;

//--------------- dance-single - ----------------
#NOTES:
     dance-single:
     :
     Medium:
     10:
     0,0,0,0,0:
0000
0000
0000
0000
,
0000
0000
0000
0000
,
0000
0000
0000
0000
,
1010
1000
1000
1000
,
1000
1000
0000
0000
,
0101
0001
0001
0001
,
0001
0001
0000
0000
,
1100
1000
1000
1000
,
1000
1000
0000
0000
,
0011
0001
0001
0000
,
1100
1000
1000
0000
,
1010
0010
0010
0010
,
0010
0010
0010
0000
,
0101
0100
0100
0100
,
0100
0100
0100
0000
,
0011
0010
0010
0010
,
0010
0010
0010
0000
,
1100
0100
0100
0000
,
0011
0010
0010
0000
,
0001
1010
0100
0011
,
1000
0000
0001
0000
0000
0100
0000
0000
,
0010
1100
0010
0101
,
1000
0000
0100
0000
0000
0010
0000
0000
,
0001
1010
1000
0011
,
0001
0000
0000
0100
0000
0000
0010
0000
,
1100
0001
0010
0100
,
1001
0001
0110
1000
,
0110
1000
0001
1000
,
0100
0000
0000
0010
0000
0000
0001
0000
,
1001
1000
0010
0100
,
0001
0010
0100
1000
,
1010
1000
0001
0100
,
0010
0000
0000
0100
0000
0000
0001
0000
,
1001
1000
0100
0010
,
1001
0001
0101
0100
,
2002
0000
0000
0000
,
0000
0000
0000
3003
0000
0000
0000
0000
,
1000
0010
1000
0000
0001
0100
0001
0000
,
1000
0100
1000
0000
0010
0000
1001
0000
,
1000
0000
0100
0000
0010
0001
0100
0000
,
0010
1000
0001
1000
,
0100
0000
0010
0000
0100
1000
0001
0000
,
0100
0010
1000
0000
,
0001
0000
0010
0000
0100
1000
0001
0000
,
1000
0010
0100
0001
,
1000
0000
0100
0000
0001
0100
1000
0000
,
2002
0000
0000
3003
,
1000
0000
0010
0000
0100
0001
0010
0000
,
0100
1000
0010
0000
1000
0001
0010
0000
,
0100
0000
1000
0000
0010
0100
0001
0000
,
1000
0000
0202
0303
0000
2200
3300
0000
,
2002
3003
0010
0000
1000
0100
0010
0000
,
0100
1000
0001
0000
1000
0000
0010
0000
,
0100
0000
0001
0000
0010
1000
0010
0000
,
2002
0000
0000
3003
,
1000
0010
0100
0001
1000
0100
0010
0001
,
1000
0010
0100
0001
0000
0000
0000
0000
,
1000
0001
0010
0100
1000
0001
0100
0010
,
1000
0001
0010
0100
0000
0000
0000
0000
,
1000
0000
0102
0000
0000
1000
0000
0000
,
0100
0000
0000
0010
0003
0000
0001
0000
,
1000
0010
0100
0001
1000
0100
0010
0001
,
0200
0000
0000
0300
,
0001
0010
0100
1000
0001
0100
0010
1000
,
0001
0010
0100
1000
0000
0000
0000
0000
,
0001
0100
0010
1000
0001
0010
0100
1000
,
0001
0100
0010
1000
0000
0000
0000
0000
,
0100
0000
2100
0000
0000
0010
0000
0000
,
0001
0000
0000
0100
0000
0000
3001
0000
,
1000
0100
0010
0000
0100
1000
0001
0000
,
0100
0001
0010
0000
0100
0000
1001
0000
,
0110
0000
0000
0000
;

//--------------- dance-single - ----------------
#NOTES:
     dance-single:
     :
     Hard:
     12:
     0,0,0,0,0:
0000
0000
0000
0000
,
0000
0000
0000
0000
,
0000
0000
0000
0000
,
1001
0000
1000
0000
0010
0100
0001
0000
,
1000
0000
0100
0000
0010
0001
0100
0001
,
1000
0000
1001
0000
1000
0010
0100
0000
,
0001
0000
0010
0000
0100
1000
0001
0100
,
0010
0000
1001
0000
1000
0100
0010
0000
,
0100
0000
1000
0000
0001
1000
0010
0100
,
0001
0000
1001
0000
1000
0100
0010
0000
,
0100
0000
1001
0000
1000
0010
0100
0000
,
0001
0000
1010
0000
0100
0010
0001
0000
,
1000
0001
0010
0000
0100
1000
0001
0100
,
0010
0000
1001
0000
0100
1000
0010
0000
,
0100
0001
0010
0000
0100
1000
0001
1000
,
0010
0000
1001
0000
1000
0001
0010
0000
,
0100
1000
0001
0000
0100
0001
0010
0001
,
1000
0000
1001
0000
1000
0010
0100
0000
,
1001
0000
0010
0000
0100
0001
0010
0000
,
0100
1001
0010
1001
,
0100
0000
0001
1000
0000
1000
0001
0000
,
0010
1001
0100
1001
,
0010
0000
1000
0001
0000
0001
1000
0000
,
0100
1001
0010
1001
,
0100
0000
0010
1000
0000
0100
0010
0000
,
1001
0000
0010
0000
0100
1000
0001
0000
,
1001
0000
0010
0000
0100
0001
1000
0000
,
1001
0000
0010
0000
0100
0010
0100
0000
,
0001
0000
1000
0001
0000
0001
1000
0000
,
1001
0000
0010
0000
1000
0001
0010
0000
,
0100
0000
0000
0000
1000
0000
0001
0000
0100
0000
0000
0010
0000
0000
0100
0000
,
0001
0000
1001
0000
1000
0100
0010
0000
,
0100
0000
1000
0001
0000
0001
1000
0000
,
1001
0000
1000
0000
0010
0100
0001
0000
,
1001
0000
0010
0000
0100
1000
0001
0000
,
2001
0000
0010
0000
0010
0010
0010
0000
,
0010
0010
0010
0000
0010
0010
3010
0000
,
1000
0100
0010
0100
1000
0001
0010
0001
,
1000
0010
0100
0001
1000
0000
0101
0000
,
1000
0100
0010
0100
1000
0001
0000
0100
,
0001
0000
0010
0001
0000
1000
0010
0000
,
0100
0001
1000
0100
0010
0100
0000
1000
,
0001
0000
0100
0001
0000
0000
0000
0000
,
1000
0010
1000
0100
0010
0100
0000
1000
,
0001
0000
0010
0001
0000
1000
0001
0000
,
0100
0001
1000
0010
0100
0001
0000
1000
,
2002
0000
0000
3003
,
1000
0100
0010
0100
1000
0001
0100
0010
,
1000
0000
0001
0010
0000
0100
1000
0000
,
0001
1000
0010
0100
0001
0010
0100
1000
,
0001
0000
2002
3003
0010
2020
3030
0010
,
0022
0033
1000
0010
0100
0001
1000
0100
,
0010
0000
0100
1000
0000
0001
0100
0000
,
0010
1000
0001
1000
0100
0010
0000
0001
,
2002
0000
0000
3003
,
1000
0100
0010
0100
1000
0010
0100
0010
,
1000
0100
0010
0100
0000
0000
0000
0000
,
0001
0010
0100
0010
0001
0100
0010
0100
,
0001
0010
0100
0010
0000
0000
0000
0000
,
0001
0000
2020
0000
3030
0202
0000
0303
,
2200
0000
3300
0022
0000
0033
2002
3003
,
1000
0010
0100
0010
1000
0100
0010
0100
,
2000
0000
0000
3000
,
0001
0100
0010
0100
0001
0010
0100
0010
,
0001
0100
0010
0100
0000
0000
0000
0000
,
0001
1000
0010
1000
0001
0010
0001
1000
,
0010
1000
0001
0010
0000
0000
0000
0000
,
0100
0000
2002
0000
3003
0022
0000
0033
,
2200
0000
3300
2020
0000
3030
0202
0303
,
1000
0100
0010
0100
1000
0001
0100
0010
,
1000
0001
0010
0100
1000
0000
0101
0000
,
1010
0000
0000
0000
;

//--------------- dance-single - ----------------
#NOTES:
     dance-single:
     :
     Challenge:
     13:
     0,0,0,0,0:
0000
0000
0000
0000
,
0000
0000
0000
0000
,
0000
0000
0000
0000
,
1001
0000
0100
0000
0001
0001
0001
0000
,
1000
1000
1000
0000
0010
1000
0010
1000
,
1001
0000
0010
0000
0001
0001
0001
0000
,
1000
1000
1000
0000
0010
0001
0010
0001
,
1001
0000
0100
0000
0010
0010
0010
0000
,
0100
0100
0100
0000
0001
0010
0001
0010
,
1001
0000
0100
0000
0010
0010
0010
0000
,
1001
0000
0100
0000
0010
0010
0010
0000
,
1001
0000
0100
0000
0001
0001
0001
0000
,
1000
1000
1000
0000
0100
0010
0100
0010
,
1001
0000
0010
0000
0100
0100
0100
0000
,
1000
1000
1000
0000
0001
0010
0001
0010
,
1001
0000
0100
0000
0010
0010
0010
0000
,
0100
0100
0100
0000
0001
1000
0001
1000
,
1001
0000
0010
0000
0100
0100
0100
0000
,
1001
0000
0010
0000
0100
0100
0100
0000
,
1001
1100
0010
1100
,
0010
0000
1000
0001
0000
0001
1000
0000
,
0110
1010
0001
1010
,
0100
0000
0001
0010
0000
0010
0001
0000
,
1010
0011
1000
0011
,
0110
0000
0001
1000
0000
1000
0100
0000
,
0110
0000
1000
0000
0001
0100
0010
0000
,
1001
0000
0100
0000
1000
0010
0100
0000
,
0011
1010
0100
1010
,
0100
0000
0001
1000
0000
1000
0001
0000
,
1010
0011
0100
0011
,
1000
0000
0000
0000
0001
0000
0100
0001
0100
0000
0000
0010
0000
0000
1000
0000
,
1001
1100
0010
1100
,
1001
0000
1000
0010
0000
0010
1000
0000
,
1001
0000
0010
0000
0001
0100
0001
0000
,
1001
0000
0010
0000
1000
0100
1000
0000
,
2001
0000
0010
0000
0001
0001
0001
0000
,
0100
0100
0100
0000
0001
0001
3001
0000
,
1000
0100
0001
0100
1000
0010
0001
0010
,
1000
0100
0010
0001
0100
0000
2002
3003
,
1000
0010
1000
0000
0001
0000
0100
0001
0000
0000
1000
0000
0000
0000
0100
0000
,
0010
0000
0100
1000
0000
0001
0100
0000
,
0010
1000
0010
0000
1000
0000
0001
0010
0000
0000
0100
0000
0000
0000
1000
0000
,
0001
0000
0100
0001
0000
0000
0100
0000
,
0010
1000
0010
0000
1000
0000
0001
0010
0000
0000
0100
0000
0000
0000
1000
0000
,
0001
0000
1000
0010
0000
1000
0100
0000
,
0010
0001
0010
0000
0100
0000
1000
0001
0000
0000
0100
0000
0000
0000
0010
0000
,
2002
0000
0000
3003
,
0001
0010
0001
0000
1000
0000
0100
0000
0100
0000
0001
0000
0100
0000
0100
0000
,
1000
0000
0001
0010
0000
0100
1000
0000
,
0001
0100
0001
0000
1000
0000
0010
0000
0010
0000
0001
0000
0010
0000
0010
0000
,
1000
0000
0000
0000
2002
3003
0000
0000
0100
0000
2002
3003
0000
0000
0010
0000
,
1000
0100
1000
0000
0001
0000
0010
0000
0010
0000
1000
0000
0010
0000
0010
0000
,
0001
0000
1000
0010
0000
0100
0001
0000
,
1000
0010
1000
0000
0001
0000
0100
0000
0100
0000
1000
0000
0100
0000
0100
0000
,
2002
0000
0000
0000
0000
0000
0000
3003
,
1000
0100
0001
0100
1000
0010
0100
1000
,
0100
0010
1000
0100
0000
0000
0000
0000
,
0010
0001
0010
1000
0010
0001
0100
1000
,
0100
0010
0100
0001
0000
0000
0000
0000
,
1000
0000
0022
0000
0033
0202
0000
0303
,
2020
0000
0000
0000
3030
0000
2200
0000
0000
0000
3300
0000
2002
0000
3003
1000
,
0001
0010
1000
0010
0001
0100
1000
0100
,
2002
0000
0000
0000
0000
0000
0000
3003
,
1000
0010
0100
1000
0100
0010
1000
0010
,
0001
0010
1000
0100
0000
0000
0000
0000
,
0010
0001
0010
1000
0010
0001
0100
0010
,
1000
0100
0001
0100
0000
0000
0000
0000
,
1000
0000
0022
0000
0033
2200
0000
3300
,
2020
0000
0000
0000
3030
0000
0202
0000
0000
0000
0303
0000
2200
0000
3300
1000
,
0010
0010
0010
0010
0100
0100
0100
0100
,
0001
1000
0001
1000
0100
0000
1001
0000
,
0110
0000
0000
0000
;

//--------------- dance-double - ----------------
#NOTES:
     dance-double:
     :
     Easy:
     9:
     0,0,0,0,0:
00000000
00000000
00000000
00000000
,
00000000
00000000
00000000
00000000
,
00000000
00000000
00000000
00000000
,
00010000
00010000
00010000
00010000
,
00010000
00010000
00010000
00000000
,
00000100
00000100
00000100
00000100
,
00000100
00000100
00000100
00000000
,
01000000
01000000
01000000
01000000
,
01000000
01000000
01000000
00000000
,
00010000
00010000
00010000
00000000
,
00001000
00001000
00001000
00000000
,
00000001
00000001
00000001
00000001
,
00000001
00000001
00000001
00000000
,
00000010
00000010
00000010
00000010
,
00000010
00000010
00000010
00000000
,
00000100
00000100
00000100
00000100
,
00000100
00000100
00000100
00000000
,
00010000
00010000
00010000
00000000
,
10000000
10000000
10000000
00000000
,
10100000
01000000
00010000
00000000
,
00100000
00001000
00001000
00010000
,
00000100
00001000
00000001
00000000
,
00000010
00001000
00010000
01100000
,
00010000
00100000
01000000
00000000
,
10000000
00100000
00010000
10010000
,
01000000
00001000
00010000
00000000
,
00000100
00010000
00001000
00000000
,
00011000
00010000
01000000
10000000
,
00100000
01000000
00001000
00000000
,
00000100
00001000
00000001
00000010
,
00001000
00000010
00000001
00000000
,
00000100
00000010
00001000
00000100
,
00010000
00000100
01000000
00000000
,
00010000
01000000
10000000
01000000
,
00100000
10000000
01000000
00000000
,
00022000
00000000
00000000
00000000
,
00000000
00000000
00000000
00000000
00000000
00000000
00000000
00033000
,
00001000
00010000
01000000
00010000
,
00001000
00010000
00000000
00011000
,
00001000
01000000
00100000
10000000
,
01000000
00010000
00011000
00001000
,
00000110
00000001
00000010
00000100
,
00001000
00011000
01000000
00110000
,
10000000
00010000
01000000
00001000
,
00000100
00001100
00001000
00000011
,
00000100
00001000
00010000
01000000
,
20020000
00000000
00000000
00000000
00000000
00000000
00000000
30030000
,
00100000
10000000
00010000
10000000
,
00100000
01000000
00001000
00010000
,
00000100
00001000
00000010
00000100
,
00000001
00000000
00001001
00000000
00000000
00011000
00000000
00000000
,
10010000
00100000
10000000
01000000
,
00010000
00001000
00000100
00001000
,
00010000
00000100
00001000
00000001
,
00002002
00000000
00000000
00003003
,
00000001
00001000
00000001
00001000
00000001
00001000
00000001
00001000
,
00000001
00001000
00000001
00001000
00000000
00000000
00000000
00000000
,
00000010
00010000
00000010
00010000
00000010
00010000
00000010
00010000
,
00000010
00010000
00000010
00010000
00000000
00000000
00000000
00000000
,
00000000
00000000
00002000
00000000
00000000
02003000
00000000
00000000
,
03002000
00000000
00000000
02003000
00000000
00000000
03002000
00000000
,
10003000
01000000
10000000
01000000
10000000
01000000
10000000
01000000
,
20000000
00000000
30000000
00000000
,
00010000
00100000
00010000
00100000
00010000
00100000
00010000
00100000
,
00010000
00100000
00010000
00100000
00000000
00000000
00000000
00000000
,
00001000
00000001
00001000
00000001
00001000
00000001
00001000
00000001
,
00001000
00000001
00001000
00000001
00000000
00000000
00000000
00000000
,
00000000
00000000
00002000
00000000
00000000
00003200
00000000
00000000
,
00020300
00000000
00000000
00032000
00000000
00000000
02003000
00000000
,
03010000
00100000
01000000
10000000
,
00010000
00100000
00001000
00011000
,
01010000
00000000
00000000
00000000
;

//--------------- dance-double - ----------------
#NOTES:
     dance-double:
     :
     Medium:
     11:
     0,0,0,0,0:
00000000
00000000
00000000
00000000
,
00000000
00000000
00000000
00000000
,
00000000
00000000
00000000
00000000
,
00010000
00001000
00000000
01000000
,
00001000
00010000
00000000
00100000
,
01000000
10000000
00000000
00010000
,
00100000
00001000
00000000
00010000
,
00000010
00001000
00000000
00000001
,
00000100
00000010
00000000
00010000
,
00101000
00010000
00000000
00000000
,
00001010
00010000
00000000
00000000
,
01010000
00001000
00100000
01000000
,
10000000
01000000
00010000
00001000
,
00000101
00000010
00001000
00000100
,
00010000
01000000
10000000
00100000
,
10010000
01000000
00010000
00001000
,
00000010
00000001
00000100
00001000
,
00001001
00000010
00001000
01000000
,
10010000
00100000
00001000
00000100
,
00001100
00000000
00110000
00000000
01000000
01000000
00010000
00000000
,
10000000
00000000
00100000
01000000
00000000
01000000
00001000
00000000
,
00011000
00000000
00010000
00000000
00000100
00000100
00000010
00000000
,
00000001
00000000
00001000
00000010
00000000
00000010
00010000
00000000
,
00011000
00000000
01000000
00000000
00010000
00010000
00100000
00000000
,
01000000
00000000
10000000
00010000
00000000
00010000
00001000
00000000
,
00011000
00000000
00010000
00000000
00000100
00001000
00000001
00000000
,
00001001
00000000
00000010
00000000
00001000
00010000
01000000
00000000
,
00110000
00000000
10000000
00000000
01000000
00100000
00010000
00000000
,
01000000
00000000
00100000
10000000
00000000
10000000
00100000
00000000
,
01010000
00000000
00011000
00000000
00010000
00000100
00001000
00000000
,
00000010
00000000
00000000
00000000
00000100
00000000
00000001
00000000
00000100
00000000
00000000
00000001
00000000
00000000
00000010
00000000
,
00000110
00000000
00000001
00000000
00000010
00001000
00010000
00000000
,
01000000
00000000
00100000
01000000
00000000
01000000
00100000
00000000
,
10010000
00000000
01000000
00000000
10000000
01000000
00010000
00000000
,
00011000
00000000
00001000
00000000
00000010
00000001
00000100
00000000
,
00000010
00000010
00000010
00000010
,
00000010
00000010
00000010
00000010
,
00010000
00001000
00010000
00001000
00100000
00010000
00100000
00010000
,
10000000
01000000
10000000
01000000
00100000
00000000
00011000
00000000
,
00000010
00001000
00000001
00000000
00000100
00000000
00000010
00000000
,
00010000
00000000
00001000
00100000
00000000
00000000
01000000
00000000
,
10000000
00010000
00100000
00000000
11000000
00000000
00001000
00000000
,
00010000
00000000
00000010
00001000
00000000
00000000
00000000
00000000
,
00000001
00000100
00000010
00000000
00010000
00000000
00001000
00000000
,
00100000
00000000
01000000
10000000
00000000
00000000
00010000
00000000
,
00100000
01000000
00001000
00011000
,
00000202
00000000
00000000
00000303
,
00000101
00001000
00000100
00010000
,
00001000
00000000
01000000
00010000
00000000
00000000
00100000
00000000
,
01000000
10000000
00010000
00100000
,
00001000
00000000
00011000
00000000
00000000
00010100
00000000
00000000
,
00001100
00001000
00000010
00000100
,
00000001
00000000
00000000
00000010
00000000
00000000
00000100
00000000
,
00010000
00001000
01000000
00010000
,
20020000
00000000
00000000
30030000
,
10000000
01000000
10000000
00010000
10000000
01000000
10000000
00010000
,
10000000
01000000
10000000
00010000
00000000
00000000
00000000
00000000
,
00000001
00000100
00000001
00001000
00000001
00000100
00000001
00001000
,
00000001
00000100
00000001
00001000
00000000
00000000
00000000
00000000
,
00000000
00000000
00000010
00000000
00000000
00010000
00000000
00000000
,
01000000
00000000
00000000
00100000
00000000
00000000
00001000
00000000
,
00010000
00001000
00010000
00000100
00010000
00001000
00010000
00000100
,
00020000
00000000
00000000
00030000
,
00001000
00010000
00001000
01000000
00001000
00010000
00001000
01000000
,
00001000
00010000
00001000
01000000
00000000
00000000
00000000
00000000
,
00010000
00100000
01000000
00100000
00010000
00100000
01000000
00100000
,
00010000
00100000
01000000
00100000
00000000
00000000
00000000
00000000
,
00000000
00000000
01000000
00000000
00000000
10000000
00000000
00000000
,
00010000
00000000
00000000
00100000
00000000
00000000
00001000
00000000
,
00010000
00000100
00001000
00000001
,
00001000
00000010
00010000
01010000
,
10100000
00000000
00000000
00000000
;

//--------------- dance-double - ----------------
#NOTES:
     dance-double:
     :
     Hard:
     13:
     0,0,0,0,0:
00000000
00000000
00000000
00000000
,
00000000
00000000
00000000
00000000
,
00000000
00000000
00000000
00000000
,
00011000
00000000
00001000
00000000
00000000
01000000
01000000
00000000
,
00010000
00000000
00100000
00000000
00000000
01000000
01000000
10000000
,
00010000
00000000
01000000
00000000
00000000
00001000
00001000
00000000
,
00010000
00000000
00000100
00000000
00000000
00001000
00001000
00000010
,
00000100
00000000
00000001
00000000
00000000
00000010
00000010
00000000
,
00011000
00000000
00010000
00000000
00000000
01000000
01000000
00100000
,
10000000
00000000
01000000
00000000
00000000
00010000
00010000
00000000
,
00001000
00000000
00000010
00000000
00000000
00000100
00000100
00000000
,
00001001
00000000
00000010
00000000
00000000
00010000
00010000
00000000
,
00001000
00000000
00100000
00000000
00000000
01000000
01000000
10000000
,
00010000
00000000
01000000
00000000
00000000
00001000
00001000
00000000
,
00010000
00000000
00000100
00000000
00000000
00001000
00001000
00000010
,
00001000
00000000
00000001
00000000
00000000
00000010
00000010
00000000
,
00000100
00000000
00010000
00000000
00000000
01000000
01000000
00000000
,
00100000
00000000
00010000
00000000
00000000
10000000
10000000
00000000
,
00100000
00000000
10000000
00000000
00000000
00010000
00010000
00000000
,
10010000
00000000
01000000
00010000
00001000
00010000
01000000
00000000
,
00110000
00000000
00010000
00001000
00000000
00000100
00001000
00000000
,
00001001
00000000
00000001
00000010
00001000
00000010
00000001
00000000
,
00001001
00000000
00010000
00001000
00000000
00001000
01000000
00000000
,
01100000
00000000
00100000
10000000
01000000
00100000
00010000
00000000
,
01100000
00000000
01000000
00001000
00000000
00001000
00010000
00000000
,
00011000
00000000
00010000
00001000
00000100
00001000
00010000
00000000
,
00011000
00000000
00001000
00010000
01000000
00010000
00001000
00000000
,
00011000
00000000
00010000
00001000
00000010
00001000
00010000
00000000
,
00011000
00000000
00001000
00100000
00000000
00100000
01000000
00000000
,
01100000
00000000
01000000
00100000
00001000
00100000
01000000
00000000
,
01100000
00000000
00000000
00000000
01000000
00000000
10000000
00000000
00010000
00000000
00000000
10000000
00000000
00000000
00100000
00000000
,
00010000
00000000
01000000
00010000
00001000
00010000
01000000
00000000
,
00011000
00000000
00010000
00001000
00000000
00001000
00010000
00000000
,
00001100
00000000
00001000
00000100
00000001
00000100
00001000
00000000
,
01010000
00000000
01000000
10000000
01000000
00010000
01000000
00000000
,
20020000
30000000
00100000
00000000
00100000
00000000
00100000
00000000
,
00100000
00100000
00100000
00130000
,
00010000
00100000
10000000
00100000
00010000
01000000
00001000
00010000
,
00001000
00000100
00000010
00010000
00001000
00000000
10010000
00000000
,
00100000
10000000
00010000
00100000
01000000
10000000
00000000
00010000
,
00100000
00000000
00001000
00010000
00000000
00000010
00001000
00000000
,
00000001
00000100
00000010
00001000
00000001
00000100
00000000
00000010
,
00010000
00000000
00001000
01000000
00000000
00010000
00100000
00000000
,
01000000
10000000
00010000
00100000
01000000
10000000
00000000
00001000
,
00010000
00000000
00000100
00001000
00000000
00000001
00001000
00000000
,
00000010
00001000
00000010
00010000
00001000
01000000
00000000
00010000
,
20020000
00000000
00000000
00000000
00000000
00000000
00000000
00000000
00000000
00000000
00000000
00000000
00000000
00000000
00000000
00000000
00000000
00000000
00000000
00000000
00000000
00000000
00000000
00000000
00000000
00000000
00000000
00000000
00000000
00000000
00000000
00000000
00000000
00000000
00000000
00000000
00000000
00000000
00000000
00000000
00000000
00000000
00000000
00000000
00000000
00000000
00000000
00000000
00000000
00000000
00000000
00000000
00000000
00000000
00000000
00000000
00000000
00000000
00000000
00000000
00000000
00000000
00000000
00000000
00000000
00000000
00000000
00000000
00000000
00000000
00000000
00000000
00000000
00000000
00000000
00000000
00000000
00000000
00000000
00000000
00000000
00000000
00000000
00000000
00000000
00000000
00000000
00000000
00000000
00000000
00000000
00000000
00000000
00000000
00000000
00000000
00000000
00000000
00000000
00000000
00000000
00000000
00000000
00000000
00000000
00000000
00000000
00000000
00000000
00000000
00000000
00000000
00000000
00000000
00000000
00000000
00000000
00000000
00000000
00000000
00000000
00000000
00000000
00000000
00000000
00000000
00000000
00000000
00000000
00000000
00000000
00000000
00000000
00000000
00000000
00000000
00000000
00000000
00000000
00000000
00000000
00000000
00000000
00000000
00000000
30030000
00000000
00000000
00000000
00000000
00000000
00000000
00000000
00000000
00000000
00000000
00000000
00000000
00000000
00000000
00000000
00000000
00000000
00000000
00000000
00000000
00000000
00000000
00000000
00000000
00000000
00000000
00000000
00000000
00000000
00000000
00000000
00000000
00000000
00000000
00000000
00000000
00000000
00000000
00000000
00000000
00000000
00000000
00000000
00000000
00000000
00000000
,
10000000
01000000
00100000
01000000
10000000
01000000
00010000
01000000
,
10000000
00000000
00010000
01000000
00000000
00001000
00010000
00000000
,
00000100
00001000
00000100
00000001
00000100
00001000
00000100
00000001
,
00000010
00000000
00011000
00000000
01000000
00110000
00000000
01000000
,
10010000
10000000
00100000
00010000
00100000
10000000
01000000
00010000
,
00001000
00000000
00000001
00000100
00000000
00001000
00000100
00000000
,
00001001
00000001
00000010
00001000
00010000
01000000
00000000
00100000
,
20020000
00000000
00000000
00000000
00000000
00000000
00000000
30030000
,
10000000
01000000
00100000
00010000
01000000
00100000
00010000
00001000
,
00100000
00010000
00001000
00000100
00000000
00000000
00000000
00000000
,
00000001
00000010
00000100
00001000
00000010
00000100
00001000
00010000
,
00000100
00001000
00010000
00100000
00000000
00000000
00000000
00000000
,
01000000
00000000
10010000
00000000
00000000
00011000
00000000
00000000
,
00010100
00000000
00000000
01010000
00000000
00000000
00011000
00000000
,
00000001
00000010
00000100
00001000
00000010
00000100
00001000
00010000
,
20020000
00000000
00000000
30030000
,
10000000
01000000
00100000
00010000
00001000
00000100
00000010
00000001
,
00000010
00000100
00001000
00010000
00000000
00000000
00000000
00000000
,
00000001
00000010
00000100
00001000
00010000
00100000
01000000
10000000
,
01000000
00100000
00010000
00001000
00000000
00000000
00000000
00000000
,
01000000
00000000
11000000
00000000
00000000
00110000
00000000
00000000
,
00001100
00000000
00000000
00000011
00000000
00000000
00000101
00000000
,
00000010
00001000
00000010
00010000
00001000
01000000
00010000
00100000
,
01000000
10000000
00010000
00100000
00001000
00000000
00011000
00000000
,
01010000
00000000
00000000
00000000
;

//--------------- dance-double - ----------------
#NOTES:
     dance-double:
     :
     Challenge:
     14:
     0,0,0,0,0:
00000000
00000000
00000000
00000000
,
00000000
00000000
00000000
00000000
,
00000000
00000000
00000000
00000000
,
00011000
00000000
01000000
00000000
00100000
00100000
00100000
00000000
,
10000000
10000000
10000000
00000000
00010000
01000000
00010000
01000000
,
00011000
00000000
00000010
00000000
00000001
00000001
00000001
00000000
,
00000100
00000100
00000100
00000000
00000010
00010000
00000010
00010000
,
00001100
00000000
00010000
00000000
00001000
00001000
00001000
00000000
,
01000000
01000000
01000000
00000000
00001000
01000000
00001000
01000000
,
10100000
00000000
01000000
00000000
00001000
00001000
00001000
00000000
,
00000011
00000000
00000100
00000000
00010000
00010000
00010000
00000000
,
00011000
00000000
01000000
00000000
00001000
00001000
00001000
00000000
,
00000100
00000100
00000100
00000000
00000001
00000010
00000001
00000010
,
00000101
00000000
00010000
00000000
00001000
00001000
00001000
00000000
,
01000000
01000000
01000000
00000000
00100000
10000000
00100000
10000000
,
01100000
00000000
00010000
00000000
00001000
00001000
00001000
00000000
,
00000100
00000100
00000100
00000000
00000010
00010000
00000010
00010000
,
00001100
00000000
01000000
00000000
00100000
00100000
00100000
00000000
,
11000000
00000000
00010000
00000000
00001000
00001000
00001000
00000000
,
10010000
01010000
00100000
01001000
,
00010000
00000000
00000010
00000001
00000000
00000001
00000010
00000000
,
00011000
00010100
00001000
00010100
,
00001000
00000000
01000000
10000000
00000000
10000000
01000000
00000000
,
00110000
00011000
00000100
00001001
,
00000110
00000000
00001000
01000000
00000000
01000000
00001000
00000000
,
00110000
00000000
10000000
00000000
01000000
00100000
00010000
00000000
,
00011000
00000000
00000001
00000000
00000010
00001000
00000100
00000000
,
01010000
10100000
10000000
00110000
,
00011000
00000000
00000100
00000010
00000000
00000010
00000100
00000000
,
00011000
00000101
00000010
00000101
,
00010000
00000000
00000000
00000000
00001000
00000000
00100000
00010000
00100000
00000000
00000000
01000000
00000000
00000000
10000000
00000000
,
11000000
00110000
00001000
10010000
,
01001000
00000000
00100000
00001000
00000000
00001000
00100000
00000000
,
00011000
00000000
00000010
00000000
00000100
00000001
00000100
00000000
,
00011000
00000000
00100000
00000000
10000000
01000000
00100000
00000000
,
00012000
00000000
00000100
00000000
00010000
00010000
00010000
00000000
,
00000100
00000100
00000100
00000000
00010000
00010000
00013000
00000000
,
00001000
00010000
00000010
00000100
00001000
00000100
00000001
00000010
,
00001000
00000000
00010000
00000000
01000000
00000000
10000000
00000000
00100000
00000000
00000000
00000000
20020000
00000000
00000000
30030000
,
10000000
01000000
00100000
00000000
00010000
00000000
01000000
00100000
00000000
00000000
10000000
00000000
00000000
00000000
00010000
00000000
,
01000000
00000000
00001000
00010000
00000000
00000100
00001000
00000000
,
00000001
00000010
00000100
00000000
00001000
00000000
00000010
00010000
00000000
00000000
00001000
00000000
00000000
00000000
01000000
00000000
,
00010000
00000000
00100000
01000000
00000000
00000000
10000000
00000000
,
00100000
10000000
01000000
00000000
00100000
00000000
00001000
00010000
00000000
00000000
00000010
00000000
00000000
00000000
00000100
00000000
,
00000001
00000000
00000010
00000100
00000000
00010000
00001000
00000000
,
01000000
00001000
00100000
00000000
00010000
00000000
10000000
01000000
00000000
00000000
00100000
00000000
00000000
00000000
00001000
00000000
,
00020020
00000000
00000000
00030030
,
00000001
00001000
00000010
00000000
00000200
00000000
00000001
00000000
00000301
00000000
00000200
00000000
00001000
00000000
00001300
00000000
,
00000100
00000000
00000001
00000010
00000000
00000100
00010000
00000000
,
00001000
01000000
00100000
00000000
02000000
00000000
00010000
00000000
03010000
00000000
02000000
00000000
10000000
00000000
13000000
00000000
,
01000000
00000000
00022000
00033000
00000100
00002002
00003003
00000010
,
00000001
00000010
00000100
00000000
00020000
00000000
00001000
00000000
00031000
00000000
00020000
00000000
01000000
00000000
01030000
00000000
,
00010000
00000000
00000100
00010000
00000000
00000010
00001000
00000000
,
00000100
00010000
00001000
00000000
00200000
00000000
00010000
00000000
00310000
00000000
00200000
00000000
10000000
00000000
10300000
00000000
,
20020000
00000000
00000000
00000000
00000000
00000000
00000000
30030000
,
10000000
00100000
01000000
00001000
00100000
10000000
00100000
00010000
,
00000010
00000100
00001000
00000001
00000000
00000000
00000000
00000000
,
00000100
00000001
00000100
00010000
01000000
00100000
10000000
01000000
,
00010000
01000000
00100000
00001000
00000000
00000000
00000000
00000000
,
00000010
00000000
00002002
00000000
00003003
00020200
00000000
00030300
,
02002000
00000000
00000000
00000000
03003000
00000000
00202000
00000000
00000000
00000000
00303000
00000000
00020020
00000000
00030030
00001000
,
00000001
00000100
00001000
00000100
00010000
01000000
10000000
01000000
,
00022000
00000000
00000000
00000000
00000000
00000000
00000000
00000000
00000000
00000000
00000000
00033000
00000000
00000000
00000000
00000000
,
00010000
00000100
00000001
00000100
00000010
00000001
00000100
00001000
,
00000100
00010000
01000000
00100000
00000000
00000000
00000000
00000000
,
10000000
01000000
00010000
00000100
00000001
00000100
00001000
01000000
,
10000000
00100000
00010000
00001000
00000000
00000000
00000000
00000000
,
00010000
00000000
00002020
00000000
00003030
00220000
00000000
00330000
,
00002200
00000000
00000000
00000000
00003300
00000000
02020000
00000000
00000000
00000000
03030000
00000000
00022000
00000000
00033000
00001000
,
00100000
10000000
00100000
00010000
00001000
00000010
00000001
00000010
,
00001000
00010000
01000000
10000000
01000000
00000000
00110000
00000000
,
00001100
00000000
00000000
00000000
;
