#TITLE:Settin' the Scene;
#SUBTITLE:;
#ARTIST:U1 night style;
#TITLETRANSLIT:;
#SUBTITLETRANSLIT:;
#ARTISTTRANSLIT:;
#GENRE:;
#CREDIT:;
#MUSIC:Settin' the Scene.ogg;
#BANNER:Settin' the Scene.png;
#BACKGROUND:Settin' the Scene-bg.png;
#CDTITLE:./CDTITLES/DanceDanceRevolution HOTTEST PARTY 2.png;
#SAMPLESTART:39.256;
#SAMPLELENGTH:17.023;
#SELECTABLE:YES;
#OFFSET:-0.006;
#BPMS:0.000=110.000;
#STOPS:;
#BGCHANGES:;
#FGCHANGES:;

//--------------- dance-single - ----------------
#NOTES:
     dance-single:
     :
     Beginner:
     2:
     0,0,0,0,0:
0000
0000
0000
0000
,
0000
0000
0000
0000
,
0010
0000
0000
0000
,
0100
0000
1000
0000
,
0001
0000
0000
0000
,
0100
0000
0010
0000
,
1000
0000
0000
0000
,
0100
0000
0010
0000
,
0001
0000
0000
0000
,
0110
0000
0000
0000
,
0100
0000
0001
1000
,
0100
0000
0010
0000
,
0001
0000
1000
0010
,
0100
0000
0001
0000
,
1000
0000
0100
0010
,
0001
0000
0100
0000
,
0010
0000
1000
0100
,
1000
0000
0001
0000
,
0000
0100
0000
0100
,
0000
0010
0000
1000
,
0000
0010
0000
0010
,
0000
0001
0000
0100
,
0000
0001
0000
0010
,
0000
0100
0000
1000
,
0000
0010
0000
0100
,
0010
0000
0100
0000
,
0001
0000
1000
0000
,
0100
0000
0010
0001
,
1000
0000
0010
0000
,
1000
0000
0001
0100
,
0010
0000
1000
0000
,
0100
0000
0010
0100
,
1000
0000
0010
0000
,
0100
0000
0001
0010
,
0100
0000
1000
0000
,
0010
0000
0100
0001
,
0100
0000
0010
0000
,
1000
0000
0100
1000
,
0100
0000
0010
0000
,
0001
0000
1000
0001
,
1000
0000
0010
0000
,
0100
0000
0001
0010
,
0002
0000
0000
0000
,
0003
0000
0000
0000
;

//--------------- dance-single - ----------------
#NOTES:
     dance-single:
     :
     Easy:
     5:
     0,0,0,0,0:
0000
0000
0000
0000
,
0000
0000
0000
0000
,
1001
1000
0010
0100
,
0001
0010
0000
0100
,
1000
0001
1000
0000
,
0010
0100
0001
1000
,
1001
1000
0100
0010
,
0100
1000
0000
0001
,
0100
0001
0010
0000
,
0100
1000
0001
0000
,
0100
0000
0001
0000
1000
0100
1000
0000
,
0010
0000
0100
0000
0001
0010
0001
0000
,
1000
0000
0010
0000
0100
0001
0100
0000
,
0001
0000
0010
0000
0100
1000
0100
0000
,
1000
0000
0001
0000
1000
0100
1000
0000
,
0001
0000
1000
0000
0001
0100
0001
0000
,
1000
0000
0001
0000
1000
0010
1000
0000
,
0001
0000
1000
0000
0001
0010
0001
0000
,
1001
0201
1000
0310
,
1001
2100
0010
3001
,
0110
1002
0010
0103
,
0101
1200
0010
0301
,
0110
1020
0100
0031
,
0011
1200
0010
0301
,
0101
1020
0100
0031
,
1001
0120
1000
0031
,
0100
0001
0100
0000
0010
0000
1000
0000
,
0100
1000
0100
0000
0010
0000
0001
0000
,
1000
0010
1000
0000
0001
0000
0100
0000
,
0001
0010
0001
0000
1000
0000
0100
0000
,
1000
0010
1000
0000
0001
0000
0100
0000
,
0001
0010
0001
0000
1000
0000
0100
0000
,
1000
0010
1000
0000
0001
0000
0010
0000
,
0100
1000
0100
0000
1001
0000
0110
0000
,
0100
0001
0100
0000
0010
0000
1000
0000
,
0100
1000
0100
0000
0010
0000
0001
0000
,
1000
0001
1000
0000
0010
0000
0100
0000
,
0001
0010
0001
0000
1000
0000
0100
0000
,
1000
0010
0001
0000
0100
0000
0010
0000
,
0001
0100
1000
0000
0010
0000
1000
0000
,
0001
0010
1000
0000
0100
0000
0010
0000
,
0001
0100
1000
0000
0010
0000
0100
0000
,
2002
0000
0000
0000
,
3003
0000
0000
0000
;

//--------------- dance-single - ----------------
#NOTES:
     dance-single:
     :
     Medium:
     7:
     0,0,0,0,0:
0000
0000
0000
0000
,
0000
0000
0000
0000
,
1000
0000
0001
0000
0000
0010
0000
0000
0100
0000
0000
1000
0000
0000
0010
0000
,
0000
1000
0000
0000
0001
0000
0000
0100
0000
0000
0000
0000
0010
0000
0000
0000
,
0000
0000
1000
0000
0000
0001
0000
0000
0010
0000
0000
0100
0000
0000
1000
0000
,
0010
0000
0100
0000
0001
1000
0100
0000
,
0010
0000
0001
0000
0000
1000
0000
0000
0010
0000
0000
1000
0000
0000
0001
0000
,
0000
0100
0000
0000
0010
0000
0000
1000
0000
0000
0000
0000
0100
0000
0000
0000
,
0010
0000
0001
0000
0000
1000
0000
0000
0100
0000
0000
1000
0000
0000
0001
0000
,
0100
0000
0010
1000
0100
0010
0001
0000
,
1001
0000
1000
0100
0001
0000
0100
0000
,
1001
0000
0001
0100
1000
0000
0010
0000
,
1010
0000
0100
0001
0010
0000
0100
0000
,
0011
0000
0100
1000
0010
0000
0100
0000
,
1001
0000
1000
0010
1000
0000
0100
0010
,
0100
0000
0010
0001
1000
0000
0010
0100
,
0001
0000
1000
0100
1000
0000
0001
0010
,
0001
0000
1000
0000
0010
0100
0010
0000
,
1001
0000
0000
2000
0000
3010
0100
0001
,
0020
0000
0000
0230
0000
1300
0001
1000
,
0020
0000
0000
0230
0000
0301
1000
0100
,
2000
0000
0000
3020
0000
0130
0001
0010
,
0200
0000
0000
2300
0000
3010
1000
0001
,
0020
0000
0000
0230
0000
1300
0100
0010
,
0200
0000
0000
2300
0000
3001
0100
0010
,
2000
3020
0230
0302
,
1003
0100
0001
0000
0100
0000
0010
0000
,
0001
0100
1000
0000
0100
0000
0010
0000
,
1000
0010
0100
0000
0001
0000
0010
0000
,
0100
1000
0001
0000
0100
0000
1001
0000
,
0010
1000
0001
0000
0010
0000
1001
0000
,
0100
1000
0010
0000
0100
0000
1001
0000
,
0010
0001
0100
0000
0010
0000
1001
0000
,
0010
1000
0001
0000
0100
0000
1001
0000
,
1100
0000
0010
0001
0100
0010
1000
0000
,
1001
0000
0001
0100
1000
0100
0010
0000
,
1100
0000
0010
0001
1000
0010
1000
0000
,
0110
0000
0001
0100
1000
0100
0010
0000
,
1001
0000
1000
0100
0001
0100
0010
0000
,
1001
0000
0001
0010
0100
1000
0010
0000
,
0110
0000
1000
0100
0010
1000
0100
0000
,
0110
0000
0001
0010
0100
0001
0010
0000
,
2002
0000
0000
0000
,
3003
0000
0000
0000
;

//--------------- dance-single - ----------------
#NOTES:
     dance-single:
     :
     Hard:
     11:
     0,0,0,0,0:
0000
0000
0000
0000
,
0000
0000
0000
0000
,
1000
0000
0001
0100
0001
0100
0000
0000
0010
1000
0010
1000
0000
0000
0100
1000
,
0100
1000
0000
0000
0001
0010
0001
0010
0000
0000
0001
0000
1000
0000
0000
0000
,
0010
0000
1000
0001
1000
0001
0000
0000
0100
0001
0100
0001
0000
0000
1000
0000
,
0010
0000
1001
0000
0100
1000
0001
0010
,
0100
0000
1000
0001
1000
0001
0000
0000
1000
0100
1000
0100
0000
0000
0010
0001
,
0010
0001
0000
0000
0100
0001
0100
0001
0000
0000
1000
0000
1001
0000
0000
0000
,
0010
0000
1000
0010
1000
0010
0000
0000
1000
0001
1000
0001
0000
0000
0000
0000
,
0010
0100
1000
0010
0100
0001
1001
0000
,
1000
0000
0100
0000
0001
0000
0100
0000
1000
0000
0001
0100
0001
0000
0000
0000
,
1000
0000
0010
0000
0001
0000
0010
0000
1000
0000
0100
0010
0100
0000
0000
0000
,
1000
0000
0001
0000
0010
0000
1000
0000
0010
0000
0001
0100
0001
0000
0000
0000
,
1000
0000
0001
0000
1000
0000
0100
0000
0010
0000
0001
1000
0001
0000
0000
0000
,
0100
0000
0001
0100
0001
0100
0001
0000
1000
0000
0010
0000
1000
0000
0001
0000
,
0100
0000
0010
1000
0010
1000
0010
0000
1000
0000
0100
0000
0010
0000
0000
0000
,
0001
0000
1000
0100
1000
0100
1000
0000
0001
0000
0010
0000
0100
0000
1000
0000
,
0001
0000
0100
0001
0100
0000
0000
0000
1010
0000
0000
0000
0101
0000
0000
0000
,
0011
0000
0100
1000
0001
0010
0100
1000
,
0002
0000
0103
0002
0000
1003
0010
1000
,
0002
0000
0103
2000
0000
3001
0010
0100
,
2000
0000
3002
0000
1003
0100
0010
0100
,
2000
0000
3001
0200
0000
0310
1000
0001
,
0020
0000
0130
2000
0000
3001
1000
0010
,
0200
0000
0301
0020
0000
0130
1000
0001
,
0001
0001
0001
1000
1000
1000
1000
0010
,
0100
0000
0001
0100
0001
0100
0000
0000
0010
1000
0010
1000
0000
0000
0100
1000
,
0100
1000
0000
0000
0001
0010
0001
0010
0000
0000
0001
0000
1001
0000
0000
0000
,
1000
0000
0001
0100
0001
0100
0000
0000
0010
1000
0010
1000
0000
0000
0001
0000
,
0010
0100
1000
0010
0001
0010
1000
0000
,
0001
0000
1000
0100
1000
0100
0000
0000
0010
0001
0010
0001
0000
0000
1000
0001
,
1000
0001
0000
0000
0100
0001
0100
0001
0000
0000
1000
0000
0010
0000
0000
0000
,
1000
0000
0001
0010
0001
0010
0000
0000
0100
1000
0100
1000
0000
0000
0001
0000
,
1001
1000
0010
0100
0001
0010
0100
0000
,
1000
0100
0001
0100
1000
0010
0100
0001
,
0010
0100
1000
0010
0001
0010
1000
0100
,
0010
1000
0010
0001
1000
0010
0100
0001
,
0010
0000
1000
0000
0010
0000
0001
0000
1000
0000
0010
0000
0100
0000
0001
0100
,
0001
0000
1000
0000
0100
0000
0010
0001
0010
0000
0001
0000
1000
0000
0010
1000
,
0010
0000
0100
0000
0001
0000
1000
0100
1000
0000
0001
0000
0010
0000
0001
0100
,
0001
0000
1000
0000
0010
0000
1000
0100
1000
0000
0001
0000
0010
0000
0001
1000
,
0001
0000
0100
0000
0001
0000
1000
0010
1000
0000
0001
0000
0100
0000
0010
0000
,
2000
0000
0000
0000
,
3000
0000
0000
0000
;

//--------------- dance-single - ----------------
#NOTES:
     dance-single:
     :
     Challenge:
     13:
     0,0,0,0,0:
0000
0000
0000
0000
,
0000
0000
0000
0000
,
1001
0000
1000
0001
0100
0001
0000
0000
1000
0100
1000
0001
0000
0000
0010
0100
,
1000
0001
0000
0000
0100
0001
1000
0010
0000
0100
0001
0000
1001
0000
0020
0030
,
1100
0000
0001
0100
0001
1000
0000
0000
0100
1000
0010
0100
0000
0000
0000
0000
,
0020
1030
2000
3100
0200
0310
0020
0031
,
1001
0000
0001
1000
0010
1000
0000
0000
0001
0010
0100
1000
0000
0000
0001
0100
,
0010
1000
0000
0000
0100
1000
0001
0010
0000
0001
1000
0000
1001
0000
0000
0000
,
1010
0000
0000
0000
0100
0000
0001
0000
0010
0000
0100
0000
0000
0000
0000
0000
1000
0000
0010
0000
0100
0000
0001
0000
0000
0000
0000
0000
1000
0000
0001
1000
,
0001
0100
0000
0001
1000
0100
1000
0000
0001
0010
0001
0000
1000
0010
2000
3200
,
0300
1000
0001
0010
0100
0010
0001
1000
0001
0000
0100
0001
0000
0000
1000
0010
,
1000
0001
0010
0100
1000
0000
0001
1000
0001
0000
0100
0001
0000
0000
1000
0010
,
1000
0001
0000
1000
0100
0000
0010
0000
0100
0000
1000
0001
0000
0000
0100
0000
,
0001
1000
0000
0001
0100
0000
0010
0000
1000
0000
0001
0010
0100
0000
0000
1000
,
0000
0100
0000
1000
0001
0000
0010
0000
1001
0000
1000
0010
0000
0101
0000
0001
,
0000
0010
0000
0100
1000
0000
0001
0010
0100
0000
1000
0001
0000
0110
0000
0000
,
0010
1000
0000
0001
0100
0000
0010
1000
0100
0000
0010
0000
0001
0000
1000
0000
,
1100
0000
1010
0000
0100
0001
0010
0000
,
0101
0000
0001
0100
0010
1000
0100
0010
,
0002
0000
1003
0200
0000
0310
0001
1000
,
0020
0000
1030
0001
0100
0001
1000
0100
,
2000
0000
3000
0000
0011
0000
0000
0000
0100
0001
0100
0000
1010
0000
0000
0000
,
1100
0000
0001
0010
0100
1000
0010
0100
,
0002
0000
1003
0002
0000
0103
0001
1000
,
0200
0000
0000
0000
0000
0000
0000
0000
0310
0000
0000
0000
0001
0000
0000
0000
1000
0000
0000
0000
0010
0000
0000
0000
1000
0000
0000
0000
0100
0000
1000
0001
,
2000
0000
0001
0000
0001
0000
0001
0000
0001
0000
0001
0000
0001
0000
3001
1000
,
0000
0001
0000
0100
0001
1000
0100
0000
1000
0100
0010
0001
0000
0000
1000
0010
,
0000
0100
0001
0000
0010
0000
0100
1000
0001
0100
0001
1000
0000
0010
0000
1000
,
0000
0001
0010
0001
1000
0000
0010
1000
0001
0000
0100
0010
0000
0000
1000
0100
,
0010
0100
1000
0001
0100
0000
0010
1000
0001
0000
1000
0100
0000
0000
0010
0001
,
0000
0100
0001
1000
0100
0000
0010
0001
1000
0000
0010
1000
0000
0000
0000
0001
,
0100
0001
1000
0100
1000
0000
0001
0010
0100
0000
1000
0001
0000
0000
0000
0110
,
0000
0000
0100
0000
0000
0000
0001
0000
0010
0000
0000
0000
0100
0000
1000
0000
0100
0000
0010
0000
0100
0000
1000
0000
0000
0000
0000
0000
0001
0000
0100
0001
,
0100
0010
1000
0001
1000
0100
1000
0001
0010
0000
0010
0000
0100
0000
0100
0000
,
1000
0000
1000
0100
0010
0100
1000
0001
0100
0000
0010
1000
0000
0000
0001
0010
,
0100
1000
0001
0000
0100
0000
0010
0000
1000
0000
0001
0010
0000
0000
0000
0100
,
0000
1000
0000
0001
1000
0000
0101
0000
0001
0000
1000
0001
0100
0000
0000
0010
,
0000
0000
0010
0000
0000
0000
0001
0000
0010
0000
0000
0000
0100
0000
1000
0000
0001
0000
0000
0000
0001
0000
0000
0000
1000
0000
0000
0000
0001
0000
1000
0100
,
1000
0000
0001
0010
0100
1000
0100
0010
0001
0000
1000
0001
0000
0000
0000
0101
,
0000
0100
0001
1000
0010
0000
1000
0100
1000
0000
0001
0010
0000
0000
0110
0000
,
0100
0000
1000
0000
0000
0000
0000
0000
0101
0000
0000
0000
1000
0000
0001
0000
1000
0000
0010
0000
0100
0000
0000
0000
0001
0000
0000
0000
1000
0000
0001
1000
,
0001
0100
0000
0010
1000
0001
1000
0100
0010
0000
0110
0000
1100
0000
0000
0000
,
2002
0000
0000
0000
3003
0000
0100
0000
0001
0000
1000
0000
0010
0000
0100
0010
;

//--------------- dance-double - ----------------
#NOTES:
     dance-double:
     :
     Easy:
     5:
     0,0,0,0,0:
00000000
00000000
00000000
00000000
,
00000000
00000000
00000000
00000000
,
00010000
00001000
00010000
00000000
00001000
00000000
01000000
00000000
,
00010000
00100000
00010000
00000000
10000000
00000000
01000000
00000000
,
00100000
00001000
00100000
00000000
00001000
00000000
00010000
00000000
,
00000010
00001000
00000010
00000000
00000100
00000000
00000001
00000000
,
00000010
00000100
00000010
00000000
00001000
00000000
00010000
00000000
,
01000000
00100000
01000000
00000000
10000000
00000000
00100000
00000000
,
00010000
00001000
00010000
00000000
00000100
00000000
00000010
00000000
,
00000001
00000100
00000001
00000000
00001000
00000000
00000100
00000000
,
00011000
01000000
00100000
00010000
,
11000000
00010000
01000000
00001000
,
00010100
00001000
00000010
00000001
,
00000110
00000001
00000100
00001000
,
00010000
00001000
00010000
00000000
01000000
00000000
00100000
00000000
,
10000000
01000000
10000000
00000000
00010000
00000000
01000000
00000000
,
00001000
00000100
00001000
00000000
00000010
00000000
00000001
00000000
,
00001001
00000100
00001001
00000010
,
00021000
01000000
00001000
01030000
,
02010000
00100000
10000000
03100000
,
00012000
00000010
00000100
00003001
,
00000201
00000010
00001000
00000301
,
00021000
00000100
00001000
00030010
,
00012000
01000000
00010000
00103000
,
02010000
10000000
00100000
03010000
,
00010000
00001000
00010000
00001000
,
00010000
00000100
00001000
00000000
00000001
00000000
00000100
00000000
,
00000010
00010000
00001000
00000000
00100000
00000000
01000000
00000000
,
10000000
00010000
01000000
00000000
00001000
00000000
00010000
00000000
,
00000100
00001000
00000001
00000000
00000010
00000000
00000100
00000000
,
00010000
00001000
00100000
00000000
00010000
00000000
10000000
00000000
,
01000000
00100000
00001000
00000000
00010000
00000000
00000010
00000000
,
00000100
00000001
00000010
00000000
00001000
00000000
00010000
00000000
,
01000000
00010000
00100000
00000000
01000000
00000000
10000000
00000000
,
00100000
00100000
00100000
00000000
01000000
00000000
00001000
00000000
,
00010000
00010000
00010000
00000000
00000100
00000000
00001000
00000000
,
00000001
00000001
00000001
00000000
00000100
00000000
00000010
00000000
,
00010000
00010000
00010000
00000000
00001000
00000000
00100000
00000000
,
01000000
01000000
01000000
00000000
10000000
00000000
00010000
00000000
,
01000000
01000000
01000000
00000000
00001000
00000000
00010000
00000000
,
00000010
00000010
00000010
00000000
00000100
00000000
00000001
00000000
,
00000010
00000010
00000010
00000000
00000100
00000000
00010000
00000000
,
00002000
00000000
00000000
00000000
,
00003000
00000000
00000000
00000000
;

//--------------- dance-double - ----------------
#NOTES:
     dance-double:
     :
     Medium:
     7:
     0,0,0,0,0:
00000000
00000000
00000000
00000000
,
00000000
00000000
00000000
00000000
,
00010000
00000000
00001000
00000000
00000000
01000000
00000000
00000000
00010000
00000000
00000000
10000000
00000000
00000000
01000000
00000000
,
00000000
00100000
00000000
00000000
00001000
00000000
00000000
00010000
00000000
00000000
00000000
00000000
00000100
00000000
00000000
00000000
,
00001000
00000000
00000010
00000000
00000000
00000100
00000000
00000000
00000001
00000000
00000000
00000010
00000000
00000000
00000000
00000000
,
00000100
00000000
00010000
00000000
00001000
01000000
00010000
10000000
,
01000000
00000000
00100000
00000000
00000000
00001000
00000000
00000000
01000000
00000000
00000000
00100000
00000000
00000000
10000000
00000000
,
00000000
00010000
00000000
00000000
00100000
00000000
00000000
01000000
00000000
00000000
00000000
00000000
10000000
00000000
00000000
00000000
,
00010000
00000000
01000000
00000000
00000000
00001000
00000000
00000000
00010000
00000000
00000000
00000100
00000000
00000000
00000000
00000000
,
00001000
00000000
00000010
00000000
00000100
00000001
00000010
00000100
,
00010000
00000000
00011000
00000000
00001000
01000000
10000000
00000000
,
01000000
00000000
10010000
00000000
10000000
00100000
00010000
00000000
,
00001000
00000000
00010100
00000000
00000001
00000010
00010000
00000000
,
00000100
00000000
00001010
00000000
00000100
00010000
01000000
00000000
,
00100000
00000000
00011000
00000000
00000010
00001000
00000001
00000000
,
00000010
00000000
00011000
00000000
01000000
00010000
00100000
00000000
,
01000000
00000000
10010000
00000000
00100000
10000000
00001000
00000000
,
00010000
00000000
00001010
00000000
00000001
00000100
00010000
00000000
,
00000210
00000000
00010300
00000000
00001000
01000000
00010000
10000000
,
02000000
00000000
00100000
00000000
03001000
00010000
00000100
00001000
,
00000020
00000000
00000100
00000000
00000031
00000010
00000100
00010000
,
00002000
00000000
01000000
00000000
00023000
00000000
10000000
00030000
,
10020000
00000000
01000000
00000000
10030000
00100000
00001000
01000000
,
00200000
00000000
00010000
00000000
00301000
00000010
00000001
00000100
,
00020000
00000000
00001000
00000000
00031000
00100000
00010000
10000000
,
02000000
00000000
00001000
00000000
03010000
00010000
00010000
00010000
,
00000010
00000000
00000000
00000000
00001010
00000000
00000000
00000000
00000100
00000000
00000000
00000001
00000010
00000000
00000000
00000000
,
00010000
00000000
00000000
00000000
01001000
00000000
00000000
00000000
00100000
00000000
00000000
00010000
10000000
00000000
00000000
00000000
,
00100000
00000000
00000000
00000000
01001000
00000000
00000000
00000000
00010000
00000000
00000000
00000100
00001000
00000000
00000000
00000000
,
00000001
00000000
00000000
00000000
00000110
00000000
00000000
00000000
00010000
00000000
00000000
00001000
00100000
00000000
00000000
00000000
,
01000000
00000000
00000000
00000000
10010000
00000000
00000000
00000000
10000000
00000000
00000000
00010000
01000000
00000000
00000000
00000000
,
00001000
00000000
00000000
00000000
00010100
00000000
00000000
00000000
00001000
00000000
00000000
00000001
00000010
00000000
00000000
00000000
,
00000100
00000000
00000000
00000000
00011000
00000000
00000000
00000000
01000000
00000000
00000000
00010000
00100000
00000000
00000000
00000000
,
01000000
00000000
00000000
00000000
10010000
00000000
00000000
00000000
10000000
00000000
00000000
00100000
01000000
00000000
00000000
00000000
,
00001000
00000000
00011000
00000000
00010000
00000100
00001000
00000000
,
00000010
00000000
00000101
00000000
00000001
00000010
00010000
00000000
,
00001000
00000000
01010000
00000000
10000000
01000000
00001000
00000000
,
00100000
00000000
10010000
00000000
10000000
00100000
00001000
00000000
,
00010000
00000000
00001100
00000000
00000001
00000010
00010000
00000000
,
00001000
00000000
01010000
00000000
00100000
00001000
00000010
00000000
,
00000001
00000000
00001010
00000000
00000100
00010000
01000000
00000000
,
00100000
00000000
10010000
00000000
01000000
00001000
00000100
00000000
,
00002002
00000000
00000000
00000000
,
00003003
00000000
00000000
00000000
;

//--------------- dance-double - ----------------
#NOTES:
     dance-double:
     :
     Hard:
     11:
     0,0,0,0,0:
00000000
00000000
00000000
00000000
,
00000000
00000000
00000000
00000000
,
00010000
00000000
00000100
00001000
00000100
00001000
00000000
00000000
00000001
00000100
00000001
00000100
00000000
00000000
00000010
00010000
,
00000010
00010000
00000000
00000000
00001000
01000000
00001000
01000000
00000000
00000000
00010000
00000000
00100000
00000000
01000000
00000000
,
10000000
00000000
00010000
01000000
00010000
01000000
00000000
00000000
00001000
00010000
00001000
00010000
00000000
00000000
00000100
00000000
,
00001000
00000100
00000001
00000100
00001000
00000000
00011000
00000000
,
00001000
00000000
01000000
00010000
01000000
00010000
00000000
00000000
10000000
01000000
10000000
01000000
00000000
00000000
00100000
01000000
,
00100000
01000000
00000000
00000000
00100000
00001000
00100000
00001000
00000000
00000000
00010000
00000000
00000010
00000000
00000000
00000000
,
00001000
00000000
00000001
00000100
00000001
00000100
00000000
00000000
00000100
00010000
00000100
00010000
00000000
00000000
00000000
00000000
,
00001000
00010000
01000000
00010000
00001000
00100000
01000000
10000000
,
10010000
00000000
00000000
00000000
10000000
00000000
00001000
00000000
01000000
00000000
00000100
00010000
00000100
00000000
00000000
00000000
,
00001000
00000000
00000010
00000000
00000100
00000000
00000001
00000000
00000010
00000000
00000100
00010000
00000100
00000000
00000000
00000000
,
01000000
00000000
00001000
00000000
00100000
00000000
01000000
00000000
10000000
00000000
00010000
01000000
00010000
00000000
00000000
00000000
,
01000000
00000000
00000100
00000000
00001000
00000000
00000001
00000000
00000100
00000000
00000010
00010000
00000010
00000000
00010000
00000000
,
00001000
00000000
01000000
00010000
01000000
00010000
00000000
00000000
10000000
01000000
10000000
01000000
00000000
00000000
00100000
00001000
,
00100000
00001000
00000000
00000000
00010000
00000010
00010000
00000010
00000000
00000000
00001000
00000000
00000001
00000000
00000100
00000000
,
00000010
00000000
00010000
00001000
00010000
00001000
00000000
00000000
01000000
00010000
01000000
00010000
00000000
00000000
10000000
00000000
,
01100000
01000000
10000000
00010000
01000000
01000000
01001000
00000000
,
00022000
00000000
00000000
00000000
00033000
00000000
00010000
00000000
00000000
00001000
00000000
00000000
00000100
00000000
00000000
00000001
00000000
00000000
00000100
00000000
00000000
00001000
00000000
00000000
,
00020000
00000000
00000000
00000000
00030000
00000000
00001000
00000000
00000000
00010000
00000000
00000000
01000000
00000000
00000000
10000000
00000000
00000000
01000000
00000000
00000000
00010000
00000000
00000000
,
00002000
00000000
00000000
00000000
00003000
00000000
00010000
00000000
00000000
00001000
00000000
00000000
00000010
00000000
00000000
00000001
00000000
00000000
00000010
00000000
00000000
00001000
00000000
00000000
,
00020000
00000000
00000000
00000000
00030000
00000000
00001000
00000000
00000000
00010000
00000000
00000000
00100000
00000000
00000000
10000000
00000000
00000000
00100000
00000000
00000000
00010000
00000000
00000000
,
00002000
00000000
00000000
00000000
00003000
00000000
10000000
00000000
00000000
01000000
00000000
00000000
00010000
00000000
00000000
01000000
00000000
00000000
10000000
00000000
00000000
01000000
00000000
00000000
,
00020000
00000000
00000000
00000000
00030000
00000000
00001000
00000000
00000000
00000100
00000000
00000000
00000001
00000000
00000000
00000100
00000000
00000000
00001000
00000000
00000000
00000100
00000000
00000000
,
00000002
00000000
00000000
00000000
00000003
00000000
00000001
00000000
00000000
00000010
00000000
00000000
00001000
00000000
00000000
00000010
00000000
00000000
00000001
00000000
00000000
00000010
00000000
00000000
,
00002000
00000000
00000000
00000000
00003000
00000000
00020000
00000000
00000000
00000000
00030000
00000000
00100000
00000000
00000000
10000000
00000000
00000000
01000000
00000000
00000000
00100000
00000000
00000000
,
00010000
00000000
01000000
00001000
01000000
00001000
00000000
00000000
00010000
00000100
00010000
00000100
00000000
00000000
00001000
00000001
,
00001000
00000001
00000000
00000000
00000100
00000001
00000100
00000001
00000000
00000000
00010000
00000000
00000010
00000000
00000000
00000000
,
00100000
00000000
00001000
01000000
00001000
01000000
00000000
00000000
00010000
00100000
00010000
00100000
00000000
00000000
01000000
00000000
,
10000000
00000000
00010000
01000000
00001000
00010000
00000100
00000100
,
00001000
00000000
00000001
00000100
00000001
00000100
00000000
00000000
00000010
00010000
00000010
00010000
00000000
00000000
00001000
00100000
,
00001000
00100000
00000000
00000000
00010000
10000000
00010000
10000000
00000000
00000000
00100000
00000000
01010000
00000000
00000000
00000000
,
01000000
00000000
00001000
00010000
00001000
00010000
00000000
00000000
00000100
00001000
00000100
00001000
00000000
00000000
00000010
00000000
,
00000101
00000001
00000010
00001000
00010000
01000000
00100000
00000000
,
00010000
00000000
10000000
00010000
10000000
00010000
01000000
00000000
00001000
00000000
00010000
00000000
00000100
00000000
00001000
00000000
,
00000001
00000000
00000100
00000001
00000100
00000001
00000010
00000000
00000100
00000000
00010000
00000000
00001000
00000000
01000000
00000000
,
00010000
00000000
00100000
01000000
00100000
01000000
00100000
00000000
10000000
00000000
00100000
00000000
00010000
00000000
01000000
00000000
,
00001000
00000000
00010000
00000010
00010000
00000010
00010000
00000000
00000010
00000000
00001000
00000000
00000001
00000000
00000100
00000000
,
00000010
00000000
00010000
00001000
00010000
00001000
00010000
00000000
00001000
00000000
01000000
00000000
00010000
00000000
00100000
00000000
,
01000000
00000000
10000000
01000000
10000000
01000000
10000000
00000000
00100000
00000000
01000000
00000000
00001000
00000000
00010000
00000000
,
00000100
00000000
00001000
00000001
00001000
00000001
00001000
00000000
00000010
00000000
00000100
00000000
00000001
00000000
00000010
00000000
,
00000100
00000000
00010000
00001000
01000000
00000000
00010000
00000000
00100000
00000000
00100000
00000000
10000000
00000000
01000000
00000000
,
00002000
00000000
00000000
00000000
,
00003000
00000000
00000000
00000000
;

//--------------- dance-double - ----------------
#NOTES:
     dance-double:
     :
     Challenge:
     13:
     0,0,0,0,0:
00000000
00000000
00000000
00000000
,
00000000
00000000
00000000
00000000
,
00011000
00000000
00001000
01000000
00010000
00100000
00000000
00000000
01000000
10000000
00010000
00100000
00000000
00000000
00001000
00010000
,
00000100
00000010
00000000
00000000
00000001
00001000
00000100
00010000
00000000
00001000
01000000
00000000
10010000
00000000
20000000
30000000
,
00110000
00000000
01000000
00001000
00010000
00000010
00000000
00000000
00000100
00000001
00000010
00000100
00000000
00000000
00000000
00000000
,
00000020
00000130
00000200
00010300
00020000
00031000
00002000
01003000
,
10010000
00000000
10000000
00100000
01000000
00010000
00000000
00000000
10000000
01000000
00100000
00001000
00000000
00000000
00010000
00000010
,
00001000
00000001
00000000
00000000
00000100
00000010
00010000
00000100
00000000
00010000
00001000
00000000
11000000
00000000
00100000
10000000
,
00100000
00000000
00000000
00000000
01000000
00000000
00001000
00000000
00010000
00000000
00000100
00000000
00000000
00000000
00000000
00000000
00100000
00000000
00001000
00000000
00010000
00000000
00000010
00000000
00000000
00000000
00000000
00000000
00000100
00000000
00000001
00000010
,
00000001
00000100
00000000
00000010
00010000
00001000
00100000
00000000
01000000
10000000
00100000
00000000
10000000
00100000
20000000
30020000
,
00030000
01000000
00001000
00010000
00000100
00001000
00000001
00000010
00000100
00000000
00010000
00001000
00000000
00000000
01000000
00010000
,
10000000
00100000
01000000
00010000
00100000
00000000
01000000
10000000
00010000
00000000
01000000
00001000
00000000
00000000
00010000
00000100
,
00001000
00000001
00000000
00000100
00000010
00000000
00010000
00000000
00001000
00000000
00100000
01000000
00000000
00000000
10000000
00000000
,
00100000
10000000
00000000
00010000
01000000
00000000
00001000
00000000
00010000
00000000
00000100
00001000
00000010
00000000
00000000
00000100
,
00000000
00000001
00000000
00000010
00000100
00000000
00010000
00000000
00011000
00000000
10000000
01000000
00000000
00110000
00000000
00001010
,
00000000
00000100
00000000
00000001
00001000
00000000
00000100
00010000
00001000
00000000
00100000
01000000
00000000
11000000
00000000
00000000
,
10000000
01000000
00000000
00100000
00001000
00000000
00010000
00000100
00001000
00000000
00000010
00000000
00000100
00000000
00000001
00000000
,
00000011
00000000
00001100
00000000
00010000
01000000
10000000
00000000
,
10010000
00000000
10000000
01000000
00010000
00001000
00000010
00000001
,
00000200
00000000
00000300
00002000
00000000
01003000
00100000
10000000
,
02000000
00000000
03100000
00001000
00010000
00000010
00001000
00000001
,
00000200
00000000
00000300
00000000
00011000
00000000
00000000
00000000
10000000
01000000
10000000
00000000
00011000
00000000
00000000
00000000
,
00000101
00000000
00001000
00000010
00010000
00001000
00100000
00010000
,
02000000
00000000
13000000
00200000
00000000
01300000
00001000
00010000
,
00000200
00000000
00000000
00000000
00000000
00000000
00000000
00000000
00000310
00000000
00000000
00000000
00000100
00000000
00000000
00000000
00001000
00000000
00000000
00000000
00000001
00000000
00000000
00000000
00000100
00000000
00000000
00000000
00000010
00000000
00010000
00000100
,
00020000
00000000
00001000
00000000
00001000
00000000
00001000
00000000
00001000
00000000
00001000
00000000
00001000
00000000
00031000
00010000
,
00000000
00000010
00000000
00000100
00000001
00000010
00000100
00000000
00010000
00001000
01000000
00010000
00000000
00000000
10000000
01000000
,
00000000
00100000
00001000
00000000
00010000
00000000
00000100
00001000
00000001
00000010
00000100
00001000
00000000
00000010
00000000
00010000
,
00000000
00001000
01000000
00010000
10000000
00000000
01000000
10000000
00010000
00000000
00100000
01000000
00000000
00000000
10000000
00100000
,
01000000
00001000
00010000
00000100
00000010
00000000
00000001
00001000
00000100
00000000
00010000
00001000
00000000
00000000
01000000
00100000
,
00000000
10000000
01000000
00100000
01000000
00000000
10000000
00100000
01000000
00000000
00001000
00010000
00000000
00000000
00000000
00000010
,
00001000
00000010
00000100
00000001
00000010
00000000
00000100
00001000
00000001
00000000
00000100
00000010
00000000
00000000
00000000
00011000
,
00000000
00000000
00010000
00000000
00000000
00000000
00001000
00000000
00100000
00000000
00000000
00000000
01000000
00000000
10000000
00000000
00010000
00000000
00100000
00000000
00001000
00000000
00010000
00000000
00000100
00000000
00000000
00000000
00000010
00000000
00000001
00000100
,
00000001
00001000
00000100
00010000
00001000
01000000
00010000
00100000
01000000
00000000
01000000
00000000
10000000
00000000
10000000
00000000
,
10010000
00000000
10000000
01000000
00100000
00001000
00010000
00000010
00000100
00000000
00000001
00000010
00000000
00000000
00000100
00010000
,
00001000
01000000
00010000
00000000
00100000
00000000
01000000
00000000
10000000
00000000
00010000
01000000
00000000
00000000
00000000
00001000
,
00000000
00010000
00000000
00000100
00001000
00000000
00000011
00000000
00000100
00000000
00010000
00001000
01000000
00000000
00000000
00010000
,
00000000
00000000
00100000
00000000
00000000
00000000
01000000
00000000
10000000
00000000
00000000
00000000
00100000
00000000
01000000
00000000
00001000
00000000
00000000
00000000
00010000
00000000
00000000
00000000
00000100
00000000
00000000
00000000
00000010
00000000
00000001
00001000
,
00000001
00000000
00000010
00000100
00010000
00001000
01000000
00100000
10000000
00000000
00010000
01000000
00000000
00000000
00000000
00011000
,
00000000
00010000
00000010
00001000
00000100
00000000
00000010
00000001
00000100
00000000
00000010
00010000
00000000
00000000
00011000
00000000
,
01000000
00000000
00100000
00000000
00000000
00000000
00000000
00000000
10010000
00000000
00000000
00000000
10000000
00000000
01000000
00000000
00100000
00000000
00001000
00000000
00010000
00000000
00000000
00000000
00000100
00000000
00000000
00000000
00001000
00000000
00000001
00000010
,
00000001
00001000
00000000
00000100
00010000
00001000
01000000
00100000
10000000
00000000
11000000
00000000
00110000
00000000
00000000
00000000
,
00022000
00000000
00000000
00000000
00033000
00000000
00010000
00000000
00000100
00000000
01000000
00000000
00001000
00000000
00010000
00001000
;
