#TITLE:Make Your Move;
#SUBTITLE:;
#ARTIST:good-cool feat. JP miles;
#TITLETRANSLIT:;
#SUBTITLETRANSLIT:;
#ARTISTTRANSLIT:;
#GENRE:;
#CREDIT:;
#MUSIC:Make Your Move.ogg;
#BANNER:Make Your Move.png;
#BACKGROUND:Make Your Move-bg.png;
#CDTITLE:./CDTITLES/DANCE DANCE REVOLUTION 4THMIX.PNG;
#SAMPLESTART:59.879;
#SAMPLELENGTH:20.000;
#SELECTABLE:YES;
#OFFSET:-2.004;
#BPMS:0.000=120.000;
#STOPS:;
#DISPLAYBPM:120.000;
#BGCHANGES:;
#FGCHANGES:;

//--------------- dance-single - ----------------
#NOTES:
     dance-single:
     :
     Beginner:
     2:
     0,0,0,0,0:
0000
0000
0000
0000
,
0000
0000
0000
0000
,
0010
0000
0000
0000
,
1001
0000
0000
0000
,
0100
0000
0010
0000
,
1000
0000
0001
0000
,
1000
0000
0100
0000
,
0010
0000
0001
0000
,
0100
0000
0010
0000
,
1000
0000
0001
0000
,
1000
0000
0100
0000
,
0010
0000
0001
0000
,
0100
0000
0000
0000
,
0010
0000
1000
0000
,
0001
0000
0000
0000
,
0010
0000
0100
0000
,
1000
0000
0000
0000
,
0010
0000
0100
0000
,
0001
0000
0000
0000
,
1000
0000
0100
0000
,
1001
0000
0000
0000
,
0010
0010
0010
0000
,
0100
0000
0001
0000
,
1000
0000
0100
0000
,
0001
0000
1000
0000
,
0100
0000
0001
0000
,
1000
0000
0001
0000
,
1001
0000
0000
0000
,
0000
0000
0000
0110
,
0000
0000
0000
0000
0000
0000
0000
0000
0000
0000
0000
0000
0000
0000
0000
0010
,
0000
0000
0000
0000
0000
0000
0000
0000
0000
0000
0000
0000
0000
0000
0000
0100
,
0000
0000
0000
0000
0000
0000
0000
0000
0000
0000
0000
0000
0000
0000
0000
0001
,
0000
0000
0000
0000
0000
0000
0000
0000
0000
0000
0000
0000
0000
0000
0000
1000
,
0000
0000
0000
0000
0000
0000
0000
0000
0000
0000
0000
0000
0000
0000
0000
0100
,
0000
0000
0000
0000
0000
0000
0000
0000
0000
0000
0000
0000
0000
0000
0000
0010
,
0000
0000
0000
0000
0000
0000
0000
0000
0000
0000
0000
0000
0000
0000
0000
0001
,
0000
0000
0000
0000
0000
0000
0000
0000
0000
0000
0000
0000
0000
0000
0000
1000
,
0000
0000
0000
0000
,
0010
0000
0000
0000
,
0100
0000
0100
0000
,
0100
0000
0000
0000
,
0001
0000
1000
0000
,
0100
0000
1000
0000
,
0001
0000
0100
0000
,
0001
0000
1000
0000
,
0010
0000
0001
0000
,
0010
0000
1000
0000
,
1001
0000
0000
0000
;

//--------------- dance-single - ----------------
#NOTES:
     dance-single:
     :
     Easy:
     5:
     0,0,0,0,0:
0000
0000
0000
0000
,
0000
0000
0000
0000
,
1000
0001
0010
0000
,
1001
0000
0000
0110
,
1000
0001
0100
0000
,
0001
1000
0010
0000
,
1000
0100
0010
0000
,
0001
1000
0100
0000
,
0010
0001
0100
0000
,
0010
1000
0001
0000
,
0010
0100
1000
0000
,
0001
1000
0010
0000
,
0100
0000
0000
0001
0000
0000
0100
0000
0000
0000
0000
0000
0000
0000
0000
0000
,
0010
0000
0000
0000
,
1000
0000
0000
0100
0000
0000
1000
0000
0000
0000
0000
0000
0000
0000
0000
0000
,
0001
0000
0000
0000
,
0010
0000
0000
0001
0000
0000
0010
0000
0000
0000
0000
0000
0000
0000
0000
0000
,
0100
0000
0000
0000
,
1000
0000
0000
0001
0000
0000
1000
0000
0000
0000
0000
0000
0000
0000
0000
0000
,
0010
0000
0000
0000
,
0110
0010
0010
0010
,
1000
0001
0010
0100
,
1000
0001
0100
0001
,
1000
0100
0010
0100
,
1000
0001
0010
0100
,
1000
0001
1000
0010
,
0100
0100
0100
0100
,
1001
0000
0110
0000
,
0000
0000
0000
0010
,
0000
0000
1000
0000
0000
0000
0010
0000
0000
0000
0000
0000
0010
0000
0000
0001
,
0000
0000
0100
0000
0000
0000
0001
0000
0000
0000
0000
0000
1000
0000
0000
0100
,
0000
0000
0010
0000
0000
0000
0001
0000
0000
0000
0000
0000
1000
0000
0000
0001
,
0000
0100
0000
0010
0000
1000
0000
0001
,
0000
0000
1000
0000
0000
0000
0100
0000
0000
0000
0000
0000
0010
0000
0000
0001
,
0000
0000
0100
0000
0000
0000
0010
0000
0000
0000
0000
0000
1000
0000
0000
0001
,
0000
0000
0100
0000
0000
0000
0001
0000
0000
0000
0000
0000
1000
0000
0000
0100
,
0000
0010
0000
0100
0000
1000
0000
0001
,
0000
0000
0100
0100
0000
0000
0000
0000
,
0010
1000
0001
0000
,
1000
0100
0001
0000
,
0100
1000
0010
0000
,
0100
0001
0100
1000
,
0100
0001
0010
1000
,
0010
0001
1000
0010
,
0100
0001
1000
0000
,
0001
1000
0000
0100
,
0010
0001
0000
0100
,
1001
0000
0000
0000
;

//--------------- dance-single - ----------------
#NOTES:
     dance-single:
     :
     Medium:
     8:
     0,0,0,0,0:
0000
0000
0000
0000
,
0000
0000
0000
0000
,
0010
0010
1000
0000
0001
0000
0010
0000
,
2002
0000
3003
0110
,
0010
1000
0100
0000
0010
0000
0001
0000
,
1000
0100
0001
0000
0100
0000
1000
0000
,
0010
0100
0001
0000
1000
0000
0010
0000
,
0100
0001
0010
0000
0100
0000
1000
0000
,
0001
0010
1000
0000
0010
0000
0001
0000
,
0100
0010
1000
0000
0100
0000
0010
0000
,
0100
1000
0001
0000
1000
0000
0100
0000
,
0010
0100
1000
0000
0001
0000
0010
0000
,
0100
0000
0000
0010
0000
0000
1001
0000
0000
0000
0000
0000
0100
0000
0000
0000
,
0002
0000
1003
0010
,
1000
0000
0000
0100
0000
0000
1001
0000
0000
0000
0000
0000
0010
0000
0000
0000
,
0100
1000
0001
0010
,
0100
0000
0000
0010
0000
0000
1001
0000
0000
0000
0000
0000
0100
0000
0000
0000
,
0001
0010
0100
1000
,
0001
0000
0000
0010
0000
0000
1001
0000
0000
0000
0000
0000
0100
0000
0000
0000
,
0010
1000
0001
0010
,
2002
0000
0000
3003
,
1000
0001
0100
0010
,
0100
0100
0100
0000
0001
0000
0010
0000
,
1001
0100
1001
0100
,
0002
0000
1000
0000
1000
1000
1003
0000
,
0010
0100
0001
1000
,
0001
0001
0001
0000
1000
0000
1000
0000
,
1000
0000
0010
0000
0001
0000
0000
0000
0010
0000
0000
0010
0000
0000
0010
0000
,
0000
0010
0000
0000
0010
0000
0000
0000
0000
0000
0000
0000
0010
0000
0000
0100
,
0000
0000
1000
0000
0001
0000
0000
0000
0100
0000
0000
0000
0010
0000
0000
1001
,
0000
0000
0100
0000
1000
0000
0000
0000
0010
0000
0000
0000
0100
0000
0000
1001
,
0000
0000
0010
0000
0001
0000
0000
0000
0100
0000
0000
0000
0010
0000
0000
1001
,
0000
0100
1000
0000
0010
0001
0100
0001
,
0000
0000
0010
0000
1000
0000
0000
0000
0001
0000
0000
0000
0010
0000
0000
1001
,
0000
0000
0100
0000
1000
0000
0000
0000
0001
0000
0000
0000
0100
0000
0000
1001
,
0000
0000
0010
0000
1000
0000
0000
0000
0001
0000
0000
0000
0010
0000
0000
1001
,
0000
0100
0010
0000
0100
0010
0001
0000
,
0100
0000
0100
0010
1000
0000
0010
0000
,
1000
0100
0001
0000
0100
0000
1000
0000
,
0001
0100
1000
0000
0100
0000
0010
0000
,
1000
0010
0001
0000
0010
0000
1000
0000
,
0001
0000
0010
1000
0010
1000
0010
0000
,
0001
0000
1000
0100
1000
0100
1000
0000
,
0010
0000
0100
0001
0100
0001
0010
0000
,
0110
0000
0100
1000
0001
0000
0100
0000
,
0110
0000
0010
1000
0010
0000
1000
0001
,
0010
0000
0100
1000
0001
0000
0100
0000
,
1001
0000
0000
0000
;

//--------------- dance-single - ----------------
#NOTES:
     dance-single:
     :
     Hard:
     12:
     0,0,0,0,0:
0000
0000
0000
0000
,
0000
0000
0000
0000
,
0010
0010
1000
0001
0010
0100
1000
0000
,
2001
0000
0000
0000
0100
0000
0000
0000
3100
0000
0000
0000
0001
1000
0000
0000
,
0010
0100
0001
0000
1000
0100
0001
0000
,
0100
0100
1000
0000
0010
0100
0001
0000
,
0010
1000
0001
0000
0100
1000
0010
0000
,
0001
0001
1000
0000
0010
0100
0001
0000
,
1000
0001
0100
0000
0010
1000
0001
0000
,
0010
0010
1000
0000
0100
0001
0010
0000
,
0100
1000
0001
0000
0100
1000
0001
0000
,
0100
0100
0001
0000
1000
0010
0100
0000
,
0010
0000
0000
0001
0000
0000
1100
0000
0000
0000
0000
0000
0010
0000
0000
0000
,
0102
0000
0000
0000
1000
0000
0003
0001
0010
0000
0100
0000
1000
0000
0001
0000
,
1000
0000
0000
0010
0000
0000
0101
0000
0000
0000
0000
0000
1000
0000
0000
0000
,
1020
0000
1000
0030
0010
0100
0001
0000
,
1000
0000
0000
0001
0000
0000
1001
0000
0000
0000
0000
0000
1000
0000
0000
0000
,
0102
0000
0000
0000
1000
0000
0003
0001
0010
0000
0100
0000
1000
0000
0001
0000
,
0100
0000
0000
0001
0000
0000
1010
0000
0000
0000
0000
0000
0100
0000
0000
0000
,
1002
0000
0000
0000
0010
0000
0000
0003
0001
0000
1000
0000
0000
0010
0000
0000
,
0102
0000
1000
1000
0000
1000
0000
1003
,
0001
0000
0000
1000
0000
0000
0010
0000
0000
0000
0100
0000
0000
0001
0000
1000
,
0000
0000
0100
0000
0000
0000
0010
0000
0000
0000
0001
0000
0000
0000
1000
0000
0000
0000
0010
0000
0000
0000
0100
0000
0000
0000
0000
0001
0000
0000
0000
0000
,
1001
0000
1000
0000
1000
0000
0000
0000
0010
0000
0100
0000
0000
1001
0000
0000
,
0200
0001
0010
0000
0010
0001
0010
0300
,
1000
0000
0000
0001
0000
0000
1000
0000
0000
0000
0101
0000
0000
1000
0000
0100
,
0000
0010
0000
0001
0000
1000
0000
0010
0000
0100
0000
0001
0010
0000
0100
0000
,
1000
0000
1000
0000
1000
0000
0000
0000
0001
0100
0000
0001
0100
0000
0001
0100
,
0000
1010
0000
0000
1100
0000
0000
0000
0010
1000
0010
1000
0010
0000
0000
2002
,
3003
0000
1000
0000
0001
0000
0010
0000
0100
0000
0000
0000
0010
0000
0000
1001
,
0000
0000
0100
0000
0001
0000
1000
0000
0100
0000
0000
0000
0010
0000
0000
1001
,
0000
0000
0100
0000
0001
0000
1000
0000
0010
0000
0000
0000
0100
0000
0000
1001
,
0000
0000
0010
0000
1000
0001
0000
0010
0000
0100
0000
1000
0000
0001
0000
1001
,
0000
0000
1000
0000
0010
0000
0100
0000
0001
0000
0000
0000
0010
0000
0000
1001
,
0000
0000
0001
0000
0100
0000
0010
0000
1000
0000
0000
0000
0100
0000
0000
1001
,
0000
0000
1000
0000
0100
0000
0010
0000
0001
0000
0000
0000
0010
0000
0000
1001
,
0000
0000
0001
0000
1000
0010
0000
0100
0000
0001
0000
1000
0000
0100
0000
1002
,
0000
0000
0000
0000
0010
0000
0020
0000
0000
0000
0000
0000
0033
0000
0000
0100
,
0001
0100
0000
0010
0000
1000
0000
0001
1000
0000
0000
0000
0100
0000
0000
0000
,
0010
0001
0010
0100
0000
1000
0002
0000
0000
0000
0000
0000
0103
0000
0000
0100
,
0001
0100
0000
0010
1000
0001
1000
0000
0001
0100
0000
0010
0000
1000
0000
1001
,
0000
0000
1000
0100
0010
0100
0000
0000
1000
0001
0010
0001
0000
0000
0000
0000
,
0000
0000
1000
0010
0100
0010
0000
0000
0100
0001
1000
0001
0000
0000
2200
0000
,
0000
0300
0000
0000
0010
0000
0010
0000
0000
3000
1010
0000
0000
1001
0000
0000
,
0011
0000
0000
0001
0000
0000
0100
0000
0000
0000
0010
0000
0000
0000
1000
0000
,
0001
1000
0100
0000
0010
0001
0100
0001
,
1000
0100
0010
0000
0100
1000
0001
0100
,
1001
0000
0000
0000
;

//--------------- dance-single - ----------------
#NOTES:
     dance-single:
     :
     Challenge:
     14:
     0,0,0,0,0:
0000
0000
0000
0000
,
0000
0000
0000
0000
,
1000
0000
1000
0000
0001
0100
0001
1000
0001
0200
0000
0000
0010
0300
0000
0001
,
0100
0010
0100
0001
0100
0010
0100
0001
0100
0000
0000
0000
0010
1000
0000
0001
,
1000
0010
1000
0000
0001
0000
1000
0001
0100
0010
1000
0000
0001
0000
1000
0100
,
0010
0100
1000
0000
0001
0000
1000
0010
1000
0001
0010
0000
0100
0000
1000
0000
,
0001
0010
0100
0000
1000
0000
0001
1000
0010
0100
0000
0001
0000
1000
0100
0000
,
0010
0001
0010
0000
0100
0000
1000
0001
1000
0010
0100
0000
0001
0000
0100
0001
,
0100
0000
0010
0000
1000
0000
0001
0010
0000
0100
1000
0000
0001
0000
1000
0010
,
1000
0001
1000
0000
0100
0000
0010
0001
1000
0100
0010
0000
0001
0000
1000
0010
,
1000
0001
0100
0000
0010
0000
1000
0100
0010
0100
1000
0001
0100
0010
1000
0000
,
0001
0010
0100
0000
1000
0000
0001
0010
0100
0010
0001
0000
0010
0000
0001
1000
,
0010
0000
1000
0100
0000
0001
0100
0000
1000
0001
0100
0000
0010
0000
1000
0000
,
0200
0000
0001
0000
0310
0000
1000
0010
0200
0000
1000
0000
0010
0000
0001
0300
,
0100
0000
0001
0010
0000
1000
0010
0000
0001
1000
0010
0000
0100
0000
0001
0000
,
0020
0000
1000
0000
0001
0030
0010
0100
1000
0001
0100
0010
1000
0000
0001
0000
,
0100
0000
1000
0100
0000
0001
0100
0000
0010
1000
0001
0000
0010
0000
0100
0000
,
2000
0000
0010
0000
0001
3000
1000
0100
0010
0001
0100
0000
0010
0000
1000
0000
,
0010
0000
0100
0001
0000
0100
1000
0000
0100
0001
0010
0000
0100
0000
1000
0000
,
0002
0000
0010
0000
1000
0000
1000
0003
0001
1000
0010
1000
0001
1000
0000
0100
,
0020
0000
1000
0000
0100
0000
0001
0030
0010
0001
0100
0000
0010
0000
1000
0000
,
0020
0000
0130
0002
0000
0103
2000
0000
3000
0000
0101
0000
1000
0000
0100
0010
,
0100
1000
0000
0001
0000
1000
0000
0010
0000
0100
0000
0001
0000
1000
0000
0000
,
0100
0010
0100
0000
1000
0000
0001
1000
0010
0100
0001
0000
1000
0100
0000
0010
,
0100
1000
0020
0000
0001
0000
1000
0000
0100
0000
1000
0000
0001
0000
0100
0030
,
0020
0000
1030
0020
0000
0031
0020
0000
1030
0100
0010
0100
1000
0001
0000
0100
,
0000
0001
0000
1000
0000
0100
0000
0010
0000
0100
0000
1000
0001
0000
0100
0000
,
1001
0000
0000
0000
1001
0000
0000
0000
1001
0000
0000
0000
0010
1000
0010
1000
0010
0000
0100
0000
0000
0000
1000
0000
0100
0000
0000
0000
0001
0000
0100
0000
,
0000
0010
1000
0001
0010
0000
0000
0000
0100
1000
0100
1000
0100
0001
0100
0020
,
0000
0030
0000
0000
0000
0000
1001
0000
0000
0000
0000
0000
1000
0000
0000
0000
0000
0000
0010
0000
0000
0100
0000
0000
0001
0000
0000
1000
0000
0000
0100
0000
0000
0000
0000
0000
1010
0000
0000
0000
0000
0000
0000
0000
0000
0101
0000
0000
,
0000
0000
1000
0000
0001
0000
0010
0100
1000
0100
0010
0000
0101
0000
0000
1010
,
0000
0000
1000
0000
0001
0000
0100
0010
1000
0001
0010
0000
1100
0000
0000
0011
,
0000
0000
1000
0000
0001
0100
0000
1010
0000
0011
0000
1100
0000
0101
0000
1001
,
0000
0000
1000
0000
0010
0000
0100
0001
0010
0100
1000
0000
1001
0000
0000
1010
,
0000
0000
1000
0000
0100
0000
0010
0001
1000
0001
0100
0000
0110
0000
0000
1010
,
0000
0000
0001
0000
0010
0000
0100
1000
0001
0010
0100
0000
0011
0000
0000
1100
,
0000
0000
1000
0000
0001
0100
0000
0110
0000
1010
0000
1001
0000
0011
0000
0220
,
0000
0030
0000
0000
1000
0000
0010
0000
0002
0000
0000
0000
0000
0303
0000
1000
,
0001
1000
0000
0010
0000
0100
0000
0001
0010
0000
0100
0000
1000
0000
0001
0100
,
0010
0000
1000
0000
0010
0000
1000
0000
0000
0000
0001
0100
0002
0000
0000
0000
0013
0000
0001
0000
0010
0000
0000
0000
1001
0000
0000
0000
1100
0000
0000
0000
,
1000
0010
1000
0001
0000
0100
0010
0000
1000
0100
0010
0100
0000
1001
0000
2100
,
0000
3000
0001
0010
1000
0010
0001
0000
1000
0100
0001
0100
1000
0000
0010
0000
,
0100
0000
0001
0100
1000
0100
0001
0000
1000
0010
0001
0010
1000
0000
0002
0000
,
0000
0000
0010
0000
0100
0003
1000
0001
0000
0000
0011
0000
0000
0110
0000
0000
,
1000
0001
1000
0010
0000
1000
0100
0000
0010
0100
1000
0001
0000
0101
0000
1100
,
0000
0000
0010
1000
0010
0000
0100
0000
0001
1000
0100
0000
0010
0000
0100
1000
,
0001
0000
0100
0001
0010
0000
0100
0000
1000
0010
1000
0001
0010
0000
0100
1000
,
0001
0000
0000
0000
;

//--------------- dance-double - ----------------
#NOTES:
     dance-double:
     :
     Easy:
     5:
     0,0,0,0,0:
00000000
00000000
00000000
00000000
,
00000000
00000000
00000000
00000000
,
00010000
00001000
01000000
00000000
,
00022000
00000000
00033000
00001000
,
00000100
00000100
00000010
00000001
,
00001000
00010000
01000000
10000000
,
00100000
01000000
00010000
00001000
,
00000001
00001000
00010000
01000000
,
00100000
00010000
00001000
00000010
,
00000001
00000100
00010000
00001000
,
00100000
01000000
10000000
00010000
,
01000000
01000000
01000000
00000000
,
00100000
00000000
00000000
10000000
00000000
00000000
00010000
00000000
00000000
00000000
00000000
00000000
00000000
00000000
00000000
00000000
,
00100000
10000000
00010000
00000000
,
00000010
00000000
00000000
00001000
00000000
00000000
00000001
00000000
00000000
00000000
00000000
00000000
00000000
00000000
00000000
00000000
,
00000010
00001000
00000001
00000000
,
00001000
00000000
00000000
00000001
00000000
00000000
00000100
00000000
00000000
00000000
00000000
00000000
00001000
00000000
00000000
00000000
,
00010000
01000000
10000000
00000000
,
10000000
00000000
00000000
00010000
00000000
00000000
01000000
00000000
00000000
00000000
00000000
00000000
10000000
00000000
00000000
00000000
,
00100000
01000000
00010000
00000000
,
00100000
10000000
00010000
10000000
,
00010000
10000000
00010000
00000000
,
00001000
00000100
00001000
00010000
,
00011000
01000000
00011000
00000100
,
00000010
00000000
00000000
00000000
00001000
00000000
00000000
00000000
00000010
00000000
00000000
00000000
00000001
00000000
00000000
00000010
,
00000000
00000000
00001000
00000000
,
10000000
00100000
01000000
00000000
,
00011000
00000000
00011000
00000000
,
00000000
01000000
00000000
00000000
00010000
00000000
00000000
00000000
00000000
00000000
00000000
00000000
00000010
00000000
00000000
00010000
,
00000000
00000000
00000000
00000000
01000000
00000000
00000000
00000000
00100000
00000000
00000000
00000000
10000000
00000000
00000000
00001000
,
00000000
00000000
00000000
00000000
00010000
00000000
00000000
00000000
00000010
00000000
00000000
00000000
00001000
00000000
00000000
00000001
,
00000000
00000000
00000000
00000000
00000010
00000000
00000000
00000000
00010000
00000000
00000000
00000000
00001000
00000000
00000000
01000000
,
00000000
00000000
00000000
00000000
00010000
00000000
00000000
00000000
00100000
00000000
00000000
00000000
01000000
00000000
00000000
10000000
,
00000000
00000000
00000000
00000000
00100000
00000000
00000000
00000000
10000000
00000000
00000000
00000000
00001000
00000000
00000000
00010000
,
00000000
00000000
00000000
00000000
00000100
00000000
00000000
00000000
00001000
00000000
00000000
00000000
00000001
00000000
00000000
00000100
,
00000000
00000000
00000000
00000000
00000010
00000000
00000000
00000000
00010000
00000000
00000000
00000000
00001000
00000000
00000000
00100000
,
00000000
00000000
00000000
00000000
00010000
00000000
00000000
00000000
10000000
00000000
00000000
00000000
01000000
00000000
00000000
00100000
,
00000000
01000000
01000000
01000000
,
10000000
00010000
00001000
00000000
,
00000100
00001000
00000010
00000001
,
00000100
00001000
00000010
00000000
,
00000100
00000001
00000010
00000001
,
00001000
00000001
00000100
00000000
,
00100000
00010000
01000000
00001000
,
00100000
00010000
01000000
00000000
,
00100000
10000000
01000000
00010000
,
00001000
00000010
00000001
00000100
,
00001000
00000000
00000000
00000000
;

//--------------- dance-double - ----------------
#NOTES:
     dance-double:
     :
     Medium:
     9:
     0,0,0,0,0:
00000000
00000000
00000000
00000000
,
00000000
00000000
00000000
00000000
,
00010000
00010000
00000000
00000000
00001000
00000000
10010000
00000000
,
01000000
00000000
00000000
00000000
00000000
00000000
00000000
00000000
00000000
00000000
00000000
00000000
10000000
00010000
00000000
00000000
,
00100000
00000000
00011000
00000000
00000010
00000000
00001000
00000100
,
00000001
00000000
00011000
00000000
00100000
00000000
10000000
00010000
,
01000000
00000000
00011000
00000000
00000010
00000000
00001000
00000100
,
00000001
00000000
00011000
00000000
00100000
00000000
00010000
01000000
,
10000000
00000000
00011000
00000000
00000100
00000000
00000001
00000100
,
00001000
00000000
00011000
00000000
00100000
00000000
10000000
01000000
,
00010000
00000000
00011000
00000000
00000100
00000000
00000010
00000001
,
00000100
00000000
00011000
00000000
00100000
10000000
01000000
00000000
,
00100000
00000000
00000000
10010000
00000000
00000000
01001000
00000000
00000000
00000000
00000000
00000000
00010000
00000000
00000000
00000000
,
00001020
00000000
00000000
00000000
00000100
00000000
00000000
00000000
00000001
00000000
00000000
00000030
00000100
00000000
00000000
00000000
,
00000010
00000000
00000000
00000011
00000000
00000000
00001100
00000000
00000000
00000000
00000000
00000000
00010000
00000000
00000000
00000000
,
02010000
00000000
00000000
00000000
00100000
00000000
00000000
00000000
10000000
00000000
00000000
03000000
01000000
00000000
00000000
00000000
,
00100000
00000000
00000000
11000000
00000000
00000000
00101000
00000000
00000000
00000000
00000000
00000000
00010000
00000000
00000000
00000000
,
00001020
00000001
00001000
00000031
,
00000001
00000000
00000000
00001010
00000000
00000000
00010100
00000000
00000000
00000000
00000000
00000000
01000000
00000000
00000000
00000000
,
00012000
00100000
00010000
01003000
,
20010000
00000000
00000000
00000000
00100000
00000000
00100000
00000000
00000000
00000000
00100000
00000000
00000000
30000000
00000000
00000000
,
02000000
00000000
00000000
00010000
00000000
00000000
03001000
00000000
00000000
00000000
00000000
00000000
00000010
00000000
00001000
00000000
,
00000001
00000100
00000010
00000000
00001000
00000000
00011000
00000000
,
00100000
00100000
00100000
00000000
01000000
10000000
00010000
00000000
,
01000000
01000000
01000000
00000000
00010000
00000000
00001000
00000000
,
00000010
00000010
00000010
00000000
00000100
00000100
00000100
00000000
,
00000001
00001000
00001000
00000000
00010000
00100000
10000000
00000000
,
01000000
00000000
01000000
00000000
01000000
00000000
00000000
00000000
00100000
00000000
00000000
10000000
00000000
00000000
00100000
00000000
,
00000000
00010000
00000000
00000000
00100000
00000000
00000000
00000000
00000100
00000000
00000100
00000000
00000001
00000000
00000000
00011000
,
00000000
00000000
01000000
00000000
00100000
00000000
10000000
00000000
00010000
00000000
00000000
00000000
01000000
00000000
00000000
00100000
,
00000000
00000000
10000000
00000000
00010000
00000000
00100000
00000000
01000000
00000000
00000000
00000000
10000000
00000000
00000000
00010000
,
00000000
00000000
00001000
00000000
00000010
00000000
00000100
00000000
00000001
00000000
00000000
00000000
00000100
00000000
00000000
00000010
,
00000000
00000000
00001000
00000000
00000001
00000000
00000000
00000000
00000100
00000000
00000000
00000000
00000010
00000000
00000000
00010000
,
00000000
00000000
00001000
00000000
00100000
00000000
00010000
00000000
10000000
00000000
00000000
00000000
01000000
00000000
00000000
00010000
,
00000000
00000000
00001000
00000000
00000100
00000000
00000010
00000000
00000001
00000000
00000000
00000000
00000001
00000000
00000000
00000100
,
00000000
00000000
00001000
00000000
00100000
00000000
10000000
00000000
01000000
00000000
00000000
00000000
00100000
00000000
00000000
01000000
,
00000000
10000000
00010000
00000000
01000000
00001000
00010000
00000000
,
00012000
00000000
00000000
00000000
00000100
00000000
00000000
00000000
01000000
00000000
00000000
00003000
00000100
00000000
00000000
00000000
,
00010000
00000000
00000000
00000010
00000000
00001000
00000000
00000100
00000000
00000000
00000000
00000000
00000010
00000000
00000000
00000000
,
00000001
00000100
00000010
00000000
00010000
00010000
00010000
00000000
,
00001000
00000000
00100000
00000000
00010000
01000000
10000000
00000000
,
00000000
10000000
01000000
00000000
00010000
00100000
00000000
00000000
,
00000000
00000100
00000010
00000000
00000001
00001000
00000000
00000000
,
00000010
00000100
00010000
00000000
00001000
00100000
01000000
00000000
,
10000000
01000000
00000000
00010000
00000000
01000000
10000000
00000000
,
10010000
00000000
00100000
00000000
00001000
00001000
00001000
00000000
,
00000010
00000000
00001000
00000000
00000100
00000100
00000100
00000000
,
00001001
00000000
00000000
00000000
;

//--------------- dance-double - ----------------
#NOTES:
     dance-double:
     :
     Hard:
     12:
     0,0,0,0,0:
00000000
00000000
00000000
00000000
,
00000000
00000000
00000000
00000000
,
00010000
00000000
00010000
00000000
00001000
00000000
01000000
00000000
00020000
00100000
00030000
00000000
11000000
00000000
00000000
00000000
,
00100000
00000000
00001000
00000000
01000000
00000000
00001000
00000000
00010000
00000000
00000000
00000000
00000010
00001000
00000000
00000000
,
00000101
00000000
00000010
00001000
00000100
00010000
00001000
00000000
,
01000000
00010000
00100000
10000000
00100000
00001000
01000000
00000000
,
00000100
00001000
00000100
00000001
00000100
00010000
00001000
00000000
,
01000000
00010000
00100000
10000000
00100000
00001000
01000000
00000000
,
00010000
01000000
10000000
01000000
00010000
00100000
01000000
00000000
,
00100000
00001000
00010000
00000100
00000001
00000100
00001000
00000000
,
00000010
00000100
00000001
00000100
00001000
00000100
00000010
00000000
,
00010000
00001000
00100000
00000000
00010000
01000000
00100000
00000000
,
01000000
00000000
00000000
10010000
00000000
00000000
00101000
00000000
00000000
00000000
00010000
00000000
00000100
00000000
00000000
00000000
,
00002001
00000000
00000000
00000000
00000100
00000000
00003000
00000010
00001000
00000000
00000100
00000000
00010000
00000000
00001000
00000000
,
01000000
00000000
00000000
00100000
00000000
00000000
10010000
00000000
00000000
00000000
01000000
00000000
00100000
00000000
00000000
00000000
,
21000000
00000000
00000000
00000000
00010000
30000000
00000000
00000000
01000000
00000000
00001000
00000000
00000000
00000000
00010000
00000000
,
00000010
00000000
00000000
00001001
00000000
00000000
00000110
00000000
00000000
00000000
00000001
00000000
00000010
00000000
00000000
00000000
,
00010200
00000000
00000000
00000000
00001000
00000300
00000000
01000000
00010000
00000000
00100000
00000000
01000000
00000000
10000000
00000000
,
00010000
00000000
00000000
01000000
00000000
00000000
00011000
00000000
00000000
00000000
00000000
00000000
00000010
00000000
00000000
00000000
,
00001002
00000000
00000000
00000000
00000100
00000000
00000003
00000000
00000001
00000000
00000010
00000000
00000000
00010100
00000000
00000000
,
02001000
00000000
00000000
00000000
00100000
00000000
00100000
00000000
00000000
00000000
10000000
03000000
00000000
00000000
00010000
00000000
,
00002000
00000000
00003000
02000000
00000000
03000000
00020000
00000000
00030000
00000000
10100000
00000000
00000000
10000000
00000000
01000000
,
00000000
00000000
00100000
00000000
00000000
00000000
00001000
00000000
00000000
00000000
01000000
00000000
00000000
00000000
00010000
00000000
00000000
00000000
00100000
00000000
00000000
00000000
00000010
00000000
00000000
00000000
00000000
00001000
00000000
00000000
00000000
00000000
,
00000011
00000000
00000100
00000000
00000100
00000000
00000000
00000000
00000100
00000000
00000001
00000000
00000000
00001100
00000000
00000000
,
00012000
00000000
00000000
00000000
01000000
00000000
01000000
00000000
00000000
00000000
00100000
00003000
00000000
00000000
10000000
00000000
,
00020000
00000000
00030000
20000000
00000000
30000000
02000000
00000000
03000000
00000000
00100000
00000000
00000000
01000000
00000000
10000000
,
00000000
00010000
00000000
00100000
00000000
00001000
00000000
00010000
00000000
00000010
00000000
00001000
00000001
00000000
00000100
00000000
,
00001001
00000000
00001001
00000000
00001001
00000000
00000000
00000000
00001000
00010000
00000000
00001000
01000000
00000000
00001000
00100000
,
00000000
00011000
00000000
00000000
00011000
00000000
00000000
00000000
01000000
00010000
01000000
00010000
01000000
00000000
00000000
00022000
,
00033000
00000000
01000000
00000000
00010000
00000000
00100000
00000000
10000000
00000000
00000000
00000000
01000000
00000000
00000000
00011000
,
00000000
00000000
00000010
00000000
00001000
00000000
00000100
00000000
00000001
00000000
00000000
00000000
00000010
00000000
00000000
00001001
,
00000000
00000000
00000001
00000000
00000100
00000000
00001000
00000000
00010000
00000000
00000000
00000000
01000000
00000000
00000000
10010000
,
00000000
00000000
10000000
00000000
00100000
01000000
00000000
00010000
00000000
00100000
00000000
00001000
00000000
00010000
00000000
00001010
,
00000000
00000000
00000001
00000000
00000010
00000000
00001000
00000000
00010000
00000000
00000000
00000000
01000000
00000000
00000000
10010000
,
00000000
00000000
10000000
00000000
01000000
00000000
00010000
00000000
00100000
00000000
00000000
00000000
00000010
00000000
00000000
00000101
,
00000000
00000000
00000001
00000000
00000100
00000000
00001000
00000000
00000010
00000000
00000000
00000000
00010000
00000000
00000000
01001000
,
00000000
00000000
00100000
00000000
10000000
00010000
00000000
00100000
00000000
00001000
00000000
00010000
00000000
00000010
00000000
00001002
,
00000000
00000000
00000000
00000000
00000100
00000000
00000100
00000000
00000200
00000000
00000000
00000000
00000303
00000000
00000000
00000001
,
00000100
00000001
00000000
00001000
00000000
00000010
00000000
00010000
00001000
00010000
00000000
00000000
00001000
00000000
00000000
00000000
,
01000000
00010000
00100000
00010000
00000000
10000000
01000000
00000000
00000000
00000000
00000000
00100000
01000000
00000000
00000000
10000000
,
00010000
01000000
00000000
00001000
00000000
00010000
00000100
00000000
00001000
00000001
00000000
00000101
00000000
00001010
00000000
00000101
,
00000000
00000000
00001000
00000010
00001000
00000001
00000000
00000000
00001000
00000100
00010000
00000100
00000000
00000000
00000000
00000000
,
00000000
00000000
00010000
00001000
01000000
00010000
00000000
00000000
00100000
00010000
10000000
01000000
00000000
00000000
01200000
00000000
,
00000000
00000000
00000000
00000000
10000000
00000000
00010000
00300000
00000000
00000000
00100000
00000000
00000000
00001000
00000000
00000000
,
00010000
00000000
00000010
00000000
00001000
00000000
00000001
00000000
00000100
00000000
00000100
00000000
00000000
00000101
00000000
00000000
,
00001100
00000000
00001000
00000100
00010000
00001000
01000000
00010000
,
00100000
10000000
00100000
00010000
00001000
00000100
00000001
00000100
,
00000010
00000000
00000000
00000000
;

//--------------- dance-double - ----------------
#NOTES:
     dance-double:
     :
     Challenge:
     14:
     0,0,0,0,0:
00000000
00000000
00000000
00000000
,
00000000
00000000
00000000
00000000
,
00011000
00000000
00011000
00000000
00001000
01000000
00001000
00100000
00010000
02000000
00000000
00000000
10000000
03000000
00000000
01000000
,
00100000
01000000
00010000
01000000
00001000
01000000
00010000
01000000
00100000
00000000
00000000
00000000
10000000
10000000
00000000
00010000
,
00100000
00001000
00100000
00000000
00001000
00000000
00010000
00000010
00001000
00000001
00000100
00000000
00000010
00000000
00001000
00000000
,
00000100
00010000
00001000
00000000
01000000
00000000
00010000
00100000
01000000
10000000
01000000
00000000
02100000
03000000
00100000
00000000
,
00010000
10000000
00100000
00000000
01000000
00000000
00001000
00010000
00000100
00001000
00000000
00000001
00000000
00000100
00000001
00000000
,
00001000
00000000
00000100
00000000
00010000
00000000
00001000
01000000
00010000
00100000
01000000
10000000
00100000
00000000
01000000
00010000
,
00100000
00000000
00001000
00000000
00010100
00000000
00001000
00000001
00000000
00010000
00000010
00000000
00010000
00000000
00001000
00000000
,
01000000
00010000
00100000
00000000
01000000
00000000
10000000
00100000
01000000
00001000
00010000
00000000
00000120
00000030
00000100
00000000
,
00000010
00000001
00001000
00000000
00000010
00000000
00010000
00001000
01000000
00010000
00000000
10000000
00000000
01000000
00100000
00000000
,
00010000
01000000
00001000
00000000
00010000
00000000
00000010
00000000
00001000
00000100
00000010
00000001
00000100
00000000
00000010
00010000
,
00000100
00000000
00000000
00011000
00000000
00000000
01010000
00000000
00000000
01000000
00100000
00000000
10000000
00000000
00000000
00000000
,
02010000
00000000
00000000
00000000
00001000
03000000
00000000
00000010
00000100
00000000
00000001
00000000
00000010
00000000
00000100
00000000
,
00001100
00000000
00000000
00011000
00000000
00000000
01010000
00000000
00000000
10000000
00100000
00000000
01010000
00000000
00000000
00000000
,
00012000
00000000
00000000
00000000
00000100
00003000
00000000
00010000
00000100
00001000
00000100
00000010
00000001
00000000
00000100
00000000
,
00001010
00000000
00000000
00010100
00000000
00000000
01001000
00000000
00000000
00100000
00010000
00000000
11000000
00000000
00000000
00000000
,
00210000
00000000
00000000
00000000
01000000
00300000
00000000
00001000
00010000
00000000
00000100
00000000
00001000
00000000
00000001
00000000
,
00000101
00000000
00000000
00001100
00000000
00000000
00011000
00000000
00000000
01000000
00010000
00000000
00100000
00000000
00000000
00000000
,
21000000
00000000
00000000
00000000
00100000
30000000
00000000
01000000
00010000
01000000
00001000
00010000
00000010
00001000
00000000
00000000
,
00000101
00000101
00001000
00000010
00010000
00001000
00100000
00010000
,
02000000
00000000
00000000
10000000
00000000
00000000
00010000
03000000
01000000
00000000
00001000
00000000
00010000
00000100
00000000
00001000
,
00000000
00000001
00000000
00000100
00000000
00000010
00000000
00010000
00000000
00001000
00000000
00100000
00000000
01000000
00000000
00000000
,
10000000
00010000
10000000
00000000
00010000
00000000
00000000
00000000
00001000
00000001
00001000
00000000
00000001
00000000
00000000
00000000
,
00000200
00000001
00000010
00001000
00000010
00000301
00000100
00010000
,
02000000
00000000
00000000
10000000
00000000
00000000
03010000
00000000
10000000
00000000
01000000
00000000
00100000
00001000
00000000
00010000
,
00000000
00000100
00000000
00001000
00000000
00000010
00000000
00010000
00000000
00001000
00000000
01000000
00010000
00000000
01000000
00000000
,
00100000
00000000
00000000
00000000
00100000
00000000
00000000
00000000
00100000
00000000
00000000
00000000
00001000
00010000
00001000
00010000
00001000
00000000
00100000
00000000
00000000
00000000
00010000
00000000
00000010
00000000
00000000
00000000
00001000
00000000
01000000
00000000
,
00000000
00010000
00000100
00000000
00011000
00000000
00000000
00000000
00010000
00001000
01000000
00001000
00010000
00001000
00100000
00001000
,
00000000
00000000
10000000
00000000
00010000
00000000
10000000
01000000
00100000
00010000
01000000
00000000
00012000
00000000
00000000
00003100
,
00000000
00000000
00001000
00000000
00000001
00000000
00000100
00000010
00010000
00001000
00100000
00000000
02010000
00000000
00000000
13000000
,
00000000
00000000
00100000
00000000
10000000
00000000
01000000
00100000
00001000
00010000
00000010
00000000
00000210
00000000
00000000
00000301
,
00000000
00000000
00001000
00000000
00000100
00010000
00000000
00001000
00000000
01000000
00000000
00100000
00000000
10000000
00000000
00010000
,
00000000
00000000
10000000
00000000
00010000
00000000
10000000
01000000
00100000
00010000
01000000
00000000
00012000
00000000
00000000
00003100
,
00000000
00000000
00001000
00000000
00000010
00000000
00000100
00000001
00000010
00000100
00001000
00000000
00012000
00000000
00000000
01003000
,
00000000
00000000
01000000
00000000
00010000
00000000
10000000
00100000
01000000
00010000
00100000
00000000
01200000
00000000
00000000
10300000
,
00000000
00000000
01000000
00000000
10000000
00010000
00000000
01000000
00000000
00001000
00000000
00010000
00000000
00000010
00000000
00000021
,
00000000
00000000
00000000
00000000
00001000
00000000
00000001
00000000
00001000
00000000
00000000
00000000
00000030
00000000
00000000
00000010
,
00000100
00010000
00000000
00001000
00000000
01000000
00000000
00010000
20000000
00000000
00100000
00000000
00010000
00000000
31000000
00000000
,
10000000
00000000
00010000
00000000
01000000
00000000
00001000
00000000
00000000
00000000
00010000
00000100
00020000
00000000
00000000
00000000
00000000
00000000
00030010
00000000
00010000
00000000
00000000
00000000
00000110
00000000
00000000
00000000
00000000
00000000
00000100
00000000
,
00000001
00000100
00000000
00000010
00010000
00001000
00100000
00000000
01000000
10000000
00010000
00100000
00000000
01100000
00000000
11000000
,
00000000
00000000
10000000
01000000
00010000
01000000
10000000
00000000
00010000
01000000
00010000
00001000
00010000
00000000
00000000
00000000
,
00000000
00000000
00000010
00001000
00000010
00000001
00000010
00000000
00000100
00010000
01000000
00010000
00000100
00000000
00022000
00000000
,
00000000
00000000
00000000
00000000
00000000
00000000
00000000
00033000
00000000
00000000
00011000
00000000
00000000
01010000
00000000
00000000
,
11000000
00000000
00000000
01000000
00100000
00010000
01000000
00000000
00001000
00010000
00000010
00001000
00000000
00000001
00000000
00001100
,
00000000
00000000
00010000
00001000
01000000
00000000
00010000
00000000
00100000
01000000
10000000
00010000
00100000
00000000
01000000
00000000
,
00001000
00010000
00000100
00001000
00000001
00000000
00000100
00000000
00000010
00010000
00001000
00100000
00010000
00000000
01000000
00000000
,
10010000
00000000
00000000
00000000
;
