#TITLE:INFINITE PRAYER;
#SUBTITLE:;
#ARTIST:L.E.D.Light feat. Goro;
#TITLETRANSLIT:;
#SUBTITLETRANSLIT:;
#ARTISTTRANSLIT:;
#GENRE:;
#CREDIT:;
#MUSIC:INFINITE PRAYER.ogg;
#BANNER:INFINITE PRAYER.png;
#BACKGROUND:INFINITE PRAYER-bg.png;
#CDTITLE:./CDTITLES/BEATMANIAIIDX.PNG;
#SAMPLESTART:31.569;
#SAMPLELENGTH:15.757;
#SELECTABLE:YES;
#OFFSET:-0.054;
#BPMS:0.000=137.000;
#STOPS:;
#DISPLAYBPM:137.000;
#BGCHANGES:;
#FGCHANGES:;

//--------------- dance-single - ----------------
#NOTES:
     dance-single:
     :
     Beginner:
     5:
     0,0,0,0,0:
0000
0000
0000
0000
,
0000
0000
0000
0000
,
0000
0000
0000
0000
,
0000
0000
0000
0000
,
0000
0000
0000
0000
,
0000
0000
0000
0000
,
0010
1000
0001
0000
,
0010
0000
0100
0000
,
1000
0100
0010
0000
,
0001
0000
0100
0000
,
1001
0000
0010
0000
,
1001
0000
0100
0000
,
1001
0000
0010
0000
,
1001
0000
1001
0000
,
0110
0000
1000
0000
,
0110
0000
0001
0000
,
0110
0000
1000
0000
,
0100
0010
0100
0000
,
1000
0001
1000
0000
,
0010
0100
0001
0010
,
0100
1000
0001
0000
,
1000
0100
1000
0010
,
0100
0001
0010
0000
,
0100
1000
0001
1000
,
0010
0100
0001
0000
,
2002
0000
0000
3003
,
0001
0100
0010
0000
,
1000
0100
0010
0000
,
0100
1000
0001
0000
,
1000
0010
1000
0000
,
0001
0100
0010
0000
,
0100
0001
0010
0000
,
0100
1000
0001
0000
,
2002
0000
0000
3003
,
1000
0010
1000
0000
,
0001
0100
0001
0000
,
1000
0100
1000
0000
,
0010
0010
0010
0010
,
0100
0001
0100
0000
,
0010
1000
0010
0000
,
1000
0100
1000
0000
,
0001
0001
0001
0001
,
0010
0000
0100
0100
,
1000
0000
0010
0010
,
0100
0000
0001
0001
,
1000
0000
0100
0100
,
0010
0000
0001
0001
,
1000
0000
0010
0010
,
1000
0000
0001
0001
,
0100
0000
0001
0001
,
1001
0000
0100
0000
,
0010
0000
0100
0000
,
0010
0000
0100
0000
,
0010
0000
0100
0000
,
1001
0000
0110
0000
,
1001
0000
0110
0000
,
1000
0001
1000
0001
,
2002
0000
0000
3003
,
1000
0100
0010
0100
,
1000
0001
0100
0001
,
1000
0010
1000
0001
,
0010
0100
1000
0001
,
0100
0001
0010
0001
,
1000
0010
1000
0100
,
0010
0100
1000
0001
,
0100
0000
0000
0000
;

//--------------- dance-single - ----------------
#NOTES:
     dance-single:
     :
     Easy:
     8:
     0,0,0,0,0:
0000
0000
0000
0000
,
0000
0000
0000
0000
,
0000
0000
0000
0000
,
0000
0000
0000
0000
,
0000
0000
0000
0000
,
0000
0000
0000
0000
,
1000
0010
1000
0000
0001
0000
0010
0000
,
0100
1000
0001
1000
,
0001
0100
0001
0000
1000
0000
0100
0000
,
0010
0001
0100
0010
,
1001
0000
0100
0000
0010
1000
0100
0000
,
1001
0000
0010
0000
0010
0001
0100
0000
,
1001
0000
0100
0000
1000
0010
0100
0000
,
1001
0000
0010
0000
0001
0100
0010
0000
,
1100
0000
0010
0000
0001
0100
1000
0000
,
0011
0000
0100
0000
0010
1000
0100
0000
,
0011
0000
0100
0000
1000
0001
0100
0000
,
0010
0000
0000
0100
0000
0000
0010
0000
0000
0100
0000
0000
0010
0000
0000
0000
,
1001
0000
1000
0000
0010
0000
0100
0001
,
0010
0000
0100
0000
1000
0000
0001
0100
,
0010
0000
1000
0000
0100
0000
0010
0100
,
1000
0000
0001
0000
1000
0000
0010
0100
,
0001
0000
0010
0000
0100
0000
1000
0001
,
0100
0000
0010
0000
1000
0000
0001
0010
,
0100
0000
1000
0000
0001
0000
0100
0001
,
0020
0000
0000
0000
0000
0000
0000
0000
0000
0000
0000
0000
0000
0030
0000
0000
,
0110
0000
0100
0000
1000
0001
0100
0001
,
0010
0000
0100
0000
1000
0010
1000
0001
,
1000
0000
0100
0000
0010
0001
1000
0010
,
0100
0000
0001
0000
0010
0100
1000
0100
,
0010
0000
0001
0000
1000
0100
0010
0001
,
1000
0000
0001
0000
0100
0001
0010
0100
,
1000
0000
0010
0000
1000
0001
0100
0010
,
2002
0000
0000
3003
,
1000
0001
0100
0010
1000
0000
0001
0000
,
1000
0100
0010
0000
0100
1000
0001
0000
,
0100
0001
0010
0001
1000
0000
0010
0000
,
0100
0010
0001
0100
0010
0000
1000
0000
,
0001
0010
0100
1000
0010
0000
0100
0000
,
0001
0010
0100
0000
1000
0001
0100
0000
,
0010
1000
0100
0000
1000
0001
0100
0000
,
0010
1000
0100
0000
0010
0010
0010
0000
,
0001
0000
1000
0000
0010
0000
0100
0100
,
0001
0000
0010
0000
0100
0000
1000
1000
,
0001
0000
1000
0000
0010
0000
0100
0100
,
0001
0000
0010
0000
0100
0000
1000
1000
,
0100
0000
0010
0000
0001
0000
1000
1000
,
0010
0000
0100
0000
0001
0000
0010
0010
,
0100
0000
1000
0000
0001
0000
1000
1000
,
0010
0100
0001
1000
,
1001
0000
0100
0000
0010
0000
0100
0101
,
1001
0000
0100
0000
0010
0000
1000
1100
,
1001
0000
0100
0000
0010
0000
1000
0011
,
1001
0100
0010
0100
,
1010
0100
0001
0010
,
1100
0010
0001
1000
,
0101
1001
1100
1001
,
0100
0000
0000
0000
,
0010
1000
0100
0010
0100
0000
1000
0000
,
0001
0010
0100
1000
0010
0000
0100
0000
,
0001
0010
1000
0010
0001
0000
1000
0000
,
0010
0100
0001
1000
0100
0000
1000
0000
,
0001
0100
0010
1000
0100
0000
1000
0000
,
0010
0100
0001
0010
0100
0000
1000
0000
,
0001
0100
0001
0010
0100
0000
1000
0000
,
0010
0000
0000
1000
0000
0000
0010
0000
0000
1000
0000
0000
0000
0000
0000
0000
;

//--------------- dance-single - ----------------
#NOTES:
     dance-single:
     :
     Medium:
     11:
     0,0,0,0,0:
0000
0000
0000
0000
,
0000
0000
0000
0000
,
0000
0000
0000
0000
,
0000
0000
0000
0000
,
0000
0000
0000
0000
,
0000
0000
0000
0000
,
1000
0010
0010
0100
0000
0001
0000
1000
,
0000
0001
0000
0010
0000
0100
0000
1000
,
0001
0100
0100
0010
0000
1000
0000
0001
,
0000
0010
0000
0100
0000
1000
0000
0001
,
1001
0000
0000
0000
1000
0000
0000
0000
0001
0000
0000
0100
0000
0000
0010
0000
,
1001
0000
0000
0000
0010
0000
0000
0000
0100
0000
0000
1000
0000
0000
0001
0000
,
1001
0000
0000
0000
1000
0000
0000
0000
0010
0000
0000
1000
0000
0000
0100
0000
,
1001
0000
0000
0000
0010
0000
0000
0000
0001
0000
0000
1000
0000
0000
0100
0000
,
1001
0000
0000
0000
1000
0000
0000
0000
0010
0000
0000
0100
0000
0000
0001
0000
,
1001
0000
0000
0000
0010
0000
0000
0000
1000
0000
0000
0001
0000
0000
0010
0000
,
1001
0000
0000
0000
0100
0000
0000
0000
1000
0000
0000
0010
0000
0000
0100
0000
,
1001
0000
0000
0001
0000
0000
1000
0000
0000
0001
0000
0000
1000
0000
0001
0000
,
1000
0000
0000
1000
0010
0000
0000
0010
0100
0000
0000
0100
0001
0000
0001
0000
,
1000
0000
0000
1000
0100
0000
0000
0100
0010
0000
0000
0010
0001
0000
0001
0000
,
1000
0000
0000
1000
0010
0000
0000
0010
1000
0000
0000
1000
0001
0000
0001
0000
,
0010
0000
0000
0010
0100
0000
0000
0100
1000
0000
0000
1000
0001
0000
0001
0000
,
1000
0000
0000
1000
0100
0000
0000
0100
0010
0000
0000
0010
0100
0000
0100
0000
,
1000
0000
0000
1000
0001
0000
0000
0001
0100
0000
0000
0100
0001
0000
0001
0000
,
0010
0000
0000
0010
0100
0000
0000
0100
1000
0000
0000
1000
0001
0000
0001
0000
,
2002
0000
0000
3003
,
1000
0000
0000
1000
0100
0000
0000
0100
1000
0000
0000
1000
0001
0000
0001
0000
,
1000
0000
0000
1000
0010
0000
0000
0010
0100
0000
0000
0100
0001
0000
0001
0000
,
0010
0000
0000
0010
0100
0000
0000
0100
1000
0000
0000
1000
0001
0000
0001
0000
,
0010
0000
0000
0010
0001
0000
0000
0001
1000
0000
0000
1000
0010
0000
0010
0000
,
0100
0000
0000
0100
0001
0000
0000
0001
0010
0000
0000
0010
0100
0000
0100
0000
,
1000
0000
0000
1000
0100
0000
0000
0100
0010
0000
0000
0010
0100
0000
0100
0000
,
1000
0000
0000
1000
0001
0000
0000
0001
0100
0000
0000
0100
0001
0000
0001
0000
,
2002
0000
0000
3003
,
1000
0000
0000
0001
0000
0000
0100
0000
0010
0000
0000
1000
0000
0001
0000
0000
,
0010
0100
1000
0000
0010
0100
0001
0000
,
1000
0000
0000
0001
0000
0000
1000
0000
0100
0000
0000
0010
0000
0001
0000
0000
,
1000
0000
0000
0001
0000
0000
0100
0000
0010
0000
1000
0000
0001
0000
0000
0000
,
1000
0000
0000
0010
0000
0000
1000
0000
0001
0000
0000
0010
0000
0100
0000
0000
,
1000
0000
0000
0001
0000
0000
0100
0000
0010
0000
1000
0000
0001
0000
0000
0000
,
1000
0000
0010
1000
0100
0000
0010
0001
,
0100
0000
0000
0000
0000
0000
0010
0000
0000
1000
0000
0000
0001
0000
1000
0000
0001
0000
1000
0000
0001
0000
1000
0000
,
0001
0000
1000
0000
0100
0000
0010
0010
,
0001
0000
1000
0000
0010
0000
0100
0100
,
0001
0000
1000
0000
0100
0000
1000
1000
,
0010
0000
1000
0000
0001
0000
0010
0010
,
0100
0000
1000
0000
0010
0000
0100
0100
,
0001
0000
1000
0000
0100
0000
0010
0010
,
0001
0000
1000
0000
0100
0000
1000
1000
,
0010
0000
0100
0000
0001
0000
0010
0010
,
0100
0000
0000
1000
0000
0000
0001
0000
1000
0000
0000
0010
0000
0000
0100
0000
,
0100
0000
0000
0001
0000
0000
0010
0000
0100
0000
0000
1000
0000
0000
0001
0000
,
0001
0000
0000
1000
0000
0000
0010
0000
1000
0000
0000
0001
0000
0000
0010
0000
,
0010
0110
1001
0110
,
1000
0000
0000
0001
0000
0000
1000
0000
0010
0000
0000
0100
0000
0000
0001
0000
,
0001
0000
0000
0010
0000
0000
0100
0000
1000
0000
0000
0010
0000
0000
0100
0000
,
1001
0110
1001
0110
,
2002
0000
0000
3003
,
1000
0000
0000
1000
0100
0000
0000
0100
1000
0000
0000
1000
0001
0000
0001
0000
,
0100
0000
0000
0100
0001
0000
0000
0001
0010
0000
0000
0010
0100
0000
0100
0000
,
1000
0000
0000
1000
0010
0000
0000
0010
1000
0000
0000
1000
0001
0000
0001
0000
,
0010
0000
0000
0010
0001
0000
0000
0001
1000
0000
0000
1000
0100
0000
0100
0000
,
1000
0000
0000
1000
0001
0000
0000
0001
0100
0000
0000
0100
0010
0000
0010
0000
,
1000
0000
0000
1000
0010
0000
0000
0010
1000
0000
0000
1000
0001
0000
0001
0000
,
0010
0000
0000
0010
0001
0000
0000
0001
1000
0000
0000
1000
0100
0000
0100
0000
,
1000
0000
0000
0001
0000
0000
1000
0000
0000
0001
0000
0000
0000
0000
0000
0000
;

//--------------- dance-single - ----------------
#NOTES:
     dance-single:
     :
     Hard:
     14:
     0,0,0,0,0:
0000
0000
0000
0000
,
0000
0000
0000
0000
,
0000
0000
0000
0000
,
0000
0000
0000
0000
,
0000
0000
0000
0000
,
0000
0000
0000
0000
,
1000
0001
0001
0100
0100
0010
0010
1000
,
1000
0001
0001
0010
0010
0100
0100
1000
,
0001
0100
0100
1000
0100
0100
0010
0100
,
0100
1000
0100
0100
0001
0100
0100
0010
,
1001
0000
0000
1000
0010
0000
0100
0000
0011
0000
0000
1100
0000
0000
0011
0000
,
1001
0000
0000
0100
0001
0000
1000
0000
1010
0000
0000
0101
0000
0000
1010
0000
,
0101
0000
0000
1000
0100
0000
0010
0000
0110
0000
0000
1001
0000
0000
0110
0000
,
1001
0000
0000
1000
0010
0000
0000
0000
0101
0000
0000
1100
0000
0000
1001
0000
,
0101
0000
0000
0001
0010
0000
0100
0000
1100
0000
0000
1001
0000
0000
0101
0000
,
1001
0000
0000
0100
0010
0000
1000
0000
0011
0000
0000
0110
0000
0000
1100
0000
,
1001
0000
0000
1000
0010
0000
0100
0000
0101
0000
0000
1001
0000
0000
1100
0000
,
1000
0000
0000
0000
0000
0000
0001
0000
0000
0000
0000
0000
0100
0000
0000
0000
0000
0000
0010
0000
1000
0001
1000
0001
1000
0000
0000
0000
0100
0000
1000
0000
,
0001
0000
0000
0001
0010
0000
0000
0010
0100
0000
0000
0100
1000
0000
0001
0000
,
1000
0000
0000
1000
0010
0000
0000
0010
0100
0000
0000
0100
0001
0000
1000
0000
,
0001
0000
0000
0001
0010
0000
0000
0010
0100
0000
0000
0100
1000
0000
0001
0000
,
1000
0000
0000
1000
0001
0000
0000
0001
0100
0000
0000
0100
0010
0000
1000
0000
,
0001
0000
0000
0001
0010
0000
0000
0010
0100
0000
0000
0100
1000
0000
1000
0000
,
0010
0000
0000
0010
1000
0000
0000
1000
0001
0000
0000
0001
0100
0000
0100
0000
,
0001
0000
0000
0001
0010
0000
0000
0010
0100
0000
0000
0100
1000
0000
0001
0000
,
2002
0000
0000
0000
0000
0000
0000
3003
,
0001
0000
0100
0010
1000
0000
0100
0010
0001
0000
1000
0001
0100
0000
0010
0000
,
1000
0000
0001
0010
0100
0000
1000
0100
1000
0000
0010
1000
0001
0000
0100
0000
,
0001
0000
0010
0001
1000
0000
0100
1000
0001
0000
1000
0010
0100
0000
0001
0000
,
1000
0000
0001
0010
0100
0000
0010
0001
1000
0000
0010
0100
0001
0000
1000
0000
,
0100
0000
1000
0001
0100
0000
0010
1000
0001
0000
1000
0100
0010
0000
0100
0000
,
1000
0000
0001
1000
0010
0000
0100
0001
1000
0000
0100
1000
0001
0000
0010
0000
,
0100
0000
1000
0001
0100
0000
0010
1000
0001
0000
0100
0010
1000
0000
0001
0000
,
2002
0000
0000
0000
0000
0000
0000
3003
,
1000
0000
0001
0100
0000
0010
1000
0000
0001
0000
0010
0100
0000
1000
0000
0000
,
0001
0100
0000
0010
0000
0000
1000
0001
0000
1000
0010
0000
0100
0000
0000
0000
,
0001
0000
0010
0100
0000
1000
0001
0000
1000
0000
0010
0100
0000
0001
0000
0000
,
1000
0000
0100
0010
0000
0100
1000
0000
0001
0100
0000
0010
1000
0000
0000
0000
,
0001
0000
0010
0001
0000
1000
0010
0000
0100
0000
0001
1000
0000
0001
0000
0000
,
0100
0000
0001
1000
0000
0100
1000
0000
0001
0000
0010
0001
0000
1000
0000
0000
,
0010
0000
0000
0100
0001
0100
0000
0000
0010
1000
0000
0000
0001
0000
1000
0000
,
0100
0000
0000
0010
0000
0000
0001
0000
0000
1000
0000
0000
0010
0000
0100
0000
0001
0000
1000
0000
0100
0000
0010
0000
,
0001
0000
0000
1000
0000
0000
0010
0000
0100
0000
0000
0100
0000
0000
0001
0000
,
1000
0000
0000
0010
0000
0000
0100
0000
0001
0000
0000
1000
0000
0000
0100
0000
,
1000
0000
0000
0001
0000
0000
0010
0000
0001
0000
0000
1000
0000
0000
0010
0000
,
0100
0000
0000
0001
0000
0000
1000
0000
0100
0000
0000
1000
0000
0000
0001
0000
,
0110
0000
0000
0001
0000
0000
1000
0000
0010
0000
0000
1000
0000
0000
0001
0000
,
0100
0000
0000
0010
0000
0000
1000
0000
0010
0000
0000
1000
0000
0000
0100
0000
,
1001
0000
0000
0001
0000
0000
1000
0000
0010
0000
0000
0100
0000
0000
0001
0000
,
0010
0000
0000
0100
0000
0000
1000
0000
0001
0000
0000
1000
0000
0000
0010
0000
,
0100
0000
0001
0000
1000
0000
0010
1001
,
1010
0000
0100
0000
0001
0000
0010
0011
,
1001
0000
0100
0000
0010
0000
1000
0101
,
1001
0100
0110
1000
,
0001
0000
0010
0001
1000
0000
0010
1000
0001
0000
0100
0010
1000
0000
0100
0000
,
1001
0000
0010
1000
0001
0000
0010
0100
1000
0000
0001
0100
0010
0000
1000
0000
,
0001
1000
0000
0001
0010
0100
0000
0010
0001
0100
0000
0010
1000
0100
0000
2000
,
0002
0000
0000
0000
0000
0000
0000
0000
0000
0000
0000
0000
0000
0000
0000
3003
,
1000
0000
0001
0010
0100
0000
1000
0010
0100
0000
0001
0100
0010
0000
1000
0000
,
0001
0000
1000
0100
0010
0000
0100
1000
0001
0000
0100
0010
1000
0000
0001
0000
,
0010
0000
0001
1000
0001
0000
0100
0010
1000
0000
0001
0010
0100
0000
1000
0000
,
0010
0000
0100
0001
1000
0000
0100
1000
0001
0000
0010
0001
1000
0000
0010
0000
,
1001
0000
1000
0010
0100
0000
0001
0010
0100
0000
1000
0010
0100
0000
0001
0000
,
1001
0000
1000
0100
1000
0000
0010
0100
0001
0000
0010
0001
1000
0000
0001
0000
,
1001
0000
1000
0010
0100
0000
0001
0010
0100
0000
1000
0001
0100
0000
0010
0000
,
1000
0000
0010
0001
0000
0010
1000
0000
0010
0001
0000
0000
0000
0000
0000
0000
;

//--------------- dance-single - ----------------
#NOTES:
     dance-single:
     :
     Challenge:
     13:
     0,0,0,0,0:
0000
0000
0000
0000
,
0000
0000
0000
0000
,
0000
0000
0000
0000
,
0000
0000
0000
0000
,
0000
0000
0000
0000
,
0000
0000
0000
0000
,
1000
0010
0100
0001
0010
0100
1000
0001
,
0100
0001
1000
0100
1000
0001
0100
0001
,
1000
0010
0010
0001
0010
0010
1000
0100
,
0100
0001
0100
0100
1000
0010
0010
0001
,
1001
0000
0000
1000
0010
0000
0100
0000
0001
0000
0000
0001
0000
0000
0001
0000
,
1001
0000
0000
0100
1000
0000
0001
0000
0010
0000
0000
0010
0000
0000
0010
0000
,
0110
0000
0000
0100
1000
0000
0001
0000
1000
0000
0000
1000
0000
0000
1000
0000
,
1010
0000
0000
0100
0001
0000
0010
0000
0100
0000
0000
0100
0000
0000
0100
0000
,
0011
0000
0000
0001
1000
0000
0010
0000
0100
0000
0000
0100
0000
0000
0100
0000
,
1001
0000
0000
0010
0100
0000
1000
0000
0100
0000
0000
0100
0000
0000
0100
0000
,
1001
0000
0000
0010
0100
0000
0001
0000
0100
0000
0000
0100
0000
0000
0100
0000
,
0010
0000
0000
1000
0000
0000
0001
0000
0000
0010
0100
0010
0100
0000
1000
0001
,
1000
0000
0000
0010
1000
0000
0000
0001
0100
0000
0000
0001
0010
0000
0100
0000
,
1000
0000
0000
0001
1000
0000
0000
0001
0100
0000
0000
0010
1000
0000
0100
0000
,
1000
0000
0000
0001
0010
0000
0000
0100
1000
0000
0000
0010
0100
0000
0001
0000
,
1000
0000
0000
0100
0010
0000
0000
0100
1000
0000
0000
0001
0010
0000
0001
0000
,
1000
0000
0000
0010
1000
0000
0000
0001
0100
0000
0000
0001
0010
0000
0100
0000
,
1000
0000
0000
0001
1000
0000
0000
0100
1000
0000
0000
0001
0100
0000
0010
0000
,
1000
0000
0000
0001
0010
0000
0000
0001
1000
0000
0000
0010
0100
0000
0001
0000
,
2002
0000
0000
0000
0000
0000
0000
0000
0000
0000
0000
0000
0000
3003
0000
0000
,
MMMM
0000
0001
0010
0100
0000
1000
0001
0100
0000
0010
1000
0001
0000
0000
0000
,
MMMM
0000
1000
0100
0010
0000
0100
1000
0001
0000
0100
0001
1000
0000
0000
0000
,
MMMM
0000
0010
1000
0100
0000
0010
0001
1000
0000
0001
0010
0100
0000
0000
0000
,
MMMM
0000
1000
0001
0100
0000
0001
0010
0100
0000
1000
0010
0100
0000
0000
0000
,
MMMM
0000
0001
1000
0100
0000
1000
0001
0100
0000
0001
1000
0100
0000
0000
0000
,
MMMM
0000
1000
0001
0010
0000
0001
1000
0010
0000
1000
0010
0100
0000
0000
0000
,
MMMM
0000
0001
0010
0100
0000
1000
0001
0100
0000
0001
1000
0100
0000
0000
0000
,
2002
0000
0000
0000
0000
0000
0000
0000
0000
0000
0000
0000
0000
3003
0000
0000
,
MMMM
0100
0001
0100
1000
0010
0100
0001
,
MMMM
0010
1000
0100
1000
0010
0001
0100
,
MMMM
0001
0010
0100
1000
0100
0001
0100
,
MMMM
1000
0010
0100
0001
0010
1000
0010
,
MMMM
0001
1000
0010
0100
1000
0100
0001
,
MMMM
1000
0100
0010
0100
1000
0001
0100
,
MMMM
0010
1000
0010
0100
0001
0100
0010
,
MMMM
0000
0000
1000
0000
0000
0001
0000
0000
0010
0000
0000
0100
0000
1000
0000
0001
0000
1000
0000
0100
0000
0010
0000
,
0001
0000
0100
0000
0010
0000
1000
1000
,
0001
0000
0010
0000
0100
0000
1000
1000
,
0010
0000
0100
0000
0001
0000
0010
0010
,
0100
0000
1000
0000
0010
0000
0100
0100
,
0001
0000
1000
0000
0001
0000
0010
0010
,
0010
0000
0100
0000
1000
0000
0010
0010
,
0010
0000
0100
0000
0001
0000
1000
1000
,
1000
0000
0100
0000
0010
0000
0001
0001
,
1001
0000
1000
0000
0010
0000
0100
0101
,
1100
0000
0010
0000
1000
0000
0001
0011
,
1010
0000
0100
0000
0001
0000
0010
0110
,
1001
1000
0100
0010
,
0101
0000
0000
0100
1000
0000
0000
0010
0100
0000
0000
0001
0010
0000
1000
0000
,
1001
0000
0000
1000
0010
0000
0000
0100
0001
0000
0000
0010
0100
0000
1000
0000
,
1001
0000
0000
1000
0001
0000
0000
0010
0100
0000
0000
1000
0001
0000
0000
0000
,
2002
0000
0000
0000
0000
0000
0000
3003
,
MMMM
0000
1000
0010
0100
0000
0001
0010
0100
0000
1000
0001
0100
0000
0000
0000
,
MMMM
0000
0010
1000
0100
0000
0010
0100
1000
0000
0001
0100
0010
0000
0000
0000
,
MMMM
0000
1000
0001
0010
0000
0001
1000
0100
0000
0010
0100
1000
0000
0000
0000
,
MMMM
0000
0001
1000
0010
0000
0100
0001
0010
0000
0001
1000
0010
0000
0000
0000
,
MMMM
0000
1000
0100
0010
0000
0100
1000
0001
0000
0100
0010
1000
0000
0000
0000
,
MMMM
0000
0001
0010
0100
0000
0010
0001
1000
0000
0001
0100
0010
0000
0000
0000
,
MMMM
0000
1000
0010
0100
0000
0001
0010
0100
0000
1000
0001
0100
0000
0000
0000
,
0001
0000
1000
0010
0000
1000
0001
0000
1000
0100
0000
0000
0000
0000
0000
0000
;

//--------------- dance-double - ----------------
#NOTES:
     dance-double:
     :
     Easy:
     8:
     0,0,0,0,0:
00000000
00000000
00000000
00000000
,
00000000
00000000
00000000
00000000
,
00000000
00000000
00000000
00000000
,
00000000
00000000
00000000
00000000
,
00000000
00000000
00000000
00000000
,
00000000
00000000
00000000
00000000
,
00001000
00000000
01000000
00010000
00000000
10000000
01000000
00000000
,
00100000
01000000
00000000
10000000
00010000
00000000
01000000
00000000
,
00001000
00000000
00010000
00000100
00000000
00001000
00000010
00000000
,
00000100
00000001
00000000
00000010
00000100
00000000
00010000
00000000
,
00011000
00000000
01000000
00000000
00010000
00100000
00010000
00000000
,
11000000
00000000
00100000
00000000
00010000
01000000
00001000
00000000
,
00011000
00000000
00000100
00000000
00001000
00000001
00000100
00000000
,
00011000
00000000
00100000
00000000
00001000
00010000
00000010
00000000
,
00011000
00000000
01000000
00000000
00100000
10000000
01000000
00000000
,
00011000
00000000
00000010
00000000
00000100
00000001
00000010
00000000
,
00011000
00000000
01000000
00000000
00100000
10000000
01000000
00000000
,
00100000
00000000
00000000
00001000
00000000
00000000
00010000
00000000
00000000
00000010
00000000
00000000
00001000
00000000
00000000
00000000
,
00000001
00000000
00000100
00000000
00000010
00000000
00010000
00001000
,
00100000
00000000
00010000
00000000
10000000
00000000
01000000
00010000
,
00001000
00000000
00000010
00000000
00000001
00000000
00000100
00000001
,
00000010
00000000
00001000
00000000
00010000
00000000
01000000
00100000
,
00010000
00000000
10000000
00000000
00100000
00000000
10000000
01000000
,
00100000
00000000
10000000
00000000
00010000
00000000
01000000
00010000
,
00001000
00000000
00000010
00000000
00000001
00000000
00000100
00001000
,
00020000
00000000
00000000
00000000
00000000
00000000
00000000
00000000
00000000
00000000
00000000
00000000
00000000
00000000
00000000
00030000
,
00011000
00000000
01000000
00001000
00100000
00000000
01000000
10000000
,
00100000
00000000
01000000
00001000
00010000
00000000
00000100
00001000
,
00000010
00000000
00000100
00000001
00000010
00000000
00000100
00010000
,
00001000
00000000
01000000
00010000
00100000
00000000
01000000
10000000
,
00100000
00000000
01000000
00010000
00100000
00000000
00001000
00010000
,
00000100
00000000
00001000
00000001
00000100
00000000
00000010
00010000
,
00001000
00000000
00100000
00010000
10000000
00000000
00100000
00000000
,
02002000
00000000
00000000
03003000
,
01000000
00001000
00010000
00000010
00002000
00000000
00003001
00000000
,
00000010
00000100
00010000
00001000
02000000
00000000
03010000
00000000
,
10000000
01000000
00100000
01000000
20000000
00000000
30100000
00000000
,
01000000
00001000
00010000
00000010
00000200
00000000
00000301
00000000
,
00000010
00000100
00010000
00001000
00200000
00000000
00310000
00000000
,
10000000
00100000
01000000
00001000
00020000
00000000
00030100
00000000
,
00001000
00000001
00000100
00000001
00000020
00000000
00000130
00000000
,
00010000
00001000
00100000
00010000
01000000
01000000
01000000
00000000
,
10010000
00000000
01000000
00000000
00001000
00000000
00010000
00000100
,
00001000
00000000
00000001
00000000
00000010
00000000
00000100
00010000
,
00001000
00000000
01000000
00000000
00010000
00000000
10000000
01000000
,
00100000
00000000
00001000
00000000
00010000
00000000
00000010
00000100
,
00000001
00000000
00000010
00000000
00000100
00000000
00010000
00001000
,
01000000
00000000
00010000
00000000
10000000
00000000
01000000
00100000
,
00010000
00000000
01000000
00000000
00001000
00000000
00010000
00000100
,
00001000
00000000
00000001
00000000
00000100
00000000
00000010
00010000
,
00001000
00000000
00100000
00000000
00010000
00000000
01000000
11000000
,
01010000
00000000
10000000
00000000
00100000
00000000
01000000
01010000
,
00011000
00000000
00000010
00000000
00001000
00000000
00000001
00000101
,
00001001
00010000
00001000
01000000
,
00110000
10000000
01000000
00100000
,
00011000
00000010
00000100
00000001
,
00011000
01000000
10000000
00100000
,
00022000
00000000
00000000
00033000
,
00010000
00000100
00001000
00000010
00000100
00000000
00000001
00000000
,
00000010
00000100
00010000
00001000
01000000
00000000
00100000
00000000
,
10000000
01000000
00100000
01000000
10000000
00000000
00010000
00000000
,
01000000
00001000
00010000
00000100
00001000
00000000
00000001
00000000
,
00000100
00000010
00010000
00001000
00100000
00000000
00010000
00000000
,
10000000
01000000
00100000
01000000
10000000
00000000
00010000
00000000
,
01000000
00001000
00010000
00000100
00001000
00000000
00000001
00000000
,
00000100
00000000
00000000
00000010
00000000
00000000
00010000
00000000
00000000
00001000
00000000
00000000
00000000
00000000
00000000
00000000
;

//--------------- dance-double - ----------------
#NOTES:
     dance-double:
     :
     Medium:
     11:
     0,0,0,0,0:
00000000
00000000
00000000
00000000
,
00000000
00000000
00000000
00000000
,
00000000
00000000
00000000
00000000
,
00000000
00000000
00000000
00000000
,
00000000
00000000
00000000
00000000
,
00000000
00000000
00000000
00000000
,
00001000
01000000
00010000
00100000
01000000
00000000
10000000
00000000
,
00010000
01000000
00001000
00010000
,
00000100
00001000
00000001
00000100
00000010
00000000
00010000
00000000
,
00001000
00100000
01000000
10000000
,
10010000
00000000
00000000
00000000
01000000
00000000
00000000
00000000
00001000
00000000
00000000
00010000
00000000
00000000
00001000
00000000
,
00011000
00000000
00000000
00000000
00010000
00000000
00000000
00000000
00000001
00000000
00000000
00000100
00000000
00000000
00000001
00000000
,
00000101
00000000
00000000
00000000
00000010
00000000
00000000
00000000
00010000
00000000
00000000
00001000
00000000
00000000
00010000
00000000
,
00011000
00000000
00000000
00000000
00010000
00000000
00000000
00000000
10000000
00000000
00000000
01000000
00000000
00000000
10000000
00000000
,
11000000
00000000
00000000
00000000
00100000
00000000
00000000
00000000
00001000
00000000
00000000
00010000
00000000
00000000
00001000
00000000
,
00011000
00000000
00000000
00000000
00000010
00000000
00000000
00000000
00000001
00000000
00000000
00001000
00000000
00000000
00000001
00000000
,
00001001
00000000
00000000
00000000
00000100
00000000
00000000
00000000
00001000
00000000
00000000
00010000
00000000
00000000
00001000
00000000
,
00010000
00000000
00000000
00001000
00000000
00000000
00010000
00000000
00000000
00001000
00000000
00000000
00010000
00000000
00001000
00000000
,
00010000
00000000
00000000
00001000
01000000
00000000
00000000
01000000
00010000
00000000
00000000
00010000
00100000
00000000
00010000
00000000
,
10000000
00000000
00000000
10000000
01000000
00000000
00000000
01000000
00100000
00000000
00000000
00100000
00010000
00000000
01000000
00000000
,
00001000
00000000
00000000
00001000
00010000
00000000
00000000
00010000
00000100
00000000
00000000
00000100
00001000
00000000
00000001
00000000
,
00000100
00000000
00000000
00000100
00000010
00000000
00000000
00000010
00010000
00000000
00000000
00010000
00001000
00000000
00100000
00000000
,
00010000
00000000
00000000
00010000
10000000
00000000
00000000
10000000
01000000
00000000
00000000
01000000
00100000
00000000
00010000
00000000
,
00100000
00000000
00000000
00100000
00001000
00000000
00000000
00001000
00010000
00000000
00000000
00010000
00000010
00000000
00001000
00000000
,
00000100
00000000
00000000
00000100
00000010
00000000
00000000
00000010
00000001
00000000
00000000
00000001
00000100
00000000
00000010
00000000
,
00002000
00000000
00000000
00000000
,
00003100
00000000
00000000
00000100
00010000
00000000
00000000
00010000
00001000
00000000
00000000
00001000
01000000
00000000
00010000
00000000
,
10000000
00000000
00000000
10000000
01000000
00000000
00000000
01000000
00100000
00000000
00000000
00100000
00001000
00000000
00010000
00000000
,
00000010
00000000
00000000
00000010
00001000
00000000
00000000
00001000
00000001
00000000
00000000
00000001
00000100
00000000
00000010
00000000
,
00010000
00000000
00000000
00010000
00001000
00000000
00000000
00001000
00100000
00000000
00000000
00100000
00010000
00000000
10000000
00000000
,
00100000
00000000
00000000
00100000
01000000
00000000
00000000
01000000
00001000
00000000
00000000
00001000
00010000
00000000
00000100
00000000
,
00001000
00000000
00000000
00001000
00000001
00000000
00000000
00000001
00000100
00000000
00000000
00000100
00000010
00000000
00001000
00000000
,
00000100
00000000
00000000
00000100
00010000
00000000
00000000
00010000
00001000
00000000
00000000
00001000
01000000
00000000
00010000
00000000
,
00200000
00000000
00000000
00000000
00000000
00000000
00000000
00000000
00000000
00000000
00300000
00000000
,
01000000
10000000
00010000
01000000
00001000
00010000
00000100
00000000
,
00001000
00000001
00000010
00000100
00010000
00001000
01000000
00000000
,
00010000
10000000
00100000
10000000
01000000
00100000
00010000
00000000
,
00001000
00000000
00000000
00010000
00000000
00000000
00000100
00000000
00001000
00000000
00000000
00000001
00000000
00000000
00000100
00000000
,
00000010
00001000
00000100
00010000
00001000
01000000
00010000
00000000
,
10000000
01000000
00100000
01000000
10000000
00010000
01000000
00000000
,
00001000
00010000
00000100
00001000
00000001
00000100
00000010
00000000
,
00001000
00000000
00000000
00000001
00000000
00000000
00000100
00000000
00000000
00000010
00000000
00000000
00010000
00000000
00001000
00000000
00010000
00000000
00001000
00000000
00010000
00000000
00001000
00000000
,
00010000
00000000
00001000
00000000
01000000
00000000
00010000
00010000
,
00010000
00000000
10000000
00000000
01000000
00000000
00100000
00100000
,
00100000
00000000
00001000
00000000
00010000
00000000
00000010
00000010
,
00000010
00000000
00000100
00000000
00000001
00000000
00000010
00000010
,
00000010
00000000
00000100
00000000
00010000
00000000
00001000
00001000
,
00001000
00000000
01000000
00000000
00010000
00000000
10000000
10000000
,
10000000
00000000
01000000
00000000
00100000
00000000
00001000
00001000
,
00001000
00000000
00010000
00000000
00000010
00000000
00000100
00000100
,
00000001
00000000
00001000
00000000
00000100
00000000
00010000
00001000
,
00011000
00000000
00001000
00000000
01000000
00000000
00010000
10000000
,
10010000
00000000
10000000
00000000
01000000
00000000
00100000
00001000
,
00101000
00000000
00010000
00000000
00000010
00000000
00001000
00000001
,
00001001
00000000
00000001
00000000
00000010
00000000
00000100
00010000
,
00010100
00000000
00001000
00000000
01000000
00000000
00010000
10000000
,
10010000
10010000
10010000
10010000
,
20020000
00000000
00000000
30030000
,
10000000
00000000
00000000
10000000
00010000
00000000
00000000
00010000
01000000
00000000
00000000
01000000
00001000
00000000
00010000
00000000
,
00000100
00000000
00000000
00000100
00001000
00000000
00000000
00001000
00000010
00000000
00000000
00000010
00000100
00000000
00000001
00000000
,
00000010
00000000
00000000
00000010
00000100
00000000
00000000
00000100
00010000
00000000
00000000
00010000
00001000
00000000
01000000
00000000
,
00010000
00000000
00000000
00010000
10000000
00000000
00000000
10000000
01000000
00000000
00000000
01000000
00100000
00000000
00010000
00000000
,
00100000
00000000
00000000
00100000
00001000
00000000
00000000
00001000
00010000
00000000
00000000
00010000
00000010
00000000
00001000
00000000
,
00000001
00000000
00000000
00000001
00000100
00000000
00000000
00000100
00000010
00000000
00000000
00000010
00010000
00000000
00001000
00000000
,
01000000
00000000
00000000
01000000
00010000
00000000
00000000
00010000
10000000
00000000
00000000
10000000
01000000
00000000
00000000
00000000
,
00100000
00000000
00000000
01000000
00000000
00000000
00100000
00000000
00000000
01000000
00000000
00000000
00000000
00000000
00000000
00000000
;

//--------------- dance-double - ----------------
#NOTES:
     dance-double:
     :
     Hard:
     14:
     0,0,0,0,0:
00000000
00000000
00000000
00000000
,
00000000
00000000
00000000
00000000
,
00000000
00000000
00000000
00000000
,
00000000
00000000
00000000
00000000
,
00000000
00000000
00000000
00000000
,
00000000
00000000
00000000
00000000
,
00001000
01000000
00010000
00100000
01000000
10000000
00100000
01000000
,
00001000
00010000
00000100
00001000
00000001
00000100
00000010
00010000
,
00001000
01000000
01000000
00010000
00100000
00100000
00001000
00010000
,
00010000
00000100
00001000
00001000
00000001
00000100
00000100
00000010
,
00001001
00000000
00000000
00000100
00000010
00000000
00010000
00000000
00011000
00000000
00000000
01010000
00000000
00000000
00001100
00000000
,
00011000
00000000
00000000
00100000
00010000
00000000
10000000
00000000
10100000
00000000
00000000
01010000
00000000
00000000
00011000
00000000
,
00001100
00000000
00000000
00000001
00000010
00000000
00000100
00000000
00011000
00000000
00000000
01010000
00000000
00000000
11000000
00000000
,
01100000
00000000
00000000
10000000
00010000
00000000
00000000
00000000
01100000
00000000
00000000
01001000
00000000
00000000
00010100
00000000
,
00001100
00000000
00000000
00000001
00001000
00000000
00000010
00000000
00000110
00000000
00000000
00010100
00000000
00000000
01010000
00000000
,
00110000
00000000
00000000
10000000
01000000
00000000
00100000
00000000
00011000
00000000
00000000
00001010
00000000
00000000
00000101
00000000
,
00001001
00000000
00000000
00001000
00000100
00000000
00010000
00000000
00011000
00000000
00000000
01001000
00000000
00000000
00110000
00000000
,
10000000
00000000
00000000
00000000
00000000
00000000
01000000
00000000
00000000
00000000
00000000
00000000
00100000
00000000
00000000
00000000
00000000
00000000
00001000
00000000
00010000
00000100
00010000
00000100
00010000
00000000
00000000
00000000
00000010
00000000
00001000
00000000
,
00000001
00000000
00000000
00000001
00000100
00000000
00000000
00000100
00000010
00000000
00000000
00000010
00010000
00000000
00010000
00000000
,
00001000
00000000
00000000
00001000
01000000
00000000
00000000
01000000
00010000
00000000
00000000
00010000
00100000
00000000
00100000
00000000
,
01000000
00000000
00000000
01000000
10000000
00000000
00000000
10000000
00010000
00000000
00000000
00010000
00100000
00000000
00100000
00000000
,
00001000
00000000
00000000
00001000
00010000
00000000
00000000
00010000
00000010
00000000
00000000
00000010
00001000
00000000
00001000
00000000
,
00000001
00000000
00000000
00000001
00000100
00000000
00000000
00000100
00000010
00000000
00000000
00000010
00010000
00000000
00010000
00000000
,
00001000
00000000
00000000
00001000
01000000
00000000
00000000
01000000
00010000
00000000
00000000
00010000
00100000
00000000
00100000
00000000
,
01000000
00000000
00000000
01000000
10000000
00000000
00000000
10000000
00010000
00000000
00000000
00010000
01000000
00000000
01000000
00000000
,
00022000
00000000
00000000
00000000
00000000
00000000
00000000
00000000
00000000
00000000
00033000
00000000
,
00001000
00000000
01000000
00010000
00100000
00000000
01000000
10000000
00100000
00000000
01000000
00001000
00010000
00000000
00000100
00000000
,
00001000
00000000
00000001
00000100
00000010
00000000
00010000
00001000
01000000
00000000
00100000
10000000
00010000
00000000
10000000
00000000
,
01000000
00000000
00100000
00001000
01000000
00000000
00010000
00100000
00001000
00000000
00010000
00000010
00000100
00000000
00000001
00000000
,
00000010
00000000
00000100
00010000
00001000
00000000
01000000
00010000
00100000
00000000
01000000
10000000
00100000
00000000
01000000
00000000
,
00010000
00000000
00100000
00001000
00010000
00000000
00000100
00001000
00000001
00000000
00001000
00000010
00000100
00000000
00000001
00000000
,
00000010
00000000
00000100
00010000
00001000
00000000
00100000
00010000
01000000
00000000
00100000
10000000
00010000
00000000
10000000
00000000
,
00100000
00000000
10000000
01000000
00100000
00000000
00010000
01000000
00100000
00000000
10000000
00010000
01000000
00000000
00001000
00000000
,
00022000
00000000
00000000
00000000
00000000
00000000
00000000
00033000
,
00010000
00000000
00000100
00001000
00000000
00000001
00000100
00000000
00000010
00000000
00010000
00001000
00000000
00100000
00000000
00000000
,
00010000
01000000
00000000
00000000
00100000
00000000
10000000
01000000
00000000
00100000
01000000
00000000
10000000
00000000
00000000
00000000
,
00010000
00000000
01000000
00001000
00000000
00010000
00000100
00000000
00001000
00000000
00000001
00000100
00000000
00000010
00000000
00000000
,
00010000
00000000
00001000
00100000
00000000
00010000
01000000
00000000
00100000
00000000
10000000
00000000
01000000
00000000
00000000
00000000
,
10000000
00000000
00100000
01000000
00000000
00010000
00100000
00000000
00001000
00000000
00010000
00000100
00000000
00001000
00000000
00000000
,
00000001
00000000
00001000
00000010
00000000
00000100
00000001
00000000
00000010
00000000
00000100
00010000
00001000
00000000
00000000
00000000
,
01000000
00000000
00000000
00010000
00100000
00010000
00000000
00000000
10000000
01000000
00000000
00000000
10000000
00000000
00010000
00000000
,
01000000
00000000
00000000
00001000
00000000
00000000
00010000
00000000
00000000
00000100
00000000
00000000
00001000
00000000
00000010
00000000
00010000
00000000
00001000
00000000
00100000
00000000
00010000
00000000
,
01000000
00000000
00000000
00010000
00000000
00000000
00100000
00000000
01000000
00000000
00000000
00000000
10000000
00000000
00010000
00000000
,
01000000
00000000
00000000
00001000
00000000
00000000
00010000
00000000
00000100
00000000
00000000
00000000
00001000
00000000
00000010
00000000
,
00000100
00000000
00000000
00000001
00000000
00000000
00000010
00000000
00000100
00000000
00000000
00000000
00010000
00000000
00001000
00000000
,
01000000
00000000
00000000
00010000
00000000
00000000
10000000
00000000
00100000
00000000
00000000
00000000
10000000
00000000
01000000
00000000
,
00110000
00000000
00000000
00001000
00000000
00000000
00010000
00000000
00000100
00000000
00000000
00000000
00001000
00000000
00000001
00000000
,
00000100
00000000
00000000
00000010
00000000
00000000
00010000
00000000
00001000
00000000
00000000
00000000
00100000
00000000
01000000
00000000
,
10010000
00000000
00000000
00100000
00000000
00000000
01000000
00000000
00010000
00000000
00000000
00000000
00100000
00000000
00001000
00000000
,
00010000
00000000
00000000
00000010
00000000
00000000
00001000
00000000
00000001
00000000
00000000
00000000
00000100
00000000
00000010
00000000
,
00011000
00000000
00000000
00100000
00000000
00000000
00010000
00000000
10000000
00000000
00000000
00100000
00000000
00000000
01010000
00000000
,
01001000
00000000
00000000
00010000
00000000
00000000
00000010
00000000
00001000
00000000
00000000
00000100
00000000
00000000
00000011
00000000
,
00001001
00000000
00000000
00000100
00000000
00000000
00000001
00000000
00001000
00000000
00000000
00000010
00000000
00000000
00011000
00000000
,
01001000
00110000
11000000
00110000
,
10100000
00000000
00000000
10000000
00010000
00000000
00000000
00010000
01000000
00000000
00000000
01000000
00001000
00000000
00001000
00000000
,
00011000
00000000
00000000
00010000
00000100
00000000
00000000
00000100
00001000
00000000
00000000
00001000
00000001
00000000
00000001
00000000
,
00001000
00000001
00000000
00000100
00000010
00001000
00000000
00000001
00000010
00000100
00000000
00001000
00000010
00010000
00000000
00002000
,
02000000
00000000
00000000
00000000
00000000
00000000
00000000
03003000
,
01000000
00000000
00010000
10000000
00100000
00000000
10000000
01000000
00100000
00000000
01000000
00001000
00010000
00000000
00000100
00000000
,
00000010
00000000
00000001
00000100
00000010
00000000
00001000
00000100
00010000
00000000
00001000
00100000
00010000
00000000
01000000
00000000
,
00100000
00000000
10000000
01000000
00100000
00000000
01000000
10000000
00010000
00000000
01000000
00001000
00010000
00000000
00000100
00000000
,
00001000
00000000
00000001
00000100
00000010
00000000
00001000
00000010
00010000
00000000
00001000
00100000
00010000
00000000
01000000
00000000
,
00100000
00000000
10000000
01000000
00100000
00000000
01000000
10000000
00010000
00000000
01000000
00001000
00010000
00000000
00000010
00000000
,
00001000
00000000
00000001
00000100
00000010
00000000
00001000
00000100
00010000
00000000
00001000
01000000
00010000
00000000
00100000
00000000
,
01000000
00000000
10000000
00100000
01000000
00000000
00010000
01000000
00001000
00000000
00010000
00000010
00001000
00000000
00000001
00000000
,
00001000
00000000
00000001
00000010
00000000
00000100
00010000
00000000
00001000
01000000
00000000
00000000
00000000
00000000
00000000
00000000
;

//--------------- dance-double - ----------------
#NOTES:
     dance-double:
     :
     Challenge:
     13:
     0,0,0,0,0:
00000000
00000000
00000000
00000000
,
00000000
00000000
00000000
00000000
,
00000000
00000000
00000000
00000000
,
00000000
00000000
00000000
00000000
,
00000000
00000000
00000000
00000000
,
00000000
00000000
00000000
00000000
,
00010000
00100000
00001000
00010000
00000010
00001000
00000001
00000100
,
00000010
00010000
00001000
00100000
00010000
10000000
01000000
00100000
,
01000000
10000000
00010000
01000000
00001000
00010000
00000100
00001000
,
00000001
00000100
00000010
00001000
00000100
00010000
00001000
00100000
,
MMMMMMMM
00000000
00000000
00000000
00000000
00000000
00000000
00000000
00011000
00000000
00000000
01010000
00000000
00000000
00001100
00000000
,
MMMMMMMM
00000000
00000000
00000000
00000000
00000000
00000000
00000000
00011000
00000000
00000000
00110000
00000000
00000000
00001010
00000000
,
MMMMMMMM
00000000
00000000
00000000
00000000
00000000
00000000
00000000
11000000
00000000
00000000
00110000
00000000
00000000
00001100
00000000
,
MMMMMMMM
00000000
00000000
00000000
00000000
00000000
00000000
00000000
00000101
00000000
00000000
00001010
00000000
00000000
01010000
00000000
,
MMMMMMMM
00000000
00000000
00000000
00000000
00000000
00000000
00000000
11000000
00000000
00000000
01010000
00000000
00000000
00101000
00000000
,
MMMMMMMM
00000000
00000000
00000000
00000000
00000000
00000000
00000000
00000011
00000000
00000000
00010100
00000000
00000000
00011000
00000000
,
MMMMMMMM
00000000
00000000
00000000
00011000
00000000
00000000
00000000
01010000
00000000
00000000
00011000
00000000
00000000
00001100
00000000
,
00010000
00000000
00000000
00001000
00000000
00000000
01000000
00000000
00000000
00100000
10000000
00100000
10000000
00000000
01000000
00100000
,
00010000
00000000
00000000
00010000
01000000
00000000
00000000
01000000
00001000
00000000
00000000
00001000
00010000
00000000
00000100
00000000
,
00001000
00000000
00000000
00001000
00000001
00000000
00000000
00000001
00000100
00000000
00000000
00000100
00000010
00000000
00010000
00000000
,
00001000
00000000
00000000
00001000
00100000
00000000
00000000
00100000
00010000
00000000
00000000
00010000
10000000
00000000
00100000
00000000
,
10000000
00000000
00000000
10000000
00100000
00000000
00000000
00100000
01000000
00000000
00000000
01000000
00010000
00000000
00100000
00000000
,
00001000
00000000
00000000
00001000
00010000
00000000
00000000
00010000
00000010
00000000
00000000
00000010
00001000
00000000
00000001
00000000
,
00000100
00000000
00000000
00000100
00000010
00000000
00000000
00000010
00010000
00000000
00000000
00010000
00001000
00000000
00100000
00000000
,
00010000
00000000
00000000
00010000
10000000
00000000
00000000
10000000
01000000
00000000
00000000
01000000
00100000
00000000
01000000
00000000
,
20020000
00000000
00000000
00000000
00000000
00000000
00000000
30030000
,
MMMMMMMM
00000000
00100000
01000000
00010000
00000000
00100000
00001000
00010000
00000000
00000100
00001000
00000001
00000000
00000100
00000000
,
MMMMMMMM
00000000
00000010
00010000
00001000
00000000
00100000
00010000
01000000
00000000
00100000
10000000
01000000
00000000
00100000
00000000
,
MMMMMMMM
00000000
01000000
10000000
00010000
00000000
01000000
00001000
00010000
00000000
00000100
00001000
00000001
00000000
00000100
00000000
,
MMMMMMMM
00000000
00000010
00010000
00001000
00000000
00100000
00001000
00010000
00000000
00000100
00010000
00001000
00000000
01000000
00000000
,
MMMMMMMM
00000000
00010000
00100000
01000000
00000000
10000000
00100000
01000000
00000000
00010000
00100000
00001000
00000000
00010000
00000000
,
MMMMMMMM
00000000
00000100
00001000
00000001
00000000
00000100
00000001
00001000
00000000
00000100
00010000
00001000
00000000
01000000
00000000
,
MMMMMMMM
00000000
00010000
00100000
01000000
00000000
10000000
00100000
01000000
00000000
00010000
00100000
01000000
00000000
10000000
00000000
,
02020000
00000000
00000000
00000000
00000000
00000000
00000000
03030000
,
MMMMMMMM
10000000
01000000
00010000
00001000
00000010
00000001
00000100
,
MMMMMMMM
00010000
00100000
10000000
01000000
00100000
00010000
01000000
,
MMMMMMMM
00001000
00010000
00000100
00001000
00000100
00000001
00000100
,
MMMMMMMM
00001000
00010000
01000000
00010000
00001000
00100000
00010000
,
MMMMMMMM
10000000
00100000
00010000
00100000
10000000
01000000
00100000
,
MMMMMMMM
00001000
00000010
00000001
00000100
00000010
00010000
00001000
,
MMMMMMMM
00100000
00010000
01000000
00001000
00010000
00000100
00001000
,
MMMMMMMM
00000000
00000000
00000010
00000000
00000000
00001000
00000000
00000000
00000100
00000000
00000000
00010000
00000000
00001000
00000000
01000000
00000000
00001000
00000000
00010000
00000000
00000100
00000000
,
00001000
00000000
00000010
00000000
00000100
00000000
00000001
00000001
,
00000001
00000000
00000010
00000000
00000100
00000000
00010000
00010000
,
00001000
00000000
01000000
00000000
00010000
00000000
00100000
00100000
,
01000000
00000000
10000000
00000000
00100000
00000000
10000000
10000000
,
01000000
00000000
00100000
00000000
00001000
00000000
00010000
00010000
,
00000010
00000000
00001000
00000000
00000001
00000000
00000100
00000100
,
00000010
00000000
00010000
00000000
00001000
00000000
00100000
00100000
,
01000000
00000000
10000000
00000000
00010000
00000000
01000000
01000000
,
00011000
00000000
00000010
00000000
00001000
00000000
00000100
00000101
,
00001100
00000000
00001000
00000000
00010000
00000000
01000000
01010000
,
11000000
00000000
00100000
00000000
10000000
00000000
00010000
00110000
,
10100000
00100000
00001000
00010000
,
00001010
00000100
00000001
00000010
,
00001010
00010000
01000000
10000000
,
00110000
00011000
00001010
00011000
,
02000200
00000000
00000000
00000000
00000000
00000000
00000000
00000000
00000000
00000000
00000000
00000000
00000000
03000300
00000000
00000000
,
MMMMMMMM
00000000
00001000
00010000
00000100
00000000
00010000
00001000
00100000
00000000
00010000
01000000
00100000
00000000
10000000
00000000
,
MMMMMMMM
00000000
01000000
00100000
00010000
00000000
01000000
00001000
00010000
00000000
00000100
00001000
00000001
00000000
00000100
00000000
,
MMMMMMMM
00000000
00000010
00010000
00001000
00000000
00100000
00010000
01000000
00000000
00100000
10000000
01000000
00000000
00100000
00000000
,
MMMMMMMM
00000000
01000000
10000000
00010000
00000000
01000000
00001000
00010000
00000000
00000100
00001000
00000001
00000000
00000100
00000000
,
MMMMMMMM
00000000
00000010
00001000
00000100
00000000
00010000
00001000
01000000
00000000
00010000
00100000
01000000
00000000
10000000
00000000
,
MMMMMMMM
00000000
00100000
01000000
00010000
00000000
00100000
00001000
00010000
00000000
00000100
00001000
00000001
00000000
00000100
00000000
,
MMMMMMMM
00000000
00000010
00010000
00001000
00000000
00100000
00010000
01000000
00000000
00100000
10000000
01000000
00000000
00100000
00000000
,
01000000
00000000
10000000
00010000
00000000
01000000
00001000
00000000
00010000
00000010
00000000
00000000
00000000
00000000
00000000
00000000
;
