#VERSION:0.83;
#TITLE:under control;
#SUBTITLE:;
#ARTIST:Kevin Vecchione;
#TITLETRANSLIT:;
#SUBTITLETRANSLIT:;
#ARTISTTRANSLIT:;
#GENRE:;
#CREDIT:;
#MUSIC:under control.ogg;
#BANNER:under control.png;
#BACKGROUND:under control-bg.png;
#CDTITLE:./CDTitles/GITADORA.png;
#SAMPLESTART:11.923;
#SAMPLELENGTH:15.000;
#SELECTABLE:YES;
#OFFSET:0.637;
#BPMS:0.000=210.000;
#STOPS:;
#TIMESIGNATURES:0.000=4=4;
#BGCHANGES:4.000=under control.mp4=1.000=0=0=0=StretchNoLoop====,
99999.000=-nosongbg-=1.000=0=0=0=StretchNoLoop====
;
#FGCHANGES:;

//--------------- dance-single - forcednature ----------------
#NOTEDATA:;
#STEPSTYPE:dance-single;
#DESCRIPTION:forcednature;
#DIFFICULTY:Beginner;
#METER:5;
#RADARVALUES:0,0,0,0,0;
#CREDIT:forcednature;
#NOTES:
0000
0000
0000
0000
,
0000
0000
0000
0000
,
0000
0000
0000
0000
,
0000
0000
0000
0000
,
0000
0000
0000
0000
,
0000
0000
0000
0000
,
0000
0000
0000
0000
,
0001
0000
0000
0000
,
0000
0000
0000
0001
,
1000
0000
1000
0000
,
0010
0000
1001
0000
,
0100
0000
0100
0000
,
0001
0000
0001
0000
,
0100
0000
0100
0000
,
0001
0001
0001
0000
,
1000
0000
1000
0000
,
0010
0000
0010
0000
,
1000
0000
1000
0000
,
0010
0010
0010
0000
,
1001
0000
0000
0000
,
1000
0000
0100
0000
,
1000
0000
0100
0000
,
0010
0000
0000
0000
,
0001
0000
0100
0000
,
0100
0000
0001
0000
,
0100
0000
0010
0000
,
1000
0000
0000
0000
,
1001
0000
0000
0000
,
0110
0000
0000
0000
,
0001
1000
0001
1000
,
0001
0000
0000
0000
,
1001
0000
0000
0000
,
0110
0000
0000
0000
,
1000
0001
1000
0001
,
1000
0000
0000
0000
,
1001
0000
0001
0000
,
0001
0000
0001
0000
,
1001
0000
0001
0000
,
0001
0000
0001
0000
,
0110
0000
0100
0000
,
0100
0000
0100
0000
,
1001
0000
0000
0000
,
0110
0000
0000
0000
,
1000
0000
0100
0000
,
0001
0000
0100
0000
,
1000
0000
0010
0000
,
1000
0010
1000
0000
,
0001
0000
0100
0000
,
1000
0000
0100
0000
,
0001
0000
0010
0000
,
0100
0010
0100
0000
,
1001
0000
0000
0000
,
0100
0000
0000
0000
,
0110
0000
0000
0000
,
1001
0000
0000
0000
,
1000
0000
0100
0000
,
1000
0000
0010
0000
,
0100
0010
0100
0000
,
0001
0000
0000
0000
,
0010
0000
0001
0000
,
0100
0000
0000
0000
,
0010
0000
0010
0000
,
1000
0000
0000
0000
,
1001
0000
0000
0000
,
0001
0000
0000
1000
0000
1000
0000
0000
,
1001
0000
0000
0000
,
1000
0000
0000
0001
0000
0001
0000
0000
,
1001
0000
1000
0000
,
1000
0000
0100
0000
,
1001
0000
0001
0000
,
0001
0000
0100
0100
,
0000
0000
0000
0000
,
0010
0010
0010
0000
,
1000
1000
1000
0000
,
0001
0001
0001
0000
,
0100
0000
0010
0000
,
1000
1000
1000
0000
,
0001
0001
0001
0000
,
1001
0000
0100
0000
,
0110
0000
0010
0000
,
1001
0000
0000
0000
;

//--------------- dance-single - forcednature ----------------
#NOTEDATA:;
#STEPSTYPE:dance-single;
#DESCRIPTION:forcednature;
#DIFFICULTY:Easy;
#METER:9;
#RADARVALUES:0,0,0,0,0;
#CREDIT:forcednature;
#NOTES:
0000
0000
0000
0000
,
0000
0000
0000
0000
,
0000
0000
0000
0000
,
0000
0000
0000
0000
,
0000
0000
0000
0000
,
0000
0000
0000
0000
,
0000
0000
0000
0001
,
1000
0000
0000
0000
0000
1000
0000
0000
,
1000
0000
0000
1000
0000
0000
0000
0000
,
0010
0000
0110
0000
,
0100
0000
1001
0000
,
0001
0010
0100
0010
,
0001
1000
0100
1000
,
0001
0010
0100
0010
,
0001
0100
0110
1000
,
0001
0010
0100
0010
,
0001
1000
0100
1000
,
0001
0010
0100
0010
,
0001
0100
0110
1000
,
1001
0000
0001
0010
,
0001
0000
0001
0100
,
0001
0000
0001
1000
,
0010
0100
0000
0100
,
0010
1000
0000
1000
,
0100
0010
0000
0010
,
0001
1000
0000
1000
,
0010
0000
0100
0110
,
0001
0000
0010
0001
0010
0000
0000
0000
,
0001
0000
1000
0001
1000
0000
0000
0000
,
0100
0100
1000
0010
,
1000
0001
1000
0000
,
0100
0000
1000
0100
1000
0000
0000
0000
,
0010
0000
1000
0010
1000
0000
0000
0000
,
0001
0001
0100
0001
,
0010
0001
1000
0000
,
1001
0000
0001
0001
,
0010
0010
0001
0001
,
0100
0100
0001
0001
,
1000
1000
0001
1000
,
1001
0000
1000
1000
,
0100
0100
1000
1000
,
0010
0100
0010
0100
,
0001
0001
0001
0000
,
1000
0100
0001
0100
,
1000
0100
0010
0100
,
1000
0010
1000
0001
,
0010
0100
0110
0001
,
0100
1000
0100
0001
,
0100
0010
1000
0010
,
0001
0010
1000
0010
,
0100
0001
0010
0100
,
0110
0000
0000
0000
,
1000
0000
0000
0000
,
1001
0000
0000
0000
,
0110
0000
0000
0000
,
0001
1000
0000
1000
,
0100
1000
0000
1000
,
0010
0100
0001
1000
,
0010
0100
0000
0100
,
0001
1000
0001
0000
0000
0000
1000
0000
,
0100
1000
0010
0100
,
0001
0100
0001
0000
0010
0000
0100
0000
,
1000
0010
0100
0000
,
0110
0000
0000
0000
0000
0001
0000
0000
,
0001
0000
0000
1000
0000
0100
0000
0000
,
1001
0000
0000
0000
0000
1000
0000
0000
,
1000
0000
0000
0010
0000
0100
0000
0000
,
0101
0000
0001
0001
,
0010
0001
0010
0000
0001
0000
0010
0000
,
0001
0001
0100
0001
,
0100
0010
0100
0000
0001
0000
1001
0000
,
0000
0000
0000
0000
,
1000
0100
0001
0100
,
1100
0001
0010
0100
,
1000
0100
0001
0100
,
1100
0001
0011
1000
,
0001
0100
1000
0100
,
0101
1000
0010
0100
,
0101
0000
0011
0000
,
1100
0000
0110
0000
,
1001
0000
0000
0000
;

//--------------- dance-single - forcednature ----------------
#NOTEDATA:;
#STEPSTYPE:dance-single;
#DESCRIPTION:forcednature;
#DIFFICULTY:Medium;
#METER:10;
#RADARVALUES:0,0,0,0,0;
#CREDIT:forcednature;
#NOTES:
0000
0000
0000
0000
,
0000
0000
0000
0000
,
0000
0000
0000
0000
,
0000
0000
0000
0000
,
0000
0000
0000
0000
,
0000
0000
0000
0000
,
0000
0000
0000
0000
,
1000
0001
1000
0000
0000
0010
0000
0000
,
0100
0000
0000
0001
0000
0001
0000
0000
,
0011
0000
0101
0000
,
1100
0000
0101
0000
,
0001
0010
1000
0010
,
0001
0000
0100
0000
1000
0100
0001
0000
,
0010
1000
0010
0001
,
1000
0100
0001
0000
1000
0100
0001
0000
,
1000
0010
0001
0010
,
1000
0000
0100
0000
0001
0100
1000
0000
,
0010
0001
0010
1000
,
0001
0100
1000
0000
0100
0000
0001
0000
,
1001
0000
0000
1000
0000
1000
0100
0000
,
1000
0000
0000
0010
0000
0010
1000
0000
,
0001
0000
0000
0010
0000
0010
0001
0000
,
0100
0110
0010
1000
,
0001
0000
0000
0010
0000
0010
0001
0000
,
0100
0000
0000
0010
0000
0010
0100
0000
,
0001
0000
0000
1000
0000
1000
0100
0000
,
0110
1000
0010
0001
,
0010
1000
0010
1000
0000
0000
0000
0000
,
1000
0100
1000
0100
0000
0000
0000
0000
,
0001
0100
1000
0100
,
0001
0100
1000
0000
,
0001
0010
0001
0010
0000
0000
0000
0000
,
0001
0100
0001
0100
0000
0000
0000
0000
,
1000
0100
0001
0100
,
1000
0100
0001
0000
,
1001
1000
1000
1000
,
0100
1000
0010
0100
,
0110
0001
0001
0001
,
0010
0100
1000
0010
,
1001
0001
0001
0001
,
0100
0010
1000
0100
,
0110
1000
1000
0010
,
0101
0001
0010
1000
,
0010
0001
0010
0000
0001
0100
0001
0000
,
0100
0010
0100
0000
0010
1000
0010
0000
,
1000
0100
1000
0000
0001
0100
0001
0000
,
0010
0100
0010
0000
0110
0000
1000
0000
,
0001
0100
0010
0000
1000
0100
0010
0000
,
0001
1000
0001
0000
0101
0000
1000
0000
,
0010
0100
0010
0000
1000
0001
1000
0000
,
1100
0001
0010
1000
,
0110
0000
0000
0000
,
1000
0000
0000
0000
,
1001
0000
0000
0000
,
0110
0000
0000
0000
,
1001
0000
1000
0000
0000
1000
0100
0000
,
1000
0000
0010
0000
0000
1000
0010
0000
,
0100
0000
0010
0100
0000
0100
0000
0000
,
0001
0000
0010
0000
0000
0001
0010
0000
,
0001
0000
0100
0000
0000
0010
0100
0000
,
0010
1000
0010
0000
1000
0000
0100
0000
,
1000
0001
1000
0000
0010
0100
0010
0000
,
1000
0100
0010
0000
0001
0000
0100
0000
,
1001
0000
0000
0000
0000
1100
0000
0000
,
1100
0000
0000
0001
0000
0010
0000
0000
,
1001
0000
0000
0000
0000
0101
0000
0000
,
0101
0000
0000
1000
0000
0010
0000
0000
,
0100
0100
0001
0100
,
1000
0100
0001
0100
,
0010
0010
1000
0010
,
0001
0010
1000
0010
,
0000
0000
0000
0000
,
1000
0100
0001
0000
0100
0000
1000
0000
,
0001
0100
1000
0000
0100
0000
0001
0000
,
1000
0100
0001
0000
0100
0000
1000
0000
,
1010
0001
0011
1100
,
0001
0010
1000
0000
0010
0000
0001
0000
,
1000
0010
0001
0000
0010
0000
1000
0000
,
1010
0100
0101
0010
,
1100
0001
0011
1010
,
1001
0000
0000
0000
;

//--------------- dance-single - forcednature ----------------
#NOTEDATA:;
#STEPSTYPE:dance-single;
#DESCRIPTION:forcednature;
#DIFFICULTY:Hard;
#METER:14;
#RADARVALUES:0,0,0,0,0;
#CREDIT:forcednature;
#NOTES:
0000
0000
0000
0000
,
0000
0000
0000
0000
,
0000
0000
0000
0000
,
0000
0000
0000
0000
,
0000
0000
0000
0000
,
0000
0000
0000
0000
,
0000
0000
0000
0000
,
0001
0001
1000
0000
0000
1100
0000
1000
,
0001
0000
0000
0011
0000
0001
1000
0000
,
1001
0000
0110
0000
,
1001
0000
0110
0000
,
1001
1000
0100
1000
,
1010
0000
0001
0000
0100
0100
0001
0000
,
0011
1000
0010
0100
,
0001
0010
0100
0000
0100
1000
0010
0000
,
0110
1000
0001
0100
,
0101
0000
0010
0000
1000
1000
0100
0000
,
1100
0001
0010
0100
,
0010
0001
0010
0001
0100
0010
1000
0100
,
0010
0000
0100
0010
0000
0100
1000
0000
,
0010
0100
0010
1000
0000
0100
1000
0000
,
0001
0100
0010
0100
0000
0001
1000
0000
,
0010
0000
1001
0000
0001
0010
0100
1000
,
0001
0100
0010
0100
0000
0100
0010
0000
,
1000
0100
1000
0001
0000
0001
0010
0000
,
0100
0010
0001
0100
0000
0100
0010
0000
,
1010
1000
0100
1001
,
0001
0100
1000
0100
0000
0001
0100
0000
,
0001
0010
1000
0010
0000
0001
0010
0000
,
0001
0011
0101
0110
,
0010
1000
0000
1000
0000
0100
0010
0000
,
1000
0010
0001
0010
0000
0001
0100
0000
,
1000
0100
0001
0100
0000
0010
1000
0000
,
0100
1100
1010
0110
,
0100
0001
0000
0001
0000
0010
0100
0000
,
0110
0000
0010
0001
0010
0001
0100
0001
,
0100
0001
0010
0001
0100
0001
0010
0001
,
1000
0000
0010
1000
0010
1000
0100
1000
,
0100
1000
0010
1000
0100
1000
0010
1000
,
0001
0011
0011
0101
,
0101
1100
1100
0010
,
1000
0001
1000
0001
1000
0001
1000
0001
,
0100
0010
1000
0100
0010
0001
0100
0000
,
0001
0010
0010
0000
0001
0100
0101
0000
,
1000
0010
0010
0000
1000
0100
1100
0000
,
0001
0010
0110
0000
1000
0010
0110
0000
,
0100
0001
0010
0100
1000
0010
1001
0000
,
0001
0100
0101
0000
1000
0010
1010
0000
,
1000
0100
0001
0100
1000
0001
0010
0000
,
0100
1000
1010
0000
0100
0001
0011
0000
,
0101
1100
1010
0011
,
1001
0000
0000
0000
0000
0000
0000
0000
0000
0000
0000
0000
0000
0000
0000
0100
,
0010
0000
0000
0000
,
0110
0000
0000
0000
,
1001
1000
1000
1000
,
0001
0010
0100
0010
0000
0001
0010
0000
,
0100
1000
0100
0010
0000
0100
1000
0000
,
0010
0100
0001
0010
0100
1000
0010
0000
,
1001
0000
0001
0000
0001
0010
0100
0000
,
1000
0010
1000
0000
0010
0100
0001
0100
,
0010
1000
1000
0001
0100
0001
0001
1000
,
0010
0100
0001
0100
1000
0100
0001
0100
,
0010
1000
0001
0010
0100
1000
0010
0000
,
1000
0001
1000
0001
1000
0000
0000
0000
0000
0000
0101
0000
0000
0000
0000
0000
,
1100
0000
0000
1010
0000
0011
0000
0000
,
0001
1000
0001
1000
0001
0000
0000
0000
0000
0000
1100
0000
0000
0000
0000
0000
,
0101
0000
0000
0011
0000
1010
0000
0000
,
1000
0001
1000
0001
1000
0000
0000
0000
0001
0000
0100
0000
0010
0000
1000
0000
,
0001
0010
0100
1000
0001
0100
0010
1000
,
0001
1000
0001
1000
0001
0000
0000
0000
1000
0000
0100
0000
0010
0000
0001
0000
,
1000
0010
0100
0001
0010
0000
0110
0000
,
0000
0000
0000
0000
,
0100
1000
0010
1000
0001
1000
0100
0001
,
0100
1000
0010
1000
0001
1000
0100
0001
,
0100
1000
0010
1000
0001
1000
0100
0001
,
0100
1100
1010
0011
,
0100
0001
0010
0001
1000
0001
0100
1000
,
0100
0001
0010
0001
1000
0001
0100
0010
,
1001
0000
1000
0100
0110
0000
0001
0010
,
0110
0000
1000
0010
0101
0000
0010
0100
,
1001
0000
0000
0000
;

//--------------- dance-single - ----------------
#NOTEDATA:;
#STEPSTYPE:dance-single;
#DESCRIPTION:forcednature;
#CREDIT:forcednature;
#DIFFICULTY:Challenge;
#METER:17;
#RADARVALUES:0,0,0,0,0;
#NOTES:
0000
0000
0000
0000
,
0000
0000
0000
0000
,
0000
0000
0000
0000
,
0000
0000
0000
0000
,
0000
0000
0000
0000
,
0000
0000
0000
0000
,
0000
0000
0000
0000
,
0001
1000
0100
1000
0001
0000
0000
0000
0000
0000
0011
0000
0000
0000
1000
0000
,
0100
0000
0000
1010
0000
0001
0100
0000
,
0220
0330
2002
3003
,
2200
3300
0022
0033
,
0001
0100
0010
1000
0001
0010
0100
1000
,
0001
0100
1000
0100
0001
0001
0001
0010
,
0100
1000
0010
0100
0001
0100
0010
1000
,
0001
0010
0001
0010
0001
0000
0000
0000
1000
0010
1000
0010
1000
0000
0000
0000
,
0001
0010
0100
1000
0010
0100
0001
0010
,
0001
0100
1000
0100
0010
0010
0010
1000
,
0100
1000
0001
0010
0100
1000
0010
0000
,
0110
0000
0000
0000
0100
0001
0100
0001
0100
0010
0100
0010
1000
0001
0100
0010
,
1000
0001
0010
0200
0000
0310
0001
1000
,
0010
0100
0001
2000
0000
3100
0010
0001
,
1000
0010
0100
0002
0000
0013
0100
1000
,
0001
0000
0100
0000
1000
0000
0000
0000
0100
0001
0100
0001
0010
0001
0010
0001
,
1000
0010
0100
0002
0000
0013
0100
1000
,
0001
0010
0100
0002
0000
0103
1000
0001
,
0100
0010
1000
0200
0000
0310
0001
1000
,
0010
0000
0100
0001
0100
0000
0010
1000
0010
0000
0100
0001
1000
0000
0000
0000
,
0100
0001
0100
0001
0100
1000
1100
0000
,
0001
0010
0001
0010
1000
0010
0011
0000
,
0001
0000
0100
0010
1000
0000
0100
0010
0001
0000
1000
0010
0100
0000
0001
0000
,
1000
0010
0001
0010
0000
0110
0101
0000
,
0100
1000
0100
1000
0100
0001
0101
0000
,
1000
0010
1000
0010
0001
0010
1010
0000
,
1000
0000
0100
0010
0001
0000
0100
0010
1000
0000
0001
0010
0100
0000
1000
0000
,
0001
0010
1000
0010
0000
0110
1001
0000
,
1000
0100
0110
0010
0001
0100
0110
0010
,
1000
0001
0011
0010
0100
1000
1010
0010
,
0100
0001
0011
0010
0100
1000
1001
0001
,
0100
0010
0110
0100
0001
1000
1001
0000
,
0011
0010
0110
0100
1100
1000
1001
0001
,
0101
0100
0110
0010
1010
1000
1001
0001
,
0010
0100
0010
0100
0010
0100
0010
0100
,
1000
0001
1000
0001
0100
0001
0100
0001
1000
0100
1000
0100
0010
0001
0010
0001
,
1000
0000
0010
0100
0001
0000
0010
0100
1000
0000
0001
0100
0010
0000
1000
0000
,
0001
0000
0010
0100
1000
0000
0001
0100
0010
0000
1000
0100
0010
0000
0001
0000
,
1000
0000
0010
1000
0100
0000
0010
0001
1000
0000
0010
0100
0001
0000
0010
0000
,
0100
0000
0100
0000
1000
0000
0100
0000
1000
0010
1000
0010
0100
0001
0100
0001
,
1000
0000
0100
0010
0001
0000
0100
0010
1000
0000
0001
0010
0100
0000
1000
0000
,
0001
0000
0100
0010
1000
0000
0100
0010
0001
0000
1000
0010
0100
0000
0001
0000
,
0010
0000
0100
0000
1000
0100
0010
0001
0100
0000
0010
0000
1000
0010
0100
0001
,
0010
0000
0100
0000
1000
0100
1000
0000
0010
1000
0010
1000
0001
0010
0100
1000
,
0002
0000
0000
0000
0000
0000
0000
0000
0000
0000
0000
0000
0000
0000
0003
0100
,
0010
0000
0000
0000
,
2002
0000
3000
0003
,
0010
0100
0010
0100
0010
0100
0010
0100
0010
0100
0010
0100
0010
0100
0010
0100
,
1000
0001
0100
0001
0010
0001
0100
0001
,
1000
0010
1000
0100
1000
0010
1000
0001
,
0010
0000
0100
1000
0100
0000
0010
0001
0010
0000
0100
1000
0100
0000
0010
0001
,
2000
0000
0000
0000
0010
0000
0000
0000
3010
0000
0100
0001
1000
0000
0000
0000
,
0001
0010
0200
0000
1300
0001
0100
0010
,
1000
0000
0100
0010
0100
0000
1000
0000
0001
0000
0100
0010
0100
0000
0001
0000
,
0010
0001
0010
0000
0100
1000
0100
0000
0010
0001
1000
0000
0010
0000
0100
0000
,
0001
0010
0100
1000
0001
0100
0010
1000
0001
0000
0001
0000
0010
0000
0000
0000
,
0001
0100
1000
0100
0001
0000
0000
0000
0000
0000
0101
0000
0001
0000
0010
0000
,
1100
1000
0010
0110
0000
1001
0000
0000
,
1000
0100
0001
0100
1000
0000
0000
0000
0000
0000
1100
0000
1000
0000
0010
0000
,
0101
0001
0010
0110
0000
1001
0000
0000
,
0001
0100
1000
0100
0001
0000
0000
0000
0010
0000
0100
0000
1000
0000
0100
0000
,
0001
0100
1000
0100
0010
0001
0011
0000
,
1000
0100
0001
0100
1000
0000
0000
0000
0010
0000
0100
0000
0001
0000
0100
0000
,
1000
0100
0001
0100
0110
0000
1010
0000
,
0000
0000
0000
0000
0000
0000
0000
0000
1000
0001
1000
0001
1000
0001
1000
0001
,
0010
0000
0100
1000
0001
0000
0100
0010
1000
0000
0100
0010
0001
0000
1000
0000
,
0010
0000
0100
0001
1000
0000
0100
0010
0001
0000
1000
0010
0100
0000
0001
0000
,
0010
0000
0100
1000
0001
0000
0100
0010
1000
0000
0100
0010
0001
0000
1000
0000
,
0010
0100
0010
0000
1000
0001
1000
0000
0100
0010
0100
0000
1000
0001
0100
0000
,
0010
0000
1000
0100
0010
0000
0001
1000
0010
0000
0100
0001
0010
0000
0100
0000
,
1000
0000
0001
0100
0010
0000
1000
0100
0010
0000
0001
1000
0010
0000
0100
0000
,
1001
0000
0000
0000
0001
0010
0100
1000
0020
0000
0000
0000
1030
0100
0010
0001
,
0200
0000
0000
0000
0310
1000
0001
1000
0100
0010
0100
0010
0001
1000
0001
1000
,
0020
0000
0000
0000
,
0000
0000
0000
0000
,
0030
0000
0000
0000
;

//--------------- dance-double - forcednature ----------------
#NOTEDATA:;
#STEPSTYPE:dance-double;
#DESCRIPTION:forcednature;
#DIFFICULTY:Easy;
#METER:9;
#RADARVALUES:0,0,0,0,0;
#CREDIT:forcednature;
#NOTES:
00000000
00000000
00000000
00000000
,
00000000
00000000
00000000
00000000
,
00000000
00000000
00000000
00000000
,
00000000
00000000
00000000
00000000
,
00000000
00000000
00000000
00000000
,
00000000
00000000
00000000
00000000
,
00000000
00000000
00000000
00010000
,
00001000
00000000
00000000
00000000
00000000
01000000
00000000
00000000
,
01000000
00000000
00000000
00010000
00000000
00010000
00000000
00000000
,
00100000
00000000
01000000
00000000
,
10010000
00000000
00100000
00000000
,
00010000
01000000
10000000
01000000
,
00010000
00100000
00010000
00000000
,
00100000
00001000
00010000
00000000
,
00000100
00000100
00001000
00000000
,
00000001
00000010
00001000
00000010
,
00000001
00000100
00000001
00000000
,
00001000
00001000
00000010
00000000
,
00010000
00010000
00001000
00010000
,
00011000
00000000
01000000
00010000
,
00000000
00010000
00100000
00010000
,
00000000
00010000
10000000
00010000
,
00000000
01000000
00100000
00010000
,
00000000
00001000
00010000
00001000
,
00010000
00000100
00001000
00000100
,
00001000
00000010
00000100
00000010
,
00000100
00000001
00000010
00000110
,
00000000
00001000
00001000
00000000
,
00000100
00000100
00010000
00000000
,
00001000
00100000
00010000
00100000
,
00001000
00010000
00001000
00000000
,
01000000
00010000
01000000
00000000
,
00100000
10000000
00100000
00000000
,
10000000
10000000
01000000
10000000
,
00010000
00100000
00001000
00000000
,
00011000
00010000
00010000
00010000
,
00000100
00001000
00000010
00000100
,
00000001
00000001
00000001
00000001
,
00000010
00001000
00010000
01000000
,
10000000
10000000
10000000
10000000
,
00100000
01000000
00010000
00100000
,
00001000
00001000
00001000
00001000
,
00010000
00001000
00010000
00000000
00001000
00000000
00000000
00000000
,
00011000
00000100
00001000
00000010
,
00000110
00000001
00001000
00000100
,
00000110
00000001
00001000
00000010
,
00010000
00000000
00001000
00000000
00010000
00001000
00010000
00000000
,
00011000
00001000
01000000
00010000
,
01010000
10000000
00100000
01000000
,
01100000
00000000
00001000
00000000
,
00010000
00000100
00001000
00000010
,
00000110
00000000
00000000
00000000
,
00001000
00000000
00000000
00000000
,
00011000
00000000
00000000
00000000
,
01000000
00000000
00000000
00000000
,
10010000
00000000
10000000
01000000
,
00010000
01000000
00000000
01000000
,
10000000
00000000
00000000
10000000
00000000
00000000
10000000
00000000
,
00010000
00000000
00100000
00010000
,
00100000
00001000
00000000
00010000
,
00001000
00010000
00001000
00000000
00010000
00000000
00000000
00000000
,
00000100
00001000
00000010
00000100
,
00000001
00000100
00000001
00000000
00000010
00000000
00000000
00000000
,
00000110
00000000
00000000
00000000
00000000
00001000
00000000
00000000
,
00010000
00000000
00000000
01000000
00000000
01000000
00000000
00000000
,
01100000
00000000
00000000
00000000
00000000
00010000
00000000
00000000
,
00001000
00000000
00000000
00000100
00000000
00000100
00000000
00000000
,
00000110
00000000
00000010
00001000
,
00000010
00001000
00000100
00000010
,
00000001
00000000
00000100
00001000
,
00000100
00001000
00010000
00100000
,
00000000
00000000
00000000
00000000
,
01000000
00100000
01000000
00000000
00010000
00000000
00100000
00000000
,
01000000
00100000
01000000
00000000
10000000
00000000
00010000
00000000
,
00100000
00010000
00100000
00000000
00001000
00000000
00010000
00000000
,
00000010
00001000
00000001
00000100
,
00000010
00000100
00000010
00000000
00001000
00000000
00000100
00000000
,
00000010
00000100
00000010
00000000
00000001
00000000
00000100
00000000
,
00000110
00000000
00001000
00000000
,
00011000
00000000
01100000
00000000
,
10010000
00000000
00000000
00000000
;

//--------------- dance-double - forcednature ----------------
#NOTEDATA:;
#STEPSTYPE:dance-double;
#DESCRIPTION:forcednature;
#DIFFICULTY:Medium;
#METER:11;
#RADARVALUES:0,0,0,0,0;
#CREDIT:forcednature;
#NOTES:
00000000
00000000
00000000
00000000
,
00000000
00000000
00000000
00000000
,
00000000
00000000
00000000
00000000
,
00000000
00000000
00000000
00000000
,
00000000
00000000
00000000
00000000
,
00000000
00000000
00000000
00000000
,
00000000
00000000
00000000
00000000
,
00001000
00010000
00001000
00000000
00000000
00100000
00000000
00000000
,
00010000
00000000
00000000
01000000
00000000
01000000
00000000
00000000
,
01100000
00000000
00010000
00000000
,
00001000
00000000
00000110
00000000
,
00000001
00000100
00001000
00000100
,
00000001
00000000
00000010
00000000
00001000
00000010
00000001
00000000
,
00000100
00001000
00010000
01000000
,
10000000
01000000
00010000
00000000
00010000
01000000
10000000
00000000
,
00100000
00010000
00100000
10000000
,
01000000
00000000
00010000
00000000
00001000
00010000
01000000
00000000
,
00010000
00001000
00000100
00001000
,
00000100
00000001
00000010
00000000
00000100
00000000
00000010
00000000
,
00001001
00000000
00000000
00001000
00000000
00000000
00001000
00000000
,
00000100
00000000
00010000
00001000
00000000
00010000
00001000
00000000
,
00100000
00000000
00010000
00100000
00000000
00100000
00010000
00000000
,
01000000
01100000
00100000
10000000
,
00010000
00000000
00000000
00100000
00000000
00100000
00010000
00000000
,
01000000
00000000
00000000
00100000
00000000
00100000
01000000
00000000
,
00010000
00000000
00000000
10000000
00000000
10000000
01000000
00000000
,
01100000
00100000
00001000
00010000
,
00000100
00001000
00000100
00001000
00000000
00000000
00000000
00000000
,
00000001
00000100
00000001
00000100
00000000
00000000
00000000
00000000
,
00000010
00000100
00001000
00010000
,
00100000
01000000
00010000
00000000
,
10000000
00100000
10000000
00100000
00000000
00000000
00000000
00000000
,
10000000
01000000
10000000
01000000
00000000
00000000
00000000
00000000
,
00100000
01000000
00010000
00001000
,
00000010
00000100
00001000
00000000
,
00001001
00000001
00000100
00001000
,
00010000
01000000
10000000
00010000
,
10010000
10000000
01000000
00010000
,
00001000
00000100
00000001
00001000
,
00001001
00000001
00000010
00001000
,
00010000
00100000
10000000
00010000
,
01000000
00100000
01000000
00000000
00100000
00000000
10000000
00000000
,
01000000
10000000
01000000
00000000
00010000
00000000
00000000
00000000
,
00001000
00010000
00001000
00000000
00100000
00010000
00100000
00000000
,
00001000
00010000
00001000
00000000
01000000
00010000
01000000
00000000
,
00001000
00001000
00010000
00000000
00000100
00000100
00001000
00000000
,
00000010
00000100
00000010
00000000
00000110
00000000
00001000
00000000
,
00000001
00000010
00000001
00000000
00001000
00000010
00001000
00000000
,
00000100
00000010
00000100
00000000
00010000
00000000
00001000
00000000
,
00100000
00010000
00100000
00000000
01000000
10000000
01000000
00000000
,
00010000
00001000
00000100
00000010
,
00000110
00000000
00000000
00000000
,
00010000
00000000
00000000
00000000
,
01100000
00000000
00000000
00000000
,
10010000
00000000
00000000
00000000
,
10000000
00000000
01000000
10000000
00000000
10000000
00000000
00000000
,
00100000
00000000
10000000
00100000
00000000
00100000
00000000
00000000
,
01000000
00010000
00100000
01000000
,
00010000
00000000
00000000
00001000
,
00000010
00000001
00000000
00000100
,
00000010
00000100
00000010
00000000
00001000
00000000
00000100
00000000
,
00010000
00001000
01000000
00010000
,
01000000
00100000
01000000
00000000
00010000
00000000
00100000
00000000
,
00011000
00000000
00000000
00000000
00000000
00000100
00000000
00000000
,
00000001
00000000
00000000
00000010
00000000
00001000
00000000
00000000
,
00011000
00000000
00000000
00000000
00000000
01000000
00000000
00000000
,
10000000
00000000
00000000
00100000
00000000
00010000
00000000
00000000
,
00011000
00000000
00001000
00001000
,
00000010
00000001
00000010
00001000
,
00011000
00000000
00010000
00010000
,
00100000
10000000
00100000
00010000
,
00000000
00000000
00000000
00000000
,
00001000
00010000
00000100
00000000
00001000
00000000
00000010
00000000
,
00000100
00000001
00001000
00000000
00000100
00000000
00000001
00000000
,
00000100
00010000
00001000
00000000
00100000
00000000
00010000
00000000
,
01010000
01100000
10100000
00010000
,
10000000
01000000
00010000
00000000
00001000
00000000
00100000
00000000
,
00010000
01000000
10000000
00000000
01000000
00000000
00010000
00000000
,
00110000
00001000
00011000
00000010
,
00001010
00000001
00000101
00001100
,
00001001
00000000
00000000
00000000
;

//--------------- dance-double - forcednature ----------------
#NOTEDATA:;
#STEPSTYPE:dance-double;
#DESCRIPTION:forcednature;
#DIFFICULTY:Hard;
#METER:14;
#RADARVALUES:0,0,0,0,0;
#CREDIT:forcednature;
#NOTES:
00000000
00000000
00000000
00000000
,
00000000
00000000
00000000
00000000
,
00000000
00000000
00000000
00000000
,
00000000
00000000
00000000
00000000
,
00000000
00000000
00000000
00000000
,
00000000
00000000
00000000
00000000
,
00000000
00000000
00000000
00000000
,
00001000
00010000
00001000
00000000
00000000
01000000
00000000
01000000
,
00010000
00000000
00000000
00110000
00000000
00110000
00000000
00000000
,
10010000
00000000
00011000
00000000
,
00001001
00000000
00000110
00000000
,
00000001
00000100
00000001
00000100
00001000
00000100
00000001
00000000
,
00000100
00000010
00001000
00000000
00000100
00000100
00000010
00000000
,
00000100
00010000
00000100
00010000
00001000
00100000
00010000
00000000
,
00110000
01010000
11000000
10100000
,
00100000
01000000
00100000
01000000
00010000
00100000
01000000
00000000
,
00100000
00001000
00010000
00000000
00000100
00000100
00010000
00000000
,
00001000
00000010
00001000
00000010
00000001
00000010
00000001
00000000
,
00000100
00001000
00010000
01000000
,
01100000
00000000
00100000
00010000
00000000
01000000
00010000
00000000
,
10000000
00100000
10000000
00100000
00000000
01000000
00100000
00000000
,
00010000
00001000
00010000
00001000
00000000
00010000
00000100
00000000
,
00000010
00000000
00000110
00000000
00000100
00001000
00000010
00000100
,
00000001
00000000
00000010
00001000
00000000
00010000
00001000
00000000
,
00010000
01000000
00010000
01000000
00000000
10000000
01000000
00000000
,
10000000
00100000
10000000
00100000
00000000
00010000
00100000
00000000
,
10100000
10000000
01000000
00010000
,
00001000
00100000
00010000
00100000
00000000
00100000
00001000
00000000
,
00010000
00000010
00001000
00000010
00000000
00000010
00010000
00000000
,
00001000
00000100
00000001
00000010
,
00000001
00000100
00000000
00000100
00000000
00001000
00000100
00000000
,
00001000
01000000
00010000
01000000
00000000
01000000
00001000
00000000
,
00010000
00000100
00001000
00000100
00000000
00000100
00010000
00000000
,
00001000
00010000
00100000
10000000
,
01000000
00010000
00000000
00010000
00000000
01000000
10000000
00000000
,
10010000
00000000
00010000
00100000
01000000
00000000
00100000
00001000
,
00010000
00000000
00000100
00001000
00000010
00000000
00000110
00000000
,
00001001
00000000
00001000
00000010
00000100
00000000
00000010
00010000
,
00001000
00000000
01000000
00010000
00100000
00000000
01100000
00000000
,
10010000
00010000
00100000
00001000
,
00000010
00000000
00000001
00000000
00000100
00000000
00000010
00001000
,
00000100
00000010
00000100
00000010
00000100
00000010
00000100
00000010
,
00001000
00010000
01000000
01000000
,
10000000
01000000
00010000
00000000
00001000
00000100
00000001
00000000
,
00000010
00001000
00010000
00000000
00100000
00010000
00001000
00000000
,
00010000
01000000
10000000
00000000
00100000
10000000
01000000
00000000
,
00010000
00001000
00000010
00000100
00010000
00001000
00000010
00000000
,
00000100
00010000
00001000
00000000
01000000
00001000
00010000
00000000
,
00100000
10000000
01000000
00010000
01000000
10000000
00100000
00000000
,
00010000
00001000
00000100
00000000
00001000
00010000
01000000
00000000
,
00100000
00001000
00000010
00000100
,
00000110
00000000
00000000
00000000
00000000
00000000
00000000
00000000
00000000
00000000
00000000
00000000
00000000
00000000
00000000
00001000
,
00010000
00000000
00000000
00000000
,
01100000
00000000
00000000
00000000
,
10010000
10000000
10000000
10000000
,
01000000
00010000
01000000
00010000
00000000
00001000
00010000
00000000
,
00001000
00000010
00001000
00000010
00000000
00000001
00000010
00000000
,
00000001
00000100
00000000
00000100
00000000
00001000
00000100
00000000
,
00000001
00000000
00000000
00000000
00000000
00000010
00001000
00000000
,
00010000
00001000
00010000
00000000
01000000
00000000
00100000
00000000
,
01000000
10000000
00100000
00000000
01000000
00010000
00100000
00000000
,
01000000
00010000
01000000
00010000
00001000
00010000
00001000
00000010
,
00000001
00000010
00000100
00001000
00000001
00000100
00001000
00000000
,
00011000
00000000
00000000
00000000
00000000
01010000
00000000
00000000
,
11000000
00000000
00000000
10100000
00000000
00110000
00000000
00000000
,
00011000
00000000
00000000
00000000
00000000
00001100
00000000
00000000
,
00000101
00000000
00000000
00000011
00000000
00001010
00000000
00000000
,
00011000
00010000
01000000
10000000
,
00100000
00010000
00001000
00000100
,
00000001
00000010
00001000
00010000
,
01000000
10000000
00100000
00010000
,
00000000
00000000
00000000
00000000
,
00001000
00010000
00100000
01000000
00100000
01000000
00001000
00010000
,
00100000
00010000
00001000
00000100
00000010
00000100
00000010
00010000
,
00001000
00000100
00000010
00010000
00001000
01000000
00100000
01000000
,
00001000
00011000
00010100
00001100
,
00001000
00000100
00000010
00000100
00010000
00001000
00100000
01000000
,
00100000
01000000
00010000
00001000
00000010
00000100
00010000
00001000
,
00000010
00000000
00000001
00000100
00001000
00000000
00010000
01000000
,
10000000
00000000
00100000
00010000
00001000
00000000
01001000
00000000
,
00010100
00000000
00000000
00000000
;

//--------------- dance-double - ----------------
#NOTEDATA:;
#STEPSTYPE:dance-double;
#DESCRIPTION:forcednature;
#CREDIT:forcednature;
#DIFFICULTY:Challenge;
#METER:17;
#RADARVALUES:0,0,0,0,0;
#NOTES:
00000000
00000000
00000000
00000000
,
00000000
00000000
00000000
00000000
,
00000000
00000000
00000000
00000000
,
00000000
00000000
00000000
00000000
,
00000000
00000000
00000000
00000000
,
00000000
00000000
00000000
00000000
,
00000000
00000000
00000000
00000000
,
00001000
00010000
00001000
00010000
00001000
00000000
00000000
00000000
00000000
00000000
00011000
00000000
00000000
00000000
00000010
00000000
,
00001000
00000000
00000000
00001100
00000000
00000001
00000010
00000000
,
00000220
00000330
00022000
00033000
,
02200000
03300000
00022000
00033000
,
00000010
00000100
00001000
00010000
00000100
00000010
00001000
00010000
,
00000010
00000100
00001000
00010000
00100000
00100000
00100000
00000000
,
01000000
00010000
00100000
01000000
00100000
00001000
00010000
00000100
,
00001000
00000010
00001000
00000010
00010000
00000000
00000000
00000000
00001000
01000000
00001000
01000000
00010000
00000000
00000000
00000000
,
00100000
01000000
00010000
00001000
01000000
00100000
00010000
00001000
,
00100000
01000000
00010000
00001000
00000010
00000010
00000010
00000000
,
00000100
00001000
00000010
00000100
00001000
00010000
00001000
00000000
,
00011000
00000000
00000000
00000000
00100000
00010000
00100000
00010000
10000000
00010000
10000000
00010000
01000000
00100000
10000000
00010000
,
01000000
00100000
10000000
02000000
00000000
03100000
00010000
00000000
,
01000000
00001000
00010000
00000020
00000000
00001030
00000100
00000000
,
00000010
00000001
00000100
00002000
00000000
00013000
00001000
00000000
,
00010000
00000000
00100000
00000000
10000000
00000000
00000000
00000000
01000000
10000000
01000000
10000000
00010000
10000000
00010000
10000000
,
01000000
00010000
00001000
00020000
00000000
00031000
00000010
00000001
,
00000010
00000100
00001000
00000002
00000000
00000103
00001000
00010000
,
00001000
00010000
00100000
20000000
00000000
31000000
00100000
00010000
,
01000000
00000000
00010000
01000000
00010000
00000000
00100000
00010000
00100000
00000000
00001000
00010000
00001000
00000000
00000000
00000000
,
00000010
00000100
00001000
00000010
00000100
00000001
00000011
00000000
,
00000010
00000100
00000010
00000100
00010000
00001000
00101000
00000000
,
00100000
00000000
00010000
00100000
01000000
00000000
10000000
00100000
01000000
00000000
00010000
00100000
01000000
00000000
00010000
00000000
,
00001000
00010000
00001000
00000010
00000000
00000011
00000110
00000000
,
00000100
00010000
00000010
00001000
00000001
00000100
00000110
00000000
,
00000010
00001000
00010000
00001000
00010000
01000000
01100000
00000000
,
00100000
00000000
01000000
00010000
00100000
00000000
00010000
00100000
00001000
00000000
00010000
00001000
00010000
00000000
00000000
00000000
,
00000010
00000100
00001000
00010000
00000000
00011000
00101000
00000000
,
00100000
01000000
10000000
00100000
01000000
10000000
00010000
00100000
,
01000000
00001000
00010000
00100000
01000000
00001000
00010000
00100000
,
00001000
00010000
00000100
00001000
00010000
00000100
00001000
00010000
,
00001000
00000100
00000010
00000001
00001000
00000010
00000110
00000000
,
00002001
00000100
00000001
00000010
,
00023000
00000000
01000000
00000000
10000000
00000000
00130000
01000000
,
00010000
00001000
00000100
00001000
00010000
00001000
00000010
00001000
,
00010000
00001000
00010000
00001000
00010000
00001000
00010000
00001000
00010000
00001000
00010000
00001000
00010000
00001000
00010000
00000000
,
00000010
00000000
00001000
00000010
00001000
00000000
00000100
00001000
00000100
00000000
00000010
00000001
00001000
00000000
00000010
00000000
,
00010000
00000000
00001000
00010000
00001000
00000000
01000000
00010000
00100000
00000000
01000000
10000000
00010000
00000000
01000000
00000000
,
00010000
00000000
00100000
00010000
00100000
00000000
00001000
00010000
00000100
00000000
00001000
00000010
00001000
00000000
00000001
00000000
,
00000010
00000000
00000100
00000000
00000010
00000000
00000001
00000000
00000100
00000010
00001000
00000001
00000100
00000000
00000000
00000000
,
00001000
00000000
00010000
00001000
00010000
00000000
00001000
00100000
00010000
00000000
01000000
00100000
10000000
00000000
01000000
00000000
,
00100000
00000000
00010000
01000000
00001000
00000000
00010000
00001000
00010000
00000000
00000100
00001000
00000001
00000000
00000100
00000000
,
00000001
00000000
00000010
00000000
00000100
00001000
00000100
00001000
00000100
00000000
00010000
00000000
00001000
00010000
00001000
00010000
,
00001000
00000000
01000000
00000000
00010000
01000000
00010000
00000000
10000000
00100000
10000000
00000000
00010000
00100000
00001000
00010000
,
00002000
00000000
00000000
00000000
00000000
00000000
00000000
00000000
00000000
00000000
00000000
00000000
00000000
00000000
00003000
00000010
,
00000100
00000000
00000000
00000000
,
00002002
00000000
00003003
00000000
,
00010000
00001000
00010000
00001000
00010000
00001000
00010000
00001000
00010000
00001000
00010000
00001000
00010000
00001000
00010000
00001000
,
01000000
00010000
00100000
01000000
10000000
00100000
01000000
00000000
,
00100000
00010000
00001000
00010000
00001000
00000100
00000001
00000000
,
00000010
00000000
00000100
00001000
00000100
00000000
00000010
00000001
00000010
00000000
00000100
00001000
00000100
00000000
00010000
00001000
,
00200000
00000000
00000000
00000000
00010000
00000000
00000000
00000000
00310000
00000000
00100000
01000000
10000000
00000000
00000000
00000000
,
00010000
01000000
20000000
00000000
31000000
00010000
10000000
00100000
,
01000000
00000000
00001000
00010000
00001000
00000000
00000010
00000000
00000100
00000000
00010000
00001000
00010000
00000000
00100000
00000000
,
01000000
00010000
01000000
00000000
00100000
10000000
00100000
00000000
01000000
00001000
00010000
00000000
00000010
00000000
00001000
00000000
,
00000001
00000010
00000001
00000010
00000100
00001000
00000001
00001000
00000100
00000000
00000010
00000000
00000110
00000000
00000000
00000000
,
00000001
00000100
00000010
00001000
00000001
00000000
00000000
00000000
00000000
00000000
00000010
00000000
00001000
00000000
00010000
00000000
,
00100000
00010000
00001000
01000000
00000000
01100000
00000000
00000000
,
10000000
01000000
00100000
00010000
10000000
00000000
00000000
00000000
00000000
00000000
00100000
00000000
00010000
00000000
00001000
00000000
,
00000010
00001000
00010000
00000100
00000000
00000110
00000000
00000000
,
00000001
00000100
00000010
00001000
00000001
00000000
00000000
00000000
00000010
00000000
00001000
00000000
00010000
00000000
00001000
00000000
,
00000100
00001000
00010000
00001000
00100000
00000000
01100000
00000000
,
10000000
01000000
00100000
00010000
10000000
00000000
00000000
00000000
00100000
00000000
00010000
00000000
00001000
00000000
00010000
00000000
,
01000000
00010000
00001000
00010000
00000010
00000000
00000110
00000000
,
00000000
00000000
00000000
00000000
00000000
00000000
00000000
00000000
00001000
00010000
00001000
00010000
00001000
00010000
00001000
00010000
,
00000010
00000000
00001000
00000010
00001000
00000000
00000001
00000010
00000001
00000000
00001000
00000010
00000100
00000000
00001000
00000000
,
00010000
00000000
00001000
00010000
00001000
00000000
00100000
00010000
00100000
00000000
01000000
10000000
00010000
00000000
01000000
00000000
,
00001000
00000000
00010000
00001000
00010000
00000000
00000010
00001000
00000010
00000000
00000100
00000001
00001000
00000000
00000100
00000000
,
00000010
00000001
00000010
00000000
00000100
00001000
00000100
00000000
00010000
00001000
00100000
00001000
00010000
00000000
00001000
00000000
,
01000000
00000000
00010000
01000000
00010000
00000000
10000000
00100000
10000000
00000000
00010000
00100000
01000000
00000000
00010000
00000000
,
00001000
00000000
00010000
00000100
00010000
00000000
00000100
00001000
00000100
00000000
00010000
00000010
00001000
00000000
00000100
00000000
,
00000110
00000000
00000000
00000000
00010000
00000100
00001000
00000100
00020000
00000000
00000000
00000000
00031000
01000000
00010000
01000000
,
00002000
00000000
00000000
00000000
00013000
00000010
00001000
00000010
00010000
00001000
00010000
00001000
00100000
00001000
00010000
00001000
,
00200000
00000000
00000000
00000000
,
00000000
00000000
00000000
00000000
,
00300000
00000000
00000000
00000000
;
