#VERSION:0.83;
#TITLE:m1dy Deluxe;
#SUBTITLE:;
#ARTIST:m1dy;
#TITLETRANSLIT:;
#SUBTITLETRANSLIT:;
#ARTISTTRANSLIT:;
#GENRE:TOKYO STYLE SPEEDCORE;
#CREDIT:;
#MUSIC:m1dy Deluxe.ogg;
#BANNER:m1dy Deluxe.png;
#BACKGROUND:m1dy Deluxe-bg.png;
#CDTITLE:./CDTitles/bm IIDX 21 SPADA.png;
#SAMPLESTART:14.543;
#SAMPLELENGTH:15.000;
#SELECTABLE:YES;
#OFFSET:0.085;
#BPMS:0.000=410.000
,214.000=205.000
,218.000=410.000
,402.000=205.000
,434.000=410.000
,568.000=205.000
,569.000=410.000
,575.000=205.000
,576.000=410.000
,582.000=205.000
,583.000=410.000
,589.000=205.000
,590.000=410.000
;
#STOPS:92.000=0.878
,434.000=0.146
,435.000=0.146
,436.000=0.146
,437.000=0.146
,560.000=0.585
,614.000=0.732
,739.000=0.585
;
#TIMESIGNATURES:0.000=4=4,
92.000=2=4,
94.000=4=4,
566.000=3=4,
569.000=4=4,
573.000=3=4,
576.000=4=4,
580.000=3=4,
583.000=4=4,
587.000=3=4,
590.000=4=4,
614.000=3=4,
617.000=4=4
;
#BGCHANGES:-4.000=m1dy Deluxe.mp4=1.000=0=0=0=StretchNoLoop====,
99999.000=-nosongbg-=1.000=0=0=0=StretchNoLoop====
;
#FGCHANGES:;

//--------------- dance-single - forcednature ----------------
#NOTEDATA:;
#STEPSTYPE:dance-single;
#DESCRIPTION:forcednature;
#DIFFICULTY:Beginner;
#METER:6;
#RADARVALUES:0,0,0,0,0;
#CREDIT:forcednature;
#NOTES:
0000
0000
0000
0000
,
0000
0000
0000
0000
,
0000
0000
0000
0000
,
0000
0000
0000
0000
,
0000
0000
0000
0000
,
0000
0000
0000
0000
,
0000
0000
0000
0000
,
0000
0000
0000
0000
,
0000
0000
0000
0000
,
0002
0000
0000
0000
,
0000
0000
0000
0000
,
0000
0000
0000
0000
,
0000
0000
0000
0000
,
0000
0000
0000
0000
,
0000
0000
0000
0000
,
0000
0000
0000
0000
,
0003
0000
0000
0000
,
2002
0000
0000
0000
,
0000
0000
0000
0000
,
0000
0000
0000
0000
,
0000
0000
0000
0000
,
0000
0000
0000
0000
,
0000
0000
0000
0000
,
3003
0000
1000
0000
,
0000
0000
0000
0000
,
0000
0000
0010
0000
,
0000
0000
0010
0000
,
0000
0000
0100
0000
,
0000
0000
0000
0000
,
0000
0000
0001
0000
,
0000
0000
0000
0000
,
0000
0000
0010
0000
,
0000
0000
0010
0000
,
0000
0000
0010
0000
,
0000
0000
0000
0000
,
0000
0000
0100
0000
,
0000
0000
1000
0000
,
0000
0000
0001
0000
,
0000
0000
0000
0000
,
0000
0000
0100
0000
,
0000
0000
0100
0000
,
0000
0000
0100
0000
,
0000
0000
0010
0000
,
0000
0000
1000
0000
,
0000
0000
1000
0000
,
0000
0000
1000
0000
,
0000
0000
0001
0000
,
0000
0000
0010
0000
,
0000
0000
0010
0000
,
0000
0000
0010
0000
,
0000
0000
0100
0000
,
0000
0000
1000
0000
,
0000
0000
1000
0000
,
0000
0000
0002
0000
,
0000
0000
0003
0000
,
0000
0000
0100
0000
,
0000
0000
0100
0000
,
0000
0000
0010
0000
,
0000
0000
1000
0000
,
0000
0000
1000
0000
,
0000
0000
1000
0000
,
0000
0000
0100
0000
,
0000
0000
0010
0000
,
0000
0000
0010
0000
,
0000
0000
0010
0000
,
0000
0000
0001
0000
,
0000
0000
0100
0000
,
0000
0000
0100
0000
,
0000
0000
0220
0000
,
0000
0000
0330
0000
,
0000
0000
1000
0000
,
0000
0000
0100
0000
,
0000
0000
1000
0000
,
0000
0000
0100
0000
,
0000
0000
0010
0000
,
0000
0000
0001
0000
,
0000
0000
0010
0000
,
0000
0000
0001
0000
,
0000
0000
0100
0000
,
0000
0000
0010
0000
,
0000
0000
0100
0000
,
0000
0000
0010
0000
,
0000
0000
1000
0000
,
0000
0000
0001
0000
,
0000
0000
0010
0000
,
0010
0000
0010
0000
,
0000
0000
0100
0000
,
0000
0000
1000
0000
,
0000
0000
0100
0000
,
0000
0000
1000
0000
,
0000
0000
0010
0000
,
0000
0000
0100
0000
,
0000
0000
0010
0000
,
0000
0000
0100
0000
,
0000
0000
1001
0000
,
0000
0000
0000
0000
,
0000
0000
0110
0000
,
0000
0000
0000
0000
,
0000
0000
0001
0000
,
0000
0000
1000
0000
,
0000
0000
0020
0000
,
0030
0000
0100
0000
,
0000
0000
0001
0000
,
0000
0000
0010
0000
,
0000
0000
0001
0000
,
0000
0000
1000
0000
,
1000
0000
0100
0000
,
0100
0000
0010
0000
,
0001
0000
0200
0000
,
0000
0000
0301
0000
,
0000
0000
0001
0000
,
0000
0000
0010
0000
,
0000
0000
0100
0000
,
0000
0000
1000
0000
,
0000
0000
1000
0000
,
0000
0000
0010
0000
,
0000
0000
0100
0000
,
0000
0000
0001
0000
,
0000
0000
0001
0000
,
0000
0000
1000
0000
,
0000
0000
0100
0000
,
0000
0000
0010
0000
,
0000
0000
0010
0000
,
0000
0000
0001
0000
,
0001
0000
0001
0000
,
0000
0000
0100
0000
,
0000
0000
0010
0000
,
0000
0000
0100
0000
,
0000
0000
0010
0000
,
0000
0000
1000
0000
,
0000
0000
0001
0000
,
0000
0000
1000
0000
,
0000
0000
0001
0000
,
0000
0000
0010
0000
,
0000
0000
0010
0000
,
0000
0000
0100
0000
,
0000
0000
0100
0000
,
0000
0000
1000
0000
,
0000
0000
0001
0000
,
0000
0000
0020
0000
,
0030
0000
0001
0000
,
0000
0001
0000
0000
,
0000
1000
0000
0000
,
1000
0000
0000
0000
,
0010
0000
0000
0010
,
0000
0000
0000
0100
,
0000
0000
0100
0000
,
0000
0000
0001
0000
,
0001
0000
0001
0000
,
0000
0000
0010
0000
,
0010
0000
0010
0000
,
0000
0000
0100
0000
,
1000
0000
0100
0000
,
0000
0000
1001
0000
,
0000
1000
0000
0000
,
0000
1000
0000
0000
,
0000
0010
0000
0000
,
0000
0100
0000
0000
,
0000
0001
0000
0000
,
0000
1000
0000
0000
,
0000
0100
0000
0000
,
0000
1000
0000
0000
,
0000
0001
0000
0000
,
0000
0010
0000
0000
,
0000
0100
0000
0000
,
0000
1000
0000
0000
,
0000
0001
0000
0000
,
0000
0100
0000
0000
,
0000
0010
0000
0010
,
0000
0010
0000
0000
,
0000
1000
0000
0000
,
0000
0001
0000
0000
,
0000
0100
0000
0000
,
0000
0001
0000
0000
,
0000
1000
0000
0000
,
0000
0100
0000
0000
,
0000
1000
0000
0000
,
0000
0001
0000
0000
,
0000
1001
0000
0000
,
0000
0000
0000
0000
,
0000
0110
0000
0000
,
0000
0000
0000
0000
,
0000
1001
0000
0000
,
0000
0000
0000
0000
,
0000
0110
0000
0000
,
0000
1001
0000
0000
;

//--------------- dance-single - forcednature ----------------
#NOTEDATA:;
#STEPSTYPE:dance-single;
#DESCRIPTION:forcednature;
#DIFFICULTY:Easy;
#METER:10;
#RADARVALUES:0,0,0,0,0;
#CREDIT:forcednature;
#NOTES:
0000
0000
0000
0000
,
0000
0000
0000
0000
,
0000
0000
0000
0000
,
0000
0000
0000
0000
,
0000
0000
0000
0000
,
0000
0000
0000
0000
,
0000
0000
0000
0000
,
0000
0000
0000
0000
,
0000
0000
0000
0000
,
0002
0000
0000
0000
,
0000
0000
0000
0000
,
0000
0000
0000
0000
,
0000
0000
0000
0000
,
0000
0000
0000
0000
,
0000
0000
0000
0000
,
0000
0000
0000
0000
,
2000
0000
3003
0000
,
2002
0000
0000
0000
,
0000
0000
0000
0000
,
0000
0000
0000
0000
,
0000
0000
0000
0000
,
0000
0000
0000
0000
,
0000
0000
3003
0000
,
0220
0330
0000
0000
0001
0000
0000
0000
,
0001
0000
0100
0000
,
0000
0000
0010
0000
,
0010
0000
1000
0000
,
0000
0000
0001
0000
,
0010
0000
0100
0000
,
0000
0000
1000
0000
,
0010
0000
0100
0000
,
0000
0000
0001
0000
,
0001
0000
1000
0000
,
0100
0000
1000
0000
,
1000
0000
0001
0000
,
0010
0000
0100
0000
,
1000
0000
0010
0000
,
0100
0000
0001
0000
,
0000
0001
0000
0000
,
0010
0000
0001
0000
,
0100
0000
0001
0000
,
0100
0000
0010
0000
,
1000
0000
0001
0000
,
0000
0000
1000
0000
,
0100
0000
1000
0000
,
0100
0000
0010
0000
,
0001
0000
1000
0000
,
0000
0000
0010
0000
,
0100
0000
0010
0000
,
0100
0000
0001
0000
,
1000
0000
0100
0000
,
0000
0000
0010
0000
,
0001
0000
0010
0000
,
0001
0000
0200
0000
,
0000
0000
0310
0000
,
0010
0000
0010
0000
,
0010
0000
0010
0000
,
0010
0000
1000
0000
,
0000
0000
0100
0000
,
0100
0000
0100
0000
,
0100
0000
0100
0000
,
0100
0000
0010
0000
,
0000
0000
0001
0000
,
0001
0000
0001
0000
,
0001
0000
0001
0000
,
0001
0000
0100
0000
,
0000
0000
0010
0000
,
0010
0000
0010
0000
,
0010
0000
1000
0000
,
0000
0001
0000
0000
,
0010
0000
0100
0000
,
1000
0000
0100
0000
,
1000
0000
0010
0000
,
0100
0000
0001
0000
,
0010
0000
0100
0000
,
1000
0000
0100
0000
,
1000
0000
0010
0000
,
0100
0000
0001
0000
,
0010
0000
0001
0000
,
0100
0000
0001
0000
,
0100
0000
0010
0000
,
1000
0000
0100
0000
,
0010
0000
0001
0000
,
0100
0000
0001
0000
,
0100
0000
0010
0000
,
0000
1000
0000
0000
,
0001
0000
0010
0000
,
0100
0000
1000
0000
,
0100
0000
0010
0000
,
0100
0000
1000
0000
,
0001
0000
0100
0000
,
0010
0000
1000
0000
,
0010
0000
0100
0000
,
0010
0000
1000
0000
,
0000
0000
2002
0000
,
0000
0000
0000
0000
,
3003
0000
0220
0000
,
0000
0000
0000
0000
,
0330
0000
1001
0000
,
1000
0000
0100
0000
,
0010
0000
2002
0000
,
3003
0000
0001
0000
,
0001
0100
0001
0000
,
0010
0100
1000
0000
,
1000
0010
1000
0000
,
0001
0010
0100
0100
,
1000
1000
0100
1000
,
0001
0100
0010
0010
,
1000
1000
0002
0023
,
0230
2300
3001
0000
,
0100
0000
0010
0000
,
0100
0000
0001
0100
,
0001
0000
0100
0000
,
0010
0000
1000
0000
,
0100
0000
0010
0000
,
0100
0000
1000
0100
,
1000
0000
0100
0000
,
0010
0000
0001
0000
,
1000
0000
0010
0000
,
1000
0000
0001
1000
,
0001
0000
1000
0000
,
0010
0000
1000
0000
,
0001
0000
0100
0000
,
0001
0000
0010
0000
,
0100
0000
0220
0000
,
0330
0000
1001
0000
,
0000
1000
0100
0000
,
0000
0000
1001
0000
,
0000
0001
0100
0000
,
0000
0000
1001
0000
,
0000
1000
0010
0000
,
0000
0000
1001
0000
,
0000
0001
0010
0000
,
0010
0000
0110
0000
,
1000
0000
0010
0000
,
0100
0000
0001
0000
,
0010
0000
0100
0000
,
1000
0000
0010
0000
,
0100
0000
0001
0000
,
0010
0000
2002
0000
,
3003
0000
1000
0000
,
0100
1000
0000
0000
,
0002
0103
0000
0001
,
1000
0000
0000
0002
,
0013
0000
0100
1000
,
0000
0000
0020
1030
,
0000
0001
0100
0000
,
0000
0002
0013
0000
,
0100
0000
1000
0100
,
1000
0000
0010
0000
,
0100
0000
0001
0100
,
0001
0000
1000
0000
,
0010
0000
1000
0001
,
1000
0000
0000
0000
2002
3003
0000
0000
,
0000
0001
0000
0010
,
0000
0100
0000
0010
,
0000
0001
0010
0001
,
0000
1000
0000
0100
,
0000
1000
0000
0010
,
0000
0100
0000
0010
,
0000
1000
0010
1000
,
0000
0001
0000
0100
,
0000
0001
0000
1000
,
0000
0100
0000
1000
,
0000
0001
1000
0001
,
0000
0010
0000
0001
,
0000
0100
0000
0010
,
0000
1000
0000
0010
,
0000
0100
0000
0100
,
0001
0000
0001
0010
,
0000
0001
0000
1000
,
0000
0100
0000
1000
,
0000
0001
1000
0001
,
0000
0010
0000
0100
,
0000
1000
0000
0001
,
0000
0100
0000
0001
,
0000
1000
0001
1000
,
0000
0010
0000
0100
,
0000
0220
0000
0000
,
0000
0330
0000
0001
,
0000
2002
0000
0000
,
0000
3003
0000
0100
,
0000
0110
0000
1000
,
0000
0001
0000
0010
,
0000
0220
0000
0330
,
0000
2002
0000
3003
;

//--------------- dance-single - forcednature ----------------
#NOTEDATA:;
#STEPSTYPE:dance-single;
#DESCRIPTION:forcednature;
#DIFFICULTY:Medium;
#METER:14;
#RADARVALUES:0,0,0,0,0;
#CREDIT:forcednature;
#NOTES:
0000
0000
0000
0000
,
0000
0000
0000
0000
,
0000
0000
0000
0000
,
0000
0000
0000
0000
,
0000
0000
0000
0000
,
0000
0000
0000
0000
,
0000
0000
0000
0000
,
0000
0000
0000
0000
,
0000
0000
0000
0000
,
0002
0000
0000
0000
,
0000
0000
0003
0000
,
0200
0000
0000
0000
,
0000
0000
0300
0000
,
0020
0000
0000
0000
,
0000
0000
0030
0000
,
2000
0000
0000
0000
,
0002
0000
3003
0000
,
2002
0000
0000
0000
,
0000
0000
0000
0000
,
0000
0000
0000
0000
,
0000
0000
0000
0000
,
0000
0000
0000
0000
,
0000
0000
0000
3003
,
0220
0330
0000
0000
1000
0000
0100
0000
,
1000
0010
0000
0100
,
0001
0000
0011
0000
,
1000
0000
0001
0100
,
1000
0000
0100
0001
,
1000
0001
0000
0100
,
0010
0000
1000
0100
,
0001
0000
0100
1000
,
0001
0000
0010
0100
,
0010
0100
1000
0100
,
1000
0000
0010
0100
,
0001
0100
0010
1000
,
0001
0000
0010
0100
,
1000
0010
0100
0001
,
0010
0000
1001
0000
,
1000
1100
0000
0001
,
0020
0000
0031
0100
,
0010
0100
0001
0100
,
0010
0100
0001
1000
,
0010
0100
0001
1000
,
0010
0000
1000
0100
,
0010
0100
1000
0100
,
0010
0100
1000
0001
,
0010
0100
1000
0001
,
0100
0000
0010
1000
,
0001
1000
0010
1000
,
0001
1000
0100
0010
,
0001
0100
0010
1000
,
0100
0000
0010
0001
,
1000
0001
0010
0001
,
1000
0010
0220
0000
,
0030
0000
0301
1000
,
0100
0001
0100
1000
,
0100
0001
0100
1000
,
0001
0010
0100
1000
,
0001
0000
1000
0001
,
0100
1000
0100
0001
,
0100
1000
0100
0001
,
1000
0010
0100
0001
,
0010
0000
0100
1000
,
0010
0001
0010
1000
,
0010
0001
0010
1000
,
0010
0100
0001
1000
,
0100
0000
0010
0001
,
0100
0001
0010
0001
,
1000
0001
0100
0000
,
0010
1010
0000
0001
,
0200
0000
0301
0010
,
0100
1000
0001
0010
,
0100
1000
0001
0100
,
0010
1000
0010
0100
,
0001
0000
1000
0100
,
0010
0001
1000
0100
,
0010
0001
1000
0010
,
0100
0001
0100
0010
,
1000
0000
0001
0010
,
0100
1000
0001
0010
,
0100
1000
0001
0100
,
0010
1000
0010
0100
,
0001
0000
1000
0100
,
1000
0001
0100
0001
,
0010
0000
0110
0000
,
1000
1100
0000
0001
,
0010
0000
0001
0100
,
0010
0100
1000
0100
,
0010
0100
0001
1000
,
0010
0100
0001
1000
,
0010
0000
1000
0100
,
0010
0100
0001
0100
,
0010
0100
1000
0001
,
0010
0100
0010
0001
,
1000
0000
1002
0000
,
0100
0000
0100
0000
,
0013
0000
2001
0000
,
0100
0000
0100
0000
,
3010
0000
1001
0000
,
1000
0100
0010
0001
,
0100
0000
0220
0000
,
0330
0000
0000
0000
1000
0100
0000
1000
,
0100
1000
0010
0100
0001
0100
0000
0001
,
0010
0001
1000
0010
1000
0001
0000
0100
,
0010
1000
0010
0100
0001
0010
0000
0100
,
1000
0001
0100
0001
0010
0000
0011
0000
,
0101
0101
1010
1010
,
1001
0000
0001
0010
0100
0000
0110
0000
,
1100
0000
0000
0001
0010
0000
0001
0000
0200
0000
0000
0000
0320
0000
0000
0000
,
2030
3002
0013
0100
,
0100
1000
0100
0100
,
0010
0100
0100
1000
,
0100
0100
0010
0001
,
1000
0010
0100
0001
,
0001
1000
0001
0001
,
0100
0001
1000
0010
,
0100
0010
1000
0001
,
0010
0100
1000
0010
,
0010
0100
0010
0010
,
1000
0010
0010
0100
,
0010
0010
1000
0001
,
0100
0010
1000
0001
,
0001
0010
0001
0001
,
1000
0100
0020
0000
,
0001
0000
0002
0000
,
0033
0000
0202
0000
,
0303
0000
2020
0000
,
3030
0000
2200
0000
,
3300
0000
0022
0000
,
0033
0000
2002
0000
,
3003
0000
2200
0000
,
3300
0000
2020
0000
,
3030
0000
0102
0000
,
0013
0000
0001
0100
,
0001
0100
0020
0000
,
1030
0000
0001
0010
,
0001
0010
0200
0000
,
1300
0000
0001
0100
,
0010
0100
0001
1000
,
0010
0000
2002
0000
,
3003
0000
1000
0100
,
0010
0000
0000
0010
0000
0000
0001
0000
,
0200
0301
0010
0100
,
0000
0100
0000
0000
1000
0000
0020
0000
,
1030
0000
0001
0000
0010
0000
0000
0010
,
0000
0100
2000
3001
,
0100
0000
0010
0000
0000
0010
0000
0000
,
1000
0002
0013
0100
,
0010
0000
0000
0100
0000
0000
1000
0000
,
0001
1000
0010
0100
,
0010
0000
0000
0100
0000
0000
0001
0000
,
1000
0001
0010
0100
,
1000
0010
0100
0001
,
0010
0000
0000
0000
2002
3003
0000
0000
,
0000
1000
0100
0010
,
0100
1000
0010
0100
,
0001
0010
1000
0010
,
0001
1000
0010
0100
,
0000
0001
0010
0100
,
0010
0001
0100
1000
,
0100
0001
1000
0010
,
0100
0001
1000
0100
,
0000
0010
0001
0100
,
0001
1000
0010
1000
,
0100
0010
0001
1000
,
0010
0001
0010
1000
,
0000
0001
0100
0001
,
0010
0100
1000
0010
,
0000
0110
0000
0001
,
0011
0000
1000
0200
,
0000
1300
0010
0100
,
0010
0001
0010
0100
,
0010
1000
0001
0100
,
1000
0100
0001
1000
,
0000
0001
0010
0100
,
0010
1000
0010
0100
,
0010
0001
1000
0100
,
0001
0100
1000
0010
,
0000
0210
0000
0001
,
0001
0001
0000
0310
,
0000
0120
0000
1000
,
1000
1000
0000
0130
,
0000
1001
0000
1000
,
0100
0020
0000
0031
,
0000
2002
0000
3003
,
0000
0220
0000
0330
;

//--------------- dance-single - forcednature assist by extraordiberry ----------------
#NOTEDATA:;
#STEPSTYPE:dance-single;
#DESCRIPTION:forcednature assist by extraordiberry;
#DIFFICULTY:Hard;
#METER:17;
#RADARVALUES:0,0,0,0,0;
#CREDIT:forcednature assist by extraordiberry;
#NOTES:
0000
0000
0000
0000
,
0000
0000
0000
0000
,
0000
0000
0000
0000
,
0000
0000
0000
0000
,
0000
0000
0000
0000
,
0000
0000
0000
0000
,
0000
0000
0000
0000
,
0000
0000
0000
0000
,
0000
0000
0000
0000
,
2000
0000
0000
0000
,
0000
0000
3000
0000
,
0200
0000
0000
0000
,
0000
0000
0300
0000
,
0020
0000
0000
0000
,
0000
0000
0030
0000
,
0002
0000
0000
0000
,
0200
0000
0303
0000
,
2002
0000
0000
0000
,
0000
0000
0000
0000
,
0000
0000
0000
0000
,
0000
0000
0000
0000
,
0000
0000
0000
0000
,
0000
0000
0000
3003
,
0220
0330
0000
0000
1000
0000
0100
0000
,
1000
0000
0010
0000
0100
0010
0100
0000
,
0001
0000
0011
0000
,
0010
0000
0100
0010
0001
0000
0001
0000
,
1000
0000
0000
0010
0100
0000
0001
0000
,
0100
0000
0010
0000
1000
0100
1000
0000
,
0001
0000
0000
0010
0100
0000
0010
0100
,
0010
0001
1000
0100
,
1100
0000
0001
0010
,
0100
0010
0001
0100
,
1000
0100
0001
1000
,
0010
1000
0001
0010
,
0100
0000
0010
0100
1000
0000
0010
0000
,
0100
0010
1000
0100
,
0001
0000
0100
0000
1000
0000
0001
0100
,
0010
0000
0110
0000
0000
1000
0010
0000
,
0200
0000
0301
0010
,
0100
0000
0010
0000
0001
1000
0100
0000
,
0010
0000
0100
1000
0001
0000
0100
0000
,
0010
0100
0010
0100
0010
0000
1000
0000
,
0001
0000
0010
0001
0010
0000
0100
0000
,
1000
0000
0100
0000
1000
0010
0100
0000
,
0001
0000
0100
0010
0100
0000
0010
0000
,
1000
0000
0001
0000
0010
0100
1000
0100
,
0010
0001
1000
0010
,
0100
0000
0010
0000
1000
0001
0100
0000
,
0010
0000
1000
0100
0010
0000
0100
0000
,
0010
0000
0001
0000
0100
0010
0100
0010
,
1000
0000
0101
0001
,
0010
0001
0100
0010
,
1000
0001
1000
0001
0020
0000
0000
0000
,
0000
0000
0000
0000
0130
0000
0010
0001
,
0100
0000
0010
1000
0100
0000
0010
0001
,
0100
0000
0010
1000
0100
0000
0001
0000
,
0100
1000
0010
0010
,
0100
0000
0010
0000
1000
0000
0100
1000
,
0010
0000
0100
0001
0010
0000
0100
1000
,
0010
0000
0100
0001
0010
0000
0100
0000
,
0001
0000
0100
0000
1000
0001
1000
0001
,
0010
0000
0100
0000
0100
0000
0010
0001
,
0100
0000
0010
1000
0100
0000
0010
0001
,
0100
0000
0010
1000
0100
0000
0010
0001
,
0010
0001
0010
0000
0100
1000
0100
0000
,
1000
0000
0010
0000
0100
0010
0100
0000
,
0100
0001
0100
0000
0001
0010
0001
0010
,
0100
1000
2020
3030
,
0010
0000
0000
0000
0202
0000
0000
0303
0000
0000
0001
0000
0010
0000
0001
0000
,
0020
0000
0130
0001
,
0100
1000
0100
0001
,
0100
1000
0100
0001
,
0100
0000
1000
0000
0001
0100
0001
0100
,
0010
1000
0010
0000
0100
0000
1000
0000
,
0100
0001
0100
1000
,
0100
0001
0100
1000
,
0100
0000
0001
0000
0010
0001
0010
0001
,
1000
0100
1000
0000
0010
0000
0001
0000
,
0010
1000
0010
0001
,
0010
1000
0010
0001
,
0010
0000
1000
0000
0001
0010
0100
0010
,
0100
1000
0100
0000
0010
0000
0001
0000
,
0010
1000
0010
0001
,
0010
0000
1000
0010
0002
0000
0000
0000
,
0103
0220
0330
0010
,
1001
0000
2100
0100
,
0001
0001
0010
0010
,
0001
0000
3001
0000
1000
0100
1000
0000
,
0100
0010
0100
0000
0010
0001
0010
0000
,
0001
0010
0100
1000
0002
0000
0100
0000
,
1000
1000
0010
0010
,
1000
0000
1003
0000
0001
0100
0001
0000
,
0100
0010
0100
0000
0001
1000
0001
1000
,
0020
0030
0102
0000
,
1000
0000
0010
0010
,
0013
0000
2100
0000
,
0001
0000
0010
0010
,
3010
0000
0000
0000
0001
0000
0100
0001
,
0010
0000
0100
0000
0010
0001
0010
0001
,
1000
0100
1000
0000
2002
0000
0000
0000
,
3003
0000
0000
0000
1000
0200
0000
1300
,
0010
0100
0010
0100
0001
0020
0000
0130
,
0010
0001
1000
0010
0100
0002
0000
0013
,
0100
0010
0100
1000
0010
0200
0000
0301
,
0010
0001
1000
0010
0110
0000
0101
0000
,
0110
0101
0011
1100
,
0011
1100
1010
1001
,
1010
0000
0000
0001
0100
0000
0110
0000
0002
0000
0000
0000
0023
0000
0000
0000
,
0230
0000
2300
0000
3010
0000
0010
0100
,
0001
0000
0001
0100
0010
0000
0010
1000
,
0001
0000
0001
1000
0010
0000
0010
0100
,
0001
0000
0001
0100
0010
0000
0010
1000
,
0001
0000
0001
0000
0010
0000
0010
0100
,
1000
0000
1000
0100
0010
0000
0010
0001
,
1000
0000
1000
0001
0010
0000
0010
0100
,
0001
0000
0001
0100
1000
0000
1000
0000
,
0010
0000
0100
0001
1000
0000
1000
0100
,
0010
0000
0010
0100
1000
0000
1000
0100
,
0001
0000
0001
0100
1000
0000
1000
0001
,
0010
0000
0010
0001
1000
0000
0010
0000
,
0010
0000
0100
0000
0001
0000
0001
0010
,
1000
0000
1000
0010
0001
0000
0001
0100
,
1000
0000
1000
0100
0001
0000
0100
0010
,
0100
0010
2000
0000
,
0000
0000
3000
0000
0022
0000
0000
0030
,
0000
0103
0220
0300
,
1030
0000
0000
0000
2200
0000
0000
0300
,
0000
3010
0220
0030
,
0301
0000
0000
0000
0022
0000
0000
0030
,
0000
1003
2020
3000
,
0130
0000
0000
0000
2002
0000
0000
0003
,
0000
0000
3001
0000
1010
0000
0000
0100
,
0010
0100
0101
0001
,
0011
0010
0110
0100
,
1100
1000
1010
0010
,
0110
0100
0101
0001
,
0011
0010
1100
0010
,
0101
1000
1010
0001
,
0011
0100
2002
0000
,
3003
0000
0000
0000
1000
0100
1000
0100
,
0010
0000
0100
1000
0000
1000
0001
0000
,
0020
0000
0031
0100
0001
0100
0010
0000
,
0100
0001
0000
0001
1000
0000
0020
0000
,
1030
0100
1000
0100
0010
0000
0100
1000
,
0000
1000
0001
0000
0020
0000
0031
0100
,
0001
0100
0010
0000
0100
0001
0000
0001
,
1000
0000
0020
0000
0130
0001
0100
0001
,
1000
0000
0010
0100
0000
0001
0010
0000
,
0110
0000
1000
0000
0100
1000
0100
1000
,
0001
0000
0010
0100
0000
1000
0010
0000
,
0110
0000
0001
0000
0010
0001
0010
0001
,
1000
0000
0010
0100
0000
0001
0010
0000
,
1001
0000
0100
0000
0220
0330
0000
0000
,
0000
0000
1000
0000
0100
1000
0010
0000
,
0100
0001
0000
0010
0001
0000
2000
0000
,
0000
3000
0001
0000
0010
0100
0010
0001
,
1000
0000
0010
0100
0001
0000
1000
0000
,
0100
1000
0100
0000
0010
0001
1000
0000
,
0010
0000
0100
0010
0100
0000
0001
0000
,
0010
0000
0001
0000
0001
1000
0010
0000
,
0100
0000
0001
0010
0100
1000
0002
0000
,
0203
0000
0310
0000
1000
0001
0010
0000
,
0100
0010
0001
1000
0010
0000
0200
0000
,
0001
0000
0301
0000
1000
0010
0100
0010
,
1000
0000
0001
1000
0010
0000
0100
0000
,
0010
1000
0001
0000
0010
0100
0010
0000
,
0001
0000
1000
0010
0100
0001
2000
0000
,
3200
0000
0320
0000
0000
0031
1000
0010
,
0200
0000
0301
0010
0100
1000
0002
0000
,
0000
0000
0103
0000
0010
1000
0010
0000
,
0100
0000
0001
1000
0100
1000
0001
0000
,
0010
0000
0100
0000
0010
0001
1000
0001
,
0010
0000
0100
1000
0100
1000
0001
0000
,
0100
0010
0100
0001
,
1000
0000
0010
0100
0010
0000
1000
0000
,
0001
0010
0100
0000
0010
0001
1000
0001
,
1000
0000
0100
0010
0100
0010
0002
0000
,
0003
2001
0000
0100
,
0000
0100
0000
0000
3010
0000
1010
0000
,
0000
1002
0000
0100
,
0000
0100
0000
0000
0013
0000
0011
0000
,
0000
0210
0000
1000
,
1000
1000
0000
0310
,
0000
2002
0000
3003
,
0000
0220
0000
0330
;

//--------------- dance-double - forcednature ----------------
#NOTEDATA:;
#STEPSTYPE:dance-double;
#DESCRIPTION:forcednature;
#DIFFICULTY:Easy;
#METER:10;
#RADARVALUES:0,0,0,0,0;
#CREDIT:forcednature;
#NOTES:
00000000
00000000
00000000
00000000
,
00000000
00000000
00000000
00000000
,
00000000
00000000
00000000
00000000
,
00000000
00000000
00000000
00000000
,
00000000
00000000
00000000
00000000
,
00000000
00000000
00000000
00000000
,
00000000
00000000
00000000
00000000
,
00000000
00000000
00000000
00000000
,
00000000
00000000
00000000
00000000
,
00020000
00000000
00000000
00000000
,
00000000
00000000
00000000
00000000
,
00000000
00000000
00000000
00000000
,
00000000
00000000
00000000
00000000
,
00000000
00000000
00000000
00000000
,
00000000
00000000
00000000
00000000
,
00000000
00000000
00000000
00000000
,
00002000
00000000
00033000
00000000
,
00022000
00000000
00000000
00000000
,
00000000
00000000
00000000
00000000
,
00000000
00000000
00000000
00000000
,
00000000
00000000
00000000
00000000
,
00000000
00000000
00000000
00000000
,
00000000
00000000
00033000
00000000
,
00200000
00300000
00000000
00000000
00010000
00000000
00000000
00000000
,
00010000
00000000
01000000
00000000
,
00000000
00000000
00100000
00000000
,
00100000
00000000
10000000
00000000
,
00000000
00000000
01000000
00000000
,
00100000
00000000
00001000
00000000
,
00000000
00000000
00010000
00000000
,
00000100
00000000
00000010
00000000
,
00000000
00000000
00000001
00000000
,
00000001
00000000
00000100
00000000
,
00000010
00000000
00001000
00000000
,
00001000
00000000
00000100
00000000
,
00010000
00000000
00001000
00000000
,
00001000
00000000
00100000
00000000
,
00010000
00000000
01000000
00000000
,
00000000
01000000
00000000
00000000
,
00100000
00000000
10000000
00000000
,
01000000
00000000
10000000
00000000
,
01000000
00000000
00100000
00000000
,
00001000
00000000
00010000
00000000
,
00000000
00000000
00000100
00000000
,
00001000
00000000
00000100
00000000
,
00001000
00000000
00000001
00000000
,
00000100
00000000
00000010
00000000
,
00000000
00000000
00001000
00000000
,
00000100
00000000
00001000
00000000
,
00000100
00000000
00010000
00000000
,
00001000
00000000
00100000
00000000
,
00000000
00000000
00010000
00000000
,
01000000
00000000
00010000
00000000
,
01000000
00000000
02200000
00000000
,
00000000
00000000
03300000
00000000
,
10000000
00000000
10000000
00000000
,
10000000
00000000
10000000
00000000
,
01000000
00000000
00100000
00000000
,
00000000
00000000
00010000
00000000
,
00010000
00000000
00010000
00000000
,
00010000
00000000
00010000
00000000
,
01000000
00000000
00001000
00000000
,
00000000
00000000
00010000
00000000
,
00010000
00000000
00010000
00000000
,
00010000
00000000
00010000
00000000
,
00000100
00000000
00001000
00000000
,
00000000
00000000
00000010
00000000
,
00000010
00000000
00000010
00000000
,
00000010
00000000
00000100
00000000
,
00000000
00000001
00000000
00000000
,
00000010
00000000
00000100
00000000
,
00001000
00000000
00000100
00000000
,
00001000
00000000
00000010
00000000
,
00010000
00000000
00001000
00000000
,
00000000
00000000
00100000
00000000
,
00010000
00000000
00100000
00000000
,
00010000
00000000
01000000
00000000
,
00100000
00000000
10000000
00000000
,
00000000
00000000
01000000
00000000
,
00100000
00000000
01000000
00000000
,
00100000
00000000
00001000
00000000
,
00010000
00000000
00000100
00000000
,
00000000
00000000
00001000
00000000
,
00000010
00000000
00001000
00000000
,
00000010
00000000
00000100
00000000
,
00000000
00000100
00000000
00000000
,
00000001
00000000
00000010
00000000
,
00000100
00000000
00000010
00000000
,
00000100
00000000
00001000
00000000
,
00000010
00000000
00010000
00000000
,
00000000
00000000
00001000
00000000
,
00100000
00000000
00001000
00000000
,
00100000
00000000
00010000
00000000
,
01000000
00000000
00100000
00000000
,
00000000
00000000
20020000
00000000
,
00000000
00000000
00000000
00000000
,
30030000
00000000
02200000
00000000
,
00000000
00000000
00000000
00000000
,
03300000
00000000
00011000
00000000
,
00000000
00000000
00001000
00000000
,
00010000
00000000
00022000
00000000
,
00033000
00000000
00000100
00000000
,
00000100
00001000
00000010
00000000
,
00000100
00000001
00000100
00000000
,
00000001
00001000
00000010
00000000
,
00010000
00001000
00100000
00100000
,
00010000
00010000
00100000
01000000
,
10000000
00100000
01000000
01000000
,
00010000
00010000
00200000
00302000
,
00023000
00030200
00001300
00000000
,
00000100
00000000
00001000
00000000
,
00000100
00000000
00001000
00000000
,
00000010
00000000
00000100
00000000
,
00000001
00000000
00000010
00000000
,
00000100
00000000
00000010
00000000
,
00000100
00000000
00001000
00000000
,
00000010
00000000
00010000
00000000
,
00001000
00000000
00100000
00000000
,
00010000
00000000
00100000
00000000
,
00010000
00000000
01000000
00000000
,
00100000
00000000
10000000
00000000
,
01000000
00000000
00100000
00000000
,
00010000
00000000
00100000
00000000
,
00010000
00000000
01000000
00000000
,
00001000
00000000
00020000
00000000
,
00030000
00000000
00011000
00000000
,
00000000
00000000
00011000
00000000
,
00000000
00000000
00010100
00000000
,
00000000
00000000
00101000
00000000
,
00000000
00000000
00010010
00000000
,
00000000
00000000
01001000
00000000
,
00000000
00000000
00101000
00000000
,
00000000
00000000
00010010
00000000
,
00000000
00000000
00010000
00000000
,
00001000
00000000
01000000
00000000
,
00010000
00000000
00100000
00000000
,
01000000
00000000
10000000
00000000
,
00100000
00000000
01000000
00000000
,
00001000
00000000
00010000
00000000
,
00000010
00000000
00000220
00000000
,
00000330
00000000
00001000
00000000
,
00001000
00000100
00000000
00000000
,
00020000
00031000
00000000
00001000
,
00100000
00000000
00000000
00020000
,
01030000
00000000
01000000
00100000
,
00000000
00000000
20000000
31000000
,
00000000
01000000
00100000
00000000
,
00000000
00002000
00013000
00000000
,
00000100
00000000
00001000
00000100
,
00001000
00000000
00000001
00000000
,
00000010
00000000
00000100
00000010
,
00000100
00000000
00010000
00000000
,
00001000
00000000
00100000
00010000
,
00100000
00000000
00000000
00000000
20020000
30030000
00000000
00000000
,
00000000
00010000
00000000
01000000
,
00000000
00010000
00000000
00100000
,
00000000
00001000
00010000
00001000
,
00000000
00010000
00000000
00000100
,
00000000
00001000
00000000
00000010
,
00000000
00001000
00000000
00000001
,
00000000
00000100
00000010
00000100
,
00000000
00000010
00000000
00001000
,
00000000
00000100
00000000
00010000
,
00000000
00001000
00000000
00100000
,
00000000
00001000
00010000
00001000
,
00000000
01000000
00000000
00010000
,
00000000
00100000
00000000
01000000
,
00000000
10000000
00000000
00100000
,
00000000
01000000
00000000
01000000
,
00010000
00000000
00010000
00100000
,
00000000
00001000
00000000
00010000
,
00000000
00000100
00000000
00001000
,
00000000
00000100
00000010
00000100
,
00000000
00000010
00000001
00000000
,
00000000
00001000
00000000
00000010
,
00000000
00010000
00000000
00001000
,
00000000
00010000
00001000
00010000
,
00000000
00001000
00000000
00100000
,
00000000
20020000
00000000
00000000
,
00000000
00000000
00000000
30030000
,
00000000
02200000
00000000
00000000
,
00000000
00000000
00000000
03300000
,
00000000
10010000
00000000
00010000
,
00000000
00100000
00000000
00001000
,
00000000
00022000
00000000
00033000
,
00000000
00022000
00000000
00033000
;

//--------------- dance-double - forcednature ----------------
#NOTEDATA:;
#STEPSTYPE:dance-double;
#DESCRIPTION:forcednature;
#DIFFICULTY:Medium;
#METER:14;
#RADARVALUES:0,0,0,0,0;
#CREDIT:forcednature;
#NOTES:
00000000
00000000
00000000
00000000
,
00000000
00000000
00000000
00000000
,
00000000
00000000
00000000
00000000
,
00000000
00000000
00000000
00000000
,
00000000
00000000
00000000
00000000
,
00000000
00000000
00000000
00000000
,
00000000
00000000
00000000
00000000
,
00000000
00000000
00000000
00000000
,
00000000
00000000
00000000
00000000
,
00002000
00000000
00000000
00000000
,
00000000
00000000
00003000
00000000
,
00020000
00000000
00000000
00000000
,
00000000
00000000
00030000
00000000
,
00000200
00000000
00000000
00000000
,
00000000
00000000
00000300
00000000
,
00002000
00000000
00000000
00000000
,
00000002
00000000
00003003
00000000
,
00000220
00000000
00000000
00000000
,
00000000
00000000
00000000
00000000
,
00000000
00000000
00000000
00000000
,
00000000
00000000
00000000
00000000
,
00000000
00000000
00000000
00000000
,
00000000
00000000
00000000
00000330
,
00002002
00003003
00000000
00000000
00001000
00000000
00000100
00000000
,
00010000
00000000
00001000
00000000
,
00100000
00000000
00110000
00000000
,
00010000
00000000
01000000
00100000
,
10000000
00000000
01000000
10000000
,
00010000
00000000
00100000
00000000
,
00001000
00000000
00011000
00000000
,
00000100
00000000
00001000
00000001
,
00000010
00000000
00000001
00000100
,
00000001
00000100
00000010
00001000
,
00000010
00000000
00010000
00001000
,
00010000
00001000
00100000
00010000
,
00100000
00000000
01000000
10000000
,
01000000
10000000
00100000
01000000
,
00010000
00000000
10010000
00000000
,
00010000
00200000
00000000
00301000
,
00020000
00000000
00030100
00001000
,
00000100
00001000
00000001
00000010
,
00000001
00000010
00000100
00010000
,
00001000
00100000
01000000
10000000
,
00010000
00000000
10000000
00100000
,
10000000
00100000
01000000
00010000
,
01000000
00010000
10000000
00100000
,
01000000
00001000
00010000
00000010
,
00001000
00000000
00000001
00000010
,
00000100
00010000
00001000
00010000
,
00000100
00000010
00000001
00000100
,
00000010
00010000
00001000
00010000
,
00001000
00000000
00100000
00010000
,
01000000
00100000
10000000
01000000
,
00100000
00010000
02000000
00000000
,
00000000
00000000
03100000
10000000
,
01000000
10000000
00100000
10000000
,
01000000
10000000
00100000
00000000
,
00010000
00001000
00000000
00000100
,
00000001
00000000
00000010
00000001
,
00000100
00000001
00000010
00000001
,
00000100
00000001
00000010
00000000
,
00001000
00010000
00000000
00100000
,
10000000
00000000
01000000
10000000
,
00100000
10000000
01000000
10000000
,
00100000
10000000
01000000
00000000
,
00010000
00001000
00000000
00000010
,
00000001
00000000
00000100
00000001
,
00000010
00000001
00000100
00000001
,
00000010
00000100
00002000
00000000
,
00003010
00020000
00000000
00031000
,
02000000
00000000
03010000
00100000
,
00010000
00100000
00001000
00010000
,
00001000
00010000
00000100
00001000
,
00000100
00001000
00000001
00000010
,
00000100
00000000
00001000
00000010
,
00001000
00000010
00010000
00001000
,
00010000
00001000
01000000
00010000
,
01000000
00010000
10000000
00100000
,
01000000
00000000
00010000
00100000
,
00010000
00100000
00001000
00010000
,
00001000
00010000
00000100
00001000
,
00000100
00001000
00000001
00000010
,
00000100
00000000
00001000
00000010
,
00001000
00000010
00010000
00001000
,
00010000
00001000
01000000
00010000
,
00010000
00100000
00000000
01000000
,
20000000
00000000
30100000
01000000
,
00100000
01000000
00010000
00100000
,
00010000
00100000
00001000
00010000
,
00000100
00001000
00000010
00000100
,
00000001
00000000
00000010
00000100
,
00000010
00000100
00001000
00000010
,
00001000
00000010
00010000
00001000
,
01000000
00010000
00100000
01000000
,
10000000
00000000
10020000
00000000
,
01000000
00000000
00000000
00000000
,
00130000
00000000
00021000
00000000
,
00000100
00000000
00000000
00000000
,
00030010
00000000
00001001
00000000
,
00000001
00000010
00000100
00010000
,
00001000
00000000
00022000
00000000
,
00033000
00000000
00000000
00000000
00100000
00010000
00000000
01000000
,
00100000
01000000
00100000
10000000
01000000
10000000
00000000
00010000
,
00100000
00001000
00010000
00001000
00010000
00000100
00000000
00001000
,
00000010
00001000
00000010
00000100
00000001
00000010
00000000
00000100
,
00001000
00000100
00010000
00001000
00100000
00000000
00110000
00000000
,
01010000
01010000
10100000
10100000
,
10000000
01000000
00100000
00001000
00010000
00000000
00011000
00000000
,
00001100
00000000
00000000
00000100
00001000
00000000
00000010
00000000
00000200
00000000
00000000
00000000
00000302
00000000
00000000
00000000
,
00000023
00002030
00013000
01000000
,
00000000
01000000
10000000
00100000
,
00000000
00100000
00010000
00001000
,
00000000
00001000
00000100
00000001
,
00000010
00000000
00000100
00010000
,
00000000
00010000
00001000
00000010
,
00000000
00000010
00000001
00000100
,
00000010
00000100
00000010
00001000
,
00000100
00010000
00001000
00100000
,
00000000
00100000
00010000
01000000
,
00000000
01000000
00100000
00010000
,
00000000
00010000
00100000
10000000
,
01000000
00010000
00001000
00100000
,
00000000
00100000
00001000
00010000
,
00000000
00000100
00001000
00000010
,
00000010
00000100
00000002
00000000
,
00000003
00000000
00002002
00000000
,
00003003
00000000
00020200
00000000
,
00030300
00000000
02002000
00000000
,
03003000
00000000
20020000
00000000
,
30030000
00000000
00202000
00000000
,
00303000
00000000
00020020
00000000
,
00030030
00000000
00002002
00000000
,
00003003
00000000
00000110
00000000
,
00001001
00000000
00001000
00000100
,
00001000
00000100
00020000
00000000
,
00031000
00000000
00100000
00010000
,
00100000
00010000
02000000
00000000
,
03100000
00000000
10000000
01000000
,
10000000
01000000
00200000
00000000
,
00301000
00000000
00022000
00000000
,
00033000
00000000
00000100
00001000
,
00000010
00000000
00000000
00000010
00000000
00000000
00000100
00000000
,
00000002
00000013
00000100
00010000
,
00000000
00010000
00000000
00000000
00001000
00000000
00200000
00000000
,
00310000
00000000
01000000
00000000
00100000
00000000
00000000
00100000
,
00000000
10000000
00020000
00130000
,
00001000
00000000
00010000
00000000
00000000
00010000
00000000
00000000
,
00000100
00002000
00003010
00000100
,
00000001
00000000
00000000
00000001
00000000
00000000
00000010
00000000
,
00000100
00010000
00001000
00100000
,
00010000
00000000
00000000
00010000
00000000
00000000
01000000
00000000
,
00100000
10000000
01000000
00010000
,
00001000
00000000
00000000
00001000
00000000
00000000
00100000
00000000
,
00001000
00000000
00010000
00000000
00000200
00000300
00000000
00000000
,
00000000
00001000
00000001
00000100
,
00000001
00001000
00000010
00010000
,
00000000
00001000
00100000
00010000
,
01000000
00100000
10000000
01000000
,
00000000
00100000
00001000
00010000
,
00000100
00001000
00000010
00000100
,
00000000
00000001
00000010
00001000
,
00000010
00000001
00001000
00000100
,
00000000
00010000
00001000
01000000
,
00010000
00100000
01000000
10000000
,
00000000
00100000
01000000
00010000
,
00100000
00001000
00010000
00100000
,
00000000
01000000
00010000
10000000
,
01000000
00010000
00001000
00100000
,
00000000
00021000
00000000
00030100
,
00002000
00000000
00003010
00000200
,
00000000
00000301
00000010
00000001
,
00000010
00000100
00001000
00000100
,
00001000
00000010
00010000
00001000
,
01000000
00010000
00100000
01000000
,
00000000
10000000
00100000
10000000
,
00100000
01000000
00010000
01000000
,
00010000
00100000
00001000
00010000
,
00000100
00001000
00000010
00000100
,
00000000
00000210
00000000
00000001
,
00000000
00000001
00000000
00000310
,
00000000
00002010
00000000
00000100
,
00000000
00000100
00000000
00003001
,
00000000
00011000
00000000
01000000
,
00010000
00200000
00000000
01300000
,
00000000
20020000
00000000
30030000
,
00000000
02200000
00000000
03300000
;

//--------------- dance-double - forcednature assist by extraordiberry ----------------
#NOTEDATA:;
#STEPSTYPE:dance-double;
#DESCRIPTION:forcednature assist by extraordiberry;
#DIFFICULTY:Hard;
#METER:17;
#RADARVALUES:0,0,0,0,0;
#CREDIT:forcednature assist by extraordiberry;
#NOTES:
00000000
00000000
00000000
00000000
,
00000000
00000000
00000000
00000000
,
00000000
00000000
00000000
00000000
,
00000000
00000000
00000000
00000000
,
00000000
00000000
00000000
00000000
,
00000000
00000000
00000000
00000000
,
00000000
00000000
00000000
00000000
,
00000000
00000000
00000000
00000000
,
00000000
00000000
00000000
00000000
,
00002000
00000000
00000000
00000000
,
00000000
00000000
00003000
00000000
,
00200000
00000000
00000000
00000000
,
00000000
00000000
00300000
00000000
,
00020000
00000000
00000000
00000000
,
00000000
00000000
00030000
00000000
,
02000000
00000000
00000000
00000000
,
00200000
00000000
03300000
00000000
,
20020000
00000000
00000000
00000000
,
00000000
00000000
00000000
00000000
,
00000000
00000000
00000000
00000000
,
00000000
00000000
00000000
00000000
,
00000000
00000000
00000000
00000000
,
00000000
00000000
00000000
30030000
,
02200000
03300000
00000000
00000000
00010000
00000000
00100000
00000000
,
00001000
00000000
00010000
00000000
00001000
00010000
00000100
00000000
,
00001000
00000000
00001100
00000000
,
00000001
00000000
00000010
00000001
00001000
00000000
00001000
00000000
,
00000100
00000000
00000000
00010000
00001000
00000000
00100000
00000000
,
00010000
00000000
00100000
00000000
01000000
10000000
01000000
00000000
,
10000000
00000000
00000000
00100000
01000000
00000000
00100000
01000000
,
00010000
00000000
01000000
00000000
00000000
00001000
00010000
00000000
,
00011000
00000000
00000010
00001000
,
00000010
00000100
00000001
00000010
,
00000100
00000010
00000100
00010000
,
00001000
00100000
00010000
01000000
,
00100000
00000000
01000000
00100000
10000000
00000000
00010000
00000000
,
01000000
00010000
10000000
01000000
,
00010000
00000000
00001000
00000000
00010000
00000000
00001000
00010000
,
00000010
00000000
00001010
00000000
00000000
00001000
00000001
00000000
,
00000200
00000000
00000310
00010000
,
00000100
00000000
00000010
00000000
00000001
00001000
00000001
00000000
,
00000100
00000000
00000001
00001000
00000001
00000000
00000010
00000000
,
00000100
00000010
00000100
00000000
00010000
00000000
00001000
00000000
,
00100000
00000000
00000000
00010000
01000000
00000000
00100000
00000000
,
10000000
00000000
01000000
00000000
10000000
00010000
10000000
00000000
,
00100000
00000000
10000000
00010000
10000000
00000000
01000000
00000000
,
00100000
00000000
00001000
00000000
00010000
00001000
00010000
00000000
,
00000100
00001000
00000010
00000100
,
00000001
00000000
00000010
00000000
00000100
00001000
00000100
00000000
,
00010000
00000000
00001000
00010000
00001000
00000000
00100000
00000000
,
00010000
00000000
01000000
00000000
00100000
01000000
00100000
00000000
,
10000000
00000000
00000000
00010000
00100000
00000000
00001000
00000000
,
00010000
00001000
00010000
00000100
,
00001000
00000001
00001000
00000001
00000020
00000000
00000000
00000000
,
00000000
00000000
00000000
00000000
00000031
00000000
00000100
00000010
,
00001000
00000000
00000100
00010000
00001000
00000000
00100000
00010000
,
01000000
00000000
00100000
10000000
01000000
00000000
00010000
00000000
,
00001000
00010000
00100000
10000000
,
00010000
00000000
00000000
00000000
10000000
00000000
00100000
01000000
,
00010000
00000000
00100000
00001000
00010000
00000000
00000100
00001000
,
00000010
00000000
00000100
00000001
00000010
00000000
00001000
00000000
,
00010000
00001000
00000100
00000001
,
00001000
00000000
00000001
00000000
00000010
00000000
00000100
00001000
,
00000010
00000000
00001000
00000100
00010000
00000000
00001000
00100000
,
00010000
00000000
01000000
00100000
10000000
00000000
01000000
00100000
,
00010000
00000000
00100000
00000000
00001000
00010000
00001000
00000000
,
01000000
00000000
00010000
00000000
10000000
00100000
10000000
00000000
,
01000000
10000000
01000000
00000000
00100000
00010000
00100000
00010000
,
00100000
00001000
00022000
00033000
,
00000010
00000000
00002020
00000000
00003030
00000001
00000100
00000000
,
00000220
00000000
00000000
00000330
00000002
00000000
00000103
00000000
,
00002000
00003100
00000002
00000103
,
00002000
00003100
00000001
00000010
,
00001000
00000000
00010000
00000000
00001000
00100000
00001000
00100000
,
00010000
01000000
00010000
00000000
20000000
00000000
31000000
00000000
,
00020000
01030000
20000000
31000000
,
00020000
01030000
10000000
00100000
,
00010000
00000000
00001000
00000000
00000100
00000001
00000100
00000001
,
00001000
00000010
00001000
00000000
00000002
00000000
00000103
00000000
,
00020000
00030100
00000002
00000103
,
00020000
00030100
00000001
00000010
,
00001000
00000000
00010000
00000000
00100000
10000000
00100000
10000000
,
00010000
01000000
00010000
00000000
20000000
00000000
31000000
00000000
,
00002000
01003000
20000000
31000000
,
00002000
01003000
00200000
00000000
,
00301000
00020000
00000000
00030100
,
00001001
00000000
00000002
00000203
,
00000320
00002030
00023000
02030000
,
03200000
00000000
20300000
00000000
30010000
00100000
00010000
00000000
,
00100000
00001000
00010000
00000000
00001000
01000000
00010000
00000000
,
00100000
00010000
20000000
32000000
,
03200000
00320000
00032000
00003200
,
00000320
00000000
00000032
00000000
00001003
00000010
00001000
00000010
,
00000100
00000000
00000001
00000000
00001000
00000100
00010000
00000000
,
00000020
00000030
00002001
00000000
,
00000100
00000000
00000001
00000000
,
00000010
00000000
00023000
00000000
,
01000000
00000000
10000000
00000000
,
00100000
00000000
00000000
00000000
00031000
00000000
00000100
00001000
,
00000100
00000000
00000010
00000000
00000001
00001000
00000001
00001000
,
00000010
00000100
00000220
00000000
,
00000330
00000000
00000000
00000000
00000001
00000200
00000000
00000301
,
00000010
00001000
00000010
00001000
00010000
02000000
00000000
03100000
,
00010000
10000000
00100000
10000000
00010000
02000000
00000000
03100000
,
00010000
00100000
00010000
00001000
01000000
00020000
00000000
00130000
,
00001000
00010000
00000100
00001000
00001001
00000000
00000011
00000000
,
00000110
00010100
00011000
01001000
,
01010000
01100000
10100000
11000000
,
00101000
00000000
00000000
00000100
00010000
00000000
00000100
00000000
00002000
00000000
00000000
00000000
00003020
00000000
00000000
00000000
,
00000230
00000302
00000013
00000100
,
00010000
00001000
00000010
00000100
,
00010000
00001000
00000010
00000100
,
00010000
00000000
00001000
00000000
00100000
00000000
00010000
00100000
,
00010000
10000000
00100000
01000000
,
00001000
00010000
00100000
01000000
,
00001000
00000000
00010000
00000000
00100000
00000000
10000000
00100000
,
10000000
01000000
00010000
00001000
,
00000010
00000000
00000100
00000010
00000001
00000000
00000100
00000000
,
00001000
00010000
00001000
00000100
,
00000001
00001000
00000001
00000010
,
00001000
00010000
00001000
00010000
,
01000000
10000000
10000000
00100000
,
00010000
00001000
00010000
00100000
,
10000000
00000000
00010000
00000000
01000000
00000000
00100000
01000000
,
00100000
10000000
02000000
00000000
,
00000000
00000000
03000000
00000000
00220000
00000000
00000000
00300000
,
00000000
01030000
02002000
03000000
,
00013000
00000000
00000000
00000000
00022000
00000000
00000000
00003000
,
00000000
00030100
00002200
00000300
,
00003001
00000000
00000000
00000000
00000022
00000000
00000000
00000003
,
00000000
00000130
00002200
00000300
,
00003010
00000000
00000000
00000000
00022000
00000000
00000000
00030000
,
00000000
00000000
00103000
00000000
00110000
00000000
00000000
10000000
,
01000000
01000000
10000000
00100000
,
00010000
00001000
00000010
00000001
,
00000100
00001000
00010000
01000000
,
10000000
00100000
00010000
00001000
,
00000100
00000001
00000010
00001000
,
00010000
01000000
10000000
00100000
,
00010000
00000000
00022000
00000000
,
00033000
00000000
00000000
00000000
00000010
00001000
00000010
00000000
,
00000100
00000000
00000001
00000010
00000000
00000100
00010000
00000000
,
00002000
00000000
00103000
00010000
00100000
00000000
01000000
00000000
,
10000000
00100000
00000000
01000000
00001000
00000000
00020000
00000000
,
00030100
00001000
00000100
00000000
00000010
00000000
00000001
00000100
,
00000000
00000010
00010000
00000000
00002000
00000000
01003000
00010000
,
01000000
00000000
00100000
00000000
10000000
01000000
00000000
00100000
,
00001000
00000000
00020000
00000000
00030100
00001000
00000100
00000000
,
00000010
00000000
00000001
00000100
00000000
00000010
00010000
00000000
,
00001000
00000000
00100000
00000000
00010000
01000000
00010000
00000000
,
10000000
00000000
00100000
01000000
00000000
00010000
00100000
00000000
,
00001000
00000000
00010000
00000000
00000100
00001000
00000100
00000000
,
00000010
00000000
00000001
00000100
00000000
00000010
00001000
00000000
,
00000100
00000000
00010000
00000000
00022000
00033000
00000000
00000000
,
00000000
00000000
01000000
00000000
00010000
01000000
00010000
00000000
,
00100000
01000000
00000000
10000000
01000000
00000000
00020000
00000000
,
00000000
00030000
00001000
00000000
00010000
00000100
00001000
00000000
,
00000100
00000000
00000010
00000001
00001000
00000000
00000010
00000000
,
00000100
00000010
00000100
00000000
00000001
00001000
00000010
00000000
,
00010000
00000000
00001000
00100000
00010000
00000000
01000000
00000000
,
00100000
00000000
01000000
00000000
00010000
01000000
00010000
00000000
,
10000000
00000000
00100000
01000000
00010000
00100000
00002000
00000000
,
00023000
00000000
00030100
00000000
00001000
00000100
00000010
00000000
,
00000100
00001000
00000001
00000000
00000010
00000000
00000200
00000000
,
00010300
00000000
00001000
00000000
00100000
00010000
00100000
00000000
,
01000000
00000000
10000000
00010000
01000000
00000000
00100000
00000000
,
01000000
00010000
00100000
00000000
00001000
00010000
00001000
00000000
,
00010000
00000000
00000100
00001000
00000001
00000000
00000200
00000000
,
00000320
00000000
00002030
00000000
00000000
00003100
00010000
00000000
,
00002000
00000000
00003000
00100000
00010000
00100000
02000000
00000000
,
00000000
00000000
13000000
00000000
00100000
10000000
00100000
00000000
,
01000000
00000000
00010000
00100000
00001000
00000000
00010000
00000000
,
00000100
00000000
00010000
00000000
00001000
00010000
00000010
00000000
,
00001000
00000000
00000100
00001000
00000100
00001000
00000001
00000000
,
00000010
00001000
00000010
00000001
,
00000100
00000000
00000010
00001000
00000010
00000000
00010000
00000000
,
00001000
00100000
00010000
00000000
01000000
00100000
01000000
00100000
,
10000000
00000000
01000000
10000000
01000000
00100000
00020000
00000000
,
01030000
10020000
00000000
01000000
,
00000000
10000000
00000000
00100000
,
00000000
00032000
00000000
00000100
,
00000000
00000001
00000000
00000010
,
00000000
00023000
00000000
01000000
,
01000000
10000000
00000000
00100000
,
00000000
00002000
00000000
00033000
,
00000000
00022000
00000000
00033000
;
