#VERSION:0.83;
#TITLE:guerre à outrance;
#SUBTITLE:;
#ARTIST:Vivian;
#TITLETRANSLIT:;
#SUBTITLETRANSLIT:;
#ARTISTTRANSLIT:;
#GENRE:;
#CREDIT:;
#MUSIC:guerre a outrance.ogg;
#BANNER:guerre a outrance.png;
#BACKGROUND:guerre a outrance-bg.png;
#CDTITLE:./CDTitles/RB colette -Winter-.png;
#SAMPLESTART:26.349;
#SAMPLELENGTH:15.000;
#SELECTABLE:YES;
#OFFSET:0.637;
#BPMS:0.000=180.000;
#STOPS:;
#TIMESIGNATURES:0.000=4=4,
4.000=3=4,
52.000=7=4,
59.000=6=4,
65.000=4=4,
261.000=6=4,
279.000=7=4,
286.000=6=4,
292.000=4=4,
308.000=3=4
;
#BGCHANGES:0.000=../BGAs/21he.mp4=1.000=0=0=0=StretchNoLoop====,
99999.000=-nosongbg-=1.000=0=0=0=StretchNoLoop====
;
#FGCHANGES:;

//--------------- dance-single - forcednature ----------------
#NOTEDATA:;
#STEPSTYPE:dance-single;
#DESCRIPTION:forcednature;
#DIFFICULTY:Beginner;
#METER:4;
#RADARVALUES:0,0,0,0,0;
#CREDIT:forcednature;
#NOTES:
0000
0000
0000
0000
,
0000
0000
0000
0000
,
0000
0000
0000
0000
,
0000
0000
0000
0000
,
1000
0001
0000
0001
,
1000
0000
0000
0000
,
0000
0000
0000
0000
,
0010
0010
0000
0100
,
0010
0000
0000
0000
,
0000
0000
0000
0000
,
0100
0100
0000
0010
,
0100
0000
0000
0000
,
0000
0000
0000
0000
,
0001
0000
0001
0000
,
1000
0000
1000
0100
,
0000
0100
0000
1000
,
0000
0001
0000
0100
,
0000
0001
0000
0010
,
0000
1001
0000
0000
,
0000
0000
0000
0000
,
0000
0110
0000
0000
,
0000
0001
0000
1000
,
0000
0100
0000
1000
,
0000
0010
0000
0000
,
0000
1001
0000
0000
,
0000
1000
0000
0001
,
0000
0100
0000
0001
,
0000
0010
0000
0000
,
0000
0110
0000
0000
,
0000
1000
0000
1000
,
0000
0010
0000
0100
,
0000
0001
0000
0100
,
0000
0010
0000
1000
,
0000
0100
0000
1000
,
0000
0001
0000
0010
,
0000
1001
0000
0000
,
0000
2000
0000
3000
,
0000
0020
0000
0030
,
0000
0200
0000
0300
,
0000
0002
0000
0003
,
0000
2000
0000
3000
,
0000
0200
0000
0300
,
0000
2000
0000
3000
,
0000
0002
0000
0003
,
0000
0000
0010
0000
,
0100
0000
0001
0000
,
0100
0000
0010
0000
,
1000
0000
0100
0000
,
1000
0000
0010
0000
,
0100
0000
0001
0000
,
0010
0000
0001
0000
,
1000
0200
0000
0300
,
0000
0000
1000
0000
0000
1000
0000
0000
,
0010
0000
0000
0100
0000
0000
0000
0000
,
0000
0000
0001
0000
0000
0001
0000
0000
,
0010
0000
0000
0100
0000
0000
0000
0000
,
0000
0000
1001
0000
0000
1000
0000
0000
,
0001
0000
0000
1000
0000
0000
0100
0000
,
1001
0000
0000
0001
0000
0000
1000
0000
,
0000
0001
0000
0000
0100
0000
0110
0000
,
0000
0001
0000
0000
0010
0000
0000
0100
,
0000
0000
0010
0000
0110
0000
0000
1000
,
0000
0000
0010
0000
0000
0100
0000
0000
,
0001
0010
0010
0010
,
0010
0000
0220
0000
,
0330
1000
0000
1000
,
0000
0001
0000
0100
,
0000
0000
1001
0000
,
1000
0000
0001
0000
,
0010
0000
0000
1001
,
0000
1000
0000
0010
,
0000
0100
0001
0000
,
0010
0000
0100
0000
,
1001
0000
0100
0000
,
1001
0000
0010
0000
,
1001
0000
0110
0000
,
1001
0000
0110
0000
,
0001
1000
0000
1000
,
0001
0000
0001
1000
,
0000
0010
0010
0000
;

//--------------- dance-single - forcednature ----------------
#NOTEDATA:;
#STEPSTYPE:dance-single;
#DESCRIPTION:forcednature;
#DIFFICULTY:Easy;
#METER:8;
#RADARVALUES:0,0,0,0,0;
#CREDIT:forcednature;
#NOTES:
0000
0000
0000
0000
,
0000
0000
0000
0000
,
0000
0000
0000
0000
,
0000
0000
0000
0000
,
0100
1001
0000
0010
,
1001
0000
0000
0000
,
0000
0000
0000
0000
,
0001
0001
0100
0001
,
0010
0000
0001
0000
,
1000
0000
0001
0000
,
1000
1000
0010
1000
,
0100
0000
1000
0000
,
0010
0000
0100
0000
,
0001
0010
0100
0010
,
0001
1000
0100
1000
,
0010
0100
0010
1000
,
0001
1001
1000
0100
,
0010
1001
0001
0100
,
0010
1001
0000
0000
,
0000
0000
0000
0000
,
0000
0000
1100
0000
0000
0000
0000
0001
,
0000
0001
0020
0000
0030
0000
0200
0000
,
0300
0010
0001
0100
,
0010
0110
0010
1000
,
0001
0000
0101
0000
0000
0000
0000
1000
,
0000
1000
0020
0000
0030
0000
0200
0000
,
0300
1001
0001
0010
,
0100
0110
0000
1000
,
0000
0001
0100
0001
,
0010
0001
1000
0100
,
1000
0010
0100
0001
,
0100
0010
1000
0001
,
0010
0100
0010
0001
,
1000
0010
0100
0001
,
0100
0010
1000
0001
,
0010
2002
0000
0000
,
3003
2000
0000
0000
,
3100
0000
0010
0000
0000
0010
0000
0000
,
0001
0000
0100
0000
0000
0020
0000
0000
,
0000
0000
1030
0000
0000
0001
0000
0000
,
0010
0000
0001
0000
0000
1000
0000
0000
,
0100
0000
1000
0000
0000
0010
0000
0000
,
0100
0000
0001
0000
0000
1000
0000
0000
,
0100
0020
0000
0000
,
0030
0000
0000
0001
1000
0000
1000
0000
,
0010
0000
0000
1000
0001
0000
0001
0000
,
0010
0000
0000
0100
1000
0000
0001
0000
,
1000
0000
0000
0010
0100
0000
0001
0000
,
0100
0000
0000
0010
1000
0000
0001
0000
,
0010
0000
0000
0001
1000
0000
0100
0000
,
1000
0010
0100
0001
,
0100
0020
0000
0000
,
0030
0000
1001
0000
0000
0001
0000
0000
,
0110
0000
0000
1001
0000
0000
0000
0000
,
0000
0000
1001
0000
0000
1000
0000
0000
,
0110
0000
0000
2002
0000
0000
0000
0000
,
3003
0000
0001
1000
0000
0001
1000
0000
,
0100
1000
0000
0100
1000
0000
0010
0000
,
1000
0001
0000
1000
0001
0000
0100
0001
,
0000
0100
0001
0000
0010
0000
0001
0001
,
0000
1000
1000
0000
0010
0010
0000
0100
,
0100
0000
0001
0000
1000
1000
0000
0100
,
0100
0000
0010
0010
0000
0001
0001
0000
,
0100
1001
1001
1001
,
1001
0000
0220
0000
,
0330
0001
1000
0100
,
1000
0001
0010
0100
,
0010
0000
0001
0000
1001
0000
0000
0110
,
0000
1000
0010
1000
,
0001
0100
0010
0110
,
1000
0001
0010
0001
,
1000
0100
0110
1000
,
0001
0100
0010
1000
,
0110
0001
0100
0010
,
1001
1000
0100
0010
,
0110
1000
1001
0010
,
0110
0001
1001
0100
,
0110
1001
0000
0110
,
1001
0000
0110
1001
,
0000
1100
0101
0000
;

//--------------- dance-single - forcednature ----------------
#NOTEDATA:;
#STEPSTYPE:dance-single;
#DESCRIPTION:forcednature;
#DIFFICULTY:Medium;
#METER:10;
#RADARVALUES:0,0,0,0,0;
#CREDIT:forcednature;
#NOTES:
0000
0000
0000
0000
,
0000
0000
0000
0000
,
0000
0000
0000
0000
,
0000
0000
0000
0000
,
1100
2002
3003
0101
,
2002
3003
0000
0000
,
0000
0000
0000
0000
,
0001
0011
1000
1100
,
1001
0000
0001
0000
0010
0100
0010
0000
,
0100
0000
1000
0000
0010
1000
0010
0000
,
0100
0110
0001
0011
,
1001
0000
1000
0000
0100
1000
0100
0000
,
0010
0000
0001
0000
0100
0001
0100
0000
,
0020
2030
3200
0320
,
0032
0203
0320
2030
,
3200
0302
0203
2300
,
3020
0230
2300
3200
,
0302
0023
2030
3020
,
0031
1001
0000
0000
,
0000
0000
0000
0000
,
0000
0000
1100
0000
0000
0000
1000
0001
,
0000
0001
2000
0000
3010
0000
0002
0000
,
0013
1001
0001
0100
,
0010
1001
1000
0100
,
0010
0000
0110
0000
0000
0000
0001
0100
,
0000
0100
0002
0000
0013
0000
2000
0000
,
3010
1001
0001
0100
,
0010
1010
0000
0002
,
0003
0000
1000
0100
0000
1000
0010
0000
,
0100
0000
0001
0100
0000
0001
0010
0000
,
0100
0000
0010
0001
0000
0100
0001
0000
,
1000
0000
1100
0000
0001
0000
0010
0100
,
0010
0000
0000
0000
0001
0000
0000
0001
0000
0000
0100
0000
0000
0010
0000
0000
,
1000
0000
0000
0000
1001
0000
0000
0000
0001
0000
0010
0000
0000
0100
0000
0000
,
0010
0000
0001
1000
0001
0000
0100
0001
,
0100
0000
0000
0000
0010
0000
0000
0010
0000
0000
0010
0000
0000
0010
0000
0000
,
0000
2001
0000
0000
,
3200
0000
0320
0000
0000
0032
0000
0000
,
0203
0000
0320
0000
0000
2030
0000
0000
,
3000
0000
0102
0000
0000
2003
0000
0000
,
3020
0000
0230
0000
0000
0302
0000
0000
,
2003
0000
3200
0000
0000
0320
0000
0000
,
0032
0000
0203
0000
0000
0320
0000
0000
,
2030
3002
0000
0000
,
0003
0000
0000
1000
0100
0000
1100
0000
,
0010
1000
0000
0001
0100
0000
0101
0000
,
0001
0010
0000
0100
1000
0000
1010
0000
,
0010
0100
0000
0001
0010
0000
1001
0000
,
1000
0100
0000
0010
0001
0000
0101
0000
,
1000
0010
0000
0100
0001
0000
0011
0000
,
1000
0100
1000
0000
0010
0000
0110
0000
,
0001
1000
0001
0000
0010
0000
0110
0000
,
0000
0000
1000
0100
0000
1000
0010
0000
,
0100
0001
0000
0010
0001
0000
0100
0000
,
0100
0000
0001
0100
0000
0001
0010
0000
,
0100
1000
0000
0010
1000
0000
0200
0000
,
0000
0000
1300
1000
0000
0010
0010
0000
,
0001
0001
0000
0100
0100
0000
1001
0000
,
0001
0001
0000
0010
0010
0000
1000
1000
,
0000
0100
0100
0000
1001
0000
1000
1010
,
0000
0001
0011
0000
1000
1100
0000
0001
,
0101
0000
0110
0000
1000
1010
0000
0100
,
1100
0000
0001
0011
0000
0100
0101
0000
,
0110
1001
1001
1001
,
1001
0000
0220
0000
,
0330
0001
1000
0100
,
1000
0001
0010
0100
,
0010
0000
0001
0000
1001
0000
0000
0110
,
0000
0001
1000
0010
,
1000
0000
0001
1000
0001
1000
0010
0000
,
0100
0001
0100
0010
,
1000
0001
1001
1000
,
0100
0010
0100
1000
,
0011
1000
1010
0001
,
0101
0010
1001
0100
,
1010
0101
0011
1100
,
1010
1100
0101
0011
,
1001
1100
0010
1001
,
0101
0010
1001
1010
,
0100
0110
1001
0000
;

//--------------- dance-single - forcednature ----------------
#NOTEDATA:;
#STEPSTYPE:dance-single;
#DESCRIPTION:forcednature;
#DIFFICULTY:Hard;
#METER:14;
#RADARVALUES:0,0,0,0,0;
#CREDIT:forcednature;
#NOTES:
0000
0000
0000
0000
,
0000
0000
0000
0000
,
0000
0000
0000
0000
,
0000
0000
0000
0000
,
1001
0202
0303
0110
,
2002
3003
0001
0010
,
0001
0100
0020
0000
,
1030
0001
0101
0000
0010
0000
1000
0001
,
0011
0000
0100
0000
1000
0001
0010
0000
,
0100
0010
0001
0000
0010
0100
1000
0000
,
0001
1000
1010
0000
0100
0000
0001
1000
,
1100
0000
0010
0000
0001
1000
0100
0000
,
0010
0001
1000
0000
0020
0000
0000
0030
,
2001
3200
0320
0032
,
2003
0000
0000
0000
3020
0000
0000
0000
0130
0000
0000
0000
1001
0000
0000
0001
,
0010
0000
0000
0010
0100
0000
0000
0100
1000
0000
0000
1000
0010
0000
0000
0010
,
0100
0000
0000
0000
1001
0000
0000
1000
0100
0000
0000
0001
0100
0000
0000
1000
,
0010
0000
0000
0001
0010
0000
0000
1000
0100
0000
0000
0010
0001
0000
0000
0100
,
0010
0000
1001
0000
1000
0100
1000
0001
,
0010
0000
0100
1000
0010
0000
0100
0001
,
0010
0000
2001
0000
3100
0000
1000
0001
,
0000
0000
0010
0000
0100
0000
0000
0100
1000
0000
0000
0000
0001
0000
0000
0001
,
0010
2001
0010
3002
,
0013
0210
2300
3020
,
0130
0000
1002
0000
0103
0000
1000
0010
,
0000
0000
0100
0000
0001
0000
0000
0001
1000
0000
0000
0000
0100
0000
0000
0100
,
0010
2001
0010
3200
,
0310
1002
0100
0020
,
0033
0000
0010
0001
0100
0010
1000
0100
,
0010
0001
1000
0010
0100
0001
0010
0100
,
1000
0010
0100
0001
0010
0001
1000
0100
,
0001
0100
1000
0001
0100
0010
1000
0001
,
0010
0000
1000
0000
0010
0000
0000
0001
0000
0000
0100
0000
0000
1000
0000
0000
,
0100
0000
0001
0000
0010
0000
0000
0100
0010
0000
0100
0000
0000
1000
0000
0000
,
0010
0100
0001
0010
0001
0100
0010
1000
,
0100
0000
0010
0000
2001
0000
0000
0001
0000
0000
0001
0000
0000
0020
0000
0000
,
0000
3030
0102
0000
1000
0000
0013
0100
,
1000
0001
0020
0000
0031
0200
0000
0310
,
1000
0001
0020
0000
0130
2000
0000
3010
,
0100
0000
0002
0000
1003
0200
0000
0310
,
0002
0000
1003
0010
0100
2000
0000
3100
,
0002
0000
0013
0100
1000
0200
0000
0310
,
0002
0000
1003
0010
0100
0002
0000
0013
,
2000
0000
3010
0001
1000
0100
1000
0001
,
0100
0000
0110
1000
0010
1000
0100
0001
,
0100
1000
0000
0001
0010
0001
0100
1000
,
0100
0001
1000
0010
0100
0010
0001
0010
,
1000
0001
0000
0010
0100
0001
0100
1000
,
0001
0010
0000
0001
0100
1000
0100
0001
,
1000
0010
0000
1000
0100
0001
0100
1000
,
0001
0010
0100
1000
0010
0100
1000
0100
,
0001
1000
0010
0100
0001
0010
0200
0000
,
0000
0300
0000
0000
1000
0000
1100
0000
0000
0000
0001
0000
0011
0000
0000
0000
,
1000
1010
0000
0001
0101
0000
0010
0000
,
0010
0000
0100
1001
0000
0001
0011
0000
,
1000
1100
0000
0010
1001
0000
0200
0000
,
0300
0000
1001
1001
0000
1100
0110
0000
,
1100
1001
0000
0011
0101
0000
0110
0000
,
1001
1001
0000
0101
0110
0000
0101
1001
,
0000
0000
1010
0000
1100
0000
0000
0000
0110
0000
0000
0000
0001
0010
0001
0010
,
0000
0000
0100
1000
0100
1000
0000
0000
0010
1000
0010
0100
0000
0000
0001
0100
,
0010
0100
0000
0000
0110
0000
0000
0000
1000
0001
1000
0001
0000
0000
0010
0001
,
0010
0001
0000
0000
1000
0100
0010
0100
0000
0000
0010
0001
0010
0100
0000
0000
,
0110
1001
1001
1001
,
1001
0000
0220
0000
,
0330
0000
1001
0000
1000
0100
1000
0010
,
0100
0001
0010
0100
1000
0100
0010
0001
,
1000
0010
0100
0001
0011
0000
1000
1100
,
0000
1000
0001
0100
0010
1000
0100
1000
,
0001
0100
0010
1000
0001
0010
0110
0000
,
1000
0001
0100
0010
,
1000
0000
0000
0000
0001
0000
0000
0000
0011
0000
0000
1000
0100
0000
0000
0100
,
0010
0000
0000
0010
0001
0000
0000
0001
0100
0000
0000
0100
0010
0000
0000
0000
,
1001
0000
0000
0001
0100
0000
0000
1000
0100
0000
0000
0001
0010
0000
0000
1000
,
0010
0000
0000
0001
0100
0000
0000
0010
1000
0000
0000
0100
0010
0000
0000
0001
,
0100
0000
0010
1000
0010
0000
1000
0000
0100
0000
0010
0001
0010
0000
0100
0000
,
1000
0000
0001
1000
0001
0000
0100
0000
0020
0000
0000
0000
1030
0000
0000
0000
,
0001
1000
0100
0000
1100
0000
0000
0000
0000
0000
0000
0000
1000
0001
0100
0000
,
0101
0000
0000
0000
0000
0000
0000
0000
0001
0010
0100
0000
1100
0000
0000
0000
,
0000
0000
0000
0000
1000
0010
0100
0000
1001
0000
0000
0000
0000
0000
0000
0000
;

//--------------- dance-double - forcednature ----------------
#NOTEDATA:;
#STEPSTYPE:dance-double;
#DESCRIPTION:forcednature;
#DIFFICULTY:Easy;
#METER:8;
#RADARVALUES:0,0,0,0,0;
#CREDIT:forcednature;
#NOTES:
00000000
00000000
00000000
00000000
,
00000000
00000000
00000000
00000000
,
00000000
00000000
00000000
00000000
,
00000000
00000000
00000000
00000000
,
00001000
00011000
00000000
00010000
,
00011000
00000000
00000000
00000000
,
00000000
00000000
00000000
00000000
,
00000010
00000010
00001000
00000010
,
00000100
00000000
00000001
00000000
,
00000010
00000000
00000001
00000000
,
00001000
00001000
00000100
00010000
,
00001000
00000000
00100000
00000000
,
00010000
00000000
01000000
00000000
,
01000000
10000000
00100000
10000000
,
00010000
01000000
00001000
00010000
,
00000010
00001000
00000010
00000100
,
00000001
00001001
00001000
00000100
,
00010000
00011000
00001000
01000000
,
00010000
10010000
00000000
00000000
,
00000000
00000000
00000000
00000000
,
00000000
00000000
11000000
00000000
00000000
00000000
00000000
00010000
,
00000000
00010000
00200000
00000000
00300000
00000000
00002000
00000000
,
00003000
00010000
00000010
00001000
,
00000010
00000100
00000001
00001000
,
00000100
00000000
00000110
00000000
00000000
00000000
00000000
00001000
,
00000000
00001000
00000020
00000000
00000030
00000000
00020000
00000000
,
00030000
00011000
00001000
00100000
,
00010000
10010000
00000000
10000000
,
00000000
00100000
01000000
00010000
,
01000000
00001000
00010000
00000010
,
00010000
00000100
00001000
00000100
,
00000010
00000001
00000100
00000010
,
00001000
00000100
00000100
00010000
,
00001000
00100000
00100000
00010000
,
01000000
00100000
10000000
00010000
,
00100000
02000000
00000000
00000000
,
03000000
20000000
00000000
00000000
,
30010000
00000000
00100000
00000000
00000000
00100000
00000000
00000000
,
00001000
00000000
00010000
00000000
00000000
00000200
00000000
00000000
,
00000000
00000000
00001300
00000000
00000000
00001000
00000000
00000000
,
00000010
00000000
00000100
00000000
00000000
00000001
00000000
00000000
,
00000100
00000000
00000010
00000000
00000000
00001000
00000000
00000000
,
00000010
00000000
00010000
00000000
00000000
00010000
00000000
00000000
,
00001000
00200000
00000000
00000000
,
00300000
00000000
00000000
00010000
10000000
00000000
10000000
00000000
,
00100000
00000000
00000000
10000000
00010000
00000000
00010000
00000000
,
00100000
00000000
00000000
00001000
00010000
00000000
00000100
00000000
,
00010000
00000000
00000000
00000100
00001000
00000000
00000010
00000000
,
00001000
00000000
00000000
00000001
00000010
00000000
00000100
00000000
,
00000010
00000000
00000000
00000100
00001000
00000000
00000100
00000000
,
00010000
00001000
01000000
00010000
,
01000000
00200000
00000000
00000000
,
00300000
00000000
10010000
00000000
00000000
00010000
00000000
00000000
,
00100000
00000000
00000000
00011000
00000000
00000000
00000000
00000000
,
00000000
00000000
00011000
00000000
00000000
00000100
00000000
00000000
,
00000010
00000000
00000000
00002002
00000000
00000000
00000000
00000000
,
00003003
00000000
00001000
00000001
00000000
00001000
00000001
00000000
,
00001000
00000100
00000000
00001000
00000100
00000000
00010000
00000000
,
00001000
00010000
00000000
00001000
00010000
00000000
00001000
01000000
,
00000000
00001000
01000000
00000000
00010000
00000000
10000000
10000000
,
00000000
00100000
00100000
00000000
01000000
01000000
00000000
00010000
,
00010000
00000000
00100000
00000000
00001000
00001000
00000000
00010000
,
00010000
00000000
00000100
00000100
00000000
00001000
00001000
00000000
,
00000010
00001001
00001001
00001001
,
00001001
00000000
00000200
00000000
,
00000300
00011000
00000000
01000000
,
00010000
00100000
01000000
00100000
,
00010000
00000000
10000000
00000000
10010000
00000000
00000000
01100000
,
00000000
00010000
01000000
00001000
,
00010000
00000010
00001000
00001001
,
00000001
00000010
00000100
00000010
,
00000100
00010000
00011000
00001000
,
00100000
00010000
01000000
00100000
,
01100000
10000000
01000000
10000000
,
10010000
00010000
00100000
00001000
,
00011000
00000100
00001001
00000010
,
00000110
00000100
00011000
00010000
,
01100000
01100000
00000000
00011000
,
00011000
00000000
00000110
00000110
,
00000000
00001001
00001001
00000000
;

//--------------- dance-double - forcednature ----------------
#NOTEDATA:;
#STEPSTYPE:dance-double;
#DESCRIPTION:forcednature;
#DIFFICULTY:Medium;
#METER:10;
#RADARVALUES:0,0,0,0,0;
#CREDIT:forcednature;
#NOTES:
00000000
00000000
00000000
00000000
,
00000000
00000000
00000000
00000000
,
00000000
00000000
00000000
00000000
,
00000000
00000000
00000000
00000000
,
00011000
00022000
00033000
00101000
,
02020000
03030000
00000000
00000000
,
00000000
00000000
00000000
00000000
,
10000000
10100000
00010000
01010000
,
01001000
00000000
00001000
00000000
00010000
00001000
00010000
00000000
,
00000100
00000000
00001000
00000000
00000010
00001000
00000010
00000000
,
00000100
00000110
00000001
00000011
,
00001001
00000000
00001000
00000000
00000100
00001000
00000100
00000000
,
00010000
00000000
00001000
00000000
00100000
00010000
00100000
00000000
,
00002000
00023000
00032000
02003000
,
03020000
20030000
30200000
20300000
,
32000000
03200000
00302000
00023000
,
00030200
00000320
00000032
00000203
,
00000320
00002030
00003200
00020300
,
00031000
00011000
00000000
00000000
,
00000000
00000000
00000000
00000000
,
00000000
00000000
00110000
00000000
00000000
00000000
00010000
01000000
,
00000000
01000000
00200000
00000000
10300000
00000000
02000000
00000000
,
13000000
10010000
00010000
00100000
,
00001000
00011000
00000100
00001000
,
00000010
00000000
00000110
00000000
00000000
00000000
00000001
00001000
,
00000000
00001000
00000002
00000000
00000103
00000000
00000002
00000000
,
00000013
00000110
00001000
00000010
,
00010000
00011000
00000000
00200000
,
00300000
00000000
00010000
01000000
00000000
00100000
10000000
00000000
,
01000000
00000000
00100000
00001000
00000000
00010000
00000100
00000000
,
00001000
00000000
00000010
00000100
00000000
00000001
00001000
00000000
,
00000100
00000000
00011000
00000000
00100000
00000000
00010000
01000000
,
00010000
00000000
00000000
00000000
10000000
00000000
00000000
00100000
00000000
00000000
10000000
00000000
00000000
01000000
00000000
00000000
,
10000000
00000000
00000000
00000000
00010000
00000000
00000000
00000000
00100000
00000000
00010000
00000000
00000000
00100000
00000000
00000000
,
00001000
00000000
00010000
00000100
00010000
00000000
00000100
00001000
,
00000001
00000000
00000000
00000000
00000010
00000000
00000000
00000010
00000000
00000000
00000010
00000000
00000000
00000010
00000000
00000000
,
00000000
00001002
00000000
00000000
,
00000203
00000000
00000320
00000000
00000000
00020030
00000000
00000000
,
00032000
00000000
02003000
00000000
00000000
03200000
00000000
00000000
,
00300000
00000000
20000000
00000000
00000000
32000000
00000000
00000000
,
03200000
00000000
00302000
00000000
00000000
00023000
00000000
00000000
,
00030200
00000000
00000320
00000000
00000000
00000032
00000000
00000000
,
00000203
00000000
00002300
00000000
00000000
00023000
00000000
00000000
,
00230000
20300000
00000000
00000000
,
30000000
00000000
00000000
01000000
00100000
00000000
00010000
00000000
,
00100000
00001000
00000000
00010000
00001000
00000000
00010000
00000000
,
00000100
00001000
00000000
00000010
00000100
00000000
00000001
00000000
,
00000010
00000001
00000000
00001000
00000100
00000000
00010000
00000000
,
00001000
00010000
00000000
00001000
00100000
00000000
00010000
00000000
,
01000000
00010000
00000000
10000000
00100000
00000000
01000000
00000000
,
00100000
10000000
00100000
00000000
01000000
00000000
00001000
00000000
,
00010000
00001000
00010000
00000000
00000010
00000000
00002000
00000000
,
00003000
00000000
00000001
00000010
00000000
00000001
00000010
00000000
,
00000100
00000010
00000000
00000100
00010000
00000000
00001000
00000000
,
00001000
00000000
00100000
00010000
00000000
00100000
00010000
00000000
,
01000000
00100000
00000000
10000000
01000000
00000000
00200000
00000000
,
00000000
00000000
00310000
00010000
00000000
01000000
01000000
00000000
,
00001000
00001000
00000000
00010000
00010000
00000000
00011000
00000000
,
00000100
00000100
00000000
00001000
00001000
00000000
00000001
00000001
,
00000000
00000010
00000010
00000000
00001001
00000000
00000001
00000100
,
00000000
00001000
00010000
00000000
00100000
10000000
00000000
01000000
,
00010000
00000000
01100000
00000000
10000000
00100000
00000000
00010000
,
00001000
00000000
00000010
00000001
00000000
00000100
00001000
00000000
,
00000110
00001001
00001001
00001001
,
00001001
00000000
00022000
00000000
,
00033000
01000000
00010000
00100000
,
00010000
10000000
00100000
00010000
,
00001000
00000000
00010000
00000000
00011000
00000000
00000000
00011000
,
00000000
00000100
00001000
00000010
,
00001000
00000000
00000100
00000010
00000100
00000010
00000001
00000000
,
00000100
00000010
00001000
00000100
,
00010000
00001000
00011000
00100000
,
00010000
01000000
00100000
10000000
,
11000000
00010000
00110000
00001000
,
00011000
00000100
00001100
00000010
,
00000101
00000011
00000110
00010100
,
00011000
00101000
00110000
01010000
,
10100000
11000000
00000000
00101000
,
00010100
00000000
00000011
00000101
,
00000000
00010010
01001000
00000000
;

//--------------- dance-double - forcednature ----------------
#NOTEDATA:;
#STEPSTYPE:dance-double;
#DESCRIPTION:forcednature;
#DIFFICULTY:Hard;
#METER:14;
#RADARVALUES:0,0,0,0,0;
#CREDIT:forcednature;
#NOTES:
00000000
00000000
00000000
00000000
,
00000000
00000000
00000000
00000000
,
00000000
00000000
00000000
00000000
,
00000000
00000000
00000000
00000000
,
00011000
02002000
03003000
00011000
,
00020200
00030300
00000010
00001000
,
00000001
00000100
00002000
00000000
,
00013000
00100000
10000000
00000000
01000000
00000000
10000000
00100000
,
00010000
00001000
00000100
00000001
,
00000010
00000100
00010000
00000010
,
00001000
00000100
00000001
00000000
00000100
00000000
00001000
00000010
,
00000001
00000010
00001000
00010000
,
01000000
00000000
00100000
00000000
20000000
00000000
00000000
30000000
,
00210000
02300000
03020000
00032000
,
00003020
00000000
00000000
00000000
00000230
00000000
00000000
00000000
00001300
00000000
00000000
00000000
00001001
00000000
00000000
00000001
,
00000100
00000000
00000000
00000100
00000010
00000000
00000000
00000010
00001000
00000000
00000000
00001000
00010000
00000000
00000000
00010000
,
01000000
00000000
00000000
00000000
10010000
00000000
00000000
10000000
01000000
00000000
00000000
00100000
00001000
00000000
00000000
00010000
,
00000100
00000000
00000000
00001000
00000010
00000000
00000000
00000100
00000001
00000000
00000000
00000010
00000100
00000000
00000000
00001000
,
00000010
00011000
00100000
00010000
,
01000000
00001000
00010000
00100000
,
10000000
00000000
10020000
00000000
01030000
00000000
00010000
10000000
,
00000000
00000000
10000000
00000000
01000000
00000000
00000000
01000000
00010000
00000000
00000000
00000000
00001000
00000000
00000000
00001000
,
00100000
00012000
01000000
00023000
,
00030010
00001200
00020300
00030020
,
00001030
00000000
00001002
00000000
00000013
00000000
00000001
00000100
,
00000000
00000000
00000010
00000000
00001000
00000000
00000000
00001000
00000100
00000000
00000000
00000000
00010000
00000000
00000000
00010000
,
00001000
00201000
00010000
02300000
,
13000000
10020000
01000000
00200000
,
00330000
00000000
00001000
00010000
01000000
00100000
01000000
00010000
,
00001000
00000100
00000010
00001000
00000001
00000010
00000001
00001000
,
00000010
00000100
00001000
00010000
00100000
00010000
00001000
00000100
,
00000010
00001000
00000001
00000010
00000100
00010000
00001000
01000000
,
00100000
00000000
10000000
00000000
01000000
00000000
00000000
00010000
00000000
00000000
00001000
00000000
00000000
00010000
00000000
00000000
,
00000100
00000000
00001000
00000000
00000010
00000000
00000000
00000100
00000010
00000000
00000100
00000000
00000000
00000001
00000000
00000000
,
00000010
00001000
00010000
00000100
00010000
00001000
00100000
00001000
,
00010000
00000000
01000000
00000000
20000000
00000000
00000000
01000000
00000000
00000000
00010000
00000000
00000000
02000000
00000000
00000000
,
00000000
33000000
00120000
00000000
10000000
00000000
00130000
01000000
,
00020000
00000000
00032000
00000000
00003010
00000200
00000000
00000310
,
00000001
00000100
00000020
00000000
00001030
00000200
00000000
00010300
,
00001000
00000000
00200000
00000000
00310000
02000000
00000000
03100000
,
20000000
00000000
31000000
00010000
00001000
00020000
00000000
00030100
,
00002000
00000000
00003010
00000100
00000001
00000200
00000000
00001300
,
00020000
00000000
00130000
01000000
00010000
20000000
00000000
31000000
,
00200000
00000000
10300000
00100000
00010000
00100000
01000000
00000000
,
00010000
00000000
00011000
00000010
00001000
00000001
00000100
00000010
,
00001000
00000100
00000000
00010000
00001000
00100000
01000000
00010000
,
01000000
10000000
00000000
00100000
01000000
00100000
00010000
00001000
,
00010000
00000100
00000000
00000010
00001000
00010000
00000100
00010000
,
00000010
00001000
00000000
00000001
00000010
00001000
00010000
00000100
,
00001000
00000010
00000000
00000100
00001000
00010000
01000000
00010000
,
00001000
00100000
01000000
10000000
00100000
01000000
10000000
01000000
,
00010000
00100000
00001000
00010000
00000010
00000100
00002000
00000000
,
00003000
00000000
00000100
00000001
00000000
00000010
00001000
00000000
,
00010000
00100000
00000000
10000000
01000000
00000000
00100000
00000000
,
00100000
00000000
01000000
10000000
00000000
00100000
00010000
00000000
,
00001000
00000010
00000000
00000001
00000100
00000000
00000020
00000000
,
00000030
00000000
00000101
00000101
00000000
00000011
00000011
00000000
,
00001010
00001010
00000000
00011000
00011000
00000000
01010000
00000000
,
00110000
00110000
00000000
10100000
10100000
00000000
11000000
11000000
,
00000000
00000000
00110000
00000000
00110000
00000000
00000000
00000000
00011000
00000000
00000000
00000000
00000010
00001000
00000010
00001000
,
00000000
00000000
00000001
00000100
00000001
00000100
00000000
00000000
00000010
00010000
00000010
00010000
00000000
00000000
00001000
00010000
,
00001000
00010000
00000000
00000000
00011000
00000000
00000000
00000000
00100000
00010000
00100000
00010000
00000000
00000000
01000000
00100000
,
01000000
00100000
00000000
00000000
10000000
01000000
10000000
01000000
00000000
00000000
00100000
00001000
00100000
00001000
00000000
00000000
,
00011000
00001100
00001010
00001100
,
00001010
00000000
00000202
00000000
,
00000303
00000000
00001001
00000000
00001000
00000100
00010000
00001000
,
00100000
00010000
01000000
00100000
00010000
00001000
00010000
00100000
,
10000000
00010000
01000000
00100000
01100000
00000000
01000000
10010000
,
00000000
10000000
01000000
00010000
00001000
00100000
00010000
00100000
,
00001000
00000010
00000100
00001000
00000001
00000100
00000110
00000000
,
00001000
00000001
00000010
00001000
,
00010000
00000000
00000000
00000000
01000000
00000000
00000000
00000000
01100000
00000000
00000000
00010000
10000000
00000000
00000000
10000000
,
01000000
00000000
00000000
01000000
00010000
00000000
00000000
00010000
00001000
00000000
00000000
00001000
00000010
00000000
00000000
00000000
,
00000110
00000000
00000000
00001000
00000001
00000000
00000000
00000100
00000010
00000000
00000000
00010000
00000100
00000000
00000000
00100000
,
00010000
00000000
00000000
10000000
00100000
00000000
00000000
01000000
00010000
00000000
00000000
00100000
01000000
00000000
00000000
00010000
,
00001000
00000000
00010000
00000000
00000100
00001000
00000100
00000000
00000010
00000000
00000001
00000000
00000100
00000001
00000100
00000000
,
00000010
00000000
00001000
00000000
00000100
00010000
00001000
00000000
00100000
00000000
00010000
00000000
02000000
00000000
00000000
00000000
,
03100000
10000000
00100000
00000000
10100000
00000000
00000000
00000000
00000000
00000000
00000000
00000000
00001000
00010000
00001000
00000000
,
00011000
00000000
00000000
00000000
00000000
00000000
00000000
00000000
00000100
00001000
00000100
00000000
00001100
00000000
00000000
00000000
,
00000000
00000000
00000000
00000000
00000001
00000010
00000100
00000000
00001001
00000000
00000000
00000000
00000000
00000000
00000000
00000000
;
